#TITLE:Lawes's Parotia;
#ARTIST:BEMANI Sound Team "Yvya";
#ARTISTTRANSLIT:Yvya;
#BANNER:Lawes's Parotia.png;
#BACKGROUND:Lawes's Parotia-bg.png;
#JACKET:Lawes's Parotia-jacket.png;
#CDTITLE:./CDTITLES/BEATMANIA IIDX.PNG;
#MUSIC:Lawes's Parotia.ogg;
#SAMPLESTART:65.142;
#SAMPLELENGTH:15;
#BPMS:0=140;
#BGCHANGES:0=../../../BGAs/25cb.mp4=1=0=0=1=====;

//---------------dance-single - t7r----------------
#NOTES:
     dance-single:
     t7r:
     Beginner:
     2:
     :
0000
0000
0000
0000
,
0000
0000
0000
0000
,
0000
0000
0000
0000
,
0000
0000
0000
0000
,
0000
0000
0000
0000
,
0000
0000
0000
0000
,
1000
0000
0000
0000
,
0100
0000
0000
0000
,
0010
0000
0000
0000
,
0001
0000
0000
0000
,
0100
0000
0000
0000
,
0000
0000
0000
0000
,
0110
0000
0000
0000
,
0010
0000
0000
0000
,
1000
0000
0000
0000
,
0001
0000
0000
0000
,
0010
0000
0000
0000
,
0100
0000
0100
0000
,
0010
0000
0000
0000
,
0001
0000
0000
0000
,
1000
0000
0000
0000
,
0010
0000
0010
0000
,
0100
0000
0000
0000
,
0010
0000
0000
0000
,
1000
0000
0000
0000
,
0001
0000
0000
0000
,
0010
0000
0010
0000
,
0001
0000
0000
0000
,
1000
0000
1000
0000
,
0010
0000
0000
0000
,
0100
0000
0000
0000
,
0001
0000
0000
0000
,
0010
0000
0000
0000
,
0100
0000
1000
0000
,
0010
0000
0000
0000
,
0100
0000
0000
0000
,
0001
0000
0000
0000
,
1000
0000
0001
0000
,
1001
0000
1000
0000
,
0001
0000
0001
0000
,
0100
0000
0010
0000
,
0100
0000
0100
0000
,
0001
0001
0001
0000
,
1000
1000
1000
0000
,
0010
0000
0010
0000
,
0100
0000
0100
0000
,
0001
0000
1000
0000
,
0100
0100
0100
0000
,
0010
0000
0000
0010
,
0010
0000
0001
0000
,
1000
0000
1000
0000
,
0001
0000
0001
0000
,
0100
0000
0000
0000
,
0010
0000
0000
0000
,
1000
0000
1000
0000
,
0001
0000
0001
0000
,
0100
0000
0100
0000
,
0010
0010
0010
0000
,
1000
0000
1000
0000
,
0100
0000
0100
0000
,
0010
0000
0010
0000
,
0001
0001
0001
0000
,
1000
1000
1000
0000
,
0010
0000
0000
0000
,
0100
0000
0100
0000
,
0010
0010
0010
0000
,
1001
0000
0000
0000
;

//---------------dance-single - t7r----------------
#NOTES:
     dance-single:
     t7r:
     Easy:
     8:
     :
0000
0000
0000
0000
,
0000
0000
0000
0000
,
0000
0000
0000
0000
,
0000
0000
0000
0000
,
0000
0000
0000
0000
,
0000
0000
0000
0000
,
1000
0100
1000
1000
,
0001
0000
0100
0000
0001
0010
0001
0000
,
1000
0010
1000
1000
,
0001
0010
0100
1000
,
0020
0000
0100
0000
,
0100
0000
0130
0010
,
2002
3003
0000
0000
,
1000
0000
0000
0000
0100
0000
0000
0000
1000
0000
0000
1000
0000
0000
0000
0000
,
1001
0000
0001
0000
0100
0010
0100
0000
,
0001
0000
1000
0000
0100
0010
0100
0000
,
1000
0000
0001
0000
0100
0010
0100
0000
,
0001
0010
0100
1000
,
0110
0000
1000
0000
0001
1000
0001
0000
,
0010
0000
0001
0000
1000
0001
1000
0000
,
0010
0000
1000
0000
0001
1000
0001
0000
,
1000
0100
0001
0100
,
1000
0000
0000
0010
0000
0000
0100
0000
0000
0000
0000
0001
0000
0000
0010
0000
,
0000
0100
0000
0000
0000
0000
0010
0000
0000
0010
0000
0000
0001
0000
1000
0000
,
0001
0000
0000
0100
0000
0000
0010
0000
0000
0000
0000
1000
0000
0000
0100
0000
,
0000
0010
0000
0000
0000
0000
0001
0000
0000
0001
0000
0000
1000
0000
0001
0000
,
1000
0000
0000
0100
0000
0000
1100
0000
0000
0000
0000
0001
0000
0000
0100
0000
,
0000
0101
0000
0000
0000
0000
0100
0000
0000
0100
0000
0000
0001
0000
1000
0000
,
0001
0000
0000
0010
0000
0000
0011
0000
0000
0000
0000
1000
0000
0000
0010
0000
,
0000
1010
0000
0000
0000
0000
1000
0000
0000
0001
0000
0000
1000
0000
0010
0000
,
0200
0000
0000
0000
,
0302
0000
2003
3002
,
0023
0000
0230
2300
,
3002
0003
0200
0300
,
0020
1000
0000
1030
,
0200
0010
0000
0310
,
0002
0000
2003
0000
,
3020
0000
0030
1001
,
2000
3100
0010
0011
,
0001
0100
0020
1030
,
0002
0013
0100
1100
,
1000
0000
0000
1000
0000
0000
0001
0000
0002
0000
0000
0000
0003
0000
0000
0000
,
0100
1000
0100
0001
,
0100
0000
0000
0010
0000
0000
0100
0000
0020
0000
0000
0000
0030
0000
0000
0000
,
1000
0000
0000
0001
0000
0000
1000
0000
0020
0000
0000
0000
0030
0000
0000
0000
,
0100
0000
0000
0001
0000
0000
1000
0000
0200
0000
0000
0000
0300
0000
0000
0000
,
1000
0010
0001
0010
,
1000
0001
1000
0000
0010
0100
0010
0000
,
2000
0000
0100
0000
3001
0010
0001
0000
,
0100
0000
0000
0020
0000
0000
0130
0000
0001
0000
0000
1000
0000
0000
0001
0000
,
0010
0000
0000
0100
0000
0000
0010
0000
0002
0000
0000
0000
0003
0000
0000
0000
,
0100
0000
0000
0010
0000
0000
0100
0000
0002
0000
0000
0000
1003
0000
0000
0000
,
0020
0000
0000
0030
,
1000
0100
0001
0100
,
2000
3010
0100
0001
,
0020
0130
0010
0002
,
2003
3100
0010
0001
,
1000
0010
0001
0010
,
2000
0000
0000
3100
0000
1000
0000
0000
0000
1000
0000
0000
,
0002
0000
0000
0103
0000
0001
0000
0000
0000
0002
0000
0000
,
2003
0000
0000
3010
0000
1000
0000
0000
0000
2000
0000
0000
,
3001
0010
1000
0010
,
0001
0000
0100
0000
0001
0000
1000
0000
0010
0000
1000
0000
,
0002
0000
0000
0013
,
0001
0100
0001
0001
,
1000
0000
0000
0000
0010
0000
0000
0000
1000
0000
0000
0002
0000
0000
0000
0000
,
0203
0000
0310
0000
;

//---------------dance-single - t7r----------------
#NOTES:
     dance-single:
     t7r:
     Medium:
     12:
     :
0000
0000
0000
0000
,
0000
0000
0000
0000
,
0000
0000
0000
0000
,
0000
0000
0000
0000
,
0000
0000
0000
0000
,
0000
0000
0000
0000
,
1000
0000
0001
0000
0000
0100
0000
0000
0100
0000
0000
0100
0000
0000
0001
0000
,
0010
0000
0001
0000
1000
0000
0000
0010
0000
0000
1000
0000
0100
0000
0010
0000
,
0001
0000
1000
0000
0000
0010
0000
0000
0010
0000
0000
0010
0000
0000
1000
0000
,
0100
0000
0010
0000
0100
0000
0001
0000
0100
0000
0000
1000
0000
0000
0010
0000
,
0200
0010
0010
0010
,
0301
0000
0000
0000
0001
0000
0000
0000
1000
0000
0000
1001
0000
0000
0001
0000
,
0020
0000
0000
0000
0030
0000
0000
0001
,
1000
0000
0010
0000
0100
0000
0000
0000
0001
0000
0000
0010
0000
0000
0001
0000
,
1000
0000
0001
0010
0100
0010
0001
1000
,
0010
0000
0000
0010
0000
0000
1000
0000
0100
0000
0010
0000
0001
0000
0100
0000
,
0010
0000
1000
0010
0100
0010
1000
0001
,
1000
0000
0000
1000
0000
0000
0100
0000
0000
0100
0000
0000
0010
0000
0001
0000
,
1000
0000
0001
0100
0010
0100
1000
0100
,
0010
0000
0000
0010
0000
0000
1000
0000
0100
0000
0010
0000
0100
0000
0001
0000
,
0100
0000
1000
0010
0100
0010
0001
0010
,
1000
0000
0001
0000
0000
1000
0000
0000
1000
0000
0000
0000
1001
0000
0000
0000
,
0001
0000
0000
0010
0000
0000
0100
0000
1000
0000
0000
0001
0000
0000
0010
0000
,
0000
0100
0000
0000
0000
0000
1000
0000
0001
1000
0000
0000
0001
0000
0001
0000
,
1000
0000
0000
0100
0000
0000
0010
0000
0001
0000
0000
1000
0000
0000
0100
0000
,
0000
0010
0000
0000
0000
0000
0001
0000
1000
0001
0000
0000
1000
0000
1000
0000
,
0001
0000
0000
0100
0000
0000
1000
0000
0100
0000
0000
0001
0000
0000
0100
0000
,
0000
1000
0000
0000
0000
0000
0100
0000
0010
0100
0000
0000
0010
0000
0010
0000
,
1000
0000
0000
0100
0000
0000
0001
0000
1000
0000
0000
0010
0000
0000
0001
0000
,
0000
1000
0000
0000
0000
0000
0010
0000
0000
0110
0000
0000
1000
0000
0001
0000
,
2000
0000
0000
0000
,
3200
0000
0320
0032
,
2003
0000
3020
0230
,
0301
0010
0200
0300
,
2000
0010
3001
1000
,
0002
0010
1003
0001
,
1000
0100
0020
0030
,
0002
0000
0003
1100
,
2000
0000
0000
3100
0000
0000
1000
0000
0020
0000
0000
1030
0000
0000
0001
0000
,
2000
0000
0000
3020
0000
0000
0032
0000
0000
0023
0000
0000
0130
0000
0001
0000
,
2000
0000
0000
3200
0000
0000
0310
0000
0200
0000
0000
0302
0000
0000
0103
0000
,
1000
0000
0000
1001
0000
0000
0001
0000
0200
0000
0000
0000
0000
0000
0301
0000
,
1000
1000
0100
0000
0010
0010
0001
0000
,
2000
0000
0000
3020
0000
0000
0130
0000
0020
0000
0000
0000
0031
0000
0010
0000
,
2000
0000
0000
3200
0000
0000
0310
0000
0001
0000
0000
1001
0000
0000
0001
0000
,
0200
0000
0000
2300
0000
0000
3100
0000
0010
0000
0000
1010
0000
0000
1000
0000
,
0001
0000
0000
0010
0001
0000
0000
0000
0100
0000
0001
0000
0100
0000
0000
0000
,
0001
0000
0011
0000
1000
0010
0100
0001
,
0020
0000
0130
0000
0010
0001
0100
0010
,
0200
0000
0000
2300
0000
0000
3100
0000
0020
0000
0000
0230
0000
0000
0301
0000
,
1000
0000
0000
0100
0010
0000
0100
0000
1000
0000
0000
0000
1100
0000
0000
0000
,
0001
0000
0000
0101
0000
0000
0001
0000
1000
0000
0000
1100
0000
0000
1000
0000
,
0020
0000
0000
0130
0000
0100
0001
0000
0000
1000
0000
0000
,
0001
0000
0001
0010
0000
0010
0100
0000
0000
1001
0000
0000
,
2000
0000
0000
3100
0000
0100
0010
0000
0010
0100
0000
0100
,
1000
0000
1000
0001
0000
0100
0010
0000
0100
0002
0000
0000
,
0023
0000
0000
0031
0000
0001
0100
0000
0100
0010
0000
0010
,
1000
0000
0100
0010
0000
0001
1000
0000
0010
0100
0000
0001
,
2000
0000
0000
3001
0000
0001
0100
0000
0100
1000
0000
1000
,
0200
0000
0000
0301
0000
0001
0010
0000
0100
0020
0000
0000
,
0032
0000
0000
1003
0000
1000
0010
0000
0010
0001
0000
0001
,
0010
0000
0100
0001
0000
0010
0100
0000
1000
0010
0000
0100
,
0001
0000
1000
0100
0000
0010
0001
0000
1000
0010
0000
0100
,
0020
0000
0030
1001
,
1000
0000
0100
0000
0000
0010
0000
0000
0001
0000
0000
0001
0000
0000
1000
0000
,
0010
0000
0100
0000
0001
0000
0010
0000
0100
1000
0000
0002
0000
0000
0103
0000
,
0020
0000
0130
0000
;

//---------------dance-single - t7r----------------
#NOTES:
     dance-single:
     t7r:
     Hard:
     15:
     :
0000
0000
0000
0000
,
0000
0000
0000
0000
,
0000
0000
0000
0000
,
0000
0000
0000
0000
,
0000
0000
0000
0000
,
0000
0000
0000
0000
,
0001
0000
0100
0000
0010
0100
0000
0001
0100
0000
0010
0100
0000
0001
0100
0001
,
1000
0000
0100
0000
0010
0000
0100
1000
0000
0010
0100
0010
1000
0000
0001
0000
,
1000
0000
0010
0000
0100
0010
0000
1000
0010
0000
0100
0010
0000
1000
0100
0010
,
0001
0000
0100
1000
0100
0000
0010
0000
0100
0001
0000
0020
0000
0130
1000
0001
,
0200
0010
0010
0010
,
0010
0000
0000
0000
0310
0000
0000
0000
1000
0100
0000
0010
0000
0100
1000
0001
,
2000
0000
3000
0000
0000
0000
0000
0001
,
1001
0000
0001
1000
0100
0000
0010
0000
0100
0000
0000
0110
0000
1000
0001
0000
,
1001
0000
1000
0100
0010
0100
1000
0010
,
0101
0000
0001
1000
0000
0000
0100
0000
0010
0000
0100
0000
0001
0000
0100
0000
,
1100
1000
0001
0100
0010
0100
0001
1000
,
0010
0000
0001
0010
0000
0010
1000
0000
0001
0010
0000
0010
0100
0000
0110
0000
,
1001
0000
0001
0010
0100
0010
0001
0100
,
1010
0000
1000
0001
0000
0000
0010
0000
0100
0000
0010
0000
1000
0000
0010
0000
,
0011
0000
0001
0100
0000
0000
0010
0000
0100
0000
0010
0000
1000
0000
0001
0000
,
0100
1000
0100
0000
0010
0100
0000
0001
0100
0000
0010
0100
0000
0001
1000
0000
,
0001
0000
0010
0100
0000
0100
1000
0000
1010
0000
0000
0001
0000
0010
0100
0000
,
0100
1000
0000
0010
0100
0000
0001
0000
1000
0100
0000
0010
0001
0000
1001
0000
,
1000
0000
0010
0100
0000
0100
0001
0000
0011
0000
0000
1000
0000
0010
0100
0000
,
0100
0001
0000
0010
0100
0000
1100
0000
0001
0100
0000
0010
1000
0001
1000
0000
,
0001
0000
0100
0010
0000
0001
0010
0000
0100
0010
0000
1000
0000
0100
0010
0000
,
1000
0010
0000
0100
1000
0001
0100
0000
0001
0010
0000
0010
0100
0000
0110
0000
,
1001
0000
1000
0100
0000
0001
1000
0000
0001
0100
0000
1000
0000
0001
0100
0000
,
1000
0001
0000
0010
0100
0001
0100
0000
0001
1000
0000
0100
0010
0000
0110
0000
,
0012
0000
0000
0000
,
2003
0000
3020
0230
,
0302
0000
2003
3200
,
0320
0000
0000
0031
0000
1000
0000
0000
0020
0000
0000
0000
1030
0000
0000
0000
,
0002
0100
1000
0013
,
0200
0001
0010
1300
,
0020
0000
0000
0000
0130
0000
0001
1000
0002
0000
0000
0000
1003
0000
0000
0000
,
0020
0000
0000
0000
0000
0000
0000
0000
0000
0000
1030
0100
0010
0000
0000
0000
,
1002
0000
0000
1003
0100
0000
0010
0000
0100
0001
0000
0001
0100
0000
1000
0010
,
2000
0000
0000
3020
0000
0000
0032
0000
0000
0023
0000
0000
0130
0001
0010
0100
,
2000
0000
0000
3001
0010
0000
0100
0000
0010
1000
0000
1000
0010
0000
0001
0100
,
0010
0000
0000
0110
0000
0000
1001
0000
2000
0100
0000
3001
1000
0001
0100
0000
,
0001
0000
0010
0100
0001
0000
0100
0010
0001
0000
0100
0010
1000
0000
0010
0001
,
0020
0000
0000
1030
0001
0000
0010
0000
0200
0010
0000
1300
0010
0100
0010
1000
,
0002
0000
0000
1003
0010
0000
0100
0000
0010
0000
0000
2010
0000
0000
3001
1000
,
0001
0000
1000
0100
0000
0010
0100
1000
0010
0000
0000
0110
0000
0000
1001
0000
,
0001
0100
0001
0010
0000
0100
0010
0000
0001
0010
0000
1000
0010
0100
0010
0001
,
1000
0010
0100
0001
1000
0010
0100
0001
1000
0100
0010
0001
1000
0100
0010
0001
,
0200
0000
0000
0000
1000
0000
0000
0000
0301
0010
0100
1000
0001
0100
0010
1000
,
0010
0000
0001
0010
0000
0010
1000
0000
0001
0000
0000
0110
0000
0000
1001
0000
,
1200
0000
0000
0310
0100
0000
0010
0000
1000
0010
0000
0010
0100
1000
0010
0100
,
0010
0000
0001
0010
0000
0010
1000
0000
0001
0010
0100
1000
0010
0000
0110
0000
,
2001
0000
0000
3100
0010
0100
0001
0100
1000
0001
0100
0010
,
1000
0000
1010
0000
1001
0000
0100
0010
0100
0110
0000
0000
,
1002
0000
0000
1003
0100
1000
0001
0100
0001
1000
0010
1000
,
1010
0000
1000
0001
0010
0001
0100
0010
1000
0200
0000
0000
,
0320
0000
0000
1030
0010
0100
0010
1000
0010
0001
0100
0010
,
0001
0010
0100
1000
0100
0010
1000
0100
0001
1000
0010
0001
,
2001
0000
0000
3010
0010
0100
0001
0100
0010
1000
0100
0010
,
0002
0000
0013
0100
0010
1000
0001
0100
1000
0020
0000
0000
,
2030
0000
0000
3100
0100
0010
0100
0001
0100
1000
0001
0100
,
0010
1000
0010
0100
0001
0100
0010
1000
0001
0010
0001
1000
,
0100
0010
0010
0100
0001
0001
0100
0010
0010
0100
1000
1000
,
0020
0000
0000
0000
0000
0000
0000
0000
0000
0000
0000
0000
0000
0000
0000
0130
0010
0100
0001
0000
0000
0000
0000
0000
,
1000
0000
0100
0000
0010
1000
0000
0010
0100
0000
0010
0001
0000
1000
0010
0100
,
0001
0010
0001
0010
0001
1000
0001
1000
0010
0100
0000
0210
0000
1300
0100
0001
,
0020
0000
0000
0000
0000
0000
0000
0000
0000
0130
1000
0001
1000
0000
0000
0000
0000
0000
0000
0000
0000
0000
0000
0000
;

//---------------dance-single - t7r----------------
#NOTES:
     dance-single:
     t7r:
     Challenge:
     17:
     :
0000
0000
0000
0000
,
0000
0000
0000
0000
,
0000
0000
0000
0000
,
0000
0000
0000
0000
,
0000
0000
0000
0000
,
0000
0000
0000
0000
,
1000
0000
0100
0000
0010
0100
0000
0001
0100
0000
0010
0100
0000
1000
0010
0100
,
0001
0000
0100
0000
0010
0000
0100
1000
0000
0100
0010
0100
0001
0100
0100
1000
,
0001
0000
0010
0000
0100
0010
0000
1000
0010
0000
0100
0010
0001
0100
0010
1000
,
0100
0001
0100
0010
0100
1000
0010
0100
0001
1000
0001
0020
0000
0031
0100
0010
,
2000
0100
0000
3001
2000
0100
0000
3001
1000
0100
0010
0100
0000
1000
0001
0100
,
0001
0010
0100
1000
0010
0100
0001
1000
0010
1000
0001
0020
0000
0130
1000
0001
,
2001
0000
0000
0000
0000
0000
0000
0000
0000
0000
0000
0000
3100
0000
0000
0000
0000
0000
0000
0000
0000
0000
0000
0000
1000
0000
0000
0000
0000
0000
0000
0000
0000
0010
0000
0000
0000
0000
0000
1000
0000
0000
0001
0000
0100
0000
0010
0000
,
0100
0001
1000
0100
0010
0001
0100
0010
1000
0001
0100
0020
0000
0130
1000
0000
,
0110
0000
1000
0100
0010
0100
0001
0100
0010
0100
1000
0010
0100
0010
0001
0010
,
1010
0000
1000
1100
0000
1000
0100
0010
1000
0010
0100
0010
0001
1000
0010
0100
,
0001
0000
1000
0001
0100
0010
0100
1000
0100
0010
0100
0001
0010
0100
1000
0001
,
0101
0000
0001
0011
0000
0001
1001
0000
1000
1100
0000
1000
1010
0000
0110
0000
,
1001
0000
0001
0010
0100
0010
1000
0010
0100
0010
0001
0100
0010
0100
1000
0100
,
0101
0000
0001
0011
0000
0001
0010
0100
0001
0100
0010
0100
1000
0001
0100
0010
,
1000
0000
0001
1000
0010
0100
0010
0001
0010
0100
0010
1000
0100
0010
0001
1000
,
0001
0000
0000
0100
0000
0000
0100
0000
0000
1000
0000
0000
0001
0000
0000
0010
0000
0000
0010
0000
0000
1000
0000
0000
0100
0000
0010
0000
0100
0000
0010
0000
0100
0000
0010
0000
0001
0000
0000
1000
0000
0000
0010
0000
0000
0100
0000
0000
,
0001
0010
0100
0001
0100
0010
0001
0100
0010
1000
0001
1000
0010
0100
1000
0100
,
0010
1000
0100
0010
0001
0100
0010
1000
0001
0010
0001
1000
0010
0000
0110
0000
,
1000
0100
0010
1000
0010
0100
1000
0010
0100
0001
1000
0001
0100
0010
0001
0010
,
0100
0001
0010
0100
1000
0010
0100
0001
1000
0100
1000
0001
0100
0000
0110
0000
,
1000
0100
0100
0001
1000
0100
0100
0001
1000
0001
0100
0001
0010
0010
1000
0001
,
0010
0000
0000
0010
0000
0000
1000
0000
0000
0001
0000
0000
0100
0000
0000
0010
0000
0000
1000
0000
0000
0100
0000
0000
0010
0000
0000
0001
0000
0000
0100
0000
0010
0000
1000
0000
0010
0000
0000
0000
0000
0000
1010
0000
0000
0000
0000
0000
,
0001
0100
0100
1000
0001
0100
0100
1000
0001
1000
0100
1000
0010
0010
0001
1000
,
0010
0010
0001
1000
0100
0010
0001
0100
0010
1000
0001
0100
0001
0000
0010
0001
,
2000
0000
0000
0000
3001
0100
0010
1000
0001
0000
0010
2000
0000
3010
0001
1000
,
0010
0000
0001
0010
0000
1000
0200
0000
0310
0000
0100
1000
0010
0100
0001
0010
,
0100
0000
0001
0100
0000
0010
1000
0000
0010
0001
0000
1000
0010
0000
0001
0000
,
1000
0000
0100
0010
0000
0200
0000
0301
1000
0000
0001
0010
0100
1000
0100
0010
,
0001
0100
0001
0000
1000
0100
1000
0000
0001
0010
0001
1000
0010
0100
0001
1000
,
0100
0000
0001
0100
0000
0010
1000
0000
0010
0001
0000
1000
0010
0000
0001
0010
,
0100
0000
1000
0100
0010
0100
0001
1000
0020
0000
0000
0000
0000
0000
0000
0000
,
1030
0000
0000
0100
0000
0000
0010
0000
0000
0001
0000
0000
0100
0000
0000
0010
0000
0000
1000
0000
0000
0001
0000
0000
0010
0000
0000
0100
0000
0000
1000
0000
0001
0000
1000
0000
0010
0000
0000
1000
0000
0000
0001
0000
0000
1000
0000
0000
,
1002
0000
0000
0103
0101
0000
0100
0000
0120
0100
0000
0130
0002
0000
1003
0001
,
2001
0000
0000
3100
1100
0000
0120
0000
0031
1000
0000
1000
0001
0100
0010
1000
,
1020
0000
0000
0130
0110
0000
0100
0000
0102
0100
0000
0103
0020
0000
1030
0001
,
0012
0000
1003
1001
0000
0000
0110
0000
2001
0001
0000
3010
1000
0001
0011
0000
,
0001
0100
0001
0100
1000
0100
0010
0100
0001
0010
0001
0010
1000
0010
0100
0010
,
0002
0000
0103
2000
0000
3100
0020
0000
2030
0100
0000
3001
1000
0001
0010
0100
,
2000
0000
3010
0002
0000
0013
0100
0000
0110
0000
0010
1010
0000
1000
0100
0100
,
0001
0000
1000
1001
0000
0001
0100
0100
1000
0010
0010
0001
1000
0010
0100
0001
,
1000
0100
0100
0001
1000
0100
0100
0010
1000
0100
0100
0001
1000
0100
0100
0010
,
0001
0010
1000
0001
0010
1000
0001
0100
1000
0001
0100
1000
0001
0100
0010
1000
,
0002
0010
0000
1003
1001
0000
0001
0100
0010
1000
0100
0010
0001
0100
0010
1000
,
0001
0100
0100
1000
0001
0100
0100
1000
1010
0000
0010
0110
0000
0100
0101
0000
,
2001
0000
0000
3100
0110
0000
0100
0000
1200
1000
0000
1300
0100
0010
0100
0001
,
1000
0000
0000
0010
0000
0000
0001
0000
0000
1000
0000
0000
0010
0000
0000
0001
0000
0000
1000
0000
0000
0100
0000
0000
0001
0000
1000
0000
0001
0000
1000
0000
0001
0000
0100
0000
0010
0000
0000
0000
0000
0000
0110
0000
0000
0000
0000
0000
,
2010
0000
0000
0000
0000
0000
3001
0000
0010
0000
0001
0000
1000
0010
1000
0010
0100
0010
0100
0010
1000
0001
1000
0001
,
0010
0000
1000
0000
0001
0000
0100
0000
1000
0000
0010
0100
0010
0000
1000
0000
0001
0000
1001
0000
0000
0000
0000
0000
,
1200
0000
0000
0000
0000
0000
1300
0010
1000
0000
0001
0000
0010
0000
0100
0000
0001
0000
0100
0000
1000
0000
0001
0000
,
0201
0000
0301
1000
0100
0100
0001
1000
0010
0210
0000
0000
,
0302
0000
0000
0000
0000
0000
0013
0001
0010
0001
1000
0010
0100
0000
0010
0000
1000
0000
0001
0000
0010
0000
0001
0000
,
1000
0000
0001
0100
0001
0100
0010
0000
1000
0001
0100
0001
1000
0100
1000
0100
0010
0100
1000
0000
0001
0000
0010
0000
,
0021
0000
0000
0000
0000
0000
0031
0100
0001
0000
1000
0000
0100
0000
0010
0000
1000
0000
0010
0000
0001
0000
1000
0000
,
1020
0000
0000
0000
1030
0000
0001
0000
0010
0000
0010
1000
0001
0000
0100
0000
0010
0000
1020
0000
0000
0000
0000
0000
,
2030
0000
0000
0000
0000
0000
3100
1000
0100
1000
0001
0100
0010
0000
0100
0001
1000
0001
0010
0000
0100
0000
1000
0000
,
0001
0000
1000
0010
1000
0010
0100
0000
0001
1000
0010
1000
0001
0010
0001
0010
0100
0010
0001
0000
1000
0000
0100
0000
,
1000
0010
1000
0010
1000
0010
0100
0001
0100
0001
0100
0001
0010
0100
0010
0100
0010
0100
1000
0000
1001
0000
1001
0000
,
1020
0000
0000
0000
0000
0000
0000
0000
0000
0000
0000
0000
0000
0000
0000
0130
0001
1000
0002
0000
0000
0000
0000
0000
,
1003
0000
0100
0000
0010
0200
0000
0301
0201
0000
1300
1020
0000
0031
0010
1000
,
0001
0100
0100
1000
0001
0010
0010
1000
0001
0100
0010
2010
0000
3100
0010
0001
,
2001
0000
0000
0000
0000
0000
0000
0000
0000
3010
0100
0001
1000
0000
0000
0000
0000
0000
0000
0000
0000
0000
0000
0000
;

//---------------dance-double - t7r----------------
#NOTES:
     dance-double:
     t7r:
     Easy:
     8:
     :
00000000
00000000
00000000
00000000
,
00000000
00000000
00000000
00000000
,
00000000
00000000
00000000
00000000
,
00000000
00000000
00000000
00000000
,
00000000
00000000
00000000
00000000
,
00000000
00000000
00000000
00000000
,
01000000
00010000
00100000
00100000
,
00001000
00010000
00000010
00000010
,
00000100
00000001
00001000
00001000
,
00000001
00000010
00001000
00010000
,
00200000
00000000
00000000
00000000
,
00000000
00000000
00300000
10000000
,
20020000
30030000
00000000
00000000
,
10000000
00000000
00000000
00000000
01000000
00000000
00000000
00000000
00010000
00000000
00000000
00010000
00000000
00000000
00000000
00000000
,
00011000
00000000
00001000
00000100
,
00000001
00000000
00000010
00001000
,
00010000
00000000
00001000
00010000
,
01000000
00000000
00000000
01000000
00000000
00000000
00100000
00000000
00000000
00100000
00000000
00000000
00000000
00000000
00000000
00000000
,
00011000
00000000
00010000
01000000
,
10000000
00000000
00100000
00010000
,
00001000
00000000
00000010
00000001
,
00001000
00000000
00000000
00001000
00000000
00000000
00001000
00000000
00000000
00000000
00000000
00000000
00001001
00000000
00000000
00000000
,
00000001
00000000
00000000
00000100
00000000
00000000
00000010
00000000
00000000
00000000
00000000
00001000
00000000
00000000
00000100
00000000
,
00000000
00010000
00000000
00000000
00000000
00000000
00001000
00000000
00000000
00001000
00000000
00000000
00010000
00000000
00000000
00000000
,
01000000
00000000
00000000
10000000
00000000
00000000
01000000
00000000
00000000
00000000
00000000
00010000
00000000
00000000
00001000
00000000
,
00000000
00010000
00000000
00000000
00000000
00000000
00001000
00000000
00000000
00001000
00000000
00000000
00000100
00000000
00000000
00000000
,
00000001
00000000
00000000
00000010
00000000
00000000
00001000
00000000
00000000
00000000
00000000
00010000
00000000
00000000
00100000
00000000
,
00000000
10000000
00000000
00000000
00000000
00000000
00100000
00000000
00000000
01000000
00000000
00000000
00010000
00000000
00010000
00000000
,
10000000
00000000
00000000
01000000
00000000
00000000
00010000
00000000
00000000
00000000
00000000
00001000
00000000
00000000
00000100
00000000
,
00000000
00000001
00000000
00000000
00000000
00000000
00000010
00000000
00000000
00000001
00000000
00000000
00000100
00000000
00001000
00000000
,
00020000
00000000
00000000
00000000
,
00030000
00000000
00000000
00000000
,
02000000
00000000
03000000
00000000
,
20000000
30000000
00200000
00300000
,
00010000
00001000
00000100
00000000
,
00000010
00001000
00000001
00000000
,
00000010
00001000
00020000
00000000
,
00031000
00000000
00000000
00011000
,
00010000
01000000
00100000
10000000
,
00010000
01000000
00200000
00301000
,
00011000
00001000
00000100
00000010
,
00001000
00000001
00000200
00000000
,
00001300
00010000
01000000
00010000
,
00001000
00000100
00001000
00000100
,
00000020
00001030
00000001
00000010
,
00001000
00000000
00000000
00010000
00000000
00000000
01000000
00000000
20000000
00000000
00000000
00000000
30000000
00000000
00000000
00000000
,
00100000
10100000
10000000
01000000
,
00010000
00001000
00010000
00000000
00001000
00000100
00001000
00000000
,
00000200
00000000
00000301
00000010
,
00001000
00000000
00000000
00010000
00000000
00000000
00100000
00000000
10000000
00000000
00000000
00000000
01100000
00000000
00000000
00000000
,
10000000
00000000
00000000
01000000
00000000
00000000
00100000
00000000
00020000
00000000
00000000
00000000
00030000
00000000
00000000
00000000
,
00001000
00000000
00000000
00000100
00000000
00000000
00000010
00000000
00000002
00000000
00000000
00000000
00000103
00000000
00000000
00000000
,
00000002
00000013
00001000
00010000
,
00100000
01000000
00010000
10010000
,
20000000
31000000
00010000
00001000
,
00000100
00000100
00000001
00000020
,
00000032
00000103
00001000
00010000
,
01000000
01000000
10000000
00100000
,
20000000
00000000
00000000
31000000
00000000
00010000
00000000
00000000
00000000
00010000
00000000
00000000
,
00002000
00000000
00000000
00003100
00000000
00000010
00000000
00000000
00000000
00002000
00000000
00000000
,
00003002
00000000
00000000
00000013
00000000
00001000
00000000
00000000
00000000
00001000
00000000
00000000
,
00010000
01000000
10000000
00100000
,
00010000
00000000
00000000
00001000
00000000
00000000
00000100
00000000
00000010
00000000
00001000
00000000
,
00000002
00000000
00000000
00000013
,
00000001
00000100
00001000
00001000
,
00010000
00000000
00000000
00000000
00100000
00000000
00000000
00000000
10000000
00000000
00000000
00020000
00000000
00000000
00000000
00000000
,
00032000
00000000
00003100
00000000
;

//---------------dance-double - t7r----------------
#NOTES:
     dance-double:
     t7r:
     Medium:
     12:
     :
00000000
00000000
00000000
00000000
,
00000000
00000000
00000000
00000000
,
00000000
00000000
00000000
00000000
,
00000000
00000000
00000000
00000000
,
00000000
00000000
00000000
00000000
,
00000000
00000000
00000000
00000000
,
00100000
00000000
00010000
00000000
00000000
01000000
00000000
00000000
01000000
00000000
00000000
01000000
00000000
00000000
00010000
00000000
,
00100000
00010000
10000000
00000000
00100000
00000000
00010000
00001000
,
00010000
00000000
00000100
00000000
00000000
00001000
00000000
00000000
00001000
00000000
00000000
00001000
00000000
00000000
00000001
00000000
,
00000100
00000000
00000010
00000000
00001000
00000000
00000100
00000000
00010000
00000000
00000000
00011000
00000000
00000000
00001000
00000000
,
00020000
00100000
00001000
00100000
,
00001000
00000000
00000000
00000000
00130000
00000000
00000000
00000000
10000000
00000000
00000000
10010000
00000000
00000000
10000000
00000000
,
02000000
00000000
00000000
00000000
03000000
00000000
00000000
00010000
,
00001000
00000000
00000100
00000000
00000010
00000000
00000000
00000000
00000100
00000000
00000000
00000110
00000000
00000000
00000001
00000000
,
00001000
00000000
00000001
00000010
00000001
00000000
00000010
00000000
,
00001000
00000000
00000000
00011000
00000000
00000000
00001000
00000000
00010000
00000000
00000000
00000000
00100000
00000000
01000000
00000000
,
00010000
00000000
10000000
01000000
00100000
00010000
10000000
00000000
,
00100000
00000000
00000000
00010000
00000000
00000000
00001000
00000000
00000000
00000010
00000000
00000000
00000001
00000000
00001000
00000000
,
00001001
00000000
00000001
00000100
00000001
00000000
00000100
00000000
,
00001000
00000000
00000000
00011000
00000000
00000000
00001000
00000000
00010000
00000000
00000000
00000000
01000000
00000000
00100000
00000000
,
00010000
00000000
10000000
00100000
01000000
00010000
10000000
00000000
,
01000000
00000000
00010000
00000000
00000000
00001000
00000000
00000000
00000100
00000000
00000001
00000000
00001000
00000000
00000000
00000000
,
00000001
00000000
00000000
00000010
00000000
00000000
00000100
00000000
00001000
00000000
00000000
00010000
00000000
00000000
00100000
00000000
,
00000000
01000000
00000000
00000000
00000000
00000000
10000000
00000000
00100000
01000000
00000000
00000000
00010000
00000000
00010000
00000000
,
10000000
00000000
00000000
00100000
00000000
00000000
01000000
00000000
00010000
00000000
00000000
00001000
00000000
00000000
00000010
00000000
,
00000000
00000100
00000000
00000000
00000000
00000000
00000001
00000000
00000010
00000100
00000000
00000000
00001000
00000000
00001000
00000000
,
00000001
00000000
00000000
00000100
00000000
00000000
00001000
00000000
00010000
00000000
00000000
01000000
00000000
00000000
10000000
00000000
,
00000000
00010000
00000000
00000000
00000000
00000000
10000000
00000000
00010000
01000000
00000000
00000000
00100000
00000000
00100000
00000000
,
10000000
00000000
00000000
00100000
00000000
00000000
00010000
00000000
00001000
00000000
00000000
00000010
00000000
00000000
00000001
00000000
,
00000000
00001000
00000000
00000000
00000000
00000000
00000001
00000000
00001000
00000010
00000000
00000000
00000100
00000000
00000100
00000000
,
00000002
00000000
00000000
00000000
,
00000023
00000000
00002030
00023000
,
00032000
00000000
00023000
02030000
,
13000000
00100000
02000000
03000000
,
00200000
00010000
01000000
10300000
,
01000000
00000000
00000000
00010000
00000000
00000000
00001000
00000000
00000000
00010000
00000000
00000000
00001000
00000000
00000100
00000000
,
00000020
00000001
00002030
00003000
,
00000020
00000000
00000030
00001001
,
00000002
00000000
00000000
00000103
00000000
00000000
00000001
00000000
00000020
00000000
00000000
00000130
00000000
00000000
00000010
00000000
,
00000002
00000000
00000000
00000203
00000000
00000000
00002300
00000000
00000000
00023000
00000000
00000000
00031000
00000000
00010000
00000000
,
00002000
00000000
00000000
01003000
00000000
00000000
00010000
00000000
20000000
00000000
00000000
31000000
00000000
00000000
00010000
00000000
,
00001000
00000000
00000000
00011000
00000000
00000000
00001000
00000000
00000200
00000000
00000000
00000000
00000310
00000000
00000000
00000000
,
00001000
00001000
00000100
00000000
00000010
00000010
00000001
00000000
,
00000200
00000000
00000000
00002300
00000000
00000000
00013000
00000000
00002000
00000000
00000000
00000000
00013000
00000000
01000000
00000000
,
20000000
00000000
00000000
30200000
00000000
00000000
01300000
00000000
00010000
00000000
00000000
00110000
00000000
00000000
00100000
00000000
,
00002000
00000000
00000000
00023000
00000000
00000000
00031000
00000000
00000010
00000000
00000000
00000011
00000000
00000000
00000001
00000000
,
00001000
00000000
00000000
00000100
00001000
00000000
00000000
00000000
00000001
00000000
00000100
00000000
00000010
00000000
00000000
00000000
,
00001000
00000001
00000100
00001000
00010000
00100000
10000000
01000000
,
00200000
00000000
01300000
00000000
10000000
00100000
01000000
10000000
,
02000000
00000000
00000000
03200000
00000000
00000000
10300000
00000000
02000000
00000000
00000000
03020000
00000000
00000000
00031000
00000000
,
00010000
00000000
00000000
00001000
00010000
00000000
00001000
00000000
00000100
00000000
00000000
00000000
00000110
00000000
00000000
00000000
,
00000010
00000000
00000000
00001010
00000000
00000000
00001000
00000000
00000001
00000000
00000000
00000011
00000000
00000000
00000001
00000000
,
00002000
00000000
00000000
00003100
00000000
00000100
00010000
00000000
00000000
00001000
00000000
00000000
,
01000000
00000000
01000000
00010000
00000000
00010000
10000000
00000000
00000000
10010000
00000000
00000000
,
20000000
00000000
00000000
30100000
00000000
00010000
00001000
00000000
00010000
00001000
00000000
00000000
,
00000100
00000000
00000100
00000000
00000000
00000001
00000010
00000000
00000100
00020000
00000000
00000000
,
00031000
00000000
00000000
00000100
00000000
00000001
00000010
00000000
00000100
00001000
00000000
00000000
,
00000001
00000000
00000100
00001000
00000000
00010000
00001000
00000000
00010000
01000000
00000000
10000000
,
00020000
00000000
00000000
10030000
00000000
00100000
00010000
00000000
00001000
00010000
00000000
00001000
,
00000010
00000000
00000010
00000000
00000001
00000100
00000001
00000000
00001000
00000020
00000000
00000000
,
00000230
00000000
00000000
00000301
00000000
00000010
00001000
00000000
00010000
00001000
00000000
00000000
,
00010000
00000000
01000000
00010000
00000000
00001000
00010000
00000000
00001000
00000100
00000000
00001000
,
00010000
00000000
00000000
00011000
00000000
00000000
00001000
00000000
00000100
00000001
00000000
00000000
,
00000020
00000000
00000030
00001001
,
00000001
00000000
00000100
00000000
00000000
00000010
00000000
00000000
00001000
00000000
00000000
00001000
00000000
00000000
00000100
00000000
,
00010000
00000000
00001000
00000000
00010000
00000000
00100000
00000000
10000000
00000000
00000000
11000000
00000000
00000000
10000000
00000000
,
00200000
00000000
01300000
00000000
;

//---------------dance-double - t7r----------------
#NOTES:
     dance-double:
     t7r:
     Hard:
     15:
     :
00000000
00000000
00000000
00000000
,
00000000
00000000
00000000
00000000
,
00000000
00000000
00000000
00000000
,
00000000
00000000
00000000
00000000
,
00000000
00000000
00000000
00000000
,
00000000
00000000
00000000
00000000
,
00010000
00000000
00000100
00000000
00010000
00001000
00000000
00010000
00000100
00000000
00001000
00000010
00000000
00000100
00000001
00001000
,
00000001
00000000
00000010
00000000
00000100
00000000
00001000
00000100
00000000
00010000
00001000
00010000
01000000
00000000
10000000
00000000
,
00100000
00000000
01000000
00000000
00100000
10000000
00000000
00100000
00010000
00000000
00100000
10000000
00000000
01000000
00100000
00010000
,
10000000
00000000
00100000
00000000
00010000
00000000
00001000
00000000
00000010
00000100
00000000
00000020
00000000
00000031
00001000
00000001
,
00000100
00001000
00010000
01000000
,
10000000
00000000
00000000
00000000
00100000
00000000
00000000
00000000
00010000
00001000
00010000
00000100
00000000
00010000
00001000
00010000
,
00001000
00000000
00000000
00000000
00000000
00000000
00000000
00000010
,
00000001
00001000
00000001
00001000
00000001
00000000
00000100
00000000
00001000
00000000
00000000
00011000
00000000
00001000
00010000
00000000
,
01000000
00000000
10000000
00100000
01000000
00100000
10000000
01000000
,
00010000
00000000
00001000
00010000
00000000
00000000
00001000
00000000
00000010
00000000
00000001
00000000
00000100
00000000
00000010
00000000
,
00000110
00000100
00000001
00000010
00000100
00001000
00010000
00100000
,
00010000
00000000
10000000
01000000
00000000
01000000
00010000
00000000
00001000
00000100
00000000
00000100
00000001
00000000
00000010
00000000
,
00000011
00000000
00000001
00000100
00000010
00000100
00000001
00000010
,
00001000
00000000
00010000
00001000
00000000
00000000
00010000
00000000
01000000
00000000
10000000
00000000
00100000
00000000
01000000
00000000
,
01100000
00100000
10000000
01000000
00100000
00010000
00001000
00000100
,
00001000
00000000
00000001
00000000
00000100
00001000
00000000
00001000
00010000
00000000
01000000
00010000
00000000
00010000
00001000
00000000
,
00000100
00000000
00000001
00000010
00000000
00000010
00001000
00000000
00011000
00000000
00000000
00010000
00000000
01000000
10000000
00000000
,
10000000
00100000
00000000
00000000
00000000
00000000
10000000
00000000
01000000
00010000
00000000
00001000
00010000
00000000
00011000
00000000
,
00010000
00000000
00001000
00000100
00000000
00000100
00000010
00000000
00000110
00000000
00000000
00000001
00000000
00000010
00001000
00000000
,
00001000
00010000
00000000
00000000
00000000
00000000
00001000
00000000
00010000
01000000
00000000
10000000
00100000
00000000
10100000
00000000
,
10000000
00000000
00010000
01000000
00000000
00010000
10000000
00000000
01000000
00010000
00000000
00001000
00000000
00010000
00000100
00000000
,
00001000
00000010
00000000
00000100
00000001
00001000
00000001
00000000
00000100
00001000
00000000
00001000
00010000
00000000
00011000
00000000
,
00001000
00000000
00010000
01000000
00000000
00100000
01000000
00000000
00010000
00001000
00000000
00000100
00000000
00000010
00000100
00000000
,
00000001
00001000
00000000
00000001
00000010
00000001
00001000
00000000
00000001
00000100
00000000
00000100
00001000
00000000
00010000
00000000
,
00012000
00000000
00000000
00000000
,
02003000
00000000
03020000
20030000
,
32000000
00000000
03020000
00032000
,
00003020
00000000
00000000
00000130
00000000
00000010
00000000
00000000
00000002
00000000
00000000
00000000
00000103
00000000
00000000
00000000
,
00000001
00000010
00001000
00010000
,
01000000
10000000
00100000
00010000
,
00002000
00000000
00000000
00000000
00003100
00000000
00000001
00000010
00000002
00000000
00000000
00000000
00001003
00000000
00000000
00000000
,
00000020
00000000
00000000
00000000
00000000
00000000
00000000
00000000
00000000
00000000
00000130
00000001
00001000
00000000
00000000
00000000
,
00002001
00000000
00000000
00003001
00000100
00000000
00000001
00000000
00000010
00000100
00000000
00000100
00001000
00000000
00000001
00000100
,
00000002
00000000
00000000
00000023
00000000
00000000
00002030
00000000
00000000
00023000
00000000
00000000
01030000
10000000
01000000
10000000
,
00200000
00000000
00000000
00310000
00100000
00000000
01000000
00000000
00200000
00000000
00000000
10300000
01000000
00000000
00010000
00000000
,
00011000
00000000
00000000
00010100
00000000
00000000
00011000
00000000
00002000
00010000
00000000
01003000
00010000
01000000
00100000
00000000
,
10000000
00000000
01000000
00100000
01000000
00000000
00010000
00000000
00001000
00000000
00000100
00000010
00000100
00000000
00000001
00000010
,
00000002
00000000
00000000
00000203
00000000
00000000
00001300
00000000
00010000
01000000
00000000
01000000
00100000
01000000
10000000
00100000
,
20000000
00000000
00000000
30010000
01000000
00000000
00010000
00000000
00200000
00000000
00000000
00301000
00010000
00000000
00001000
00000100
,
00000010
00000000
00001000
00000100
00000000
00000001
00000100
00000000
00000010
00000000
00000000
00000011
00000000
00000000
00001001
00000000
,
00000001
00000000
00000100
00000010
00000000
00000010
00001000
00000000
00010000
01000000
00000000
01000000
00100000
00000000
10000000
00010000
,
10000000
00000000
00100000
00010000
00100000
00000000
00010000
00000000
00001000
00000100
00000000
00000010
00000100
00000001
00000010
00000001
,
00000200
00000000
00000000
00000000
00001000
00000000
00000000
00000000
00000310
00000100
00000001
00000000
00000010
00000000
00001000
00000000
,
00020000
00000000
00000000
01030000
00100000
00000000
01000000
00000000
10000000
00000000
00000000
11000000
00000000
00000000
10010000
00000000
,
20000000
00000000
00000000
30100000
01000000
00000000
00100000
00000000
00010000
00001000
00000000
00001000
00010000
00000000
00001000
00000100
,
00000001
00000000
00000010
00000100
00000000
00000001
00000100
00000000
00001000
00000100
00010000
00001000
00010000
00000000
00011000
00000000
,
00020000
00000000
00000000
01030000
10000000
00100000
01000000
00010000
00100000
00001000
00010000
00001000
,
00000100
00000010
00000100
00000001
00000010
00000100
00001000
00010000
00100000
01000000
00000000
00000000
,
10020000
00000000
00000000
10030000
01000000
00100000
01000000
00010000
00001000
00000100
00000010
00000100
,
00000001
00000000
00000001
00001000
00000001
00000010
00000100
00000010
00000001
00000200
00000000
00000000
,
00000320
00000000
00000000
00000031
00000010
00000100
00000010
00001000
00000100
00001000
00010000
01000000
,
00100000
10000000
01000000
00100000
01000000
00010000
00001000
00010000
00000100
00010000
00001000
01000000
,
00200000
00000000
00000000
10300000
10000000
01000000
00100000
01000000
00010000
00001000
00000100
00000010
,
00000100
00000000
00000100
00000001
00000010
00000001
00001000
00000010
00010000
00002000
00000000
00000000
,
00023000
00000000
00000000
01030000
01000000
10000000
00100000
01000000
00010000
00100000
00001000
00010000
,
00001000
00000010
00000001
00001000
00000010
00000100
00000001
00000010
00000100
00001000
00010000
00100000
,
00001000
00010000
00010000
00001000
00010000
01000000
00010000
00001000
00001000
01000000
00000100
01000000
,
00200000
00000000
00000000
00000000
00000000
10300000
10010000
00000000
,
10000000
00000000
01000000
00000000
00100000
01000000
00000000
00010000
01000000
00000000
00010000
00001000
00000000
00000100
00000010
00000100
,
00000001
00000010
00000100
00001000
00000001
00000010
00000100
00001000
00010000
00100000
00000000
20010000
00000000
30100000
00010000
00001000
,
00000200
00000000
00000000
00000000
00000000
00000000
00000000
00000000
00000000
00000310
00001000
00000001
00001000
00000000
00000000
00000000
00000000
00000000
00000000
00000000
00000000
00000000
00000000
00000000
;

//---------------dance-double - t7r----------------
#NOTES:
     dance-double:
     t7r:
     Challenge:
     18:
     :
00000000
00000000
00000000
00000000
,
00000000
00000000
00000000
00000000
,
00000000
00000000
00000000
00000000
,
00000000
00000000
00000000
00000000
,
00000000
00000000
00000000
00000000
,
00000000
00000000
00000000
00000000
,
10000000
00000000
01000000
00000000
00100000
01000000
00000000
00010000
01000000
00000000
00010000
00001000
00000000
00000100
00000010
00000100
,
00000001
00000000
00000010
00000000
00000100
00000000
00000010
00001000
00000000
00010000
00001000
00010000
00000100
00000100
00000001
00001000
,
00000001
00000000
00000100
00000000
00000010
00000100
00000000
00001000
00000100
00000000
00000010
00001000
00000001
00000010
00000100
00010000
,
00001000
00100000
00010000
10000000
00100000
01000000
00010000
10000000
01000000
00010000
00001000
00020000
00000000
01030000
00100000
00001000
,
00020000
00000100
00000000
00031000
00020000
00000100
00000000
00031000
00020000
00000100
00000000
00031000
00000000
00010000
00000100
00001000
,
00000001
00000010
00000100
00001000
00000001
00000100
00000001
00001000
00000100
00010000
00001000
00020000
00000000
01030000
10000000
00010000
,
20010000
00000000
00000000
00000000
00000000
00000000
00000000
00000000
00000000
00000000
00000000
00000000
31000000
00000000
00000000
00000000
00000000
00000000
00000000
00000000
00000000
00000000
00000000
00000000
10000000
00000000
00000000
00000000
00000000
00000000
00000000
00000000
00000000
00100000
00000000
00000000
00000000
00000000
00000000
10000000
00000000
00000000
00010000
00000000
01000000
00000000
00010000
00000000
,
10000000
00100000
01000000
00010000
00100000
00001000
00010000
00000010
00001000
00000001
00000100
00000020
00000000
00000130
00001000
00000000
,
00000110
00000000
00000001
00000010
00000100
00000010
00001000
00000010
00000100
00000010
00000001
00000100
00001000
00010000
00001000
01000000
,
01010000
00000000
00010000
10010000
00000000
10000000
00100000
01000000
00010000
00100000
01000000
00100000
10000000
00100000
01000000
00100000
,
00001000
00000000
00010000
00000010
00001000
00000010
00000100
00000010
00000001
00000010
00000100
00000010
00001000
00000100
00010000
00001000
,
00010000
00000000
01000000
11000000
00000000
10000000
10010000
00000000
00010000
00110000
00000000
00100000
00101000
00000000
00011000
00000000
,
00010100
00000000
00010000
01000000
00100000
01000000
10000000
00100000
01000000
00100000
00010000
00100000
10000000
01000000
00100000
00001000
,
00011000
00000000
00010000
00010100
00000000
00000100
00001000
00000010
00000001
00000010
00000100
00000010
00001000
00000100
00010000
00001000
,
01000000
00000000
00010000
10000000
00100000
01000000
00100000
00010000
00100000
10000000
01000000
00100000
00010000
00100000
00001000
00010000
,
00001000
00000000
00000000
00000100
00000000
00000000
00000100
00000000
00000000
00001000
00000000
00000000
00000001
00000000
00000000
00000100
00000000
00000000
00000100
00000000
00000000
00001000
00000000
00000000
00000100
00000000
00010000
00000000
00000100
00000000
00010000
00000000
00000100
00000000
00010000
00000000
00001000
00000000
00000000
01000000
00000000
00000000
00010000
00000000
00000000
10000000
00000000
00000000
,
00100000
10000000
01000000
01100000
00000000
00000000
01100000
00000000
00110000
00000000
00000000
00101000
00001000
00010000
00010010
00000000
,
00000000
00000110
00000000
00000000
00000001
00000010
00000100
00001000
00000001
00000100
00001000
00010000
00011000
00000000
00101000
00000000
,
00100000
00010000
10000000
10100000
00000000
00000000
01100000
00000000
10100000
00000000
00000000
11000000
01000000
00100000
00101000
00000000
,
00000000
00011000
00000000
00000000
00010000
00000100
00001100
00000000
00001000
00001001
00000000
00000001
00000101
00000000
00001001
00000000
,
00000001
00000100
00000100
00001000
00000001
00000100
00000100
00001000
00000001
00000010
00000100
00001000
00010000
00010000
01000000
10000000
,
00100000
00000000
00000000
00100000
00000000
00000000
00010000
00000000
00000000
10000000
00000000
00000000
01000000
00000000
00000000
00010000
00000000
00000000
00001000
00000000
00000000
01000000
00000000
00000000
00100000
00000000
00000000
10000000
00000000
00000000
00010000
00000000
01000000
00000000
00010000
00000000
10000000
00000000
00000000
00000000
00000000
00000000
10010000
00000000
00000000
00000000
00000000
00000000
,
10000000
01000000
01000000
00010000
10000000
01000000
01000000
00010000
10000000
00100000
01000000
00010000
00001000
00001000
00000010
00000001
,
00000100
00000100
00001000
00000001
00000100
00001000
00011000
00000000
00010000
01010000
00000000
01000000
01100000
00000000
00100000
00010000
,
20000000
00000000
00000000
00000000
30010000
01000000
00100000
10000000
00010000
00000000
10000000
02000000
00000000
03100000
01000000
10000000
,
00100000
00000000
00010000
00001000
00000000
00000010
00000200
00000000
00001300
00000000
00000001
00000100
00000010
00001000
00000001
00000010
,
00000200
00000000
00001300
00000010
00000000
00000001
00000010
00000000
00001000
00000100
00000000
00010000
00001000
00000000
00010000
00000000
,
01000000
00000000
00100000
01000000
00000000
20000000
00000000
00000000
30010000
00000000
10000000
00100000
01000000
00010000
10000000
01000000
,
00100000
00001000
00100000
00000000
00001000
00010000
00001000
00000000
00010000
00000010
00001000
00000001
00000010
00000100
00001000
00000001
,
00000100
00000000
00001000
00010000
00000000
01000000
00100000
00000000
00010000
01000000
00000000
00100000
10000000
00000000
00010000
00100000
,
01000000
00000000
10000000
00100000
01000000
00100000
00010000
00001000
00020000
00000000
00000000
00000000
00000000
00000000
00000000
00000000
,
00031000
00000000
00000000
00000010
00000000
00000000
00000100
00000000
00000000
00000010
00000000
00000000
00000001
00000000
00000000
00000100
00000000
00000000
00000010
00000000
00000000
00001000
00000000
00000000
00000001
00000000
00000000
00000010
00000000
00000000
00000100
00000000
00010000
00000000
00001000
00000000
00010000
00000000
00000000
00001000
00000000
00000000
01000000
00000000
00000000
00010000
00000000
00000000
,
20010000
00000000
00000000
31000000
11000000
00000000
10000000
00000000
10200000
10000000
00000000
10300000
00010000
00000000
00100000
00001000
,
00201000
00000000
00000000
00301000
00011000
00000000
00020000
00000000
00030010
00001000
00000000
00001000
00000001
00000010
00000100
00001000
,
00001002
00000000
00000000
00000103
00000101
00000000
00000001
00000000
00000021
00000001
00000000
00000031
00001000
00000000
00000010
00010000
,
00010020
00000000
00010030
00011000
00000000
00000000
01001000
00000000
02100000
00100000
00000000
03010000
00100000
01000000
11000000
00000000
,
10000000
00100000
10000000
00100000
01000000
00100000
00010000
00001000
00000010
00000100
00000010
00000100
00001000
00000001
00000100
00001000
,
00020000
00000000
00130000
20000000
00000000
30010000
00200000
00000000
20300000
00100000
00000000
30100000
01000000
10000000
00100000
01000000
,
00020000
00000000
00130000
00002000
00000000
00013000
00000010
00000000
00000110
00000000
00000001
00000101
00000000
00001000
00000100
00000100
,
00000001
00000000
00001000
00001001
00000000
00000001
00000100
00000100
00001000
00000000
00000100
00010100
00000000
00010000
00011000
00000000
,
00010000
01000000
01000000
00001000
00100000
00010000
00010000
00000100
00001000
00000010
00000010
00000001
00000100
00001000
00001000
00000100
,
00010000
00001000
00010000
00100000
10000000
00010000
00100000
10000000
00010000
01000000
10000000
00010000
01000000
10000000
01000000
00100000
,
20000000
01000000
00000000
30010000
10010000
00000000
10000000
01000000
00100000
00010000
10000000
00100000
00010000
00001000
00100000
01000000
,
00010000
00000100
00000100
00000001
00001000
00000010
00000010
00000001
00001001
00000000
00000001
00000101
00000000
00001000
00001100
00000000
,
00001002
00000000
00000000
00000103
00000101
00000000
00000001
00000000
00002001
00000001
00000000
00003001
00000010
00000100
00000010
00001000
,
00010000
00000000
00000000
00100000
00000000
00000000
01000000
00000000
00000000
00100000
00000000
00000000
10000000
00000000
00000000
01000000
00000000
00000000
00100000
00000000
00000000
00001000
00000000
00000000
00010000
00000000
00000100
00000000
00010000
00000000
00000100
00000000
00010000
00000000
00001000
00000000
00010000
00000000
00000000
00000000
00000000
00000000
00011000
00000000
00000000
00000000
00000000
00000000
,
00010020
00000000
00000000
00000000
00000000
00000000
00001030
00000000
00000010
00000000
00001000
00000000
00000001
00000010
00000001
00000010
00000100
00000010
00000100
00000010
00000100
00010000
00000100
00010000
,
00001000
00000000
00010000
00000000
01000000
00000000
10000000
00000000
00100000
00000000
01000000
00100000
01000000
00000000
00001000
00000000
00010000
00000000
00011000
00000000
00000000
00000000
00000000
00000000
,
00010200
00000000
00000000
00000000
00000000
00000000
00001300
00000010
00001000
00000000
00000001
00000000
00000010
00000000
00000100
00000000
00001000
00000000
00000001
00000000
00000100
00000000
00001000
00000000
,
00021000
00000000
00031000
00010000
01000000
01000000
00010000
10000000
00100000
01200000
00000000
00000000
,
20300000
00000000
00000000
00000000
00000000
00000000
30010000
00100000
00010000
00100000
00010000
10000000
00010000
00000000
10000000
00000000
00100000
00000000
01000000
00000000
00010000
00000000
00001000
00000000
,
00000100
00000000
00001000
00000001
00001000
00000001
00000100
00000000
00000001
00000010
00000100
00000010
00000001
00001000
00000001
00001000
00000010
00000100
00000001
00000000
00000010
00000000
00001000
00000000
,
00021000
00000000
00000000
00000000
00000000
00000000
00130000
01000000
00100000
00000000
10000000
00000000
00100000
00000000
01000000
00000000
00010000
00000000
10000000
00000000
01000000
00000000
00010000
00000000
,
00012000
00000000
00000000
00000000
00013000
00000000
00001000
00000000
00000100
00000000
00000100
00001000
00000001
00000000
00001000
00000000
00000010
00000000
00000220
00000000
00000000
00000330
00000000
00000000
,
00001002
00000000
00000000
00000000
00000000
00000000
00001003
00000010
00001000
00000010
00001000
00000001
00001000
00000000
00000001
00000010
00000001
00001000
00000100
00000000
00010000
00000000
00001000
00000000
,
01000000
00000000
00010000
10000000
00010000
10000000
01000000
00000000
10000000
00100000
01000000
00100000
10000000
00010000
10000000
00010000
00100000
01000000
10000000
00000000
00010000
00000000
01000000
00000000
,
00100000
00000000
10000000
00100000
10000000
00010000
10000000
00000000
01000000
00100000
01000000
00100000
00001000
00000000
00010000
00000010
00001000
00000010
00001000
00000000
00000001
00000000
00001001
00000000
,
00000102
00000000
00000000
00000000
00000000
00000000
00000000
00000000
00000000
00000000
00000000
00000000
00000000
00000000
00000000
00000103
00000010
00001000
00000002
00000000
00000000
00000000
00000000
00000000
,
00000103
00000000
00001000
00000000
00010000
01000000
00000000
00100000
01000000
00000000
10000000
00100000
00000000
00010000
00001000
00000010
,
00000100
00001000
00000001
00000100
00001000
00010000
00000010
00000100
00000001
00001000
00000100
00020100
00000000
00031000
01000000
00010000
,
20010000
00000000
00000000
00000000
00000000
00000000
00000000
00000000
00000000
31000000
00100000
00001000
00010000
00000000
00000000
00000000
00000000
00000000
00000000
00000000
00000000
00000000
00000000
00000000
;
