#TITLE:LETHEBOLG ~双神威に斬り咲けり~;
#ARTIST:TЁЯRA;
#TITLETRANSLIT:LETHEBOLG ~futatsukamui ni kiri sakeri~;
#ARTISTTRANSLIT:TERRA;
#BANNER:LETHEBOLG ~futatsukamui ni kiri sakeri~.png;
#BACKGROUND:LETHEBOLG ~futatsukamui ni kiri sakeri~-bg.png;
#JACKET:LETHEBOLG ~futatsukamui ni kiri sakeri~-jacket.png;
#CDTITLE:./CDTITLES/BEATMANIA IIDX.PNG;
#MUSIC:LETHEBOLG ~futatsukamui ni kiri sakeri~.ogg;
#SAMPLESTART:73.454;
#SAMPLELENGTH:15;
#BPMS:0=82.5,84=165;
#BGCHANGES:2=LETHEBOLG ~futatsukamui ni kiri sakeri~.mp4=1=0=0=0;

//---------------dance-single - t7r----------------
#NOTES:
     dance-single:
     t7r:
     Beginner:
     2:
     :
0000
0000
0000
0000
,
0000
0000
0000
0000
,
0000
0000
0000
0000
,
0000
0000
0000
0000
,
0000
0000
0000
0000
,
0100
0000
0000
0000
,
0010
0000
0000
0000
,
1000
0000
0000
0000
,
0001
0000
0000
0000
,
1000
0000
1000
0000
,
0001
0000
0001
0000
,
0100
0000
0100
0000
,
0010
0000
0010
0000
,
1000
0000
0000
0000
,
0100
0000
0000
0000
,
0010
0000
0000
0000
,
0001
0000
0000
0000
,
0100
0000
0100
0000
,
0100
0000
0000
0000
,
0010
0000
0010
0000
,
0010
0000
0000
0000
,
1000
0000
1000
0000
,
1000
0000
0000
0000
,
0001
0000
0001
0000
,
0001
0000
0000
0000
,
0100
0000
0100
0000
,
0100
0000
0000
0000
,
0010
0000
0010
0000
,
0010
0000
0000
0000
,
1000
1000
1000
0000
,
0001
0000
0000
0000
,
0010
0000
0000
0000
,
0100
0000
0000
0000
,
1000
0000
0000
0000
,
0010
0000
0000
0000
,
0100
0000
0000
0000
,
0010
0000
0010
0000
,
0010
0000
0000
0000
,
1000
0000
0000
0000
,
0100
0000
0000
0000
,
0010
0000
0000
0000
,
0001
0000
0001
0000
,
0001
0000
0000
0000
,
0100
0000
0000
0000
,
0010
0000
0000
0000
,
0001
0000
0000
0000
,
1000
0000
1000
0000
,
1000
0000
0000
0000
,
0100
0000
0000
0100
,
0100
0000
0000
0000
,
0010
0000
0010
0000
,
0010
0000
0000
0001
,
0001
0000
0000
0000
,
1000
0000
0000
0000
,
0001
0000
0001
0000
,
0001
0000
0100
0000
,
0100
0000
0000
0010
,
0010
0000
0010
0000
,
1000
0000
0000
1000
,
1000
0000
0100
0000
,
0010
0000
0000
0000
,
0001
0000
0000
0000
,
1001
0000
0000
0000
;

//---------------dance-single - t7r----------------
#NOTES:
     dance-single:
     t7r:
     Easy:
     6:
     :
0000
0000
0000
0000
,
0000
0000
0000
0000
,
0000
0000
0000
0000
,
0000
0000
0000
0000
,
0000
0000
0000
0000
,
0001
0000
0100
0000
,
0020
0000
1030
0100
,
2000
3000
0002
0003
,
0200
0000
0020
0330
,
1001
1000
0100
0000
,
0001
0001
0100
0000
,
1000
1000
0010
0000
,
0001
0001
0010
0000
,
2000
0000
3100
0000
,
0002
0000
0013
0000
,
2000
0000
3010
0000
,
0002
0000
0103
0000
,
0010
0100
0010
0000
,
1000
0001
1000
0000
,
0001
0010
0100
0000
,
1000
0010
0200
0310
,
1000
0100
1000
0100
,
0010
0001
0100
0000
,
0001
0010
0001
0010
,
0100
1000
0010
0000
,
2000
0000
3100
0000
,
0002
0000
0013
0000
,
2000
0000
3010
0000
,
0001
0100
1000
0100
,
0010
0100
0002
0000
,
1003
0100
0010
0000
,
0001
1000
0010
0000
,
0100
0001
0010
0001
,
0100
0000
0010
1000
,
0001
0000
1000
0100
,
0010
0000
0100
1000
,
0010
1000
0100
1000
,
0001
0000
0100
0010
,
0120
0000
1030
0001
,
0020
0000
0031
1000
,
0200
0000
1300
0001
,
0100
1000
0100
0010
,
0100
0000
0001
0010
,
0011
0000
1000
0100
,
1000
1000
0001
0001
,
0100
0000
1010
0000
,
2000
0100
3002
0100
,
2003
0100
3002
0100
,
1003
0000
0001
0100
,
0010
0001
0010
1000
,
0001
0000
0010
0100
,
1000
0001
0100
0010
,
1000
0100
0010
0001
,
0100
0100
0010
0000
,
2000
0010
3002
0010
,
2003
0010
3002
0010
,
1003
0000
0001
0010
,
0100
0001
0100
1000
,
0010
0000
1000
0010
,
0100
0010
0001
0010
,
1000
1000
0100
0010
,
0001
0000
0001
0000
0100
0010
0100
0000
,
2002
0000
0000
0000
,
0000
0000
0000
0000
,
3003
0000
0000
0000
;

//---------------dance-single - t7r----------------
#NOTES:
     dance-single:
     t7r:
     Medium:
     9:
     :
0000
0000
0000
0000
,
0000
0000
0000
0000
,
0000
0000
0000
0000
,
0000
0000
0000
0000
,
0000
0000
0000
0000
,
2000
0100
3002
0000
0203
0010
0302
0000
,
0013
0100
1000
0010
2010
0000
3001
1000
,
0001
0100
0110
0000
1000
0100
0110
0000
,
0001
0100
0010
0100
0001
0010
0100
0010
,
0001
0000
1000
0000
1001
0000
0000
1000
0100
0000
1000
0000
0020
0000
0000
0000
,
0130
0000
0001
0000
1001
0000
0000
0001
0100
0000
0001
0000
0020
0000
0000
0000
,
0031
0000
1000
0000
1100
0000
0000
1000
0010
0000
0100
0000
0020
0000
0000
0000
,
1030
0000
0001
0000
0101
0000
0000
0001
0100
0000
0001
0000
0020
0000
0000
0000
,
0032
0103
2000
3100
,
0020
0000
0130
0001
2000
0000
3001
0000
,
2000
3100
0002
0103
,
2000
0000
3010
0100
0002
0000
0013
0000
,
0001
0000
0000
0000
0100
0000
0000
0000
0010
0000
0000
1000
0001
0000
0000
0000
,
1000
0000
0000
0000
0100
0000
0000
0000
0010
0000
0000
0001
1000
0000
0000
0000
,
0010
0000
0000
0000
0100
0000
0000
0000
0001
0000
0000
0010
0100
0000
0000
0000
,
1000
0000
0010
0100
0000
0010
0000
0000
2000
0000
0000
0000
3001
0000
0000
0000
,
1000
1100
1000
1010
,
1000
0000
0100
0010
0001
0000
0100
0000
,
0001
0011
0001
0101
,
0010
0000
0100
0001
1000
0000
1001
0000
,
2000
0100
0000
3001
0020
0100
0000
0031
,
0200
0010
0000
0301
0020
0100
0000
1030
,
0010
0010
0000
0001
1000
1000
0000
0010
,
0100
0110
0001
1001
,
0001
1000
0100
0010
0002
0000
0000
0000
,
1003
0000
0010
0100
0000
0010
1000
0000
,
0001
0000
0010
0100
0000
0010
0001
0000
,
1000
0100
1000
0000
0001
0000
0100
0000
,
0001
0010
0001
0000
1000
0000
0001
0000
,
0110
0000
0001
0100
0010
0000
1000
0000
,
0001
0000
0010
0100
1000
0000
0001
0000
,
1000
0000
0100
0010
0000
0100
0001
0000
,
0100
0010
0010
0000
0001
1000
1000
0000
,
0110
0000
0001
0200
0010
0000
0301
0000
,
0010
0000
0100
2000
0010
0000
3001
0000
,
1000
0000
0100
0020
0001
0000
0130
0000
,
0010
0101
0010
1100
,
0110
0000
0010
1000
0100
0000
0010
0000
,
0001
0000
0100
0010
1000
0000
0010
0000
,
0100
0000
0001
1000
0100
0000
1000
0001
,
0100
0000
0110
0000
0001
0010
0001
1000
,
0010
0000
0101
0000
0001
0100
0010
0000
,
0100
0000
1010
0000
1000
0100
0010
0000
,
0100
0000
0011
0000
0001
1000
0010
0100
,
0001
0010
1000
0010
,
0001
0000
1100
0000
1000
0010
0100
0000
,
1000
0000
0101
0000
0001
0010
0100
0000
,
0010
0001
0100
0000
0010
1000
0100
0000
,
0010
0000
0001
0000
1000
0001
0100
0000
,
0010
0000
1001
0000
0001
0010
0100
1000
,
0010
0000
1001
0000
1000
0100
0010
0001
,
0100
0000
1010
0000
0001
0010
0100
1000
,
0001
0100
1000
0100
,
0010
0000
0100
0001
1000
0001
0010
0000
,
0100
0000
0010
0001
1000
0001
0010
0000
,
0001
1100
1000
0101
,
0001
0010
0100
1000
0010
0001
0010
0000
,
2002
0000
0000
0000
,
0000
0000
0000
0000
,
3003
0000
0000
0000
;

//---------------dance-single - t7r----------------
#NOTES:
     dance-single:
     t7r:
     Hard:
     12:
     :
0000
0000
0000
0000
,
0000
0000
0000
0000
,
0000
0000
0000
0000
,
0000
0000
0000
0000
,
0000
0000
0000
0000
,
0002
0100
2003
0000
3200
1000
0320
0000
,
0130
1000
0001
0000
0100
0001
1000
0000
0020
0000
0100
0000
2030
0000
0000
0000
,
3100
0010
0011
0000
0100
0010
1010
0000
,
0001
0000
0000
1000
0000
0100
0000
0000
1000
0000
0000
0001
0000
0010
0000
0000
0001
0000
0000
0100
0000
0010
0000
0000
1000
0000
0000
0100
0000
0010
0000
0000
,
0001
0000
0100
0010
1000
0000
0100
0010
0100
0001
0100
0000
2000
0000
0000
0000
,
3010
0000
0100
1000
0100
0000
0010
0100
0001
0100
0010
1000
0002
0000
0010
0000
,
1003
0000
0010
0100
0001
0000
0010
0100
0010
1000
0010
0000
0002
0000
0000
0000
,
0103
0000
0010
0001
0010
0000
0100
0010
1000
0010
0100
0001
2000
0000
3002
0000
,
2003
3100
0002
0103
,
1000
0000
0010
0100
0000
0020
0000
0000
2030
0000
0000
0000
3001
0010
0001
1000
,
0002
0013
2000
3010
,
0100
0000
0010
0001
0000
2000
0000
0000
3020
0000
0000
0000
0130
0001
1000
0000
,
1001
0000
0000
0000
0100
0000
0000
0000
1000
0000
0001
1000
0001
0100
0000
0000
,
1001
0000
1000
0100
0000
0002
0000
0000
0203
0000
0000
0000
0310
0001
1000
0000
,
1001
0000
0000
0000
0010
0000
0000
0000
0001
0000
1000
0001
1000
0010
0000
0000
,
1001
0000
0001
0010
0000
2000
0000
0000
3010
0000
0100
1000
0001
0100
0001
0000
,
1000
0100
0000
0010
0100
0010
0000
0100
,
0001
0100
0000
0010
0001
1000
0000
0001
,
0100
0000
0000
0000
2010
0000
0000
0000
3100
0000
0000
0100
0010
0000
0001
0000
,
0200
0000
1300
0100
0010
0100
0001
0000
,
0020
0001
0130
0000
2000
0100
3001
0000
,
0200
1000
0310
0000
2000
0100
3010
0000
,
1000
1000
0000
0001
0100
0100
0000
0001
,
1000
1000
0010
0010
0100
0001
0010
0000
,
0001
0000
0001
0000
1000
0001
1000
0001
2000
0000
0000
0000
3002
0000
0000
0000
,
1003
0100
0010
0100
1000
0010
0100
0000
,
0001
0100
0010
0100
0001
0010
0100
0000
,
1000
0010
0100
0000
1000
0100
0010
0000
,
1000
0100
0010
0001
0100
0010
0001
0000
,
1010
0000
0001
0010
0100
0010
0001
0000
,
1000
0000
0001
0100
0010
0100
0001
0000
,
1000
0100
0010
0000
1000
0010
0100
0000
,
0010
0001
0001
1000
1000
0010
0010
0100
,
0001
0000
1000
0020
0100
0000
0031
0010
,
0100
0010
1000
0200
0010
0000
0301
0100
,
1000
0010
0100
0000
1000
0100
0001
0010
,
0100
0011
0100
1001
,
0001
0100
0010
0100
1000
0100
0001
0000
,
1000
0100
0010
0100
0001
0100
1000
0000
,
0010
0100
0001
0000
0010
0100
1000
0000
,
0001
0010
0100
1000
0010
0100
1000
0000
,
0110
0000
0000
0001
0100
0000
0001
0000
0010
0000
0000
0001
0000
0000
1000
0000
,
0010
0000
0000
0100
0010
0000
1000
0000
0100
0000
0000
0010
0000
0000
0001
0000
,
1000
0010
0100
0001
0010
0100
1000
0010
,
0100
0001
0010
0000
0100
1000
0010
0100
,
0001
0000
0000
0010
0100
0000
1000
0000
0010
0000
0000
0100
0000
0000
0001
0000
,
1000
0000
0000
0100
0010
0000
0001
0000
1000
0000
0000
0010
0000
0000
0100
0000
,
0010
1000
0100
0000
0010
0001
0100
0000
,
0001
0010
0100
0001
0100
0010
0001
0000
,
1001
0000
0000
0001
0100
0000
0001
0000
0010
0000
0000
0001
1000
0000
0010
0000
,
1000
0000
0000
1000
0100
0000
0010
0000
0100
0000
0000
1000
0001
0000
0100
0000
,
0010
0100
0001
0100
1000
0100
0010
0100
,
0001
0000
0010
0000
0100
0000
1000
0000
0001
0010
0001
0000
1000
0010
1000
0000
,
0001
0000
0000
0100
1000
0000
0100
0000
0010
0000
0000
0100
0000
0000
0001
0000
,
1000
0000
0000
0100
0001
0000
0100
0000
0010
0000
0000
0100
0000
0000
1000
0000
,
0001
0100
0010
1000
0100
0010
1000
0000
,
0001
0000
0100
0000
1000
0000
0010
0000
0100
0010
0100
0000
0010
0100
0010
0000
,
2002
0000
0000
0000
,
0000
0000
0000
0000
,
0000
0000
0000
0000
,
3003
0000
0000
0000
;

//---------------dance-single - t7r----------------
#NOTES:
     dance-single:
     t7r:
     Challenge:
     16:
     :
0000
0000
0000
0000
,
0000
0000
0000
0000
,
0000
0000
0000
0000
,
0000
0000
0000
0000
,
0000
0000
0000
0000
,
0001
0100
0010
1000
0001
0010
0001
1000
0001
0100
0010
1000
0001
0010
0001
1000
,
0100
0000
0010
0000
0001
0000
1000
0000
0010
0000
0100
0000
0001
0000
1000
0000
0002
0000
0000
0000
0010
0000
0000
0000
1003
0010
0100
0001
0100
0010
1000
0010
,
0100
0000
0001
1000
0000
0100
0000
1000
0001
0000
1000
0001
0000
0100
0000
0001
1000
0000
0010
0100
0000
0001
0000
1000
0100
0000
0010
0001
0000
1000
0000
0001
,
1000
0000
0010
0100
0000
0100
0000
0001
0010
0000
0100
1000
0000
1000
0000
0001
0100
0000
0010
1000
0000
1000
0000
0001
1000
0000
0100
0010
0000
0010
0000
0001
,
1000
0100
0001
0100
0100
0010
0100
1000
0001
0100
0010
0001
2000
0100
0100
3100
,
0001
0100
1000
0100
0100
0010
0100
0001
1000
0100
0010
1000
0002
0100
0100
0103
,
1000
0000
0010
1000
0010
0000
0100
0000
0100
0000
0010
0000
0001
0000
0010
0000
1000
0000
0100
0010
0100
0000
0010
0000
2000
0000
0010
0000
0010
0000
3010
0000
,
0001
0000
0010
0001
0010
0000
0100
0000
0100
0000
0010
0000
1000
0000
0010
0000
0001
0000
0100
0010
0100
0000
0010
0000
0002
0000
0023
0000
2030
0000
3002
0000
,
1003
0100
0010
0001
0000
0100
0010
0001
0000
1000
0100
0001
0010
0000
0100
0000
,
1000
0001
0010
0001
0000
1000
0010
0000
0002
0000
0000
0000
1003
0100
0001
0010
,
0001
0100
0010
1000
0000
0100
0010
1000
0000
0001
0100
1000
0010
0000
0100
0000
,
0001
1000
0010
1000
0000
0001
0010
0000
2000
0000
0010
0010
3001
0100
1000
0010
,
0100
1000
0001
0010
0000
1000
0100
0001
0000
1000
0010
0100
1000
0001
0100
0000
,
1000
0100
0001
0010
0000
0002
0100
0000
0023
0000
1000
0000
0130
0001
1000
0010
,
0100
0001
1000
0010
0000
0001
0100
1000
0000
0001
0010
0100
0001
1000
0100
0000
,
0001
0100
1000
0010
0000
2000
0100
0000
3020
0000
0001
0001
0130
1000
0001
0010
,
1000
1000
0100
0010
0010
0010
0100
0001
,
0001
0000
0001
0000
0100
0000
0010
0100
1000
0000
1000
0000
0010
0000
1000
0000
,
0001
0000
0001
0000
0100
0000
0010
0000
0100
0000
1000
0100
0010
0000
0100
0000
,
0002
0000
0013
0100
1000
0000
0010
0000
0200
0000
0301
1000
0010
0000
1000
0100
,
0020
0000
1030
0010
0100
0000
0010
0000
0002
0000
0103
0010
1000
0000
0010
0000
,
0002
0000
0013
0100
0001
0000
0010
0000
0200
0000
0301
0100
1000
0000
0010
0000
,
0100
0100
1000
0100
0100
0100
0010
1000
,
0001
0010
0001
0010
0001
0010
0001
0010
0001
1000
0001
1000
0001
1000
0001
1000
,
0001
0010
1000
0010
0001
0010
1000
0010
0002
0000
0000
0000
0100
0000
0000
0000
,
1003
0000
0100
0010
0000
0000
0001
1000
0000
0000
0001
0100
0000
0000
0001
1000
,
0001
0000
1000
0010
0000
0000
0100
0010
0000
0000
1000
0100
0000
0000
1000
0001
,
1000
0000
0010
0100
0000
0000
0010
1000
0000
0000
0001
1000
0000
0000
0001
0010
,
0001
0000
1000
0100
0000
0000
0010
0001
0000
0000
1000
0010
0000
0000
0100
0010
,
0200
0000
0000
0000
1000
0000
0320
0000
0000
0000
1030
0000
0100
0000
1000
0001
,
0020
0000
0000
0000
1000
0000
0230
0000
0000
0000
0310
0000
0001
0000
1000
0001
,
0200
0000
0000
0000
1000
0000
0320
0000
0000
0000
1030
0000
0001
0000
1000
0001
,
0100
0001
0001
0010
0010
1000
1000
0010
,
0110
0000
0000
0000
0001
0000
0200
0000
0010
0000
0301
0000
1000
0000
0001
1000
,
0100
0000
1000
0000
0001
0000
1000
0001
0020
0000
1000
0000
0130
0000
1000
0000
,
0001
0100
0010
0000
1000
0100
0010
0000
0001
1000
0010
0000
1000
0001
0010
0000
,
0001
0010
0001
0000
1000
0010
1000
0000
0001
0100
0001
0000
1000
0100
1000
0000
,
0001
0000
0100
0010
1000
0000
0100
0010
0001
0000
1000
0000
0100
0000
0001
0000
,
0100
0000
0010
0001
1000
0000
0001
0000
0100
0000
1000
0000
0001
0000
0010
0000
,
1000
0100
0010
0000
0001
0100
0010
0000
1000
0010
0100
0000
0001
0010
0100
0000
,
1000
0000
0010
0000
0010
0000
0001
0000
0001
0000
0010
0000
0100
0010
0100
0010
,
2000
0000
3100
0010
0001
0000
0100
0010
0200
0000
1300
0100
0001
0000
1000
0000
,
0002
0000
0013
0100
1000
0000
0010
0100
0020
0000
0031
0010
1000
0000
0001
0000
,
1000
0100
0010
1000
0001
0100
0010
0001
,
1000
0000
0010
0000
0001
0000
0010
0000
1000
0100
0010
0001
1000
0010
0100
0001
,
1000
0000
0100
0010
0001
0000
1000
0001
0200
0000
0310
0100
0001
0000
1000
0000
,
0001
0000
0010
0000
1000
0000
0010
0000
0002
0000
0103
0010
1000
0000
0001
1000
,
0001
0000
0100
0010
1000
0000
0001
1000
0200
0000
0301
0100
1000
0000
0001
0000
,
1000
0000
0010
0000
0001
0000
0010
0000
1000
0000
0001
1000
0001
0100
0001
0100
,
0002
0000
0103
0010
1000
0000
0100
0010
0200
0000
0301
0100
1000
0000
0001
0000
,
1000
0000
0010
0000
0001
0000
0010
0100
0010
1000
0001
0000
0010
0000
0001
1000
,
0001
0100
0010
0001
1000
0100
0010
1000
,
0001
0000
0010
0000
1000
0000
0010
0000
0001
0100
0010
1000
0001
0010
0100
1000
,
0001
0000
0100
0010
1000
0000
0001
1000
0200
0000
0301
0100
1000
0000
0001
0000
,
1000
0000
0010
0000
0001
0000
0010
0000
1000
0010
0100
0001
1000
0000
0001
1000
,
0001
0000
0100
0010
1000
0000
0001
1000
0200
0000
0301
0100
1000
0000
0001
0000
,
1000
0000
0010
0000
0001
0000
0010
0000
0100
0001
1000
0001
0010
0100
1000
0001
,
2000
0000
0000
0000
,
0000
0000
0000
0000
,
3000
0000
0000
0000
;

//---------------dance-double - t7r----------------
#NOTES:
     dance-double:
     t7r:
     Easy:
     6:
     :
00000000
00000000
00000000
00000000
,
00000000
00000000
00000000
00000000
,
00000000
00000000
00000000
00000000
,
00000000
00000000
00000000
00000000
,
00000000
00000000
00000000
00000000
,
00010000
00000000
00000100
00000000
,
00002000
00000000
00003001
00001000
,
00000200
00000300
00020000
00030000
,
00002000
00000000
00020000
00033000
,
00011000
00001000
01000000
00000000
,
00100000
00100000
10000000
00000000
,
01000000
00000000
00100000
00000000
,
00001000
00001000
00010000
00000000
,
00000020
00000000
00000130
00000000
,
00000002
00000000
00001003
00000000
,
00000200
00000000
00010300
00000000
,
00002000
00000000
01003000
00000000
,
00100000
10000000
00010000
00000000
,
10000000
01000000
00100000
00000000
,
00001000
00010000
00000010
00000000
,
00000100
00000010
00000200
00000301
,
00000010
00000000
00000100
00000000
,
00010000
00001000
00010000
00000000
,
00001000
00000000
01000000
00000000
,
00100000
10000000
00010000
00000000
,
20000000
00000000
31000000
00000000
,
00200000
00000000
00310000
00000000
,
00001000
00000010
00000100
00000001
,
00002000
00000000
00000000
00000000
,
00003200
00000000
00020000
00030300
,
00011000
00001000
01000000
00010000
,
10000000
01000000
00100000
00010000
,
00001000
00000000
00000010
00000100
,
00000001
00000000
00000010
00000100
,
00001000
00000000
00000100
00010000
,
00001000
00000000
01000000
00010000
,
10000000
00000000
00100000
00000000
,
00010000
00000000
00001000
00010000
,
00011000
00000000
00001000
00000000
,
00000010
00000100
00001000
00000000
,
00000001
00000000
00000100
00000000
,
00001000
00010000
00001000
00100000
,
00010000
00000000
10000000
00100000
,
00010000
00000000
00001000
00000000
,
00000100
00000000
00000001
00000010
,
00001000
00000000
00010000
00000000
,
00012000
00000000
02003000
00000000
,
03020000
00000000
20030000
00000000
,
30100000
00010000
00001000
01000000
,
00010000
00000000
10000000
00000000
,
02000000
00000000
03010000
00001000
,
00010000
00000000
00001000
00000010
,
00000100
00000000
00000010
00000001
,
00000100
00000010
00001000
00010000
,
20010000
00000000
32000000
00000000
,
03200000
00000000
00302000
00000000
,
00013000
00001000
00000100
00000001
,
00001000
00000100
00010000
00010000
,
00011000
00000000
00001000
00010000
,
01000000
10000000
00100000
01000000
,
00010000
00000000
00100000
00000000
,
00001000
00010000
00000010
00001000
,
00002002
00000000
00000000
00000000
,
00000000
00000000
00000000
00000000
,
00003003
00000000
00000000
00000000
;

//---------------dance-double - t7r----------------
#NOTES:
     dance-double:
     t7r:
     Medium:
     9:
     :
00000000
00000000
00000000
00000000
,
00000000
00000000
00000000
00000000
,
00000000
00000000
00000000
00000000
,
00000000
00000000
00000000
00000000
,
00000000
00000000
00000000
00000000
,
00020000
00001000
00030200
00000000
00002300
00000010
00003002
00000000
,
00000013
00000100
00001000
00010000
10000000
00100000
00010000
00001000
,
02000000
00010000
03200000
00000000
20300000
01000000
30020000
00000000
,
10030000
01000000
00010000
00001000
,
00000100
00000001
00001001
00000000
00000001
00000010
00002000
00000000
,
00013000
01000000
11000000
00000000
10000000
00100000
00020000
00000000
,
00031000
00000100
00000110
00000000
00000001
00001000
00000200
00000000
,
00010300
00001000
00011000
00000000
00010000
01000000
10000000
00100000
,
00000000
10000000
00000000
01000000
,
00100000
00001000
00010000
00000000
00002000
00000000
00013000
00000000
,
00000010
00001000
00000100
00000010
,
00000001
00000100
00001000
00000000
00020000
00000000
00130000
00000000
,
10000000
00010000
01000000
00000000
00010000
01000000
00001000
00000000
,
00010000
00000100
00001000
00000000
00000002
00000000
00000013
00000000
,
00000001
00001000
00000010
00000000
00001000
00000010
00010000
00000000
,
00001000
00100000
00010000
00000000
20000000
00000000
30010000
00000000
,
10000000
11000000
10000000
11000000
,
10000000
00000000
00010000
01000000
00200000
00000000
01300000
00000000
,
00010000
00100000
00001000
00010000
,
00000200
00000000
00001300
00000000
00000001
00000000
00000100
00000010
,
00002000
00003001
00000020
00001030
,
00020000
00031000
00200000
00310000
,
10000000
00100000
00000000
10000000
00010000
00000000
10000000
00000000
,
01000000
01000000
00010000
00010000
,
00001000
00000100
00000002
00000000
,
00001003
00000000
00000010
00000100
00000000
00000010
00001000
00000000
,
00000001
00000000
00000010
00000001
00000000
00001000
00000001
00000000
,
00000100
00001000
00010000
01000000
,
10000000
00000000
00100000
10000000
00000000
00010000
10000000
00000000
,
00010000
00000000
10000000
01000000
00000000
00100000
01000000
00000000
,
00100000
00000000
00001000
00010000
00000000
00000010
00001000
00000000
,
00000001
00000010
00001000
00010000
,
00100000
10000000
00010000
00100000
,
00001000
00000000
00010000
00002000
01000000
00000000
00013000
00001000
,
00010000
00000000
00001000
00020000
00000100
00000000
00031000
00010000
,
00001000
00000000
00010000
00002000
00100000
00000000
00013000
00000000
,
00001000
00000010
00000001
00000100
,
00000010
00000000
00000000
00001000
00000100
00000000
00010000
00001000
,
00010000
00000000
00001000
01000000
,
00010000
00000000
00100000
00010000
10000000
00000000
00100000
00000000
,
01000000
00000000
00010000
00000000
10000000
01000000
00010000
00000000
,
00001000
00000000
00011000
00000000
00010000
00000100
00001000
00000000
,
00000010
00000000
00001010
00000000
00001000
00000001
00000100
00000000
,
00000001
00000000
00000010
00000000
00001000
00010000
00001000
00000000
,
00010000
00000000
00100000
00000000
10000000
01000000
00100000
00000000
,
00010000
00000000
01010000
00000000
10000000
01000000
00100000
00000000
,
00001000
00000000
00011000
00000000
00010000
00000100
00001000
00000000
,
00000010
00001000
00000100
00000000
00000010
00000001
00000100
00000000
,
00001000
00010000
00100000
00000000
10000000
00000000
00010000
00000000
,
10000000
00000000
11000000
00000000
10000000
00100000
01000000
00000000
,
00010000
00000000
00110000
00000000
00100000
00001000
00010000
00000000
,
00001000
00000000
00000100
00000001
00001000
00000000
00000001
00000000
,
00000010
00000100
00001000
00000000
00010000
00100000
01000000
00000000
,
10000000
00000000
00000000
00100000
00000000
00000000
01000000
00000000
00010000
00000000
00000000
00000000
10000000
00000000
00000000
00000000
,
01000000
00000000
00000000
00100000
00000000
00000000
00010000
00000000
00001000
00000000
00000000
00000000
00000010
00000000
00000000
00000000
,
00000100
00000001
00001000
00000000
00000100
00010000
00001000
00000000
,
00010000
00000000
01000000
10000000
00100000
00000000
00010000
00000000
,
00022000
00000000
00000000
00000000
,
00000000
00000000
00000000
00000000
,
00033000
00000000
00000000
00000000
;

//---------------dance-double - t7r----------------
#NOTES:
     dance-double:
     t7r:
     Hard:
     12:
     :
00000000
00000000
00000000
00000000
,
00000000
00000000
00000000
00000000
,
00000000
00000000
00000000
00000000
,
00000000
00000000
00000000
00000000
,
00000000
00000000
00000000
00000000
,
00020000
00001000
00030200
00000000
00002300
00000010
00003002
00000000
,
00000013
00000100
00001000
00010000
10000000
00100000
00010000
00001000
,
01000000
00010000
00110000
00000000
00001000
00010000
00010100
00000000
,
00000100
00000000
00000000
00001000
00000000
00000001
00000000
00000000
00000100
00000000
00000000
00000010
00000000
00001000
00000000
00000000
00010000
00000000
00000000
00100000
00000000
01000000
00000000
00000000
10000000
00000000
00000000
00100000
00000000
01000000
00000000
00000000
,
10010000
00000000
10000000
01000000
00100000
00000000
00001000
00010000
00001000
00010000
00001000
00000000
00020000
00000000
00000000
00000000
,
00030100
00000000
00001000
00000001
00001000
00000000
00000001
00000010
00000001
00000010
00000001
00000000
00002000
00000000
00000100
00000000
,
00003001
00000000
00000100
00000010
00001000
00000000
00000100
00010000
00000100
00010000
00000100
00000000
00020000
00000000
00000000
00000000
,
00031000
00000000
01000000
00010000
01000000
00000000
00010000
00100000
00010000
00100000
00010000
00000000
20000000
00000000
30020000
00000000
,
20030000
31000000
00200000
00310000
,
00001000
00000000
00000010
00000100
00000000
00000020
00000000
00000000
00002030
00000000
00000000
00000000
00003001
00000010
00000001
00001000
,
00000002
00000103
00000020
00001030
,
00010000
00000000
00100000
01000000
00000000
00200000
00000000
00000000
00320000
00000000
00000000
00000000
10030000
00100000
10000000
00010000
,
10000000
00000000
00000000
00000000
01000000
00000000
00000000
00000000
10000000
00000000
00010000
00100000
00001000
00000000
00000000
00000000
,
00010000
00000000
00000010
00001000
00000000
00000002
00000000
00000000
00002003
00000000
00000000
00000000
00003001
00000010
00000100
00000000
,
00001000
00000000
00000000
00000000
00000100
00000000
00000000
00000000
00010000
00000000
00001000
00010000
00001000
00000000
00000000
00000000
,
01000000
00000000
00010000
00100000
00000000
00020000
00000000
00000000
20030000
00000000
00000000
00000000
30100000
00000000
00000000
00000000
,
10000000
01000000
00000000
00100000
00010000
00100000
00000000
00001000
,
00010000
00001000
00000000
00010000
00000200
00000000
00001300
00000000
,
00000001
00000000
00000000
00000000
00000100
00000000
00000000
00000000
00001000
00000000
00000000
00010000
00000000
00000000
00000100
00000000
,
00002000
00000000
00003010
00000000
00001000
00000100
00010000
00000000
,
00002000
00100000
00023000
00000010
,
00032000
01000000
00023000
00000100
,
00031000
00010000
00000000
00001000
01000000
00010000
00000000
10000000
,
00100000
00100000
00010000
00010000
00001000
00000000
00010000
00000000
,
00001000
00001000
00000010
00000001
00002000
00000000
00000000
00000000
,
00003001
00000000
00000010
00000100
00001000
00000000
00000001
00000000
,
00000100
00000000
00000010
00001000
00000010
00000000
00001000
00000000
,
00000100
00000000
00010000
00001000
01000000
00000000
00010000
00100000
,
00010000
00000000
10000000
00100000
00000000
01000000
00010000
10000000
,
01000000
00000000
00010000
00002000
00000000
01003000
00010000
00100000
,
00001000
00000000
00010000
00001000
00000100
00000000
00000010
00000000
,
00002000
00000000
00003100
00000020
00000000
00000031
00000100
00000000
,
00001000
00010000
00010000
00100000
00100000
10000000
00010000
00000000
,
10010000
00000000
10000000
02000000
00100000
00000000
13000000
00100000
,
01000000
00000000
00010000
00200000
00010000
00000000
00301000
00010000
,
00000010
00000000
00001000
00000100
00000010
00000001
00001000
00000001
,
00000100
00001000
00010000
01000000
,
10000000
00000000
00100000
01000000
00010000
00000000
10000000
01000000
,
00100000
00000000
00010000
00000000
00001000
00000010
00000100
00000000
,
00000002
00000000
00000013
00000100
00001000
00000000
00000001
00000100
,
00001000
00010000
00000100
00001000
00010000
10000000
01000000
00100000
,
00010000
00000000
00000000
00100000
00010000
00000000
10000000
00000000
00100000
00000000
00000000
01000000
00000000
00000000
00010000
00000000
,
10000000
00000000
00000000
01000000
00100000
00000000
00010000
00000000
00001000
00000000
00000000
00000010
00000000
00000000
00000100
00000000
,
00000001
00000010
00000100
00001000
00000001
00000100
00000010
00001000
,
00010000
00100000
01000000
00000000
10000000
00100000
01000000
00000000
,
00010000
00000000
00000000
00100000
00001000
00000000
00010000
00000000
00001000
00000000
00000000
00000010
00000000
00000000
00000001
00000000
,
00000100
00000000
00000000
00000010
00010000
00000000
00001000
00000000
00010000
00000000
00000000
00100000
00000000
00000000
10000000
00000000
,
01000000
10000000
00010000
00000000
01000000
00010000
00100000
00000000
,
00001000
00010000
00000010
00001000
00000001
00000010
00000100
00000000
,
00001000
00000000
00000000
00000010
00001000
00000000
00000001
00000000
00000010
00000000
00000000
00000100
00000000
00000000
00001000
00000000
,
00000001
00000000
00000000
00000100
00000010
00000000
00001000
00000000
00010000
00000000
00000000
00100000
00000000
00000000
01000000
00000000
,
10000000
00100000
01000000
00010000
10000000
01000000
00100000
00010000
,
00001000
00000010
00000100
00000000
00000001
00000010
00000100
00000000
,
00001000
00000000
00000000
00000010
00010000
00000000
00001000
00000000
00010000
00000000
00000000
00100000
00000000
00000000
10000000
00000000
,
01000000
00000000
00000000
00100000
00001000
00000000
00010000
00000000
00001000
00000000
00000000
00000010
00000000
00000000
00000001
00000000
,
00000100
00001000
00010000
00000000
01000000
10000000
00010000
00000000
,
00100000
00001000
00010000
00001000
00000010
00000100
00010000
00000000
,
00022000
00000000
00000000
00000000
,
00000000
00000000
00000000
00000000
,
00000000
00000000
00000000
00000000
,
00033000
00000000
00000000
00000000
;

//---------------dance-double - t7r----------------
#NOTES:
     dance-double:
     t7r:
     Challenge:
     16:
     :
00000000
00000000
00000000
00000000
,
00000000
00000000
00000000
00000000
,
00000000
00000000
00000000
00000000
,
00000000
00000000
00000000
00000000
,
00000000
00000000
00000000
00000000
,
00001000
01000000
00010000
10000000
01000000
00100000
00010000
00001000
00000001
00000010
00000100
00001000
00000001
00000100
00001000
00010000
,
01000000
00000000
10000000
00000000
00100000
00000000
00010000
00000000
00001000
00000000
00100000
00000000
00010000
00000000
00001000
00000000
00000001
00000000
00000010
00000000
00001000
00000000
00010000
00000000
00000100
00001000
00000001
00000010
00000100
00001000
00000001
00000100
,
00000001
00000000
00000100
00000001
00000000
00001000
00000000
00000100
00010000
00000000
00001000
00010000
00000000
00001000
00000000
01000000
00010000
00000000
10000000
00010000
00000000
00100000
00000000
00001000
00010000
00000000
00000010
00001000
00000000
00000001
00000000
00001000
,
00000001
00000000
00000100
00001000
00000000
00010000
00000000
01000000
10000000
00000000
00100000
01000000
00000000
00010000
00000000
10000000
01000000
00000000
00010000
00001000
00000000
00000100
00000000
00000001
00000010
00000000
00001000
00010000
00000000
00100000
00000000
10000000
,
00010000
10000000
01000000
00100000
00100000
00010000
10000000
00100000
01000000
00010000
10000000
01000000
00020000
00001000
00001000
00031000
,
00010000
00000100
00001000
00000001
00000001
00000100
00000010
00001000
00000001
00000010
00000100
00001000
00020000
00100000
00100000
00130000
,
00010000
00000000
01000000
00010000
01000000
00000000
00010000
00000000
00010000
00000000
10000000
00000000
01000000
00000000
00010000
00000000
00001000
00000000
00000100
00000010
00000100
00000000
00000010
00000000
00002000
00000000
00000001
00000000
00000001
00000000
00003001
00000000
,
00000010
00000000
00000001
00001000
00000001
00000000
00000100
00000000
00000100
00000000
00000001
00000000
00000010
00000000
00000100
00000000
00001000
00000000
00010000
00000000
00100000
00000000
00010000
10000000
00020000
00000000
20030000
00000000
30200000
00000000
00320000
00000000
,
00030000
00001000
01000000
00001000
00000000
00010000
00000100
00010000
00000000
00001000
00100000
00001000
00020000
00000000
00032000
00000000
,
00003100
00000001
00001000
00000001
00000000
00000010
00001000
00000000
00020000
00000000
00000000
00000000
00031000
00100000
00010000
01000000
,
00001000
00010000
00000100
00010000
00000000
00001000
01000000
00001000
00000000
00010000
00000010
00010000
00002000
00000000
00023000
00000000
,
01030000
10000000
00010000
10000000
00000000
00100000
00010000
00000000
00002000
00000000
01000000
01000000
00013000
00001000
00100000
00010000
,
10000000
01000000
00010000
00001000
00000000
00000100
00001000
00010000
00000000
00100000
00010000
00001000
00000010
00000100
00001000
00000000
,
00000001
00000100
00001000
00010000
00000000
00002000
01000000
00000000
00023000
00000000
00000010
00000000
00031000
00010000
00001000
00000100
,
00000001
00000010
00001000
00010000
00000000
00100000
00010000
00001000
00000000
00000100
00001000
00010000
01000000
00100000
00010000
00000000
,
10000000
00100000
00010000
00001000
00000000
00020000
00000010
00000000
00032000
00000000
01000000
01000000
00013000
00001000
00010000
00100000
,
10000000
10000000
01000000
00100000
00100000
00100000
00010000
10000000
,
10000000
00000000
10000000
00000000
00100000
00000000
01000000
00010000
10000000
00000000
01000000
00000000
00010000
00000000
00001000
00000000
,
00000100
00000100
00000001
00001000
00001000
00001000
00000001
00000010
,
00000001
00000000
00000100
00000000
00002000
00000000
00000000
00000000
00013000
00000000
01000000
00000000
10000000
00000000
00010000
10000000
,
00020000
01000000
00000000
10030000
02000000
00100000
00000000
03010000
,
00002000
01000000
00000000
00013000
00000020
00000100
00000000
00001030
,
00000001
00000001
00000010
00000100
00000100
00000100
00010000
00001000
,
00010000
00000010
00010000
00000010
00010000
00000010
00010000
00000010
00010000
00001000
00010000
00001000
00010000
00001000
00010000
00001000
,
00010000
00000000
01000000
10000000
00010000
00000000
01000000
00100000
20000000
00000000
00000000
00000000
01000000
00000000
00000000
00000000
,
30010000
00000000
10000000
01000000
00000000
00000000
00100000
00010000
00000000
00000000
00001000
00000100
00000000
00000000
00001000
00000001
,
00001000
00000000
00000001
00000100
00000000
00000000
00000010
00001000
00000000
00000000
00010000
01000000
00000000
00000000
00010000
10000000
,
00010000
00000000
10000000
00100000
00000000
00000000
00010000
00001000
00000000
00000000
00010000
00000100
00000000
00000000
00001000
00000001
,
00001000
00000000
00000001
00000010
00000000
00000000
00001000
00010000
00000000
00000000
00000100
00001000
00000000
00000000
00000001
00000100
,
00000020
00000000
00000031
00000010
00001000
00000100
00010000
00001000
,
00011000
00000000
00010000
00100000
10000000
01000000
00100000
00001000
,
00101000
00000000
00001000
00010000
00000000
00000000
01000000
10000000
00000000
00000000
00100000
01000000
00000000
00000000
00010000
10000000
,
00010000
10000000
10000000
00100000
00100000
00010000
00010000
00001000
,
00011000
00000000
00010000
00000020
00001000
00000000
00000130
00000001
,
00002000
00000000
00000000
00000000
00000100
00000000
00003001
00001000
00000001
00000000
00000010
00000000
00000100
00000000
00001000
00000000
,
00010000
00000000
00100000
00010000
00000000
00000000
10000000
00100000
00000000
00000000
01000000
00010000
10000000
00000000
01000000
00000000
,
10000000
00100000
00000000
00000000
00010000
00001000
00000000
00000000
00000010
00000001
00000000
00000000
00000100
00001000
00000000
00000000
,
00010000
00001000
00000000
00000000
00010000
00000000
01000000
00000000
00100000
00000000
01000000
00000000
10000000
00000000
00010000
01000000
,
00001000
00000000
00010000
00001000
00000100
00000010
00000100
00000001
,
00001000
00000000
00000001
00000010
00000100
00000000
00001000
00000000
00000001
00000000
00000100
00000010
00001000
00000000
00010000
00000000
,
01000000
00000000
00010000
00000000
00010000
00000000
00100000
00000000
00100000
00000000
01000000
00000000
10000000
00010000
10000000
00010000
,
20000000
00000000
31000000
00100000
00010000
00000000
10000000
00000000
00200000
00000000
01300000
00010000
10000000
00000000
01000000
00000000
,
00020000
00000000
00031000
00010000
00000100
00000000
00001000
00000000
00000020
00000000
00000130
00000001
00001000
00000000
00000001
00000000
,
00000010
00001000
00010000
00000100
00001000
00000001
00000100
00001000
,
00010000
00000000
00100000
00000000
01000000
00000000
00010000
00000000
10000000
01000000
00100000
00010000
10000000
00100000
01000000
00010000
,
10000000
00000000
00100000
01000000
00010000
00000000
10000000
00000000
02000000
00000000
03010000
00001000
00010000
00000000
00001000
00000000
,
00010000
00000000
00000010
00000000
00000100
00000000
00000001
00000000
00002000
00000000
00003100
00000010
00000001
00000000
00001000
00000001
,
00001000
00000000
00000001
00000010
00000100
00000000
00010000
00000000
00002000
00000000
01003000
00010000
10000000
00000000
00100000
00000000
,
10000000
00000000
01000000
00000000
00010000
00000000
00001000
00000000
00000100
00000010
00001000
00000000
00000001
00001000
00000001
00001000
,
00000002
00000000
00000013
00000100
00001000
00000000
00000001
00000000
00000200
00000000
00000310
00001000
00000001
00000000
00000010
00000000
,
00002000
00000000
00013000
00001000
00100000
00000000
00010000
00000000
02000000
00000000
03100000
10000000
00010000
00000000
10000000
00000000
,
01000000
00010000
00001000
00100000
00010000
10000000
00100000
00010000
,
00001000
00000000
00000010
00000000
00000001
00000000
00000100
00000000
00000001
00000010
00000100
00001000
00000001
00000100
00000010
00001000
,
00000001
00000000
00000100
00000010
00001000
00000000
00000001
00000000
00000020
00000000
00001030
00010000
00001000
00000000
00010000
00000000
,
00001000
00000000
01000000
00000000
00100000
00000000
10000000
00000000
00020000
00000000
00130000
01000000
10000000
00000000
00010000
10000000
,
00010000
00000000
10000000
01000000
00100000
00000000
00001000
00000000
00020000
00000000
00030010
00001000
00000001
00000000
00000100
00000000
,
00000001
00000000
00001000
00000000
00000100
00000000
00010000
00000000
00001000
00010000
01000000
00000000
10000000
00100000
01000000
00001000
,
00020000
00000000
00000000
00000000
,
00000000
00000000
00000000
00000000
,
00030000
00000000
00000000
00000000
;
