#TITLE:LASER CRUSTER (IGNITE REMIX);
#ARTIST:Remixed by BEMANI Sound Team "HuΣeR";
#ARTISTTRANSLIT:Remixed by HuΣeR;
#BANNER:LASER CRUSTER (IGNITE REMIX).png;
#BACKGROUND:LASER CRUSTER (IGNITE REMIX)-bg.png;
#JACKET:LASER CRUSTER (IGNITE REMIX)-jacket.png;
#CDTITLE:./CDTITLES/BEATMANIA IIDX.PNG;
#MUSIC:LASER CRUSTER (IGNITE REMIX).ogg;
#SAMPLESTART:24.828;
#SAMPLELENGTH:15;
#DISPLAYBPM:87:174;
#BPMS:0=174,183=348,184=87,216=174;
#BGCHANGES:0=../../../BGAs/19cy.mp4=1=0=0=1=====;
#STOPS:183=0.17241379310344827586206896551724;

//---------------dance-single - t7r----------------
#NOTES:
     dance-single:
     t7r:
     Beginner:
     3:
     :
0000
0000
0000
0000
,
0000
0000
0000
0000
,
0000
0000
0000
0000
,
0000
0000
0000
0000
,
0000
0000
0000
0000
,
0000
0000
0000
0000
,
0001
0000
0000
0000
,
0000
0000
0000
0000
,
1000
0000
0000
0000
,
0000
0000
0000
0000
,
0010
0000
0000
0000
,
0010
0000
0000
0000
,
0010
0000
0000
0000
,
0010
0000
0000
0000
,
0100
0000
0000
0000
,
0100
0000
0000
0000
,
0001
0000
0000
0000
,
1000
0000
0000
0000
,
0100
0000
0000
0000
,
0100
0000
0000
0000
,
0010
0000
0000
0000
,
0010
0000
0000
0000
,
0001
0000
0000
0000
,
0001
0000
0000
0000
,
1000
0000
0000
0000
,
1000
0000
0000
0000
,
0000
0010
0000
0010
,
0010
0000
0010
0000
,
0000
0100
0000
0100
,
0100
0000
0100
0000
,
0000
0001
0000
0001
,
0001
0000
0001
0000
,
0000
1000
0000
1000
,
1000
0000
1000
0000
,
1001
0000
0000
0000
,
0000
0000
0000
0000
,
1000
0000
0000
0000
,
0100
0000
0000
0000
,
0010
0000
0010
0000
,
0001
0000
0001
0000
,
0100
0000
0100
0000
,
0010
0000
0010
0000
,
1001
0000
0000
0000
,
0000
0000
0000
0000
,
0000
0000
0000
0000
,
0000
0000
0000
0000
,
1000
0000
1000
0000
,
0001
0000
0001
0000
,
0100
0000
0100
0000
,
0010
0010
0010
0000
,
1000
0000
0100
0100
,
0000
0010
0000
0001
,
0001
0000
0100
0100
,
0010
0000
1000
0000
,
1001
0000
0000
0000
,
0000
0000
0000
0000
,
1000
0000
0000
0000
,
0000
0000
0000
0000
,
0100
0000
0000
0000
,
0100
0000
0000
0000
,
0010
0000
0000
0000
,
0010
0000
0000
0000
,
0001
0000
0000
0000
,
1000
0000
0000
0000
,
1000
0000
0000
0000
,
0010
0000
0000
0000
,
0010
0000
0000
0000
,
0100
0000
0000
0000
,
0100
0000
0000
0000
,
0001
0000
0000
0000
,
0001
0000
0000
0010
,
0010
0000
0000
0000
,
0010
0000
0000
0000
,
0100
0000
0100
0000
,
0100
0000
0000
0000
,
1000
0000
0000
0000
,
0010
0000
0010
0000
,
0100
0000
0000
0000
,
0001
0000
1000
0000
,
1001
0000
0000
0000
;

//---------------dance-single - t7r----------------
#NOTES:
     dance-single:
     t7r:
     Easy:
     8:
     :
0000
0000
0000
0000
,
0000
0000
0000
0000
,
0000
0000
0000
0000
,
0000
0000
0000
0000
,
0000
0000
0000
0000
,
0000
0000
0000
0000
,
0000
0000
0000
0000
,
0000
0000
0000
0000
,
1000
1000
0001
0001
,
0100
0000
0000
0110
0000
0000
0000
0000
,
0001
0010
0100
1000
,
0001
0010
0100
1000
,
0001
0010
0100
1000
,
0001
0100
0010
1001
,
1000
0100
0010
0001
,
1000
0100
0010
0001
,
1000
0000
1000
0000
0001
1000
0001
1000
,
0010
0000
0000
0110
0000
0000
0000
0000
,
0100
0000
0000
0001
0000
1000
0100
0000
,
1000
0000
0000
0001
0000
0010
0001
0000
,
0100
0000
0000
0010
0000
1000
0001
0000
,
0100
0000
0000
0010
0000
0000
0110
0000
,
0001
0000
0000
0010
0000
0100
1000
0000
,
0010
0000
0000
0100
0000
0001
1000
0000
,
0100
0000
0000
0010
0000
0001
1000
0000
,
0010
0100
0010
0000
0100
0000
0110
0000
,
0000
0000
0001
0000
0000
0010
0000
0000
,
0001
0000
0000
1000
0000
0100
0010
0001
,
0000
0000
1000
0000
0000
0010
0000
0000
,
0100
0000
0000
0010
0000
0000
0110
0000
,
0001
0000
0010
0100
0000
0000
1000
0000
,
0001
0000
0100
0010
0000
1000
0000
0000
,
0001
0000
1000
0010
0000
1000
0000
0000
,
0001
0000
0000
0110
0000
0000
1001
0000
,
1000
1000
0000
0000
0000
0000
0000
0000
,
0000
0000
0000
0000
0000
0200
0010
0000
,
1300
1000
0000
0000
0000
0000
0000
0000
,
1001
0000
0000
0101
0000
0000
2001
0000
,
3001
0010
0001
0000
1000
0000
0100
0000
,
0010
0000
0001
0000
0100
0020
1000
0000
,
0130
0010
0100
0000
0001
0000
1000
0000
,
0100
0000
0000
0110
0000
0000
2001
0000
,
3010
0000
0000
0000
,
0000
0000
0000
0000
,
0000
0000
0000
0000
,
0000
0000
0000
0000
,
1001
0000
1000
0000
0100
1000
0001
0000
,
0100
0000
0110
0000
0001
1000
0010
0000
,
1001
0000
1000
0000
0100
0010
0001
0000
,
0100
1000
0100
0000
0001
1000
0100
0000
,
1000
0000
0010
0000
1010
0010
1010
0000
,
1000
0001
0010
0000
0011
0010
0011
0000
,
0001
0000
1000
0000
0010
0100
0001
0000
,
0010
0000
0001
0000
0010
0000
1000
0000
0010
0000
0000
0100
0000
0000
0020
0000
,
0031
0000
0000
0000
,
0000
0000
0000
0000
,
1000
0000
0000
0000
,
0010
0000
0000
0010
0000
0000
0010
0000
,
0100
0001
1000
0010
,
1000
0100
0010
0001
,
0100
0000
0010
0100
0010
0000
0100
0000
,
0001
0000
0000
1001
0000
0000
1000
0000
,
0000
1100
0000
0000
0001
0000
0020
0000
,
0031
0100
0010
1000
,
0001
0100
0010
1000
,
0001
0010
0100
1000
,
0100
0000
0010
0000
0001
1000
0001
0000
,
1000
0010
0100
0001
,
1000
0100
0010
0001
,
1000
0010
0100
0001
,
0010
0000
0100
0000
1000
0001
0100
0000
,
0020
0000
0001
0000
0100
0000
0000
2030
,
0000
0100
0001
3010
,
1000
0100
0010
0001
,
0100
0010
1000
0001
,
0020
0000
1000
0000
0100
0000
0000
0031
,
0001
1000
0010
0001
,
0020
0000
0130
0002
0000
1003
0200
0000
,
1300
0000
0000
0010
0000
0000
0100
0000
0000
0001
0000
0000
0000
0000
0000
0000
,
1001
0000
0000
0000
;

//---------------dance-single - t7r----------------
#NOTES:
     dance-single:
     t7r:
     Medium:
     12:
     :
0000
0000
0000
0000
,
0000
0000
0000
0000
,
0000
0000
0000
0000
,
0000
0000
0000
0000
,
0000
0000
0000
0000
,
0000
0000
0000
0000
,
0000
0000
0000
0000
,
0000
0000
0000
0000
,
1000
0100
0100
0010
0001
1000
1000
0001
,
0100
0000
0000
0010
0000
0000
1000
0000
0000
0001
0000
0000
0000
0000
1000
0000
,
0001
0000
0010
0000
0100
0000
0000
0010
0000
0000
0001
0000
1000
0000
0010
0000
,
1000
0000
0100
0000
0010
0000
0000
0100
0000
0000
1000
0000
0001
0000
0100
0000
,
0001
0000
0010
0000
0100
0000
0000
1000
0000
0000
0010
0000
0100
0000
0001
0000
,
1000
0000
0100
0000
0010
0000
0000
0001
0000
0000
1000
0000
0020
0000
0000
0000
,
0130
0001
1000
0001
0010
0100
1000
0000
,
0100
1000
0001
1000
0010
0100
0001
0000
,
1000
1000
0001
0001
0100
0100
0010
0010
,
1000
0000
0000
0100
0000
0000
0010
0000
0000
0001
0000
0000
2000
0000
0000
0000
,
3001
0000
0010
0100
0000
0100
1000
0000
,
0001
0000
1000
0010
0000
0010
0100
0000
,
0010
0000
0100
0001
0000
0001
1000
0000
,
0100
0000
0010
0100
0000
0010
0110
0000
,
1000
0000
0010
0100
0000
0100
0001
0000
,
1000
0000
0100
0010
0000
0010
0001
0000
,
1000
0000
0010
1000
0000
1000
0001
0000
,
0010
0000
0100
1000
0001
0100
0020
0000
,
1030
0000
0100
0000
0001
0100
0000
0010
,
0100
0000
0001
0100
0000
1000
0001
1000
,
0000
0000
0001
0000
0100
0010
0000
0100
,
1000
0000
0100
0010
0000
0100
0110
0000
,
1000
0000
0010
0000
0100
0010
0000
0001
,
0010
0000
0100
0001
0000
1000
0001
0000
,
0010
0000
1000
0000
0010
0100
0000
1000
,
0001
0000
0000
0100
0000
0000
0010
0000
0000
1000
0000
0000
0000
0000
0001
0000
,
1000
1000
0100
0000
0010
0000
0001
0000
,
0100
0000
0010
0000
1000
0020
0100
0000
,
1030
1000
0001
0000
0010
0000
0100
0000
,
1000
0000
0000
0010
0000
0000
0100
0000
0000
0001
0000
0000
2000
0000
0000
0000
,
3001
0001
0010
0000
0100
0000
1000
0000
,
0001
0000
0100
0000
0010
0200
0001
0000
,
0310
0010
1000
0000
0001
0000
0010
0000
,
0001
0000
0000
1000
0000
0000
0010
0000
0000
0100
0000
0000
0210
0000
0000
0000
,
0310
0000
0000
0000
,
0000
0000
0000
0000
,
0000
0000
0000
0000
,
0000
0000
0000
0000
,
1001
0000
1000
0000
0010
1000
0010
1000
0010
1000
0010
1000
0020
0000
2030
0000
,
3001
0000
1000
0000
0001
0010
0001
0010
0001
0100
0100
0000
0010
0100
0001
0000
,
1000
0000
0001
0000
1000
0100
1000
0100
1000
0100
1000
0100
2000
0000
3002
0000
,
0103
0000
0010
1000
0001
0000
0010
0000
0100
0000
0010
0001
1000
0000
0002
0000
,
1003
0000
0100
0000
1000
0000
0010
1000
1010
0000
0010
0000
1010
0000
2000
0000
,
3001
0000
0100
0000
0001
0000
0010
0001
0011
0000
0010
0000
0011
0000
0002
0000
,
1003
0000
0100
0000
1000
0001
1000
0001
1000
0001
1000
0001
0200
0000
0320
0000
,
1030
0000
0000
0000
0100
0000
0010
0000
0001
0000
0000
0000
0100
0000
0000
0000
0010
0000
0000
1000
0000
0000
0001
0000
0000
0010
0000
0000
0002
0000
0000
0000
,
0103
0100
0000
0000
0000
0000
0000
0000
,
0000
0000
0000
0000
,
0010
0010
0000
0000
0000
0000
0000
0000
,
1000
0000
0000
0001
0000
0000
1000
0000
,
1001
1000
0100
0010
,
0001
0100
0010
1000
,
0001
1000
0001
1000
0001
1000
0001
1000
,
0001
0000
0000
0010
0000
0000
0100
0000
0000
1000
0000
0000
0010
0000
0000
0100
,
0001
0000
0010
0000
0000
0100
1000
0000
0001
0000
0100
0000
0020
0000
0000
0000
,
1030
0000
0100
0010
0000
0100
0001
0000
,
0100
0000
1000
0001
0100
0001
1000
0000
,
0001
0000
0100
0010
0000
0100
1000
0000
,
0100
0000
0001
1000
0100
0010
0110
0000
,
1000
0000
0010
0100
0000
0010
0001
0000
,
0010
0000
1000
0001
0010
0001
1000
0000
,
0001
0000
0010
0100
0000
0010
1000
0000
,
0010
0000
0001
1000
0010
0100
0001
1000
,
0020
0000
0001
0000
0100
0000
1030
2000
,
0100
0000
0001
0000
3010
0100
0001
0000
,
0010
0100
1000
0100
0010
0001
0100
0010
,
0100
0001
1000
0010
0100
0001
1000
0100
,
0020
0000
1000
0000
0100
0031
0001
0010
,
0010
1000
1000
0010
0010
0001
0001
1000
,
0020
0000
0001
0230
0000
1000
0320
0000
,
1030
0000
0000
0100
0010
0000
0001
0000
0000
0100
0010
0000
1000
0000
0001
0000
,
1001
0000
0000
0000
;

//---------------dance-single - t7r----------------
#NOTES:
     dance-single:
     t7r:
     Hard:
     16:
     :
0000
0000
0000
0000
,
0000
0000
0000
0000
,
0000
0000
0000
0000
,
0000
0000
0000
0000
,
0000
0000
0000
0000
,
0000
0000
0000
0000
,
0000
0000
0000
0000
,
0000
0000
0000
0000
,
1000
0000
0001
0100
0001
0000
1000
0000
0001
0000
1000
0100
1000
0000
0001
0000
,
1000
0000
0000
0100
0010
0000
0001
0000
0000
0100
0010
0000
0000
0000
1000
0000
,
0001
0010
0001
0000
1000
0000
0100
0010
0000
0010
0001
0000
1000
0000
0001
0000
,
1000
0010
1000
0000
0001
0000
0100
0010
0000
0010
1000
0000
0001
0000
0010
0000
,
0001
1000
0001
0000
0100
0000
0010
1000
0000
1000
0001
0000
1000
0000
0100
0000
,
1000
0001
1000
0000
0001
0000
0100
0010
0000
0010
1000
0000
0002
0000
0000
0000
,
1003
0000
0100
0010
0001
0000
0100
0000
0010
1000
0001
0000
1000
0000
0100
0000
,
1000
0000
0001
0100
0010
0000
0100
0000
0010
1000
0001
0000
0010
0000
0001
0000
,
1000
0001
1000
0001
1000
0001
1000
0001
1000
0001
1000
0001
1000
0001
1000
0001
,
1000
0000
0000
0100
0010
0000
0001
0000
0000
0100
0010
0000
2000
0000
0000
0000
,
3001
0000
1000
0010
1000
0000
0001
0000
1000
0100
1000
0000
0001
0000
0000
0000
,
1000
0000
0001
0010
0001
0000
1000
0000
0001
0100
0001
0000
1000
0000
0000
0000
,
0010
0000
0100
0010
0100
0000
0010
0000
1000
0001
1000
0000
0100
0000
0000
0000
,
0010
0000
0100
0010
0100
0000
1000
0000
0001
0000
0110
0000
1001
0000
0000
0000
,
1000
0000
0100
0010
0001
0000
0100
0000
0010
1000
0001
0000
1000
0000
0000
0000
,
0001
0000
0010
0100
1000
0000
0001
0000
0100
0010
1000
0000
0001
0000
0000
0000
,
1000
0000
0100
1000
0010
0000
0100
0000
0001
0010
0100
0000
1000
0000
0000
0000
,
0001
0100
0001
0100
0001
0000
0010
0100
1000
0000
0010
0000
1000
0001
1000
0001
,
1000
0100
0010
1000
0001
0100
0010
0100
,
1000
0000
0010
0000
0100
0000
1000
0000
0100
0000
0010
0000
1000
0100
0010
0001
,
1000
0000
0001
0000
0010
0000
0100
0000
0001
0000
0100
0000
0010
0000
0001
1000
,
0010
0000
0100
0001
1000
0000
0010
0000
0100
0000
0110
0000
1001
0000
0000
0000
,
0001
0000
0100
0001
1000
0000
0010
0000
0100
0001
1000
0000
0001
0000
0000
0000
,
1000
0000
0100
1000
0001
0000
0010
0000
0100
1000
0001
0000
1000
0000
0000
0000
,
0010
0000
1000
0100
0010
0000
0001
0000
0100
0010
1000
0000
0010
0000
1000
0001
,
1000
0000
0000
0100
0010
0000
0001
0000
0000
0100
0010
0000
1000
0001
1000
0001
,
1000
1100
0200
0000
0001
0000
0010
0000
,
1000
0000
0010
0000
0301
0200
0010
0000
,
1300
1010
0020
0000
0001
0000
0100
0000
,
1030
0000
0000
0100
0010
0000
0001
0000
0000
0100
0010
0000
2000
0000
0000
0000
,
3001
0011
0010
1000
0010
0100
1000
0010
,
0001
0010
0100
1000
0001
0020
0001
0100
,
1030
1100
0100
0001
0100
0010
0001
0100
,
0010
0000
0000
1000
0100
0000
0010
0000
0000
0001
0100
0000
0002
0000
0000
0000
,
1003
0000
0000
0000
,
0000
0000
0000
0000
,
0000
0000
0000
0000
,
0000
0000
0000
0000
,
1001
0000
0000
0000
1100
0000
0000
0000
1000
0000
0010
1000
0010
0000
1000
0010
1000
0000
0010
1000
0010
0000
1000
0010
2000
0000
3002
0000
0203
0000
0320
0000
,
1030
0000
0000
0000
1001
0000
0000
0000
0001
0000
0010
0001
0010
0000
0001
0010
0001
0000
0100
0000
0100
0000
0010
0000
1000
0001
1000
0000
1001
0000
0000
0000
,
0110
0000
0000
0000
0101
0000
0000
0000
0001
0000
0010
0001
0010
0000
0001
0010
0001
0000
0010
0001
0010
0000
0001
0010
0002
0000
2003
0000
3200
0000
0320
0000
,
0130
0000
1000
0000
0010
0000
0001
0000
1000
0000
0100
0000
0010
0000
0100
0000
0001
0000
0010
0100
1000
0000
0001
0000
0100
0010
1000
0000
0002
0000
0000
0000
,
1003
0000
0100
0000
1000
0010
1010
0010
1010
0000
1010
0010
1010
0000
0110
0000
,
0101
0000
1001
0000
0001
0010
0011
0010
0011
0000
0011
0010
0011
0010
0110
0000
,
1001
0000
0000
0000
1100
0000
0000
0000
1000
0000
0010
1000
0010
0000
1000
0010
1000
0000
0010
1000
0010
0000
1000
0010
2000
0000
3002
0000
0203
0000
0320
0000
,
1030
0000
0100
0000
0001
0000
0100
0000
0010
0000
0001
0000
0100
0000
1000
0000
0100
0000
0010
1000
0010
0000
1000
0000
0001
0010
0100
0000
2000
0000
0000
0000
,
3001
0001
0000
0000
0000
0000
0000
0000
,
0000
0000
0000
0000
,
1000
1000
0000
0000
0000
0000
0000
0000
,
0010
0000
0010
0000
0000
0000
0100
0000
0000
0000
0001
0000
1000
0001
0100
0000
,
0010
0000
1000
0000
0001
0000
1000
0100
0000
0100
0010
0000
0001
0000
0000
0000
,
1000
0000
0001
0000
0100
0000
0010
1000
0000
1000
0001
0000
0010
0000
0000
0000
,
0001
1000
0001
1000
0001
1000
0001
1000
0010
0100
0010
0100
0010
0100
0010
0100
,
0001
0000
0000
0010
0100
0000
1000
0000
0000
0010
0100
0000
0010
0000
0000
1000
,
0100
0000
0010
0000
0000
0001
0100
0000
0010
0100
0001
0000
2000
0000
0000
0000
,
3001
0000
0010
0100
1000
0000
0001
0000
0100
0010
1000
0000
0001
0000
0000
0000
,
1000
0000
0100
0010
0001
0000
1000
0000
0010
0100
0001
0000
1000
0000
0000
0000
,
0010
0000
0100
0001
1000
0000
0100
0000
0010
0001
1000
0000
0010
0000
0000
0000
,
0100
0000
0010
1000
0001
0000
0010
0100
1000
0000
0110
0000
1001
0000
0000
0000
,
0001
0000
0100
0001
0010
0000
0100
0000
1000
0010
0100
0000
0010
0000
0000
0000
,
1000
0000
0100
1000
0010
0000
0100
0000
0001
0010
0100
0000
0010
0000
0000
0000
,
0001
0000
0010
0001
0100
0000
0010
0000
1000
0100
0010
0000
0001
0000
0000
0000
,
0100
0010
0100
0010
0100
0000
0001
1000
0010
0000
1000
0001
0010
0000
0001
1000
,
0020
0000
0001
0000
0100
0000
1030
2000
,
0100
0000
0000
0000
3001
0000
1000
0010
1000
0000
0001
0000
1000
0000
0100
1000
,
0100
0000
0010
0000
0001
0000
0100
0001
0100
0000
0010
0000
1000
0000
0001
0000
,
1000
0100
0010
0000
0001
0100
0010
0000
1000
0010
0100
0000
0001
0010
0100
0000
,
0020
0000
0000
0000
1000
0000
0000
0000
0100
0000
0031
1000
0001
0000
1000
0010
,
1000
0000
0001
0010
0001
0000
1000
0100
1000
0000
0001
0100
0001
0000
1000
0010
,
0200
0000
1000
0320
0000
0001
0230
0000
,
0301
0010
0100
1000
0001
0000
1000
0010
0100
0001
1000
0000
0100
0010
0100
0010
,
0001
0000
0000
0000
;

//---------------dance-single - t7r----------------
#NOTES:
     dance-single:
     t7r:
     Challenge:
     18:
     :
0000
0000
0000
0000
,
0000
0000
0000
0000
,
0000
0000
0000
0000
,
0000
0000
0000
0000
,
0000
0000
0000
0000
,
0000
0000
0000
0000
,
0000
0000
0000
0000
,
0000
0000
0000
0000
,
0001
1000
0001
1000
0001
1000
0001
1000
0001
1000
0001
1000
0001
1000
0001
1000
,
0010
0000
0000
1000
0100
1000
0010
0000
0000
0100
0001
0000
0000
0010
0001
1000
,
0001
0100
0010
0000
0100
0000
0001
1000
0000
1000
0100
0000
1000
0010
0100
0001
,
1000
0100
0010
0000
0100
0000
1000
0001
0000
0001
0100
0000
0001
1000
0010
0100
,
0001
0010
0100
0000
0010
0000
0001
1000
0000
1000
0010
0000
1000
0100
0010
0001
,
1000
0010
0100
0000
0010
0000
1000
0001
0000
0001
0010
0000
0002
0000
0100
0000
,
1003
0100
0010
0000
0100
0000
1000
0010
0000
0010
0100
0000
0001
1000
0100
0010
,
0001
0100
0010
0000
0100
0000
0001
0010
0000
0010
0001
0000
1000
0010
0100
0001
,
1000
0001
1000
0001
1000
0001
1000
0001
1000
0001
1000
0001
1000
0001
1000
0001
,
0100
0000
0000
0001
0010
0001
0100
0000
0000
0010
1000
0000
0100
0010
0001
1000
,
0001
0010
0100
1000
0001
0000
0010
0100
1000
0001
0010
0000
0200
0000
0010
0000
,
1300
0010
0100
0001
1000
0000
0010
0100
0001
1000
0010
0000
0200
0000
0010
0000
,
0301
0100
0010
1000
0001
0000
0100
0010
1000
0001
0100
0000
0020
0000
0100
0000
,
1030
0100
0010
0001
1000
0000
0010
0100
0001
0000
0110
0000
1000
0001
0100
0001
,
1000
0100
0010
0100
1000
0000
0100
0010
0001
0100
0010
0000
0200
0000
0010
0000
,
0301
0100
0010
0100
0001
0000
0100
0010
1000
0100
0010
0000
0200
0000
0010
0000
,
1300
0010
0100
0010
1000
0000
0010
0100
0001
0010
0100
0000
0020
0000
0100
0000
,
0031
0100
0001
0100
0010
0000
0100
0001
1000
0000
0100
0000
1000
0001
0100
0001
,
1000
0000
0100
0010
0001
0000
1000
0100
0010
0100
1000
0000
0100
0010
0001
1000
,
0010
0000
0100
0001
1000
0010
0100
0000
0001
1000
0100
1000
0001
0010
0100
1000
,
0001
0000
0100
0010
1000
0000
0001
0100
0010
0100
0001
0000
0100
0010
1000
0001
,
0010
0000
0100
1000
0001
0010
0100
0000
1000
0000
0110
0000
0001
1000
0100
1000
,
0001
1000
0100
0010
0001
0000
1000
0100
0010
0001
1000
0000
0010
0100
0001
1000
,
0001
1000
0010
0100
0001
0000
1000
0010
0100
0001
1000
0000
0100
1000
0001
0010
,
0100
0010
0001
1000
0010
0000
0100
0010
1000
0001
0010
0000
0100
0010
0001
1000
,
0001
1000
0100
0001
0100
0000
1000
0001
0100
1000
0100
0000
0001
1000
0001
1000
,
0001
0100
0101
0100
1000
0001
0010
1000
,
0100
0000
0001
0000
1000
0000
0010
0000
0001
0000
0010
0100
1000
0000
0001
0000
,
1001
1000
1100
0100
0001
1000
0010
0001
,
0100
0000
0000
0001
0010
0001
0100
0000
0000
0010
1000
0000
0200
0000
0010
0000
,
1300
0000
1010
0000
0010
0000
0001
0010
0100
0000
0010
0000
0001
0000
0010
0100
,
0001
0000
0010
0000
1000
0000
0010
0100
1000
0000
0200
0000
0010
0000
1300
0000
,
0001
0000
0011
0000
0010
0000
1000
0010
0100
0000
1000
0010
0100
0000
0001
0000
,
1000
0100
0010
0001
0100
0010
1000
0001
0010
0100
0010
0001
2000
0000
0000
0000
,
3010
MMMM
MMMM
MMMM
,
MMMM
MMMM
MMMM
MMMM
,
MMMM
MMMM
MMMM
MMMM
,
MMMM
MMMM
MMMM
MMMM
,
1001
0000
0000
0000
1100
0000
0000
0000
1000
0010
1000
0010
1000
0010
1000
0010
1000
0010
1000
0010
1000
0010
1000
0010
2000
0000
3002
0000
0203
0000
0320
0000
,
1030
0000
0000
0000
1001
0000
0000
0000
0001
0010
0001
0010
0001
0010
0001
0010
0001
0000
0100
0000
0100
0000
0020
0000
1030
0100
1000
0100
1000
0100
1000
0100
,
0010
0000
0000
0000
0011
0000
0000
0000
0001
0100
0001
0100
0001
0100
0001
0100
0001
0100
0001
0100
0001
0100
0001
0100
0002
0000
0023
0000
0130
1000
0001
1000
,
0010
0000
0001
0000
1000
0000
0100
0000
0010
0100
0010
0100
0001
1000
0001
1000
0100
1000
0001
1000
0010
0000
0100
0001
1000
0001
0010
0000
0002
0000
0100
0000
,
1003
0000
1100
0000
1010
0010
1010
0010
1010
0010
1010
0010
1010
0010
0110
0000
,
0101
0000
1100
0000
0011
0010
0011
0010
0110
0100
1100
1000
1010
0010
0110
0000
,
0101
0000
0000
0000
1001
0000
0000
0000
1000
0010
1000
0010
1000
0010
1000
0010
1000
0010
1000
0010
1000
0010
1000
0010
2000
0000
3020
0000
0130
0001
1000
0001
,
0010
0000
1000
0000
0001
0000
0100
0000
1000
0010
1000
0010
0100
0001
0100
0001
1000
0100
0010
0001
1000
0000
0001
0010
0100
1000
0001
0000
0200
0000
0000
0000
,
0310
0010
0000
0000
0000
0000
0000
0000
,
0000
0000
0000
0000
,
1000
1000
0000
0000
0000
0000
0000
0000
,
0001
0000
0001
0000
0000
0000
1000
0000
0000
0000
0000
0000
0100
0010
0001
1000
,
0001
0100
0001
0000
0010
0000
0001
1000
0000
1000
0010
0000
1000
0010
0100
0001
,
1000
0100
1000
0000
0010
0000
1000
0001
0000
0001
0010
0000
0001
0100
0010
1000
,
0001
1000
0001
1000
0001
1000
0001
1000
0010
0100
0010
0100
0010
0100
0010
0100
,
0010
0000
0000
1000
0100
1000
0010
0000
0000
0100
0001
0010
0001
0100
0010
1000
,
0100
0001
0100
1000
0010
0001
0010
0100
0001
0010
1000
0010
0100
1000
0001
1000
,
0100
0010
0001
1000
0100
0000
0010
0001
1000
0100
0010
0000
0001
0100
0010
1000
,
0001
0010
0100
1000
0001
0000
0010
0100
1000
0001
0010
0000
0100
0010
0001
1000
,
0010
0100
0001
1000
0010
0000
0100
0001
1000
0010
0100
0000
0010
1000
0001
0010
,
0100
1000
0001
0100
0010
0000
0100
0001
1000
0000
0110
0000
1000
0100
0010
0001
,
0100
0010
1000
0001
0100
0000
0010
1000
0001
0100
0010
0000
1000
0100
0010
0001
,
1000
0010
0100
0001
1000
0000
0010
0100
0001
1000
0010
0000
0100
0010
1000
0001
,
0010
0100
1000
0001
0010
0000
0100
1000
0001
0010
0100
0000
0010
0001
1000
0001
,
0100
0010
0100
0001
0100
0010
0100
1000
0100
0001
0010
0100
0010
0001
1000
0001
,
0020
0000
1000
0100
0000
0100
0001
0032
,
0100
0000
0000
0000
1003
0000
0001
0010
0001
0010
0100
1000
0001
0100
0010
1000
,
0100
0010
0100
1000
0100
0010
0100
1000
0010
0100
0001
0100
0010
0100
0001
0100
,
0001
0010
0001
1000
0010
1000
0100
1000
0001
0100
0001
1000
0010
1000
0100
1000
,
0020
0000
0000
0000
0001
0000
0100
0000
0000
0000
0130
0001
0010
0000
1000
0010
,
0001
0000
1000
0010
0001
0000
0010
1000
0001
0000
0010
1000
0001
1000
0010
0001
,
0200
0000
0000
0000
1300
0100
0020
0000
0000
1030
0010
0100
0020
0000
0000
0000
,
1030
0001
0010
1000
0010
0000
0001
1000
0010
0001
0010
0000
0100
0001
0010
0100
,
1000
0000
0000
0000
;

//---------------dance-double - t7r----------------
#NOTES:
     dance-double:
     t7r:
     Easy:
     8:
     :
00000000
00000000
00000000
00000000
,
00000000
00000000
00000000
00000000
,
00000000
00000000
00000000
00000000
,
00000000
00000000
00000000
00000000
,
00000000
00000000
00000000
00000000
,
00000000
00000000
00000000
00000000
,
00000000
00000000
00000000
00000000
,
00000000
00000000
00000000
00000000
,
10000000
01000000
00100000
00001000
,
00010000
00000000
00000000
00011000
00000000
00000000
00000000
00000000
,
00000100
00001000
00000001
00000100
,
00000010
00010000
00001000
00000000
,
00010000
00001000
01000000
00010000
,
10000000
01000000
00100000
00000000
,
00001000
00010000
00000100
00000010
,
00000001
00000100
00000010
00001000
,
00000100
00000000
00000100
00000000
00010000
00001000
00010000
00000000
,
00001000
00000000
00000000
01000000
00000000
00000000
00020000
00000000
,
10030000
00000000
00000000
01000000
00000000
00100000
00010000
00000000
,
10000000
00000000
00000000
00100000
00000000
00000000
00010000
00000000
,
00001000
00000000
00000000
00010000
00000000
00000100
00001000
00000000
,
00000001
00000000
00000000
00000100
00000000
00000000
00000110
00000000
,
00000001
00000000
00000000
00000010
00000000
00000100
00001000
00000000
,
00000001
00000000
00000000
00000100
00000000
00000000
00001000
00000000
,
00010000
00000000
00000000
00001000
00000000
00100000
00010000
00000000
,
10000000
00100000
01000000
01100000
,
00010000
00000000
10000000
00000000
00000000
01000000
00000000
00000000
,
00010000
00000000
00000000
00001000
00000000
00000000
00010000
00000000
,
00000000
00000000
00001000
00000000
00000000
00000100
00000000
00000000
,
00000001
00000000
00000000
00001000
00000000
00000000
00000100
00000000
,
00000000
00000000
00010000
00000000
00000000
00001000
00000000
00000000
,
00010000
00000000
00000000
01000000
00000000
00000000
10000000
00000000
,
00000000
00000000
00100000
00000000
00000000
00010000
00000000
00000000
,
00001000
00000000
00000000
00011000
00000000
00000000
00000000
00000000
,
00010000
00000100
00001000
00000000
00000000
00000000
00000000
00000000
,
00000000
00000000
00000000
00000000
00000000
00000002
00000000
00000000
,
00001003
00000100
00010000
00000000
00000000
00000000
00000000
00000000
,
00001000
00000000
00000000
00011000
00000000
00000000
02000000
00000000
,
03010000
00100000
00001000
00000000
00010000
00000000
00000000
00000000
,
00000010
00000000
00001000
00000000
00000001
00000200
00000000
00000000
,
00000301
00001000
00000100
00000000
00010000
00000000
00000000
00000000
,
00001000
00000000
00000000
00011000
00000000
00000000
00200000
00000000
,
00310000
00000000
00000000
00000000
,
00000000
00000000
00000000
00000000
,
00000000
00000000
00000000
00000000
,
00000000
00000000
00000000
00000000
,
10010000
00000000
10000000
00000000
01000000
00100000
00001000
00000000
,
00010000
00000000
00000010
00000000
00000100
00000001
00001000
00000000
,
00000001
00000000
00000010
00000000
00000100
00010000
00001000
00000000
,
00010000
00000000
00001000
00000000
01000000
00100000
10000000
00020000
,
10030000
00000000
10100000
00100000
10100000
00000000
00100000
00010000
,
00001000
00000010
00000011
00000010
00000011
00000000
00000001
00000100
,
00001000
00010000
00000100
00000000
00010000
00001000
00010000
00000000
,
00001000
00000000
01000000
00000000
00010000
00000000
10000000
00000000
00100000
00000000
00000000
00010000
00000000
00000000
00002000
00000000
,
00013000
00000000
00000000
00000000
,
00000000
00000000
00000000
00000000
,
00000100
00000000
00000000
00000000
,
00000010
00000000
00000000
00000001
00000000
00000000
00001000
00000000
,
00000001
00000100
00000010
00001000
,
00000100
00010000
00001000
01000000
,
00010000
00000000
10000000
00010000
10000000
00000000
00010000
00000000
,
10000000
00000000
00000000
01000000
00000000
00000000
00010000
00000000
,
00000000
00001000
00000000
00000000
00000010
00000000
00000001
00000000
,
00001000
00000000
00000000
00000001
00000000
00000000
00000100
00000000
,
00001000
00000000
00000000
00010000
00000000
00000000
00001000
00000000
,
00100000
00010000
10000000
00100000
,
01000000
00010000
00001000
00000100
,
00001000
00000000
00000000
00000001
00000000
00000000
00000100
00000000
,
00000010
00000000
00000000
00001000
00000000
00000000
00000001
00000000
,
00000010
00001000
00010000
01000000
,
10000000
00100000
01000000
00010000
,
00002000
00000000
00000100
00000000
00000001
00000000
00000000
00003020
,
00000000
00000000
00000001
00000130
,
00000001
00000010
00000100
00001000
,
00010000
01000000
00100000
10000000
,
00200000
00000000
00000000
00010000
00000000
00000000
01300000
00000000
,
00010000
10000000
01000000
00010000
,
00002000
00000000
00003010
00000200
00000000
00010300
00001000
00000000
,
00010000
00000000
00000000
00011000
00000000
00001000
01000000
00000000
,
10010000
00000000
00000000
00000000
;

//---------------dance-double - t7r----------------
#NOTES:
     dance-double:
     t7r:
     Medium:
     12:
     :
00000000
00000000
00000000
00000000
,
00000000
00000000
00000000
00000000
,
00000000
00000000
00000000
00000000
,
00000000
00000000
00000000
00000000
,
00000000
00000000
00000000
00000000
,
00000000
00000000
00000000
00000000
,
00000000
00000000
00000000
00000000
,
00000000
00000000
00000000
00000000
,
00001000
00010000
00010000
00000000
00001000
00000000
01000000
00000000
,
00010000
00000000
00000000
10000000
00000000
00000000
01000000
00000000
00000000
00010000
00000000
00000000
00000000
00000000
00001000
00000000
,
00010000
00000000
00000100
00000000
00001000
00000001
00000100
00000000
,
00000001
00000000
00000010
00000000
00000100
00001000
00000001
00000000
,
00000100
00000000
00001000
00000000
00010000
00001000
00010000
00000000
,
00001000
00000000
01000000
00000000
00010000
10000000
00200000
00000000
,
10300000
00000000
01000000
00000000
00100000
00000000
00000000
01000000
00000000
00000000
00010000
00000000
00001000
00000000
00000000
00000000
,
00010000
00000000
00000100
00000000
00001000
00000000
00000000
00000001
00000000
00000000
00000100
00000000
00001000
00000000
00000000
00000000
,
00010000
00001000
00010000
00001000
00010000
00001000
00010000
00001000
,
00010000
00000000
00000000
00000100
00000000
00000000
00001000
00000000
00000000
00000001
00000000
00000000
00000200
00000000
00000000
00000000
,
00001300
00000000
00010000
00000100
00000000
00000100
00001000
00000000
,
00000001
00000000
00000100
00000010
00000000
00000010
00001000
00000000
,
00000100
00000000
00010000
00001000
00000000
00001000
00010000
00000000
,
01000000
00000000
10000000
00100000
00000000
01000000
01100000
00000000
,
10000000
00000000
01000000
00100000
00000000
00100000
00010000
00000000
,
10000000
00000000
00100000
00010000
00000000
00010000
00001000
00000000
,
00010000
00000000
00001000
00000010
00000000
00000010
00000100
00000000
,
00001000
00000000
00000001
00000100
00000010
00000100
00000002
00000000
,
00001003
00000000
00000001
00000000
00000010
00001000
00000000
00000000
,
00010000
00000000
00001000
00010000
00000000
00000000
00200000
00000000
,
01300000
00000000
00010000
00000000
10000000
01000000
00000000
00000000
,
00010000
00000000
00000000
00001000
00000010
00000100
00000110
00000000
,
00000001
00000000
00000100
00000000
00001000
00010000
00000000
00000000
,
00000100
00000000
00010000
00001000
00000000
00000000
00010000
00000000
,
01000000
00000000
00100000
00000000
00010000
10000000
00000000
00100000
,
00010000
00000000
00000000
00001000
00000000
00000000
00000100
00000000
00000000
00000001
00000000
00000000
00000000
00000000
00000010
00000000
,
00000001
00000001
00001000
00000000
00000001
00000000
00000100
00000000
,
00000010
00000000
00001000
00000000
00010000
00200000
01000000
00000000
,
00310000
00010000
10000000
00000000
01000000
00000000
00100000
00000000
,
00001000
00000000
00000000
00010000
00000000
00000000
00000010
00000000
00000000
00000100
00000000
00000000
00000002
00000000
00000000
00000000
,
00001003
00001000
00000100
00000000
00000010
00000000
00000001
00000000
,
00000100
00000000
00001000
00000000
00010000
00200000
01000000
00000000
,
10300000
10000000
01000000
00000000
00100000
00000000
00010000
00000000
,
00001000
00000000
00000000
00000010
00000000
00000000
00000100
00000000
00000000
00000001
00000000
00000000
00002000
00000000
00000000
00000000
,
00003100
00000000
00000000
00000000
,
00000000
00000000
00000000
00000000
,
00000000
00000000
00000000
00000000
,
00000000
00000000
00000000
00000000
,
00011000
00000000
00001000
00000000
01000000
00010000
01000000
00010000
01000000
00010000
01000000
00010000
20000000
00000000
30020000
00000000
,
10030000
00000000
01000000
00000000
00010000
00001000
00010000
00001000
00010000
00000100
00000100
00000000
00001000
00000000
00000001
00000000
,
00001001
00000000
00001000
00000000
00000100
00001000
00000100
00001000
00000100
00001000
00000100
00001000
00000002
00000000
00002003
00000000
,
00003001
00000000
00000100
00001000
00010000
00000000
00100000
00000000
10000000
00000000
01000000
00010000
00000000
00001000
00020000
00000000
,
00031000
00000000
00100000
00000000
00010000
00000000
00100000
00010000
00110000
00000000
00100000
00000000
00110000
00000000
00002000
00000000
,
00013000
00000000
00000010
00000000
00001010
00000000
00000010
00001000
00001010
00000000
00000010
00000000
00001000
00000001
00000020
00000000
,
00001030
00000000
00010000
00000000
00000100
00010000
00000100
00010000
00000100
00010000
00000100
00010000
00002000
00000000
00023000
00000000
,
00031000
00000000
00010000
01000000
10000000
00000000
00010000
00000000
00100000
00000000
00001000
00010000
00000000
00001000
00000020
00000000
,
00000130
00000100
00000000
00000000
00000000
00000000
00000000
00000000
,
00000000
00000000
00000000
00000000
,
00010000
00010000
00000000
00000000
00000000
00000000
00000000
00000000
,
00001000
00000000
00000000
01000000
00000000
00010000
10000000
00000000
,
11000000
01000000
00100000
00010000
,
00001000
00000010
00000100
00000001
,
00001000
00000100
00001000
00000100
00010000
00001000
00010000
00001000
,
00010000
00000000
00000000
01000000
00000000
00000000
10000000
00000000
00000000
00100000
00000000
00000000
00010000
00000000
00000000
00001000
,
00000000
00000000
00000100
00000000
00000000
00000001
00000000
00000000
00000010
00000000
00000100
00000000
00020000
00000000
00000000
00000000
,
00031000
00000000
00010000
00000100
00000000
00001000
00000001
00000000
,
00000100
00000000
00001000
00010000
00000000
00001000
01000000
00000000
,
00010000
00000000
10000000
00100000
00000000
10000000
00010000
00000000
,
10000000
00000000
01000000
00000000
00010000
00001000
00011000
00000000
,
00010000
00000000
00001000
00000010
00000000
00000100
00000010
00000000
,
00000001
00000000
00000100
00000010
00000000
00001000
00000010
00000000
,
00010000
00000000
00001000
00010000
00000000
00100000
01000000
00000000
,
00010000
00000000
00100000
01000000
10000000
00010000
01000000
00001000
,
00020000
00000000
00001000
00000000
00000100
00000000
00031000
00002000
,
00010000
00000000
01000000
00000000
00013000
00000100
00001000
00000000
,
00000001
00000000
00000100
00001000
00010000
00100000
01000000
00000000
,
00010000
00000000
10000000
01000000
00010000
00001000
00000010
00000000
,
00000002
00000000
00000010
00000000
00001000
00000013
00000010
00001000
,
00001000
00010000
00010000
00100000
00100000
01000000
01000000
00010000
,
20000000
00000000
31000000
00020000
00000000
00031000
00000200
00000000
,
00000310
00000000
00000000
00001000
00000100
00000000
00010000
00000000
00000000
00001000
01000000
00000000
00010000
00000000
10000000
00000000
,
10010000
00000000
00000000
00000000
;

//---------------dance-double - t7r----------------
#NOTES:
     dance-double:
     t7r:
     Hard:
     16:
     :
00000000
00000000
00000000
00000000
,
00000000
00000000
00000000
00000000
,
00000000
00000000
00000000
00000000
,
00000000
00000000
00000000
00000000
,
00000000
00000000
00000000
00000000
,
00000000
00000000
00000000
00000000
,
00000000
00000000
00000000
00000000
,
00000000
00000000
00000000
00000000
,
00010000
00000000
00000100
00001000
00000100
00000000
00001000
00000000
00000001
00000000
00000010
00000001
00000010
00000000
00000001
00000000
,
00001000
00000000
00000000
00000100
00010000
00000000
00001000
00000000
00000000
01000000
00010000
00000000
00000000
00000000
10000000
00000000
,
00010000
00100000
00010000
00000000
10000000
00000000
01000000
00100000
00000000
00100000
00010000
00000000
10000000
00000000
00100000
00000000
,
00010000
00001000
00010000
00000000
00001000
00000000
00000010
00000100
00000000
00000100
00001000
00000000
00000001
00000000
00000100
00000000
,
00001000
00010000
00001000
00000000
00010000
00000000
00001000
01000000
00000000
01000000
00010000
00000000
10000000
00000000
01000000
00000000
,
00100000
00010000
00100000
00000000
00001000
00000000
00010000
00001000
00000000
00001000
00000010
00000000
00000200
00000000
00000000
00000000
,
00001300
00000000
00000001
00000100
00000010
00000000
00001000
00000000
00000001
00000010
00000100
00000000
00010000
00000000
00001000
00000000
,
01000000
00000000
00010000
10000000
00100000
00000000
10000000
00000000
01000000
00100000
00010000
00000000
10000000
00000000
00100000
00000000
,
00010000
00001000
00010000
00001000
00010000
00001000
00010000
00001000
00010000
00001000
00010000
00001000
00010000
00001000
00010000
00001000
,
00010000
00000000
00000000
01000000
10000000
00000000
00100000
00000000
00000000
00010000
00001000
00000000
00000020
00000000
00000000
00000000
,
00000130
00000000
00001000
00000001
00001000
00000000
00000001
00000000
00000100
00000001
00000100
00000000
00001000
00000000
00000000
00000000
,
00010000
00000000
00001000
00010000
00001000
00000000
01000000
00000000
00010000
10000000
00010000
00000000
00100000
00000000
00000000
00000000
,
00010000
00000000
10000000
00100000
10000000
00000000
01000000
00000000
00010000
00001000
00010000
00000000
00001000
00000000
00000000
00000000
,
00010000
00000000
00000100
00001000
00000001
00000000
00000100
00000000
00000010
00000000
00000110
00000000
00001001
00000000
00000000
00000000
,
00000001
00000000
00000010
00000100
00001000
00000000
00000001
00000000
00000100
00000010
00010000
00000000
00001000
00000000
00000000
00000000
,
00010000
00000000
00001000
01000000
00010000
00000000
10000000
00000000
00100000
10000000
00010000
00000000
00100000
00000000
00000000
00000000
,
00010000
00000000
10000000
01000000
00100000
00000000
01000000
00000000
00010000
00001000
01000000
00000000
00010000
00000000
00000000
00000000
,
00100000
00010000
00100000
00001000
00010000
00000000
00001000
00010000
00000010
00000000
00000100
00000000
00000001
00001000
00000001
00001000
,
00000001
00000100
00001000
00010000
00000100
00001000
00010000
01000000
,
00010000
00000000
00100000
00000000
10000000
00000000
00100000
00000000
00010000
00000000
10000000
00000000
00010000
01000000
00001000
00010000
,
00001000
00000010
00000001
00001000
00000010
00000100
00001000
00010000
,
00100000
00000000
10000000
01000000
00100000
00000000
00010000
01000000
00100000
00000000
01100000
00000000
10010000
00000000
00000000
00000000
,
10000000
00100000
00010000
00001000
00100000
00010000
00001000
00000010
,
00001000
00000000
00000100
00000000
00000001
00000000
00000100
00000000
00001000
00000000
00000001
00000000
00001000
00000010
00010000
00001000
,
00010000
01000000
10000000
00010000
01000000
00100000
00010000
00001000
,
00010000
00000000
00000000
00100000
10000000
00000000
01000000
00000000
00000000
00010000
00001000
00000000
00000010
00000000
00000001
00000000
,
00000100
00000101
00000001
00000000
00000100
00000000
00001000
00000000
,
00010000
00000000
00100000
00000000
10000000
02000000
00010000
00000000
,
03100000
00110000
00010000
00000000
10000000
00000000
00100000
00000000
,
00010000
00000000
00000000
00001000
00000100
00000000
00000001
00000000
00000000
00000010
00001000
00000000
00020000
00000000
00000000
00000000
,
00031000
00011000
00010000
00001000
00000010
00000001
00000100
00000010
,
00001000
00000001
00000010
00001000
00010000
02000000
00010000
00100000
,
13000000
10100000
00100000
00010000
00001000
00000100
00000010
00000100
,
00000001
00000000
00001000
00000100
00001000
00000000
00000100
00000000
00010000
00001000
00010000
00000000
00002000
00000000
00000000
00000000
,
00013000
00000000
00000000
00000000
,
00000000
00000000
00000000
00000000
,
00000000
00000000
00000000
00000000
,
00000000
00000000
00000000
00000000
,
10010000
00000000
00000000
00000000
11000000
00000000
00000000
00000000
10000000
00000000
00100000
10000000
00100000
00000000
10000000
00100000
10000000
00000000
00100000
10000000
00100000
00000000
10000000
00000000
02000000
00000000
03020000
00000000
00032000
00000000
00003100
00000000
,
00000110
00000000
00000000
00000000
00001001
00000000
00000000
00000000
00000001
00000000
00000010
00000001
00000010
00000000
00000001
00000010
00000002
00000000
00000203
00000000
00002300
00000000
00023000
00000000
00030100
00000000
00001000
00000100
00001000
00000000
00000000
00000000
,
00001100
00000000
00000000
00000000
00010100
00000000
00000000
00000000
00010000
00000000
00001000
00010000
00001000
00000000
01000000
00001000
01000000
00000000
00001000
00010000
00001000
00000000
00010000
00000100
00020000
00000000
00032000
00000000
02003000
00000000
03200000
00000000
,
10300000
00000000
01000000
00000000
00010000
00000000
00001000
00000000
01000000
00000000
00100000
00000000
00010000
00000000
00001000
00000000
00000100
00000000
00000001
00001000
00000100
00000000
00010000
00000000
00001000
01000000
00010000
00000000
20000000
00000000
00000000
00000000
,
30010000
00000000
01000000
00000000
00100000
10000000
10100000
00100000
10100000
00000000
10100000
00100000
10100000
00000000
20000000
00000000
,
32000000
03020000
00032000
00023000
00030010
00001000
00001010
00000010
00001010
00000000
00001010
00000010
00001010
00000000
00000120
00000000
,
00000130
00000000
00000000
00000000
00000001
00000000
00000000
00000000
00001000
00000000
00000010
00001000
00000010
00000000
00010000
00001000
00010000
00000000
00000010
00010000
00000010
00000000
00010000
00001000
00020000
00000000
00032000
00000000
00203000
00000000
00320000
00000000
,
10030000
00000000
00100000
00000000
00010000
00000000
00001000
00000000
00100000
00000000
01000000
00000000
00010000
00000000
00001000
00000000
00000010
00000000
00000100
00001000
00000001
00000000
00000100
00000000
00001000
00010000
00001000
00000000
00020000
00000000
00000000
00000000
,
00031000
00001000
00000000
00000000
00000000
00000000
00000000
00000000
,
00000000
00000000
00000000
00000000
,
01000000
01000000
00000000
00000000
00000000
00000000
00000000
00000000
,
00100000
00100000
00000000
01000000
00000000
00010000
10000000
00000000
,
01000000
00000000
00010000
00000000
00001000
00000000
00000000
00000010
00000000
00000000
00000100
00000000
00001000
00000000
00000000
00000000
,
00000001
00000000
00000100
00000000
00001000
00000000
00000000
00010000
00000000
00000000
00100000
00000000
01000000
00000000
00000000
00000000
,
00001000
00010000
00001000
00010000
00001000
00010000
00001000
00010000
00001000
00010000
00001000
00010000
00001000
00010000
00001000
00010000
,
00001000
00000000
00000000
00000100
00000001
00000000
00000010
00000000
00000000
00001000
00010000
00000000
01000000
00000000
00000000
10000000
,
00100000
00000000
00010000
00000000
00000000
00001000
00010000
00000000
00001000
00000000
00000100
00000000
00000002
00000000
00000000
00000000
,
00001003
00000000
00000100
00000010
00000001
00000000
00001000
00000000
00000100
00000000
00010000
00000000
00001000
00000000
00010000
00000000
,
01000000
00000000
00100000
00010000
10000000
00000000
00100000
00000000
00010000
00000000
00001000
00000000
01000000
00000000
00010000
00000000
,
10000000
00000000
01000000
00100000
00010000
00000000
00100000
00000000
00001000
00000000
00010000
00000000
00001000
00000000
00000010
00000000
,
00000100
00000000
00001000
00000001
00000100
00000000
00001000
00000000
00010000
00000000
00001100
00000000
00010100
00000000
00000000
00000000
,
00010000
00000000
00001000
01000000
00010000
00000000
10000000
00000000
00100000
10000000
00010000
00000000
00100000
00000000
00000000
00000000
,
00001000
00000000
00010000
00000010
00001000
00000000
00000100
00000000
00000010
00000001
00001000
00000000
00000001
00000000
00000000
00000000
,
00000100
00000000
00001000
00010000
00000100
00000000
00010000
00000000
00001000
01000000
00010000
00000000
10000000
00000000
00000000
00000000
,
01000000
00100000
01000000
00100000
01000000
00000000
00100000
00001000
00010000
00000000
00001000
00010000
00001000
00000000
00010000
00000010
,
00002000
00000000
00000100
00000000
00000001
00000000
00000010
00000010
,
00023000
01000000
10000000
00100000
,
00031000
00000000
00000100
00000010
00000001
00000000
00000100
00000000
00001000
00000000
00010000
00001000
01000000
00000000
00010000
00000000
,
10000000
00000000
01000000
00100000
00010000
00000000
00001000
00000010
00000100
00000000
00000001
00001000
00000010
00000000
00001000
00000001
,
00000020
00000000
00000000
00000000
00001000
00000000
00000000
00000000
00000130
00000000
00000010
00000001
00001000
00000000
00000001
00000000
,
00000100
00000000
00001000
00010000
00001000
00000000
00010000
00000000
00100000
00000000
10000000
01000000
00100000
00000000
00010000
10000000
,
00200000
00000000
00010000
02300000
00000000
10000000
03200000
00000000
,
10300000
00000000
01000000
00100000
00010000
00000000
00001000
00000000
00000010
00000100
00000001
00000000
00000010
00000000
00001000
00010000
,
00001000
00000000
00000000
00000000
;

//---------------dance-double - t7r----------------
#NOTES:
     dance-double:
     t7r:
     Challenge:
     18:
     :
00000000
00000000
00000000
00000000
,
00000000
00000000
00000000
00000000
,
00000000
00000000
00000000
00000000
,
00000000
00000000
00000000
00000000
,
00000000
00000000
00000000
00000000
,
00000000
00000000
00000000
00000000
,
00000000
00000000
00000000
00000000
,
00000000
00000000
00000000
00000000
,
00000001
00001000
00000001
00001000
00000001
00001000
00000001
00001000
00000001
00001000
00000001
00001000
00000001
00001000
00000001
00001000
,
00000001
00000000
00000000
00000100
00001000
00010000
00001000
00000000
00000000
00010000
01000000
00000000
00000000
00000000
10000000
00010000
,
10000000
00100000
10000000
00000000
01000000
00000000
00100000
00010000
00000000
00010000
10000000
00000000
01000000
00100000
00010000
00100000
,
00001000
00010000
00001000
00000000
00010000
00000000
00000010
00001000
00000000
00001000
00000001
00000000
00000100
00000010
00001000
00000001
,
00000010
00000001
00000010
00000000
00000001
00000000
00001000
00000100
00000000
00000100
00010000
00000000
00001000
01000000
00010000
10000000
,
00010000
00100000
00010000
00000000
10000000
00000000
01000000
00010000
00000000
00010000
00001000
00000000
00020000
00000000
00001000
00000000
,
00030100
00001000
00000001
00000000
00000100
00000000
00001000
00010000
00000000
00010000
00000100
00000000
00000010
00000100
00010000
00001000
,
01000000
00010000
10000000
00000000
01000000
00000000
00010000
00001000
00000000
00001000
00100000
00000000
00001000
00010000
00000100
00010000
,
00001000
00010000
00001000
00010000
00001000
00010000
00001000
00010000
00001000
00010000
00001000
00010000
00001000
00010000
00001000
00010000
,
00001000
00000000
00000000
00010000
01000000
10000000
00100000
00000000
00010000
00001000
00000100
00000001
00000020
00000000
00000000
00000000
,
00000031
00000010
00000100
00001000
00000001
00000000
00000010
00000100
00001000
00000001
00000100
00000000
00000020
00000000
00001000
00000000
,
00010030
00001000
00100000
00010000
10000000
00000000
01000000
00100000
00010000
10000000
00100000
00000000
02000000
00000000
00100000
00000000
,
03010000
00100000
00001000
00010000
00000010
00000000
00001000
00000010
00000100
00000001
00001000
00000000
00000200
00000000
00000010
00000000
,
00001300
00000010
00000100
00000001
00001000
00000000
00000100
00000010
00000001
00000000
00000110
00000000
00001000
00000100
00010000
00001000
,
00010000
00000100
00010000
00001000
01000000
00000000
00010000
10000000
00100000
01000000
00010000
00000000
20000000
00000000
01000000
00000000
,
30010000
00100000
01000000
00100000
00001000
00000000
00010000
00000010
00001000
00000001
00000010
00000000
00000200
00000000
00000010
00000000
,
00001300
00000001
00000100
00000010
00001000
00000000
00000001
00000100
00000010
00001000
00000001
00000000
00000010
00000100
00010000
00000000
,
00001000
00000100
00001000
00000100
00000001
00000000
00001000
00000100
00010000
00000000
00001000
00000000
00010000
01000000
10000000
00010000
,
10000000
00000000
00100000
01000000
00010000
00000000
10000000
01000000
00100000
00001000
00010000
00000000
00001000
00000010
00000100
00000010
,
00000001
00000000
00000100
00001000
00010000
00000100
00001000
00000000
00000001
00000010
00000100
00001000
00000001
00000100
00001000
00010000
,
00100000
00000000
10000000
00010000
00100000
00000000
00010000
10000000
01000000
00100000
00001000
00000000
00010000
00001000
00000100
00000010
,
00000100
00000000
00000001
00001000
00000100
00000010
00000001
00000010
00001000
00000000
01100000
00000000
10000000
00100000
01000000
00010000
,
10000000
00010000
00100000
00010000
10000000
00000000
00010000
10000000
01000000
00010000
00001000
00000000
00010000
00001000
00000010
00000100
,
00000010
00000001
00001000
00000010
00001000
00000000
00000100
00001000
00000100
00010000
00001000
00000000
00010000
00100000
01000000
00100000
,
10000000
00100000
01000000
00010000
00100000
00000000
00001000
00010000
00000100
00001000
00000010
00000000
00000100
00000010
00001000
00000001
,
00000010
00000000
00000000
00000001
00000100
00001000
00010000
00000000
00100000
10000000
01000000
00010000
00001000
00010000
00001000
00010000
,
00001000
00000100
00001100
00000100
00000010
00001000
00010000
00000010
,
00001000
00000000
00010000
00000000
01000000
00000000
00001000
00000000
00010000
00000000
01000000
00000000
00100000
00000000
01000000
00001000
,
00010000
01010000
01000000
00100000
00010000
00001000
00100000
00010000
,
00001000
00000000
00000000
00000100
00000001
00000010
00001000
00000000
00010000
01000000
10000000
00100000
02000000
00000000
00100000
00000000
,
03010000
00000000
10010000
00000000
10000000
00000000
01000000
00000000
00010000
00000000
00001000
00000010
00000100
00000000
00001000
00000000
,
00000010
00000000
00000001
00000000
00001000
00000000
00000100
00000000
00000001
00000000
00000010
00001000
00010000
00000000
01000000
00000000
,
10000000
00000000
11000000
00000000
10000000
00000000
00100000
00000000
00010000
00000000
00001000
00100000
00010000
00000000
01000000
00001000
,
00010000
00001000
01000000
00001000
01000000
00001000
00010000
00000100
00001000
00000001
00000100
00000010
00020000
00000000
00000000
00000000
,
00031000
MMMMMMMM
MMMMMMMM
MMMMMMMM
,
MMMMMMMM
MMMMMMMM
MMMMMMMM
MMMMMMMM
,
MMMMMMMM
MMMMMMMM
MMMMMMMM
MMMMMMMM
,
MMMMMMMM
MMMMMMMM
MMMMMMMM
MMMMMMMM
,
00001001
00000000
00000000
00000000
00000101
00000000
00000000
00000000
00000001
00000010
00000001
00000010
00000001
00000010
00000001
00000010
00000001
00000010
00000001
00000010
00000001
00000010
00000001
00000010
00000002
00000000
00000203
00000000
00002300
00000000
00023000
00000000
,
00030100
00000000
00000000
00000000
00010100
00000000
00000000
00000000
00010000
00001000
00010000
00001000
00010000
00001000
00010000
00001000
00010000
00000000
01000000
00000000
01000000
00000000
00200000
00000000
00310000
10000000
00010000
10000000
00010000
10000000
00010000
10000000
,
00100000
00000000
00000000
00000000
01100000
00000000
00000000
00000000
10000000
00100000
10000000
00100000
10000000
00100000
10000000
00100000
10000000
00100000
10000000
00100000
10000000
00100000
10000000
00100000
20000000
00000000
32000000
00000000
03010000
00001000
00010000
00000100
,
00001000
00000000
00000001
00000000
00000100
00000000
00001000
00000000
00010000
00000000
00000010
00001000
00000001
00000000
00000010
00000000
00001000
00010000
00000100
00010000
00001000
00000000
00010000
00100000
01000000
00100000
10000000
00000000
00020000
00000000
00100000
00000000
,
10030000
00000000
10010000
00000000
10100000
00100000
10100000
00100000
10100000
00100000
10100000
00100000
10100000
10000000
10010000
00000000
,
11000000
00000000
00110000
00000000
00001010
00000010
00001010
00000010
00000110
00000100
00000101
00000001
00001001
00001000
00001100
00000000
,
00010100
00000000
00000000
00000000
00011000
00000000
00000000
00000000
00000100
00010000
00000100
00010000
00000100
00010000
00000100
00010000
00000100
00010000
00000100
00010000
00000100
00010000
00000100
00010000
00002000
00000000
00203000
00000000
00310000
10000000
00010000
10000000
,
00100000
00000000
00010000
00000000
00001000
00000000
00000100
00000000
00000001
00000010
00000001
00000010
00001000
00010000
00001000
00010000
00000100
00010000
00001000
01000000
00010000
00000000
10000000
01000000
00100000
00001000
00010000
00000000
00000020
00000000
00000000
00000000
,
00010030
00010000
00000000
00000000
00000000
00000000
00000000
00000000
,
00000000
00000000
00000000
00000000
,
00001000
00001000
00000000
00000000
00000000
00000000
00000000
00000000
,
01000000
00000000
01000000
00000000
00000000
00000000
00100000
00000000
00000000
00000000
00000000
00000000
10000000
01000000
00100000
00010000
,
10000000
00100000
10000000
00000000
00100000
00000000
00010000
00001000
00000000
00001000
00000010
00000000
00000100
00001000
00000001
00000000
,
00001000
00000010
00001000
00000000
00000001
00000000
00000010
00001000
00000000
00001000
00010000
00000000
00001000
01000000
00010000
00100000
,
00001000
00010000
00001000
00010000
00001000
00010000
00001000
00010000
00001000
00010000
00001000
00010000
00001000
00010000
00001000
00010000
,
00001000
00000000
00000000
00010000
01000000
10000000
00100000
00000000
00000000
00010000
00001000
00000100
00000001
00000000
00000000
00000010
,
00001000
00010000
01000000
00000000
10000000
00100000
01000000
00010000
00100000
00001000
00010000
00000100
00001000
00000001
00000100
00001000
,
00010000
00001000
01000000
00010000
10000000
00000000
01000000
00100000
00010000
10000000
00100000
00000000
00010000
00001000
00010000
00000100
,
00001000
00000001
00000010
00000100
00001000
00000000
00000001
00000100
00000010
00001000
00000001
00000000
00000010
00001000
00010000
00000100
,
00010000
00001000
01000000
00010000
00100000
00000000
00010000
10000000
00100000
01000000
00010000
00000000
10000000
00100000
00010000
00001000
,
00100000
01000000
00010000
00001000
00000100
00000000
00000010
00001000
00000001
00000000
00000110
00000000
00001000
00000100
00001000
00000001
,
00000100
00000010
00001000
00000001
00000010
00000000
00001000
00010000
00100000
01000000
00010000
00000000
10000000
01000000
00100000
00010000
,
10000000
00100000
01000000
00010000
10000000
00000000
01000000
00010000
00001000
00000010
00000100
00000000
00001000
00000001
00000100
00000010
,
00001000
00000001
00000010
00001000
00010000
00000000
00000010
00000100
00001000
00010000
00100000
00000000
01000000
00010000
10000000
01000000
,
10000000
00010000
10000000
00010000
10000000
01000000
10000000
01000000
00010000
00001000
00010000
00001000
00000100
00000001
00000010
00000001
,
00002000
00000000
01000000
00010000
00000000
00010000
00003100
00000200
,
00000001
00000000
00000000
00000000
00000310
00000000
00000001
00001000
00000001
00000100
00000001
00000100
00000010
00001000
00000010
00001000
,
00010000
01000000
00010000
01000000
00100000
10000000
00100000
10000000
01000000
00100000
00010000
00100000
00001000
00010000
00000010
00001000
,
00000001
00001000
00000100
00000010
00000001
00000100
00000010
00001000
00000001
00000010
00000100
00001000
00000100
00010000
00001000
00010000
,
00200000
00000000
00000000
00000000
00010000
00000000
01000000
00000000
00000000
00000000
01300000
00010000
10000000
00000000
00100000
00010000
,
00001000
00000000
00000010
00000001
00001000
00000000
00000001
00000010
00001000
00000000
00010000
00100000
10000000
00000000
01000000
00010000
,
00002000
00000000
00000000
00000000
00003100
00001000
00020000
00000000
00000000
00000000
01030000
00100000
00002000
00000000
00000000
00000000
,
00013000
00001000
00000010
00000001
00000100
00000000
00001000
00010000
00100000
10000000
01000000
00000000
00010000
00001000
00010000
00001000
,
00010000
00000000
00000000
00000000
;
