#TITLE:LALISA;
#ARTIST:LISA;
#BANNER:LALISA.png;
#BACKGROUND:LALISA-bg.png;
#JACKET:LALISA-jacket.png;
#CDTITLE:./CDTITLES/NONE.PNG;
#MUSIC:LALISA.ogg;
#SAMPLESTART:45.8;
#SAMPLELENGTH:15;
#BPMS:0=150;

//---------------dance-single - t7r----------------
#NOTES:
     dance-single:
     t7r:
     Beginner:
     3:
     :
0000
0000
0000
0000
,
0000
0000
0000
0000
,
0000
0000
0000
0000
,
0000
0000
0000
0000
,
0000
0000
0000
0000
,
0001
0000
0000
0000
,
1000
0000
0000
0000
,
0010
0000
0010
0000
,
0010
0000
0000
0000
,
1000
0000
0000
0000
,
1000
0000
0000
0000
,
0001
0000
0000
0000
,
0001
0000
0000
0000
,
0100
0000
0000
0000
,
0100
0000
0000
0000
,
0010
0000
0000
0000
,
0010
0000
0000
0000
,
1000
1000
0000
1000
,
0000
0000
0000
0000
,
0001
0000
0001
0000
,
0001
0000
0000
0000
,
0000
0000
0010
0000
,
0000
0000
0010
0000
,
0000
0000
0100
0000
,
0000
0000
0100
0000
,
1000
0000
1000
0000
,
1000
0000
0000
0000
,
0001
0000
0001
0000
,
0001
0000
0000
0000
,
1000
0000
1000
0000
,
1000
0000
0000
0000
,
0001
0000
0001
0000
,
0001
0000
0000
0000
,
0100
0100
0000
0000
,
0100
0000
0000
0000
,
0010
0010
0000
0000
,
0010
0000
0000
0000
,
1000
0000
0001
0000
,
1000
0000
0000
0000
,
0010
0000
0100
0000
,
0010
0000
0000
0000
,
0100
0100
0000
0000
,
0010
0010
0000
0000
,
1000
1000
0000
0000
,
0001
0000
0000
0000
,
0010
0000
0000
0000
,
0001
0000
0000
0000
,
0100
0000
0000
0000
,
0001
0001
0001
0000
,
1000
0000
0000
0000
,
0010
0000
0000
0000
,
0100
0000
0000
0000
,
0010
0010
0010
0000
,
0000
0000
0000
0000
,
0000
0000
0000
0000
,
1000
0000
0000
0000
,
0001
0000
0000
0000
,
0010
0000
0000
0000
,
0001
0000
0000
0000
,
1000
0000
0001
0000
,
1000
0000
0000
0000
,
0010
0000
0100
0000
,
0010
0000
0000
0000
,
0000
0000
0100
0100
,
0100
0000
0100
0000
,
0000
0000
0010
0010
,
0010
0000
0010
0000
,
0000
0000
1000
1000
,
1000
0000
1000
0000
,
0000
0000
0001
0001
,
0001
0000
0001
0000
,
0000
0000
0000
0000
,
1000
0000
1000
0000
,
0100
0000
0000
0000
,
0010
0000
0010
0000
,
0001
0000
0000
0000
,
0100
0100
0000
0000
,
0010
0010
0000
0000
,
1000
1000
0000
0000
,
0001
0001
0000
0000
;

//---------------dance-single - t7r----------------
#NOTES:
     dance-single:
     t7r:
     Easy:
     6:
     :
0000
0000
0000
0000
,
0000
0000
0000
0000
,
0000
0000
0000
0000
,
0000
0000
0000
0000
,
0000
0000
0000
0000
,
2000
0000
3001
0000
,
0100
0100
0100
0000
,
0002
0000
1003
0000
,
0010
0010
0010
0000
,
1000
0100
0100
1000
,
0100
0100
1000
0000
,
0001
0100
0100
0001
,
0001
1000
1000
0000
,
0001
0010
0200
0000
,
1300
0001
1000
0000
,
0010
1000
0002
0000
,
0013
0001
0100
0000
,
0001
2000
0000
3200
,
0000
0000
0300
0000
,
0010
0010
0001
0001
,
1000
0010
0100
0100
,
0000
0010
1000
0010
,
1000
0000
0001
0000
,
0010
0001
0010
0000
,
0100
1000
0100
0000
,
1000
0001
0100
0001
,
1000
0001
0010
0001
,
1000
1000
0001
0001
,
0110
0000
0000
0000
,
2000
3100
0001
0100
,
1000
0001
1000
0000
,
0002
0103
1000
0100
,
0001
1000
0001
0000
,
0010
0010
0000
0000
,
0110
0110
0000
0000
,
0100
0100
0000
0000
,
0010
0110
0110
0000
,
0002
1003
0010
0001
,
0010
1000
0001
0000
,
2000
3001
0010
1000
,
0010
0001
1000
0000
,
1001
1001
0000
0000
,
0100
0010
0010
0000
,
1001
1001
0000
0000
,
0010
0220
0000
0330
,
0002
0000
0103
0000
,
0020
0000
1030
0000
,
0001
0001
0000
1000
,
0001
1000
0001
0000
,
2000
0000
3100
0000
,
0020
0000
0031
0000
,
1000
1000
0000
0001
,
1000
0001
2000
0000
,
0000
0000
0000
0000
,
0000
0000
0000
3010
,
0200
0000
0301
0010
,
0100
1000
0001
1000
,
0020
0000
1030
0100
,
0010
0001
1000
0001
,
0200
0000
0301
0010
,
1000
0010
0001
0001
,
0020
0000
0031
0100
,
1000
0100
0001
0001
,
0000
0000
0100
0100
,
0100
0100
0010
0010
,
0000
0000
1000
1000
,
1000
1000
0001
0001
,
0000
0000
0010
0010
,
0010
0010
0100
0100
,
0000
0000
1000
0001
,
1000
0001
0100
0100
,
0000
0000
0000
0000
,
0020
1030
0100
0001
,
0100
1000
1001
0000
,
0020
0031
0100
1000
,
0100
0001
1001
0000
,
1010
1010
2000
3000
,
0011
0011
0002
0003
,
1100
1100
0200
0300
,
0010
1001
0000
0000
;

//---------------dance-single - t7r----------------
#NOTES:
     dance-single:
     t7r:
     Medium:
     8:
     :
0000
0000
0000
0000
,
0000
0000
0000
0000
,
0000
0000
0000
0000
,
0000
0000
0000
0000
,
0000
0000
0000
0000
,
2000
0100
3010
0000
,
1000
0100
0010
0000
0100
0000
0000
0000
,
0020
1000
0031
0000
,
0010
0001
1000
0000
0001
0000
1001
0000
,
1000
0000
0100
0010
0100
0000
1000
0000
,
0100
0010
0100
0000
2000
0000
3000
0000
,
0001
0000
0100
0010
0100
0000
0001
1000
,
0002
0000
1003
0001
2000
0000
3000
0000
,
0002
0010
0103
0000
,
0001
0000
0010
0001
0010
0000
0001
0000
,
2000
0010
3100
0000
,
1000
0000
0010
1000
0010
0000
1000
0000
,
0001
0200
0000
2300
,
0000
0000
3000
0000
,
0100
0100
0010
0010
,
1000
0001
0010
0001
,
1000
0100
1100
0000
,
0001
0010
0001
0000
1000
0000
0000
0000
,
0001
0100
0101
0000
,
1000
0010
1000
0000
0001
0000
0000
0000
,
2000
3100
0002
0103
,
2000
3010
0002
0013
,
2000
3100
0020
0031
,
1001
0000
0000
0001
,
2000
0000
3100
0010
0100
0000
2000
0000
,
3100
0010
0100
0000
1000
0000
0000
0000
,
0002
0000
0103
0010
0100
0000
0002
0000
,
0103
0010
0100
0000
0001
0000
0000
0000
,
1000
1000
0010
1010
,
0001
0001
0010
0011
,
1000
1000
0100
1100
,
0001
0101
0101
0000
,
0002
0000
0013
0100
0010
0000
0002
0000
,
0103
0010
0100
0000
0101
0000
0000
0000
,
2000
0000
3100
0010
0100
0000
2000
0000
,
3010
0100
0010
0000
1010
0000
0000
0000
,
1000
1000
1001
1001
,
0001
0100
0001
0000
0110
0000
0000
0000
,
0001
0001
1001
1001
,
1000
0200
0000
0000
,
0310
0000
0000
0000
0001
1000
0000
0000
,
0001
0100
0000
0000
0001
1000
0000
0000
,
0001
0002
0000
0103
,
0001
1000
0001
1000
0001
2000
0000
0000
,
3001
0000
0000
0000
0010
0001
0000
0000
,
0010
0100
0000
0000
1000
0001
0000
0000
,
0100
0020
0001
1030
,
0001
1000
0001
1000
0001
2000
0000
0000
,
0000
0000
0000
0000
,
0000
0000
0000
3010
,
2000
0000
3100
0001
,
0100
1000
0001
1000
,
0002
0000
0103
1000
,
0100
0001
1000
0001
,
0020
0000
0031
0100
,
0010
0001
0010
0100
,
0002
0000
1003
0100
,
0010
1000
0010
0100
,
1000
0000
0000
0001
0000
0000
1000
0000
0000
0000
0000
0000
1000
0000
0000
0000
0100
0000
1000
0000
0000
0000
0100
0000
,
1000
0000
0100
1000
0000
0000
1000
0000
0000
0001
0000
0000
,
2000
0000
0000
3001
0000
0000
0001
0000
0100
0001
0000
0100
,
0001
0000
0100
0001
0000
0000
0001
0000
0000
0010
0000
0000
,
0200
0000
0000
0300
0000
0000
0100
0000
0010
0100
0000
0010
,
0100
0000
0010
0100
0000
0000
0001
0000
0000
1000
0000
0000
,
0020
0000
0000
0030
0000
0000
1000
0000
0001
1000
0000
0001
,
1000
0000
0001
1000
0000
0000
0001
0000
0000
1000
0000
0000
,
0020
0000
0000
0000
,
2030
0000
3100
0001
0100
0000
2000
0000
,
3001
1000
0001
0000
1001
0000
0000
0000
,
0002
0000
0103
1000
0100
0000
0002
0000
,
1003
0001
1000
0000
1001
0000
0000
0000
,
1010
1010
0200
0310
,
0101
0101
0020
0130
,
1100
1100
0002
0013
,
1001
0010
0000
0000
;

//---------------dance-single - t7r----------------
#NOTES:
     dance-single:
     t7r:
     Hard:
     12:
     :
0000
0000
0000
0000
,
0000
0000
0000
0000
,
0000
0000
0000
0000
,
0000
0000
0000
0000
,
0000
0000
0000
0000
,
0020
1000
0130
0000
,
0001
0010
0100
1000
0001
0000
0000
0000
,
0100
0001
0010
0000
,
1000
0100
0010
0001
1000
0000
0010
0000
,
1001
0000
1000
0100
1000
0000
0001
0000
,
1000
0100
1000
0000
0001
0000
0000
0000
,
1001
0000
0001
0100
0001
0000
1000
0010
,
0200
0000
0301
0010
0200
0000
0300
0000
,
0020
0001
0130
0010
,
0001
0000
1000
0010
0100
0000
0001
0000
,
2000
0100
3010
1000
,
0001
0000
0100
0001
1000
0000
0001
0000
,
0010
0100
1100
0000
,
0010
0100
0101
0000
,
1000
0000
0000
0000
0001
0000
0100
0000
0000
0000
0010
0000
1000
0000
0000
0000
0100
0000
0010
0000
0000
0001
0000
0000
,
1000
0100
0010
0000
1100
0000
0101
0000
,
0012
0000
1000
0000
0103
0000
0001
0010
,
0100
1000
1000
0000
0010
0100
0001
0000
,
2100
0000
0001
0000
3010
0000
1000
0100
,
0010
0001
0001
0000
0100
0010
1000
0000
,
0010
0110
0101
0010
,
0100
0000
0110
0000
1100
0000
1000
0100
,
0010
0000
0001
1000
0010
0000
0100
0000
,
0110
0000
0000
0001
,
2000
0000
3010
0001
0010
1000
0002
0000
,
0013
1000
0010
0000
0011
0000
1000
0001
,
2000
0000
3100
0001
0100
1000
0002
0000
,
0103
1000
0100
0000
0101
0000
0020
0000
,
0130
0000
0110
0000
0110
0100
1000
0000
,
0010
0100
0100
0000
0110
0100
0001
0000
,
0100
0000
1010
0000
1010
1000
0001
0000
,
0010
0001
0001
0000
1001
0001
1000
0000
,
0002
0000
0103
0010
0001
0010
0200
0000
,
0310
0001
0010
1000
0010
0000
0110
0000
,
2000
0000
3100
0010
1000
0010
0200
0000
,
0310
1000
0010
0001
0010
0000
0110
0000
,
1001
0000
1001
0000
1000
0100
0100
0000
,
0010
0100
0100
0000
0011
0000
1100
0100
,
1000
0000
1010
0000
0001
0100
0100
0000
,
0010
0200
0000
0300
,
0120
0000
0000
1030
0001
0100
0000
0001
,
1000
0100
0000
1000
0001
0010
0001
0000
,
2000
3010
0001
0010
,
1000
0100
1000
0100
0010
2000
0000
0000
,
3020
0000
0000
0031
0100
0010
0000
1000
,
0100
0010
0000
0001
1000
0010
0000
0100
,
0002
0013
1000
0010
,
0001
0100
0001
0100
0010
0002
0000
0000
,
0023
0000
0000
0000
,
0000
0000
0000
0130
,
2001
0000
0000
0000
0000
0000
3001
0000
0010
0100
0000
0000
,
1000
0000
0000
0001
0000
0000
0100
0000
0010
1000
0000
0000
,
0002
0000
0000
0000
0000
0000
0013
0000
0001
1000
0000
0000
,
0010
0000
0100
0001
0000
1000
0100
0000
1000
0001
0000
0000
,
0200
0000
0000
0000
0000
0000
0310
0000
0010
1000
0000
1000
,
0001
0000
0000
0000
0000
0000
0000
0000
0010
0000
0000
0000
0000
0000
0000
0000
0100
0000
0000
0000
0000
0000
0000
0000
0001
0000
0000
0000
0000
0000
0000
0000
0000
0100
0000
0000
0000
0000
0000
0000
0000
0000
0010
0000
0000
0000
0000
0000
,
0002
0000
0000
1003
0000
0010
0100
0000
0010
1000
0000
0001
,
0010
0000
0010
0000
0001
0000
1000
0000
0010
0000
0001
0000
,
0010
0000
0000
0100
0000
0000
0001
0000
0000
0000
0000
0000
1000
0000
0100
0000
1000
0000
0100
0000
0000
0000
0000
0000
,
1000
0000
0000
0000
0001
0000
0000
0000
1000
0000
0000
0000
0001
0000
0000
0000
0000
0000
0000
0000
0000
0000
0000
0000
1000
0000
0000
0000
0000
0000
0000
0000
0000
1000
0000
0000
0000
0000
0000
0000
0000
0000
1000
0000
0000
0000
0000
0000
,
0002
0000
0000
0023
0000
0000
0031
0100
0001
0100
0000
0000
,
0001
0000
0000
0000
1000
0000
0000
0000
0001
0000
0000
0000
1000
0000
0000
0000
0000
0000
0000
0000
0000
0000
0000
0000
0001
0000
0000
0000
0000
0000
0000
0000
0000
0001
0000
0000
0000
0000
0000
0000
0000
0000
0001
0000
0000
0000
0000
0000
,
2000
0000
0000
0000
0000
0000
3010
0100
0010
0100
0010
0100
,
0010
0000
0000
0000
0100
0000
0000
0000
0010
0000
0000
0000
0100
0000
0000
0000
0000
0000
0001
0000
0000
0000
0000
0000
1000
0000
0000
0000
0000
0000
0000
0000
0000
1000
0000
0000
0000
0000
0000
0000
0000
0000
1000
0000
0000
0000
0000
0000
,
0200
0000
0000
0320
0000
0000
0031
1000
0001
1000
0001
1000
,
0001
0000
0000
0000
1000
0000
0000
0000
0001
0000
0000
0000
1000
0000
0000
0000
0001
0000
0000
0000
1000
0000
0000
0000
0010
0000
0000
0000
0000
0000
0000
0000
0000
0010
0000
0000
0000
0000
0000
0000
0000
0000
0020
0000
0000
0000
0000
0000
,
0000
0000
0000
0130
,
2001
0000
3001
0100
0100
0000
1002
0000
,
1003
0100
0100
0000
0110
0000
0011
0000
,
2001
0000
3001
0010
0010
0000
1002
0000
,
1003
0010
0010
0000
0110
0010
0100
0000
,
1100
0000
0101
0000
0001
0100
1000
0100
,
0010
0100
0100
0000
1010
0000
0011
0001
,
1000
0000
1010
0000
0011
0010
1000
0001
,
0100
0110
0000
0000
;

//---------------dance-single - t7r----------------
#NOTES:
     dance-single:
     t7r:
     Challenge:
     16:
     :
0000
0000
0000
0000
,
0000
0000
0000
0000
,
0000
0000
0000
0000
,
0000
0000
0000
0000
,
0000
0000
0000
0000
0000
0000
0000
1000
,
0200
0000
0000
0310
0002
0000
0000
0103
,
0010
1000
0001
0010
0200
0000
0000
0310
,
0001
0000
0101
0000
1100
0000
1000
0001
,
1000
0100
0010
0001
0100
0000
1010
0000
,
2001
0000
3100
0010
0002
0000
0103
0010
,
1000
0010
0001
0010
0200
0000
0301
0010
,
0200
0000
1300
0010
0200
0000
0301
0010
,
0011
0001
1000
0010
1010
1000
0001
0000
,
2001
0000
3100
0010
0001
0000
0100
0000
,
0110
0100
0001
0010
0100
1000
0001
1000
,
1002
0000
0103
0010
1000
0000
0100
0000
,
0110
0100
1000
0010
0100
0001
1000
0000
,
1001
0102
1003
2100
,
0001
0010
0010
0000
0001
0000
3100
0000
,
1100
0000
0000
0000
0100
0000
0001
0000
0000
0000
1000
0000
0010
0000
0000
0000
0001
0000
1000
0000
0000
0001
0000
0000
,
0100
0100
1000
0000
0110
0010
1001
0000
,
1020
0000
0000
0000
0000
0000
0000
0000
0000
0000
0000
0000
0000
0000
0000
0000
0000
0000
0000
0000
0000
0000
0000
0000
0000
0000
0000
0000
0000
0000
0000
0000
0000
0000
0000
0000
0000
0000
0000
0000
0000
0000
0000
0000
0000
0000
0000
0000
0130
0000
0000
0000
0000
0000
0000
0000
0000
0000
0000
0000
0000
0000
0000
0000
0000
0000
0000
0000
0000
0000
0000
0000
0000
0000
0000
0000
0000
0001
0000
0000
0000
0000
0000
0000
0000
0000
0000
0000
0000
0000
0000
0000
0000
0000
0000
0000
1000
0000
0000
0000
0000
0000
0000
0000
0000
0000
0000
0000
0000
0000
0000
0000
0000
0000
0000
0000
0000
0000
0000
0000
0000
0000
0000
0000
0000
0000
0000
0000
0000
0000
0000
0000
0000
0000
0000
0000
0000
0000
0000
0000
0000
0000
0000
0000
0001
0000
0000
0000
0000
0000
0000
0000
0000
0000
0000
0000
0000
0000
0000
0000
0000
0000
0000
0000
0000
0000
0000
0000
0000
0000
0000
0000
0000
0000
0000
0000
0000
0000
0000
0000
0000
0000
0000
0000
0000
0000
0000
0000
0000
0000
0000
0000
,
1000
0000
0000
0000
0000
0000
0000
0000
0000
0000
0000
0000
0000
0000
0000
0000
0000
0000
0000
0000
0000
0000
0000
0000
0100
0000
0000
0000
0000
0000
0000
0000
0000
0000
0000
0000
0000
0000
0000
0000
0000
0000
0000
0000
0000
0000
0000
0000
0010
0000
0000
0000
0000
0000
0000
0000
0000
0000
0000
0000
0000
0000
0000
0000
0000
0000
0000
0000
0000
0000
0000
0000
0000
0000
0000
0000
0000
0001
0000
0000
0000
0000
0000
0000
0000
0000
0000
0000
0000
0000
0000
0000
0000
0000
0000
0000
1000
0000
0000
0000
0000
0000
0000
0000
0000
0000
0000
0000
0000
0000
0000
0000
0000
0000
0000
0000
0000
0000
0000
0000
0000
0000
0000
0000
0000
0000
0000
0000
0000
0000
0000
0000
0000
0000
0010
0000
0000
0000
0000
0000
0000
0000
0000
0000
0100
0000
0000
0000
0000
0000
0000
0000
0000
0000
0000
0000
0000
0000
0000
0000
0000
0000
0000
0000
0000
0000
0000
0000
0001
0000
0000
0000
0000
0000
0000
0000
0000
0000
0000
0000
0000
0000
0000
0000
0000
0000
0000
0000
0000
0000
0000
0000
,
0010
0000
0000
0000
0000
0000
0000
0000
0000
0000
0000
0000
0000
0000
0000
0000
0000
0000
0000
0000
0000
0000
0000
0000
0000
0000
0000
0000
0000
0000
0000
0000
0000
0000
0000
0000
0000
0000
0000
0000
0000
0000
0000
0000
0000
0000
0000
0000
0001
0000
0000
0000
0000
0000
0000
0000
0000
0000
0000
0000
0000
0000
0000
0000
0000
0000
0000
0000
0000
0000
0000
0000
0000
0000
0000
0000
0000
0100
0000
0000
0000
0000
0000
0000
0000
0000
0000
0000
0000
0000
0000
0000
0000
0000
0000
0000
0010
0000
0000
0000
0000
0000
0000
0000
0000
0000
0000
0000
0000
0000
0000
0000
0000
0000
0000
0000
0000
0000
0000
0000
0000
0000
0000
0000
0000
1000
0000
0000
0000
0000
0000
0000
0000
0000
0000
0000
0000
0000
0000
0000
0000
0000
0000
0000
0001
0000
0000
0000
0000
0000
0000
0000
0000
0000
0000
0000
0000
0000
0000
0000
0000
0000
0000
0000
0000
0000
0000
0000
0100
0000
0000
0000
0000
0000
0000
0000
0000
0000
0000
0000
0000
0000
0000
0000
0000
0000
0000
0000
0000
0000
0000
0000
,
0001
0000
0000
0000
0000
0000
0000
0000
0000
0000
0000
0000
0000
0000
0000
0000
0000
0000
0000
0000
0000
0000
0000
0000
1000
0000
0000
0000
0000
0000
0000
0000
0000
0000
0000
0000
0000
0000
0000
0000
0000
0000
0000
0000
0000
0000
0000
0000
0010
0000
0000
0000
0000
0000
0000
0000
0000
0000
0000
0000
0000
0000
0000
0000
0000
0000
0000
0000
0000
0000
0000
0000
0000
0000
0000
0000
0000
0001
0000
0000
0000
0000
0000
0000
0000
0000
0000
0000
0000
0000
0000
0000
0000
0000
0000
0000
0010
0000
0000
0000
0000
0000
0000
0000
0000
0000
0000
0000
0000
0000
0000
0000
0000
0000
0000
0000
0000
0000
0000
0000
1000
0000
0000
0000
0000
0000
0000
0000
0000
0000
0000
0000
0000
0000
0000
0000
0000
0000
0000
0000
0000
0000
0000
0000
0100
0000
0000
0000
0000
0000
0000
0000
0000
0000
0000
0000
0000
0000
0000
0000
0000
0000
0000
0000
0000
0000
0000
0000
0010
0000
0000
0000
0000
0000
0000
0000
0000
0000
0000
0000
0000
0000
0000
0000
0000
0000
0000
0000
0000
0000
0000
0000
,
0120
0130
1100
0000
0210
0310
0101
0000
,
1020
1030
1001
0000
0021
0031
1001
0001
,
2000
0100
3002
0010
2003
0010
3001
0100
,
0010
0000
0000
0100
,
0210
0000
0301
0100
0010
1000
0100
0001
,
0100
1000
0100
0010
1001
0000
0001
0100
,
0120
0000
1030
0010
0100
0001
0010
1000
,
0010
0001
0100
0010
1001
0001
0010
0000
,
1100
0000
1100
1000
0001
0100
0010
0001
,
0010
1000
1010
0000
1002
0000
0013
1000
,
1010
0000
1010
0010
0100
1000
0001
0100
,
0010
0100
0110
0000
1001
0001
1000
0001
,
0200
0000
1300
0100
0001
1000
0100
0001
,
0100
0010
0001
0100
1010
0000
1000
0001
,
0020
0000
1030
0010
0001
1000
0010
0001
,
0010
0100
0001
0010
1100
0100
0010
0000
,
0101
0000
0101
0001
1000
0100
0010
1000
,
0010
0001
0011
0000
2001
0000
3010
0001
,
0011
0000
0011
0010
0100
0001
1000
0100
,
0010
1001
0000
0000
,
1000
0100
0020
0000
0000
0000
0031
0000
0100
0010
2000
0000
0000
0000
3001
0000
,
0010
0100
2000
0000
0000
0000
3010
0000
0100
0000
0001
0000
0010
0000
0100
0000
,
0110
0000
1001
0000
0001
0100
0001
1000
,
1010
0010
1010
0010
1010
2000
0000
0000
,
3001
0010
0200
0000
0000
0000
0301
0000
0100
1000
0002
0000
0000
0000
1003
0000
,
0010
0100
0002
0000
0000
0000
1003
0000
0010
0000
0001
0000
1000
0000
0100
0000
,
0110
0000
1010
0000
0001
0010
0100
0010
,
0011
0010
0011
0010
0011
0002
0000
0000
,
0000
0000
0000
0000
,
0000
0000
0000
1003
,
1020
0000
0000
0000
0000
0000
0000
0000
0000
0130
0001
1000
0100
0000
0010
0000
0001
0000
1000
0000
0010
0000
0100
0000
,
0020
0000
0000
0000
1030
0000
0001
0000
0010
0000
0100
0000
1000
0000
0010
0000
0100
0000
0001
0000
0000
1000
0000
0000
,
0002
0000
0000
0013
0100
1000
0010
0100
0001
1000
0010
0001
,
1000
0100
0001
1000
0100
0010
0001
0010
0100
1000
0000
0000
,
0021
0000
0000
0000
0000
0000
0000
0000
0000
0130
1000
0001
0100
0000
0010
0000
1000
0000
0001
0000
0010
0000
0100
0000
,
0020
0000
0000
0000
0000
0000
0000
0000
0031
0000
0000
0000
0100
0000
0000
0000
0010
0000
0000
0000
1000
0000
0000
0000
0100
0000
0000
0000
0000
0000
0000
0000
0000
0100
0000
0000
0000
0000
0000
0000
0000
0000
0100
0000
0000
0000
0000
0000
,
0020
0000
0000
0031
1000
0010
1000
0100
0001
1000
0010
0001
,
0100
0000
0000
0000
0100
0000
0000
0000
0100
0000
0000
0000
0010
0000
0000
1000
0000
0000
0001
0000
0000
0100
0000
0000
,
0010
0000
0000
0110
0000
0000
2001
0000
0000
0000
0000
0000
3100
0000
0100
0000
0100
0000
0100
0000
0100
0000
0100
0000
,
0100
0000
0000
0000
0100
0000
0000
0000
0100
0000
0000
0000
0100
0000
0000
0000
0100
0000
0000
0000
0100
0000
0000
0000
0100
0000
0000
0000
0000
0000
0000
0000
0000
0100
0000
0000
0000
0000
0000
0000
0000
0000
0100
0000
0000
0000
0000
0000
,
0020
0000
0000
0031
1000
0010
0100
0100
0100
0100
0100
0100
,
0100
0000
0000
0000
0100
0000
0000
0000
0100
0000
0000
0000
0100
0000
0000
0000
0100
0000
0000
0000
0100
0000
0000
0000
0100
0000
0000
0000
0000
0000
0000
0000
0000
0100
0000
0000
0000
0000
0000
0000
0000
0000
0100
0000
0000
0000
0000
0000
,
0020
0000
0000
1030
0100
0010
0100
0100
0100
0100
0100
0100
,
0100
0000
0000
0000
0100
0000
0000
0000
0100
0000
0000
0000
0100
0000
0000
0000
0000
0000
0100
0000
0000
0000
0000
0000
0100
0000
0000
0000
0000
0000
0000
0000
0000
0100
0000
0000
0000
0000
0000
0000
0000
0000
0100
0000
0000
0000
0000
0000
,
0020
0000
0000
1030
0001
0010
0100
0100
0100
0100
0100
0100
,
0100
0000
0000
0000
0100
0000
0000
0000
0100
0000
0000
0000
0100
0000
0000
0000
0100
0000
0000
0000
0100
0000
0000
0000
0100
0000
0000
0000
0000
0000
0000
0000
0000
0100
0000
0000
0000
0000
0000
0000
0000
0000
0200
0000
0000
0000
0000
0000
,
0000
0000
0000
0000
0000
0300
1001
0000
,
2100
0000
3001
0010
0100
0001
0100
1000
,
0010
0010
0001
0010
0220
0330
0001
0100
,
0102
0000
1003
0010
0100
1000
0100
0001
,
0010
0010
1000
0010
0110
0010
1000
0000
,
2002
3003
1100
0100
2200
3300
0110
0010
,
0210
0310
0011
0001
0022
0033
1001
0001
,
0202
0303
0101
0100
0220
0330
1010
1000
,
0001
0110
0000
0000
;

//---------------dance-double - t7r----------------
#NOTES:
     dance-double:
     t7r:
     Easy:
     6:
     :
00000000
00000000
00000000
00000000
,
00000000
00000000
00000000
00000000
,
00000000
00000000
00000000
00000000
,
00000000
00000000
00000000
00000000
,
00000000
00000000
00000000
00000000
,
00000002
00000000
00001003
00000000
,
00000010
00001000
00000100
00000000
,
00020000
00000000
00031000
00000000
,
01000000
00100000
10000000
00000000
,
00010000
00100000
00100000
00001000
,
00010000
00010000
00000000
00000000
,
00000010
00000100
00000100
00000010
,
00000010
00010000
00010000
00000000
,
00002000
00000000
00003100
00000000
,
00000001
00000010
00000100
00000000
,
00020000
00000000
01030000
00000000
,
10000000
00100000
01000000
00000000
,
00100000
20000000
00000000
30020000
,
00000000
00000000
00030000
00000000
,
00100000
00100000
00001000
00001000
,
00010000
00010000
00000010
00000010
,
00000000
00000100
00000001
00000100
,
00001000
00010000
00001000
00000000
,
01000000
00010000
01000000
00000000
,
00010000
00100000
10000000
00000000
,
00100000
00010000
00001000
00000000
,
00100000
00010000
00001000
00000000
,
00000010
00000010
00000001
00000100
,
00001000
00000000
00000000
00010000
,
00002000
01003000
00010000
01000000
,
00100000
00100000
20010000
30010000
,
20000000
31000000
00010000
00001000
,
00000100
00000100
00001002
00000103
,
00000010
00000010
00001000
00000000
,
00000100
00000100
00010000
00000000
,
00001000
00001000
00010000
00000000
,
00001000
01000000
01100000
00000000
,
20000000
31000000
00100000
01000000
,
00010000
00001000
00012000
00003100
,
00000002
00000013
00000100
00000010
,
00001000
00010000
00021000
01030000
,
10000000
10000000
00100000
00000000
,
01000000
01000000
00001000
00000000
,
00010000
00010000
00000100
00000000
,
00001000
00000002
00000000
00000000
,
00000103
00000000
00001000
00000000
,
00010000
00000000
00100000
00000000
,
10000000
02000000
00000000
03100000
,
00010000
00010000
00010000
00000000
,
10000000
00000000
00100000
00000000
,
00010000
00000000
00000100
00000000
,
00000010
00000002
00000000
00001003
,
00000001
00000100
00002000
00000000
,
00000000
00000000
00000000
00000000
,
00000000
00000000
00000000
00013000
,
00021000
00000000
00030100
00001000
,
00000100
00000010
00000001
00001000
,
00000002
00000000
00000103
00000010
,
00010000
00001000
00010000
00010000
,
00002000
00000000
01003000
00010000
,
01000000
00100000
10000000
10000000
,
02000000
00000000
03100000
00001000
,
00010000
00001000
00010000
00010000
,
00000020
00000000
00000130
00000001
,
00000100
00001000
00010000
00010000
,
00000000
00000000
01000000
10000000
,
01000000
00010000
00001000
00001000
,
00000000
00000000
00000100
00000001
,
00000100
00001000
00010000
00010000
,
00000000
00000000
00100000
10000000
,
00100000
00010000
00001000
00002000
,
00000000
00000000
00000000
00013000
,
00021000
00030100
00001000
00010000
,
01000000
00100000
20010000
30010000
,
20000000
31000000
00010000
00001000
,
00000100
00000010
00001002
00001003
,
00000011
00000011
00002000
00003000
,
00000100
00010100
00020000
00030000
,
00011000
00011000
02000000
03000000
,
00100000
10010000
00000000
00000000
;

//---------------dance-double - t7r----------------
#NOTES:
     dance-double:
     t7r:
     Medium:
     9:
     :
00000000
00000000
00000000
00000000
,
00000000
00000000
00000000
00000000
,
00000000
00000000
00000000
00000000
,
00000000
00000000
00000000
00000000
,
00000000
00000000
00000000
00000000
,
20000000
01000000
30100000
00000000
,
10000000
01000000
10000000
00000000
00020000
00000000
00030000
00000000
,
01000000
01000000
00001000
00001000
,
00010000
00001000
00010000
00000000
00022000
00000000
00033000
00000000
,
00000010
00000000
00001000
00000100
00001000
00000000
00000010
00000000
,
00001000
00000100
00001000
00000000
00000002
00000000
00000003
00000000
,
00000100
00000000
00001000
00000000
00010000
00000000
00100000
10000000
,
00200000
00000000
10300000
00100000
20000000
00000000
30000000
00000000
,
20010000
00000000
31000000
00000000
,
10000000
01000000
00010000
00001000
,
00021000
00000000
00030100
00000000
,
00010000
00001000
00000100
00000010
,
00002000
00003200
00000000
00020300
,
00000000
00000000
00030000
00000000
,
00001000
00001000
01000000
01000000
,
00010000
10000000
01000000
00100000
,
00001000
00000000
00011000
00000000
,
00000010
00000100
00000001
00000000
,
00000010
00000000
00010100
00000000
,
00010000
00000100
00001000
00000000
00010100
00000000
00000000
00000000
,
00002000
01003000
00020000
00130000
,
00002000
00013000
00000200
00010300
,
00002000
01003000
00020000
00130000
,
10010000
00000000
00000000
00010000
,
20000000
00000000
31000000
00100000
01000000
00000000
20000000
00000000
,
30100000
01000000
00001000
00000000
00011000
00000000
00000000
00000000
,
00020000
00000000
00030100
00000010
00000100
00000000
00002000
00000000
,
00003010
00000100
00000010
00000000
00001001
00000000
00000000
00000000
,
00000001
00000100
00001010
00000000
,
00000100
00010000
00001000
00000000
00011000
00000000
00000000
00000000
,
00100000
00010000
11000000
00000000
,
01000000
00010000
00001000
00000000
00011000
00000000
00000000
00000000
,
00002000
00000000
01003000
00010000
01000000
00000000
00200000
00000000
,
01300000
00001000
00010000
00000000
00011000
00000000
00000000
00000000
,
00020000
00000000
00030100
00001000
00000100
00000000
00000020
00000000
,
00000130
00010000
00001000
00000000
00011000
00000000
00000000
00000000
,
00100000
00010000
10010000
10000000
,
01000000
00010000
00001000
00000000
00022000
00000000
00033000
00000000
,
00000100
00000000
00000001
00000000
00000010
00000000
00001000
00010000
,
00001000
00020000
00000000
00000000
,
00031000
00000100
00000000
00000000
00000001
00001000
00000000
00000000
,
00000010
00010000
00000000
00000000
00000100
00000000
00010000
00000000
,
00001000
00002000
00000000
01003000
,
00001000
00010000
00001000
00010000
00001000
00020000
00000000
00000000
,
01030000
10000000
00000000
00000000
00100000
01000000
00000000
00000000
,
00001000
00100000
00000000
00000000
00001000
00010000
00000000
00000000
,
00000010
00000100
00001000
00100000
,
00001000
00010000
00001000
00010000
00001000
00020000
00000000
00000000
,
00000000
00000000
00000000
00000000
,
00000000
00000000
00000000
00031000
,
00021000
00000000
00030100
00000001
,
00000100
00001000
00000010
00000100
,
00001002
00000000
00000103
00001000
,
00010000
00100000
10000000
00010000
,
20010000
00000000
31000000
00100000
,
00001000
00010000
00000010
00000100
,
00002000
00023000
00130000
10000000
,
01000000
00010000
00001000
00000100
,
00000010
00000000
00000000
00010000
00000000
00000000
00001000
00000000
00000000
00000000
00000000
00000000
00010000
00000000
00000000
00000000
00001000
00000000
00010000
00000000
00000000
00000000
00000000
00000000
,
00010000
00010000
01000000
10000000
,
00020000
00000000
00000000
20030000
00000000
00000000
30100000
00000000
01000000
00100000
00000000
00000000
,
00100000
00100000
10000000
01000000
,
00102000
00000000
00000000
00000000
00000000
00000000
00013000
00000000
00001000
00010000
00000000
00001000
,
00010000
00010000
00001000
01000000
,
00020000
00000000
00000000
00230000
00000000
00000000
01300000
00000000
00100000
01000000
00000000
00100000
,
01000000
00000000
00100000
01000000
00000000
00000000
00100000
00000000
00000000
00002000
00000000
00000000
,
00000000
00000000
00000000
00013000
,
00002000
00000000
01003000
00010000
02000000
00000000
23000000
00000000
,
31000000
00001000
00010000
00000000
00011000
00000000
00000000
00000000
,
00020000
00000000
00030100
00001000
00000200
00000000
00000302
00000000
,
00000103
00010000
00001000
00000000
00011000
00000000
00000000
00000000
,
01000000
00100000
01100000
00000000
,
10000000
01000000
00010000
00000000
00011000
00000000
00000000
00000000
,
00000010
00000000
00000100
00000000
00000110
00000000
00000000
00010000
,
00001000
00011000
00000000
00000000
;

//---------------dance-double - t7r----------------
#NOTES:
     dance-double:
     t7r:
     Hard:
     13:
     :
00000000
00000000
00000000
00000000
,
00000000
00000000
00000000
00000000
,
00000000
00000000
00000000
00000000
,
00000000
00000000
00000000
00000000
,
00000000
00000000
00000000
00000000
,
20000000
01000000
30010000
00000000
,
10000000
01000000
00100000
00000000
00001000
00000000
00000000
00000000
,
00020000
00000010
00030100
00000000
,
00001000
00000010
00000100
00000000
00000010
00000000
00001001
00000000
,
00000001
00000000
00000001
00000100
00000010
00000000
00001000
00000000
,
00001000
00010000
00100000
00000000
00010000
00000000
00000000
00000000
,
10000000
00000000
10000000
01000000
00100000
00000000
00010000
00001000
,
00000010
00000000
00010000
00001000
00000100
00000000
00000000
00000000
,
00000002
00000010
00001003
00000000
,
00000001
00000000
00000100
00000010
00001000
00000000
00000100
00000000
,
00020000
00001000
00030100
00000000
,
00010000
00000000
00001000
00010000
00100000
00000000
10000000
00000000
,
01000000
10000000
10100000
00000000
,
10000000
01000000
01000000
00000000
00100000
00000000
00000000
00000000
,
00001000
00000000
00010000
00001000
00000000
00010000
00000010
00000000
00000000
00001000
00000000
00000000
,
00000001
00000010
00000010
00000000
00000001
00000000
00000100
00000000
,
00001000
00010000
01100000
00000000
,
10000000
01000000
01000000
00000000
10000000
00000000
00100000
00000000
,
00010000
00001000
00000110
00000000
,
00000001
00000010
00000010
00000000
00000001
00000000
00000100
00000000
,
00000020
00001030
00020000
00130000
,
00002000
00013000
00200000
10300000
,
01000000
00010000
00001000
00000000
00010000
00001000
00000100
00000000
,
00000110
00000000
00000000
00010000
,
00012000
00000000
01003000
00010000
01000000
00000000
20000000
00000000
,
31000000
00001000
00010000
00000000
00011000
00000000
00000000
00000000
,
00021000
00000000
00030100
00001000
00000100
00000000
00000002
00000000
,
00000103
00010000
00001000
00000000
00011000
00000000
00000000
00000000
,
01000000
01000000
01100000
01100000
,
10000000
01000000
01000000
00000000
00020000
00000000
00031000
00000000
,
01001000
00000000
01001000
00000000
00001000
00010000
00010000
00000000
,
00000100
00001000
00000010
00000000
00000110
00000000
00000000
00000000
,
00000002
00000000
00000013
00001000
00000010
00000000
00000002
00000000
,
00000103
00001000
00010000
00000000
00011000
00000000
00001000
00010000
,
00200000
00000000
10300000
00100000
00010000
00000000
00200000
00000000
,
10300000
01000000
00010000
00000000
00011000
00000000
00001000
00000000
,
00000100
00000100
00000110
00000110
,
00000001
00000010
00000010
00000000
00002000
00000000
00013000
00000000
,
00010100
00000000
00010100
00000000
00010000
00001000
01000000
00000000
,
00100000
02000000
00000000
00000000
,
03010000
00100000
00000000
01000000
00100000
00001000
00000000
00010000
,
00000100
00001000
00000000
00000010
00001000
00000001
00000010
00000000
,
00000001
00000001
00000100
00001000
,
00010000
00010000
00001000
00001000
00010000
00002000
00000000
00000000
,
01003000
00010000
00000000
01000000
10000000
01000000
00000000
00100000
,
10000000
00010000
00000000
10000000
01000000
00000000
00010000
00000000
,
00001000
00020000
00000010
00030100
,
00010000
00010000
00001000
00001000
00010000
00002000
00000000
00000000
,
00000000
00000000
00000000
00000000
,
00000000
00000000
00003000
00011000
,
02001000
00000000
00000000
00000000
00000000
00000000
03100000
00000000
10000000
01000000
00000000
00000000
,
10000000
00000000
00000000
00010000
00000000
00000000
10000000
00000000
01000000
00100000
00000000
00000000
,
00002000
00000000
00000000
00013000
00000000
00000000
00001000
00000000
00010000
00000100
00000000
00000000
,
00001000
00000000
00000000
00000010
00000000
00000000
00000100
00000000
00000001
00001000
00000000
00000000
,
00000002
00000000
00000000
00000010
00000000
00000000
00001003
00000000
00000001
00000010
00000000
00000000
,
00000001
00000000
00000000
00000000
00000100
00000000
00000000
00000000
00001000
00000000
00000000
00010000
00000000
00000000
00001000
00000000
,
00200000
00000000
00000000
00001000
00000000
00000000
00310000
00000000
01000000
00010000
00000000
00000000
,
10000000
00000000
00000000
01000000
00000000
00000000
00100000
00000000
00001000
00000000
00010000
00000000
,
00001000
00000000
00000000
00010000
00000000
00000000
00010000
00000000
00000000
00000000
00000000
00000000
00001000
00000000
00010000
00000000
00001000
00000000
00010000
00000000
00000000
00000000
00000000
00000000
,
00001000
00000000
00000000
00000000
01000000
00000000
00000000
00000000
00001000
00000000
00000000
00000000
01000000
00000000
00000000
00000000
00000000
00000000
00000000
00000000
00000000
00000000
00000000
00000000
00010000
00000000
00000000
00000000
00000000
00000000
00000000
00000000
00000000
00010000
00000000
00000000
00000000
00000000
00000000
00000000
00000000
00000000
00010000
00000000
00000000
00000000
00000000
00000000
,
20000000
00000000
00000000
32000000
00000000
00000000
03010000
00001000
00010000
00001000
00000000
00000000
,
00010000
00000000
00000000
00000000
00000100
00000000
00000000
00000000
00010000
00000000
00000000
00000000
00000100
00000000
00000000
00000000
00000000
00000000
00000000
00000000
00000000
00000000
00000000
00000000
00001000
00000000
00000000
00000000
00000000
00000000
00000000
00000000
00000000
00001000
00000000
00000000
00000000
00000000
00000000
00000000
00000000
00000000
00001000
00000000
00000000
00000000
00000000
00000000
,
00000002
00000000
00000000
00000203
00000000
00000000
00001300
00010000
00001000
00010000
00001000
00010000
,
00001000
00000000
00000000
00000000
00010000
00000000
00000000
00000000
00001000
00000000
00000000
00000000
00010000
00000000
00000000
00000000
00000000
00000000
00001000
00000000
00000000
00000000
00000000
00000000
01000000
00000000
00000000
00000000
00000000
00000000
00000000
00000000
00000000
00100000
00000000
00000000
00000000
00000000
00000000
00000000
00000000
00000000
10000000
00000000
00000000
00000000
00000000
00000000
,
00020000
00000000
00000000
00230000
00000000
00000000
00301000
00010000
00001000
00010000
00001000
00010000
,
00001000
00000000
00000000
00000000
00010000
00000000
00000000
00000000
00001000
00000000
00000000
00000000
00010000
00000000
00000000
00000000
00001000
00000000
00000000
00000000
00010000
00000000
00000000
00000000
00001000
00000000
00000000
00000000
00000000
00000000
00000000
00000000
00000000
00010000
00000000
00000000
00000000
00000000
00000000
00000000
00000000
00000000
00002000
00000000
00000000
00000000
00000000
00000000
,
00000000
00000000
00000000
00013000
,
00021000
00000000
00030100
00001000
00000020
00000000
00000130
00000000
,
00000001
00000010
00000010
00000000
00002001
00000000
00003100
00010000
,
00002000
00000000
01003000
00010000
00200000
00000000
00310000
00000000
,
10000000
00100000
00100000
00000000
10020000
00000000
00130000
00000000
,
00110000
00000000
11000000
00000000
10000000
01000000
00010000
00000000
,
00001000
00010000
00010000
00000000
00011000
00000000
00010000
00000010
,
00001000
00000000
00001010
00000000
00000010
00001000
00000100
00010000
,
00001000
00011000
00000000
00000000
;

//---------------dance-double - t7r----------------
#NOTES:
     dance-double:
     t7r:
     Challenge:
     16:
     :
00000000
00000000
00000000
00000000
,
00000000
00000000
00000000
00000000
,
00000000
00000000
00000000
00000000
,
00000000
00000000
00000000
00000000
,
00000000
00000000
00000000
00000000
,
00200000
00000000
00000000
00301000
00020000
00000000
00000000
00030100
,
00001000
00000010
00000100
00000001
00000020
00000000
00000000
00000031
,
00000100
00000100
00001000
00001000
,
00100000
00010000
01000000
00100000
10000000
00000000
10010000
00000000
,
12000000
00000000
03100000
00010000
02000000
00000000
03010000
00100000
,
00001000
00010000
00001000
00000100
00000020
00000000
00001030
00000001
,
00000200
00000000
00000301
00000010
00000200
00000000
00010300
00001000
,
00011000
00000000
00001000
00010000
00011000
00000000
00010000
01000000
,
20000000
00000000
30100000
01000000
00010000
00000000
00100000
00000000
,
00101000
00100000
00001000
00010000
00001000
00000000
00000010
00000000
,
00000002
00000000
00000013
00000100
00001000
00000000
00000010
00000000
,
00001010
00001000
00000010
00001000
00010000
00100000
00010000
00000000
,
10010000
21000000
30010000
00210000
,
00001000
00010000
00010000
00000000
00301000
00000000
00011000
00000000
,
00001000
00000000
00000000
00000000
00000100
00000000
00000001
00000000
00000000
00000000
00000010
00000000
00000100
00000000
00000000
00000010
00000000
00000000
00000001
00000000
00000000
00000100
00000000
00000000
,
00001000
00010000
00011000
00000000
00001000
00010000
01000000
00000000
,
01100000
00000000
00000000
00000000
00000000
00000000
00000000
00000000
00000000
00000000
00000000
00000000
00000000
00000000
00000000
00000000
00000000
00000000
00000000
00000000
00000000
00000000
00000000
00000000
00000000
00000000
00000000
00000000
00000000
00000000
00000000
00000000
00000000
00000000
00000000
00000000
00000000
00000000
00000000
00000000
00000000
00000000
00000000
00000000
00000000
00000000
00000000
00000000
00100000
00000000
00000000
00000000
00000000
00000000
00000000
00000000
00000000
00000000
00000000
00000000
00000000
00000000
00000000
00000000
00000000
00000000
00000000
00000000
00000000
00000000
00000000
00000000
00000000
00000000
00000000
00000000
00000000
00010000
00000000
00000000
00000000
00000000
00000000
00000000
00000000
00000000
00000000
00000000
00000000
00000000
00000000
00000000
00000000
00000000
00000000
00000000
01000000
00000000
00000000
00000000
00000000
00000000
00000000
00000000
00000000
00000000
00000000
00000000
00000000
00000000
00000000
00000000
00000000
00000000
00000000
00000000
00000000
00000000
00000000
00000000
00000000
00000000
00000000
00000000
00000000
00000000
00000000
00000000
00000000
00000000
00000000
00000000
00000000
00000000
00000000
00000000
00000000
00000000
00000000
00000000
00000000
00000000
00000000
00000000
00100000
00000000
00000000
00000000
00000000
00000000
00000000
00000000
00000000
00000000
00000000
00000000
00000000
00000000
00000000
00000000
00000000
00000000
00000000
00000000
00000000
00000000
00000000
00000000
00000000
00000000
00000000
00000000
00000000
00000000
00000000
00000000
00000000
00000000
00000000
00000000
00000000
00000000
00000000
00000000
00000000
00000000
00000000
00000000
00000000
00000000
00000000
00000000
,
10000000
00000000
00000000
00000000
00000000
00000000
00000000
00000000
00000000
00000000
00000000
00000000
00000000
00000000
00000000
00000000
00000000
00000000
00000000
00000000
00000000
00000000
00000000
00000000
01000000
00000000
00000000
00000000
00000000
00000000
00000000
00000000
00000000
00000000
00000000
00000000
00000000
00000000
00000000
00000000
00000000
00000000
00000000
00000000
00000000
00000000
00000000
00000000
00100000
00000000
00000000
00000000
00000000
00000000
00000000
00000000
00000000
00000000
00000000
00000000
00000000
00000000
00000000
00000000
00000000
00000000
00000000
00000000
00000000
00000000
00000000
00000000
00000000
00000000
00000000
00000000
00000000
00010000
00000000
00000000
00000000
00000000
00000000
00000000
00000000
00000000
00000000
00000000
00000000
00000000
00000000
00000000
00000000
00000000
00000000
00000000
01000000
00000000
00000000
00000000
00000000
00000000
00000000
00000000
00000000
00000000
00000000
00000000
00000000
00000000
00000000
00000000
00000000
00000000
00000000
00000000
00000000
00000000
00000000
00000000
00000000
00000000
00000000
00000000
00000000
00000000
00000000
00000000
00000000
00000000
00000000
00000000
00000000
00000000
00010000
00000000
00000000
00000000
00000000
00000000
00000000
00000000
00000000
00000000
00100000
00000000
00000000
00000000
00000000
00000000
00000000
00000000
00000000
00000000
00000000
00000000
00000000
00000000
00000000
00000000
00000000
00000000
00000000
00000000
00000000
00000000
00000000
00000000
00001000
00000000
00000000
00000000
00000000
00000000
00000000
00000000
00000000
00000000
00000000
00000000
00000000
00000000
00000000
00000000
00000000
00000000
00000000
00000000
00000000
00000000
00000000
00000000
,
00010000
00000000
00000000
00000000
00000000
00000000
00000000
00000000
00000000
00000000
00000000
00000000
00000000
00000000
00000000
00000000
00000000
00000000
00000000
00000000
00000000
00000000
00000000
00000000
00000000
00000000
00000000
00000000
00000000
00000000
00000000
00000000
00000000
00000000
00000000
00000000
00000000
00000000
00000000
00000000
00000000
00000000
00000000
00000000
00000000
00000000
00000000
00000000
00001000
00000000
00000000
00000000
00000000
00000000
00000000
00000000
00000000
00000000
00000000
00000000
00000000
00000000
00000000
00000000
00000000
00000000
00000000
00000000
00000000
00000000
00000000
00000000
00000000
00000000
00000000
00000000
00000000
00010000
00000000
00000000
00000000
00000000
00000000
00000000
00000000
00000000
00000000
00000000
00000000
00000000
00000000
00000000
00000000
00000000
00000000
00000000
00000100
00000000
00000000
00000000
00000000
00000000
00000000
00000000
00000000
00000000
00000000
00000000
00000000
00000000
00000000
00000000
00000000
00000000
00000000
00000000
00000000
00000000
00000000
00000000
00000010
00000000
00000000
00000000
00000000
00000000
00000000
00000000
00000000
00000000
00000000
00000000
00000000
00000000
00000000
00000000
00000000
00000000
00000000
00000000
00000000
00000000
00000000
00000000
00000100
00000000
00000000
00000000
00000000
00000000
00000000
00000000
00000000
00000000
00000000
00000000
00000000
00000000
00000000
00000000
00000000
00000000
00000000
00000000
00000000
00000000
00000000
00000000
00001000
00000000
00000000
00000000
00000000
00000000
00000000
00000000
00000000
00000000
00000000
00000000
00000000
00000000
00000000
00000000
00000000
00000000
00000000
00000000
00000000
00000000
00000000
00000000
,
00000010
00000000
00000000
00000000
00000000
00000000
00000000
00000000
00000000
00000000
00000000
00000000
00000000
00000000
00000000
00000000
00000000
00000000
00000000
00000000
00000000
00000000
00000000
00000000
00000100
00000000
00000000
00000000
00000000
00000000
00000000
00000000
00000000
00000000
00000000
00000000
00000000
00000000
00000000
00000000
00000000
00000000
00000000
00000000
00000000
00000000
00000000
00000000
00000001
00000000
00000000
00000000
00000000
00000000
00000000
00000000
00000000
00000000
00000000
00000000
00000000
00000000
00000000
00000000
00000000
00000000
00000000
00000000
00000000
00000000
00000000
00000000
00000000
00000000
00000000
00000000
00000000
00000010
00000000
00000000
00000000
00000000
00000000
00000000
00000000
00000000
00000000
00000000
00000000
00000000
00000000
00000000
00000000
00000000
00000000
00000000
00000100
00000000
00000000
00000000
00000000
00000000
00000000
00000000
00000000
00000000
00000000
00000000
00000000
00000000
00000000
00000000
00000000
00000000
00000000
00000000
00000000
00000000
00000000
00000000
00000010
00000000
00000000
00000000
00000000
00000000
00000000
00000000
00000000
00000000
00000000
00000000
00000000
00000000
00000000
00000000
00000000
00000000
00000000
00000000
00000000
00000000
00000000
00000000
00000001
00000000
00000000
00000000
00000000
00000000
00000000
00000000
00000000
00000000
00000000
00000000
00000000
00000000
00000000
00000000
00000000
00000000
00000000
00000000
00000000
00000000
00000000
00000000
00000100
00000000
00000000
00000000
00000000
00000000
00000000
00000000
00000000
00000000
00000000
00000000
00000000
00000000
00000000
00000000
00000000
00000000
00000000
00000000
00000000
00000000
00000000
00000000
,
00002000
00000000
00013000
01000000
20000000
00000000
31000000
00010000
,
00002000
00000000
00003100
00000001
00002000
00000000
00003001
00000010
,
00001000
00010000
00100000
10000000
00100000
01000000
00010000
00000000
,
10010000
00000000
00000000
00011000
,
00001002
00000000
00000013
00000001
00000100
00001000
00000100
00000001
,
00000010
00000100
00010000
00001000
00011000
00000000
00001000
00010000
,
00200000
00000000
10300000
01000000
00010000
01000000
00100000
00001000
,
00010000
00001000
00000010
00000001
00001001
00000001
00000100
00000000
,
00000110
00000000
00000110
00000100
00000001
00000010
00001000
00010000
,
00011000
00010000
00001000
00010000
00100000
10000000
01000000
00010000
,
01010000
00000000
01100000
01000000
10000000
00100000
00010000
00001000
,
00010000
00001000
00011000
00000000
01001000
01000000
00100000
00000000
,
20010000
00000000
31000000
10000000
00100000
00010000
00100000
10000000
,
01000000
00100000
00001000
00010000
00011000
00000000
00010000
00001000
,
00000200
00000000
00000301
00000010
00001000
00000010
00000100
00010000
,
00001000
00010000
01000000
10000000
10010000
10000000
00100000
00000000
,
01100000
00000000
01100000
00100000
10000000
01000000
00010000
00001000
,
00011000
00001000
00010000
00001000
00000100
00000001
00000010
00001000
,
00001010
00000000
00000110
00000010
00000001
00000100
00001000
00010000
,
00001000
00011000
00000000
00000000
,
10000000
00100000
02000000
00000000
00000000
00000000
03010000
00000000
10000000
01000000
00200000
00000000
00000000
00000000
00301000
00000000
,
00010000
00001000
00020000
00000000
00000000
00000000
00031000
00000000
00000010
00000000
00000100
00000000
00001000
00000000
00000001
00000000
,
00000101
00000000
00001001
00000000
00000001
00000100
00000010
00001000
,
00001001
00000000
00011000
00000000
10010000
00010000
20000000
00000000
,
30010000
00100000
02000000
00000000
00000000
00000000
03100000
00000000
00010000
10000000
00200000
00000000
00000000
00000000
01300000
00000000
,
00010000
00100000
00002000
00000000
00000000
00000000
00013000
00000000
00001000
00000000
00000010
00000000
00000001
00000000
00000100
00000000
,
00001000
00010000
00100000
10000000
01000000
00100000
01000000
10000000
,
10010000
00000000
00011000
00000000
00001001
00002000
00000000
00000000
,
00000000
00000000
00000000
00000000
,
00000000
00000000
00000000
00003010
,
00000210
00000000
00000000
00000000
00000000
00000000
00000000
00000000
00000000
00000301
00000010
00000100
00000010
00000000
00000001
00000000
00000100
00000000
00000010
00000000
00001000
00000000
00000100
00000000
,
00020000
00000000
00000000
00000000
00000000
00000000
00031000
00000000
01000000
00000000
00010000
00000000
00100000
00000000
00010000
00000000
10000000
00000000
00010000
00000000
00000000
10000000
00000000
00000000
,
00200000
00000000
00000000
01300000
00010000
01000000
00100000
10000000
01000000
00100000
00001000
00010000
,
00001000
00000010
00000001
00001000
00000100
00010000
00001000
00010000
00100000
01000000
00000000
00000000
,
10200000
00000000
00000000
00000000
00000000
00000000
00000000
00000000
00000000
10300000
01000000
00100000
01000000
00000000
10000000
00000000
00100000
00000000
01000000
00000000
00010000
00000000
00100000
00000000
,
00002000
00000000
00000000
00000000
00000000
00000000
00000000
00000000
00000000
00000000
00000000
00000000
00013000
00000000
00000000
00000000
00000010
00000000
00000000
00000000
00001000
00000000
00000000
00000000
00000100
00000000
00000000
00000000
00000000
00000000
00000000
00000000
00000000
00001000
00000000
00000000
00000000
00000000
00000000
00000000
00000000
00000000
00000001
00000000
00000000
00000000
00000000
00000000
,
00000200
00000000
00000000
00000310
00001000
00000010
00000100
00000001
00000010
00000100
00010000
00001000
,
00010000
00000000
01000000
00000000
10000000
00000000
00010000
00000000
00100000
00000000
00001000
00000000
00010000
00000000
00000000
00001000
00000000
00000000
00000100
00000000
00000000
00000001
00000000
00000000
,
00001000
00000000
00000000
00000110
00000000
00000000
00010100
00000000
00000000
00000000
00000000
00000000
00010000
00000000
00010000
00000000
00010000
00000000
00010000
00000000
00010000
00000000
00010000
00000000
,
00010000
00000000
00000000
00000000
00010000
00000000
00000000
00000000
00010000
00000000
00000000
00000000
00010000
00000000
00000000
00000000
00010000
00000000
00000000
00000000
00010000
00000000
00000000
00000000
10000000
00000000
00000000
00000000
00000000
00000000
00000000
00000000
00000000
00010000
00000000
00000000
00000000
00000000
00000000
00000000
00000000
00000000
00001000
00000000
00000000
00000000
00000000
00000000
,
00000002
00000000
00000000
00000103
00000010
00010000
00001000
00001000
00001000
00001000
00001000
00001000
,
00001000
00000000
00000000
00000000
00001000
00000000
00000000
00000000
00001000
00000000
00000000
00000000
00001000
00000000
00000000
00000000
00001000
00000000
00000000
00000000
00001000
00000000
00000000
00000000
00000001
00000000
00000000
00000000
00000000
00000000
00000000
00000000
00000000
00000100
00000000
00000000
00000000
00000000
00000000
00000000
00000000
00000000
00000010
00000000
00000000
00000000
00000000
00000000
,
00020000
00000000
00000000
00031000
00010000
00001000
00010000
00010000
00010000
00010000
00010000
00010000
,
00010000
00000000
00000000
00000000
00010000
00000000
00000000
00000000
00010000
00000000
00000000
00000000
00010000
00000000
00000000
00000000
00000000
00000000
00010000
00000000
00000000
00000000
00000000
00000000
00010000
00000000
00000000
00000000
00000000
00000000
00000000
00000000
00000000
01000000
00000000
00000000
00000000
00000000
00000000
00000000
00000000
00000000
00100000
00000000
00000000
00000000
00000000
00000000
,
20000000
00000000
00000000
31000000
00100000
00001000
00010000
00010000
00010000
00010000
00010000
00010000
,
00010000
00000000
00000000
00000000
00010000
00000000
00000000
00000000
00010000
00000000
00000000
00000000
00010000
00000000
00000000
00000000
00010000
00000000
00000000
00000000
00010000
00000000
00000000
00000000
00010000
00000000
00000000
00000000
00000000
00000000
00000000
00000000
00000000
00010000
00000000
00000000
00000000
00000000
00000000
00000000
00000000
00000000
00020000
00000000
00000000
00000000
00000000
00000000
,
00000000
00000000
00000000
00031000
,
00021000
00000000
00031000
00010000
00100000
10000000
01000000
00010000
,
01000000
00100000
00001000
00010000
00011000
00000000
00010000
00001000
,
00001020
00000000
00000031
00000100
00000010
00000001
00000010
00001000
,
00000100
00010000
00001000
00010000
00110000
00100000
01000000
00000000
,
20200000
30300000
10100000
00000000
20020000
30030000
10000000
01000000
,
00010000
00001000
00011000
00000000
00020200
00030300
00010100
00000100
,
00002200
00003300
00001100
00000000
00001001
00000001
00000100
00001000
,
00011000
00100000
00000000
00000000
;
