#TITLE:狂イ咲ケ焔ノ華;
#ARTIST:覚醒ノPrim;
#TITLETRANSLIT:Kuruizake homura no hana;
#ARTISTTRANSLIT:Kakusei no Prim;
#BANNER:Kuruizake homura no hana.png;
#BACKGROUND:Kuruizake homura no hana-bg.png;
#JACKET:Kuruizake homura no hana-jacket.png;
#CDTITLE:./CDTITLES/BEATMANIA IIDX.PNG;
#MUSIC:Kuruizake homura no hana.ogg;
#SAMPLESTART:98.449;
#SAMPLELENGTH:15;
#BPMS:0=206;
#STOPS:186=0.291,337=0.291;

//---------------dance-single - t7r----------------
#NOTES:
     dance-single:
     t7r:
     Beginner:
     5:
     :
0000
0000
0000
0000
,
0000
0000
0000
0000
,
0000
0000
0000
0000
,
0000
0000
0000
0000
,
0000
0000
0000
0000
,
0000
0000
0000
0000
,
0000
0000
0000
0000
,
0000
0000
0000
0000
,
0000
0000
0000
0000
,
1000
0000
0000
0000
,
0001
0000
0001
0000
,
0100
0000
0000
0000
,
0010
0000
0010
0000
,
1000
0000
0000
0000
,
0100
0000
0100
0000
,
0010
0000
0000
0000
,
0001
0000
1000
0000
,
0001
0000
0001
0000
,
0001
0000
0000
0000
,
1000
0000
1000
0000
,
1000
0000
0000
0000
,
0010
0000
0010
0000
,
0010
0000
0000
0000
,
0100
0000
0100
0000
,
0100
0000
0000
0010
,
0010
0000
0000
1000
,
0000
1000
0000
1000
,
1000
0000
0000
0001
,
0000
0001
0000
0001
,
0001
0000
0010
0000
,
0001
0000
0001
0000
,
1000
0000
0010
0000
,
1000
0000
1000
0000
,
0000
0010
0010
0010
,
0000
0100
0100
0100
,
0000
0001
0001
0001
,
0001
0000
0000
0000
,
1000
0000
1000
0000
,
1000
0000
0000
0000
,
0100
0000
0000
0000
,
0010
0000
0000
0000
,
0001
0000
0001
0000
,
0001
0000
0000
0000
,
0100
0000
0000
0000
,
0100
0000
0000
0000
,
0000
0010
0010
0000
,
0010
0010
0010
1000
,
0000
0000
0000
0001
,
0000
0000
0000
0010
,
0000
0000
0000
0001
,
0000
0000
0000
0100
,
0000
0000
0000
0010
,
0000
0000
0000
0100
,
0100
0000
0001
0001
,
0000
0001
0000
1000
,
0000
1000
0000
1000
,
0000
0000
0000
0100
,
0000
0100
0000
0100
,
0000
0000
0000
0010
,
0000
0000
0000
0010
,
0000
0000
0000
0001
,
0000
0000
0000
1000
,
0000
0001
0000
0000
,
0100
0000
0100
0000
,
0100
0000
0100
0000
,
0010
0000
0010
0000
,
0010
0000
0010
0010
,
0000
0000
0000
1000
,
0000
0000
0000
0001
,
0000
0000
0000
0010
,
0000
0000
0000
0001
,
0000
0000
0001
0000
,
0001
0000
0001
0001
,
0000
0000
1000
0000
,
1000
0000
1000
1000
,
0000
0010
0000
1000
,
0000
0000
0000
0001
,
0000
0010
0000
0001
,
0000
0000
0000
1000
,
0000
0100
0000
1000
,
0000
0000
0000
0001
,
0000
0100
0000
0001
,
0000
0010
0000
0000
,
0100
0100
0000
0010
,
0010
0010
0001
0000
,
1000
0000
0001
0000
,
0001
0000
0100
0000
,
0010
0000
0100
0000
,
0100
0000
0001
0000
,
0010
0000
0100
0000
,
0100
0000
1000
1000
,
0000
0000
0010
0000
,
0010
0000
1000
0000
,
0001
0000
0010
0000
,
0001
0000
1000
0000
,
0001
0000
0100
0000
,
0010
0000
1000
0000
,
0100
0000
0010
0000
,
0001
0001
0001
0000
,
0000
0000
0100
0000
,
0010
0000
1001
0000
,
0000
0000
0000
0000
,
0000
0000
0000
0000
,
0000
0000
0000
0000
,
0000
0000
0010
0000
,
0010
0000
0001
0000
,
1000
0000
0010
0000
,
0100
0000
0010
0000
,
1000
0000
1001
0000
;

//---------------dance-single - t7r----------------
#NOTES:
     dance-single:
     t7r:
     Easy:
     8:
     :
0000
0000
0000
0000
,
0000
0000
0000
0000
,
0000
0000
0000
0000
,
0000
0000
0000
0000
,
0000
0000
0000
0000
,
0000
0000
0000
0000
,
0000
0000
0000
0000
,
0000
0000
0000
0000
,
0000
0000
0000
0000
,
0100
0000
0100
0000
0000
0001
0000
0010
,
0000
0001
0000
1000
0000
0010
0000
0000
,
1000
0000
1000
0000
0000
0100
0000
1000
,
0000
0001
0000
0000
0100
0000
0010
0000
,
0100
0000
0100
0000
0000
0010
0000
1000
,
0000
0001
0000
0010
0000
0001
0000
0000
,
0010
0000
0010
0000
0000
0001
0000
0100
,
0000
0010
0000
0000
0100
0000
0100
0000
,
0010
1000
0100
0000
,
0010
0001
1000
0000
,
0001
0100
0010
0000
,
1000
0100
0010
0000
,
0001
1000
0010
0000
,
0100
0001
0010
0000
,
0100
1000
0010
0100
,
0001
0010
0001
1000
,
0001
0000
0001
0000
0000
1000
0000
0100
,
0000
0010
0000
0001
0000
0001
0000
0000
,
1000
0000
1000
0000
0000
0001
0000
0100
,
0000
0010
0000
1000
0000
1000
0000
0000
,
0001
0010
0100
1000
,
0001
0010
0100
1000
,
0001
0100
0010
1000
,
0001
0100
0010
1000
,
0000
0001
1000
0100
,
0000
1000
0001
0100
,
0000
0010
1000
0001
,
0010
0010
0001
0001
,
1000
0010
0100
0000
,
0020
0000
1030
0000
,
0001
0010
0100
0000
,
0020
0000
0031
0000
,
1000
0001
0100
0000
,
0020
0000
1030
0000
,
0001
0010
0001
0000
,
1000
0010
0110
0000
,
0100
0001
0001
0100
,
1000
0100
0110
0010
,
1000
0010
1000
0001
,
0010
0100
1000
0100
,
0010
0100
0010
0100
,
0001
0100
1000
0010
,
0100
0001
0000
0010
,
0100
1000
0000
0001
,
0020
0000
0031
2000
,
0000
3010
1000
0100
,
0001
0100
0001
0100
,
0010
0001
0000
0100
,
1000
0100
1000
0100
,
0010
1000
0000
0001
,
0001
0010
0010
0100
,
0100
1000
0000
2002
,
0000
0000
3003
0010
,
0000
0100
0000
0001
,
0001
0010
0001
1000
,
1000
0010
1000
0001
,
0100
0010
1000
0001
,
0100
0010
1000
0001
,
0010
0100
1000
0001
,
0010
0100
1000
0001
,
0010
0001
1000
0010
,
0100
0001
1000
0100
,
0100
0000
0000
1000
0000
0001
0000
0100
,
0000
0010
0000
0010
0000
0000
0100
0000
,
0100
0000
0000
0001
0000
1000
0000
0010
,
0000
1000
0001
1000
,
0000
1100
0000
0002
,
0000
0013
0000
0001
,
0100
0001
0000
1000
,
0000
0010
0000
0100
,
0000
0101
0000
0020
,
0000
1030
0000
0001
,
0010
0100
0000
1000
,
0010
0100
0000
0010
,
1000
1000
0010
0001
,
0010
0110
0001
0010
,
0001
0010
1000
0010
,
0001
1000
0001
0100
,
0001
0100
1000
0100
,
0001
1000
0010
0100
,
0001
0000
0010
0100
,
1000
0000
0100
0020
,
0000
0031
2000
0000
,
3010
0100
0010
1000
,
0010
1000
0010
0001
,
0010
0000
0100
0001
,
0100
0001
0100
1000
,
0100
0000
0010
0010
,
1000
1000
0001
0001
,
0010
0000
0220
0000
,
0000
0330
0001
0000
,
1000
0000
0220
0000
,
0000
0000
0000
0000
,
0000
0000
0330
0000
,
0000
0000
0000
0000
,
0000
0000
0010
1000
,
0001
0100
0010
1000
,
0001
0010
0001
0100
,
1000
0100
0001
0010
,
1000
0010
0002
0000
,
0000
0000
0000
0000
,
0000
0000
0003
0000
;

//---------------dance-single - t7r----------------
#NOTES:
     dance-single:
     t7r:
     Medium:
     11:
     :
0000
0000
0000
0000
,
0000
0000
0000
0000
,
0000
0000
0000
0000
,
0000
0000
0000
0000
,
0000
0000
0000
0000
,
0000
0000
0000
0000
,
0000
0000
0000
0000
,
0000
0000
0000
0000
,
0000
0000
0000
0000
,
1000
0000
0100
0000
0000
0010
0000
0000
,
0001
1000
0000
0001
0100
0001
0000
0000
,
0100
0000
0010
0000
0000
0100
0000
0000
,
0010
1000
0000
0001
0010
0100
0000
0010
,
0001
0000
0100
0000
0000
0010
0000
0000
,
1000
0001
0000
1000
0100
1000
0000
0000
,
0100
0000
0010
0000
0000
0100
0000
0000
,
0010
0001
0000
1000
0010
0000
0010
0000
,
1000
0000
0100
0000
0010
0000
0100
1000
,
0000
0100
1000
0000
0100
0000
0010
0000
,
0001
0000
0100
0000
0010
0000
0100
0001
,
0000
0100
0001
0000
0100
0000
0010
0000
,
1000
0000
0100
0000
0001
0000
0100
1000
,
0000
0100
1000
0000
0001
0000
1000
0000
,
0001
0100
1000
0100
,
0010
0000
1000
0000
0001
1000
0001
0000
,
1001
0000
0100
0000
0000
0010
0000
0000
,
0001
1000
0000
0001
0100
0001
0000
0010
,
0001
0000
1000
0000
0000
0100
0000
0000
,
1000
0010
0000
0100
0010
0000
0100
0000
,
0001
0100
0001
0000
0010
0000
0100
0000
,
1000
0100
1000
0000
0010
0000
0100
0000
,
0001
1000
0001
0000
0010
0000
0100
0000
,
1000
0001
1000
0000
0010
0000
0100
0000
,
0001
0000
0100
1000
0100
0000
0001
0000
,
0000
0000
1000
0100
0001
0000
0100
0000
,
1000
0000
0001
0100
1000
0000
0100
0000
,
0010
1000
0001
0010
,
2001
0000
0000
0000
3100
0000
0000
0100
,
0020
0000
0031
0000
,
0100
1000
0100
0000
,
0010
0000
0000
0010
1000
0000
0000
0000
,
1002
0000
0000
0000
0103
0000
0000
0100
,
0020
0000
1030
0000
,
0100
0001
0100
0000
,
0010
0000
0000
0010
0001
0000
0001
0000
,
0100
1000
1000
0100
,
0001
1000
0001
0000
1001
0000
1000
0000
,
0100
0010
0000
0000
0100
0000
1000
0000
,
0001
0100
0000
0001
0100
0000
0001
0000
,
0010
0100
0000
0000
0010
0000
0001
0000
,
1000
0010
0000
1000
0010
0000
0100
0000
,
0010
1000
0000
0000
0001
0000
0010
0000
,
0001
1000
0000
0000
0010
0000
0100
0000
,
0002
0010
1003
0200
,
0000
0310
0001
0000
1000
0000
0001
0000
,
0100
0010
0000
1000
0010
0000
1000
0000
,
0001
0100
0000
0000
0001
0000
1000
0000
,
0100
0010
0000
0001
0010
0000
0001
0000
,
1000
0020
0000
0000
0000
0000
0130
0000
,
0001
0000
0100
1000
0100
0000
0010
0000
,
1000
0000
0000
0000
0001
0000
0000
0001
0000
0000
0001
0000
0020
0000
0000
0000
,
0000
0031
0000
0200
,
0000
0310
0000
1000
,
0100
0000
1000
0010
1000
0000
0001
0000
,
0100
0000
0001
0010
0001
0000
1000
0000
,
0001
0000
0100
0010
0100
0000
0010
0000
,
1000
0001
0100
0001
,
0010
0000
0100
0010
0001
0000
1000
0000
,
0010
0000
0100
0010
1000
0000
0001
0000
,
0100
0000
0010
0100
0001
0000
1000
0000
,
0100
0010
0010
1001
,
0100
0000
0000
0010
0000
0000
1000
0001
,
0000
0010
0100
1000
0000
1000
0010
0000
,
0100
0000
0000
0001
0000
0000
0010
0001
,
1000
0000
0010
1000
0001
0000
0110
0000
,
0001
0000
0100
0000
0000
0100
0020
0000
,
1000
0130
0000
0010
,
1000
0000
0100
0000
0000
0100
0020
0000
,
0031
0200
1300
0110
,
1000
0000
0001
0000
0000
0001
0020
0000
,
0001
0000
0130
0000
0000
0100
0010
0000
,
0001
0000
0100
0000
1000
0100
0000
0010
,
0100
0000
0000
0000
0001
0000
0000
0001
0000
0000
0001
0000
0010
0000
0000
0000
,
0001
0000
0001
0000
0010
0000
1000
0010
,
0001
0000
1001
0000
0010
0000
0100
0001
,
0000
0100
0001
0000
0010
0001
1000
0100
,
0000
0000
1000
0000
0010
0000
0100
0001
,
0000
0100
0001
0000
0100
0010
1000
0001
,
0000
0000
0010
0000
0100
0000
0010
0001
,
0000
1000
0010
0000
0100
0000
0010
1000
,
0000
0001
0010
0000
0100
0000
2000
0000
,
0010
0000
0001
0000
3200
0000
0000
0310
,
0001
0000
1000
0000
0001
0100
0001
0100
,
0000
0010
0001
0000
0010
1000
0010
1000
,
0000
0100
0010
0000
0001
1000
0100
1000
,
0000
0100
0001
0000
0100
0010
0001
0200
,
0000
0000
0000
0000
0310
1000
0010
0000
,
0100
0001
0100
0000
0001
0010
0001
0000
,
1000
0000
0000
1000
0000
0000
1000
0000
0200
0000
0000
0000
0001
0000
0000
0000
,
0010
0000
1300
0000
0020
0000
0000
0130
,
0000
0001
2002
0000
,
0000
0000
0000
0000
,
0000
0000
3003
0000
,
0000
0000
0000
0000
,
0000
0000
0000
0000
1000
0100
0010
0000
,
0010
0100
1000
0000
0001
0100
0010
0000
,
1000
0000
0000
0000
0001
0100
1000
0000
,
1000
0100
0001
0000
0001
0010
0100
0000
,
1000
0001
0010
0000
2002
0000
0000
0000
,
0000
0000
0000
0000
,
0000
0000
3003
0000
;

//---------------dance-single - t7r----------------
#NOTES:
     dance-single:
     t7r:
     Hard:
     13:
     :
0000
0000
0000
0000
,
0000
0000
0000
0000
,
0000
0000
0000
0000
,
0000
0000
0000
0000
,
0000
0000
0000
0000
,
0000
0000
0000
0000
,
0000
0000
0000
0000
,
0000
0000
0000
0000
,
0000
0000
0000
0000
,
0010
1000
0001
0000
0100
0001
0100
1000
,
0100
0010
1000
0001
,
0010
0001
0100
0000
0010
1000
0010
0001
,
0010
0100
0001
1000
,
0100
1000
0010
0000
1000
0100
0001
0100
,
0010
0001
0100
0010
,
0100
0001
0010
0000
0001
0100
1000
0100
,
0010
0000
0100
0001
1000
0001
0010
0000
,
0001
0000
0101
0000
0001
1000
0100
0000
,
1000
0010
0000
1000
0100
1000
0001
0000
,
0100
0000
0101
0000
0001
0010
0000
0001
,
1000
0000
0100
0010
0001
1000
0010
0100
,
0001
0000
0011
0000
1000
0100
0000
0010
,
0100
1000
0010
0000
0100
0001
1000
0010
,
0100
0000
0110
0000
0001
1000
0010
0000
,
1000
0000
0001
0000
1000
0100
0010
0001
,
0100
0000
0001
0000
1000
0010
0001
0010
,
0100
0001
0000
0100
1000
0100
0000
0010
,
0100
0000
0001
0000
0010
1000
0010
0001
,
0010
0100
0000
0010
0001
1000
0010
0100
,
0001
0010
0100
1000
0001
0010
0100
1000
,
0001
0000
0100
0000
0010
0000
1000
0001
,
1000
0100
0010
0001
1000
0100
0010
0001
,
1000
0000
0010
0000
0100
0000
0001
0010
,
0001
0100
0010
0001
0010
0000
0110
0000
,
1000
0100
0010
1000
0010
0000
0110
0000
,
1001
0000
1000
0001
0100
0000
0001
1000
,
0001
0010
0100
1000
0010
0000
0110
0000
,
0002
0000
0100
0000
0013
0000
0000
1000
,
0200
0000
0301
0000
,
2000
0000
0100
0000
3010
0000
0000
0001
,
0200
0000
0310
0000
,
1002
0000
0010
0000
0103
0000
0000
1000
,
0020
0000
0031
0000
,
1000
0000
0100
0000
0001
0000
0010
0100
,
1000
0010
0100
0001
,
1000
0001
1001
0100
,
0010
0110
1001
1000
,
0100
0010
0000
0100
1000
0000
0001
0100
,
0001
0010
0000
0010
0001
0000
1000
0000
,
0001
0100
0000
0001
1000
0000
0100
0010
,
0100
1000
0000
1000
0010
0000
0100
0000
,
0010
1000
0000
1000
0001
0000
0010
0000
,
0001
0100
0000
0100
0010
0000
0100
0000
,
0002
0010
1003
0020
,
0000
0130
0100
0000
0010
0000
1000
0100
,
1000
0100
0000
0100
0001
0000
0100
1000
,
0100
2000
0000
3010
1000
0000
0001
0100
,
0001
0100
0000
1000
0100
0000
0001
0010
,
0001
0020
0000
0031
1000
0000
0010
0100
,
0001
0000
0010
0100
1000
0000
0001
0100
,
0010
0000
0000
0000
0100
0000
0000
0100
0000
0000
0100
0000
0020
0000
0000
0000
,
0001
0100
1030
0010
,
0110
2002
3003
0001
,
0010
0001
0100
0001
0010
0001
1000
0000
,
0010
1000
0100
1000
0010
1000
0001
0100
,
1000
0000
0001
0010
1000
0000
0001
0100
,
0010
0000
1000
0100
0010
0000
0100
0000
,
0010
0001
0100
0001
0010
0001
1000
0000
,
0100
1000
0010
1000
0001
1000
0100
0001
,
0100
0000
0010
0001
0100
0000
0010
1000
,
0100
0110
0110
0001
,
1001
0000
0000
1010
0000
0100
0000
0001
,
0000
0100
0010
1000
0001
0000
0010
0000
,
0011
0000
0000
0100
0000
1000
0100
0010
,
0001
0000
0100
0010
1000
0000
0210
0000
,
0001
0000
1300
0000
0000
0001
0010
0100
,
0000
0100
0010
0000
0001
0000
1000
0000
,
0100
0001
0000
0001
0100
0000
0020
0000
,
0000
0031
0000
0120
,
1000
0000
0031
0000
0000
0100
0010
1000
,
0000
1000
0001
0000
0010
0000
0001
0000
,
1000
0110
0000
1000
,
0001
0000
0000
0000
0100
0000
0000
0100
0000
0000
0100
0000
0010
0000
0100
0000
,
0010
0100
0010
0100
0010
0000
1000
0000
,
1001
0000
0110
0000
0010
1000
0010
1000
,
0001
0100
0001
0100
0001
0010
0100
1000
,
0000
1000
0001
0000
1000
0100
1000
0100
,
0010
0001
0010
0001
1000
0010
0100
0001
,
0000
0001
0010
0000
0001
0100
0001
0100
,
0010
0100
0010
0100
0001
0010
1000
0010
,
0000
0010
0001
0000
1000
0000
0200
0000
,
0001
0000
0000
0000
0310
0000
0000
0000
0200
0000
0000
0000
0000
0000
0310
0001
,
0010
0000
0110
0000
0001
0100
0001
0100
,
1000
0100
1000
0100
0001
0010
0100
1000
,
0000
1000
0001
0000
1000
0100
1000
0100
,
0001
0100
0001
0100
1000
0100
0010
0001
,
0000
0001
1000
0000
0001
0100
0001
0000
,
1000
0010
0100
0110
,
0001
0000
0000
0010
0000
0000
0100
0000
2000
0000
0000
0000
0010
0000
0000
0000
,
0001
0000
3100
0000
1000
0000
0001
0100
,
0000
1000
0100
0000
0220
0000
0000
0000
,
0000
0000
0000
0000
,
0000
0000
0330
0000
,
0000
0000
0000
0000
,
0000
0000
0000
0000
0010
1000
0001
0000
,
0010
0001
0100
0001
0000
0001
0010
0000
,
0100
1000
0000
1000
0010
0100
0001
0100
,
1000
0100
0010
1000
0001
0010
1000
0001
,
0100
0010
0001
1000
0002
0000
0000
0000
,
0000
0000
0000
0000
,
0000
0000
0003
0000
;

//---------------dance-single - t7r----------------
#NOTES:
     dance-single:
     t7r:
     Challenge:
     19:
     :
0000
0000
0000
0000
,
0000
0000
0000
0000
,
0000
0000
0000
0000
,
0000
0000
0000
0000
,
0000
0000
0000
0000
,
0000
0000
0000
0000
,
0000
0000
0000
0000
,
0000
0000
0000
0000
,
0000
0000
0000
0000
,
1100
0000
0101
0000
1000
0100
0010
0100
,
1000
0010
0001
0010
0100
0001
0100
1000
,
1100
0000
0101
0000
0001
0010
0100
0010
,
0001
0100
1000
0100
0010
0001
0010
1000
,
1001
0000
0110
0000
0010
1000
0100
0001
,
0100
1000
0010
0100
0001
0010
0100
1000
,
1010
0000
1100
0000
0100
0010
0001
0100
,
0010
0000
1000
0000
0010
0000
0100
0000
0001
0010
0001
0000
1000
0010
1000
0000
,
1001
0000
1100
0000
1000
0100
0010
1000
,
0010
0100
1000
0010
0100
1000
0100
0010
,
1010
0000
0011
0000
0001
0100
0010
0001
,
0010
0100
0001
0010
0100
0001
0100
0010
,
0011
0000
1010
0000
1000
0001
0100
1000
,
0100
0001
1000
0100
0001
0100
1000
0001
,
1001
0000
0011
0000
1000
0010
0001
0010
,
1000
0000
0001
0000
0010
0000
1000
0000
0010
0001
1000
0000
0010
1000
0001
0000
,
1001
0000
0101
0000
0001
0100
0010
0001
,
1000
0100
0010
1000
0001
0010
0100
0010
,
0011
0000
1001
0000
1000
0100
0010
1000
,
0001
0000
0100
0000
0010
0000
0001
0000
0100
0010
1000
0000
0100
0010
0001
0000
,
1000
0000
0010
0000
1000
0100
0010
0001
1000
0000
0001
0000
1000
0100
0010
0100
,
1000
0000
0001
0000
1000
0010
0100
0001
1000
0000
0010
0000
0100
0001
1000
0001
,
0010
0000
0001
0000
0100
0010
1000
0001
0010
0000
0001
0000
0100
0010
1000
0100
,
0010
0000
0001
0000
0100
0010
0100
0001
0010
0000
0100
0000
0010
0001
1000
0010
,
1000
0000
0001
0000
0100
1000
0100
0010
0100
0000
0001
0000
0100
0010
0100
0001
,
0100
0000
0010
0000
0100
1000
0100
0010
0100
0000
0001
0000
0010
0100
1000
0001
,
0010
0000
1000
0000
0010
0100
0010
0001
0010
0000
0100
0000
0010
0001
1000
0000
,
0001
0010
0001
0010
0001
0010
0001
0010
0100
1000
0100
1000
0001
0100
0010
1000
,
0001
0000
0100
0010
0001
0010
1000
0100
,
0010
0000
0001
0100
0010
0000
1000
0000
0001
0000
0010
0001
1000
0000
0001
0000
,
1000
0100
0010
0100
1000
0000
0001
0100
0010
0100
0001
0000
1000
0010
0100
0010
,
1000
0000
0001
0010
0100
0000
1000
0000
0001
0000
0100
0010
1000
0000
0001
0000
,
1000
0000
0100
0010
1000
0010
0100
1000
,
0010
0000
0100
0001
1000
0000
0100
0000
0010
0000
0001
1000
0010
0000
1000
0000
,
0001
0100
0010
1000
0100
0000
1000
0100
0010
0001
0100
0000
0010
1000
0001
0100
,
0010
0000
0100
0001
1000
0100
0010
0000
0001
0000
0000
0000
0100
0000
0001
0000
,
0010
0000
0000
0000
0001
0100
0001
0000
1000
0100
1000
0000
0001
0010
0100
0000
,
1000
0010
1000
0010
1000
0010
0100
0001
1000
0000
0000
0000
0001
0000
1000
0000
,
0010
0000
0100
0000
1000
0000
0100
0000
0010
0000
1000
0000
0001
0010
0100
1000
,
0001
0010
0100
1000
0001
0100
0010
1000
0001
0100
0010
1000
0100
0000
0001
0000
,
0100
0000
1000
0000
0100
0000
0010
0000
0001
0000
1000
0000
0010
1000
0001
0100
,
0010
1000
0001
0100
0001
0010
0100
1000
0100
0010
0001
1000
0001
0000
0100
0000
,
1000
0000
0100
0000
0001
0000
0010
0000
1000
0000
0010
0000
0001
0100
0001
0100
,
0010
1000
0010
1000
0100
0010
0001
1000
0010
0100
0001
1000
0100
0000
1000
0000
,
0020
0000
0100
0001
0030
0000
0100
1000
0001
0000
0100
0001
1000
0000
0001
0000
,
0100
0000
0001
0010
0100
1000
0100
1000
0010
0100
0010
0100
0001
0000
0010
0000
,
0100
0000
0001
0000
0100
0000
0010
0000
0001
0000
1000
0000
0010
0000
0100
0001
,
0010
0000
0100
1000
0001
0000
0100
0001
0010
0000
0001
0000
1000
0000
0100
0000
,
0010
0000
1000
0000
0010
0000
0100
0000
1000
0000
0010
0000
0100
0000
0001
1000
,
0100
0000
0010
0001
0100
0000
0010
1000
0001
0000
0010
0000
0001
0000
0100
0000
,
1000
0000
0001
0000
0010
0000
0100
0000
1000
0000
0100
0001
0010
0000
0100
1000
,
0010
0000
0100
0000
0110
0000
0000
0101
0000
0000
1100
0000
1020
0000
1000
0001
,
0000
0000
0001
1000
0000
0000
1000
0001
0030
0000
0001
0000
1000
0100
1000
0100
,
1000
0100
1000
0100
0010
0001
0100
0010
1000
0100
0010
0001
1000
0000
0100
0000
,
0010
0100
0001
0100
1000
0001
1000
0010
,
0100
0010
0001
0010
1000
0001
1000
0010
,
0100
1000
0001
0010
0100
1000
0001
0010
,
0100
0000
0001
0000
1000
0000
0100
0000
0010
0000
0001
0000
1000
0000
0100
0010
,
0100
0000
0001
0000
0100
0000
1000
0100
1000
0000
0001
0100
0001
0000
1000
0000
,
0010
0000
0100
0001
0100
0000
1000
0000
0100
0000
0001
0010
0001
0000
1000
0010
,
1000
0000
0001
0000
0010
0000
0100
0000
1000
0000
0001
0000
1000
0000
0010
0100
,
0001
0000
1000
0000
0001
0100
0001
0000
1000
0100
1000
0000
1100
0000
0000
0000
,
0101
0000
1000
0100
0010
0100
1000
0010
,
0001
0010
0100
0001
0100
1000
1100
0000
,
0101
0000
0000
0000
0001
0000
0010
0000
0100
0000
0010
0000
0001
0010
0001
0010
,
0100
1000
0100
1000
0001
0100
0001
0100
0010
1000
0001
0010
0100
0000
0000
0000
,
1000
0000
0010
0000
0100
0000
1000
0000
0100
0000
0010
0000
1000
0000
0001
1000
,
0100
0000
1000
0000
0001
0000
0010
0001
1000
0000
0001
0000
1000
0100
1000
0100
,
0001
0000
0100
1000
0001
1000
0100
0000
0010
0001
0100
1000
0100
0000
0010
1000
,
0001
0000
0010
0001
0100
0000
0010
1000
0100
0000
0010
0000
0011
0000
0000
0000
,
0001
0000
0100
0000
0010
0000
0001
0000
0010
0000
0100
0000
0001
0000
0010
0100
,
1000
0000
0001
0000
1000
0010
1000
0010
0001
0000
0010
1000
0001
0000
0100
0000
,
0010
0000
1000
0100
0010
0000
0001
0000
0100
0000
0001
0010
0100
0000
1000
0000
,
0001
0000
0100
0000
0101
0000
0000
1010
0000
0000
1001
0000
1000
0100
1000
0100
,
1000
0100
1000
0100
0010
0001
0100
0010
1000
0010
0100
0001
0010
0100
0010
0100
,
1000
0010
0100
0001
1000
0000
1000
0000
0001
0000
0010
0000
1000
0000
0010
0000
,
0100
0000
0001
0000
0100
0000
1000
0000
0001
0100
0001
0100
0010
0100
0010
0100
,
1000
0100
1000
0100
0010
0100
0010
0100
0001
0000
0010
0000
1000
0000
0010
0000
,
0100
0000
1000
0000
0001
0000
0100
0000
0001
0010
0100
0010
0001
0010
0100
0010
,
0001
0100
0010
1000
0100
0010
0001
1000
0010
0000
0001
0000
0010
0000
1000
0000
,
0010
0000
0100
0000
0001
0000
1000
0000
0100
0001
0100
0001
0100
1000
0100
1000
,
0100
0010
0100
0010
0001
0100
0010
1000
0100
0000
1000
0001
0020
0000
0001
1000
,
0030
0000
0100
0001
0010
0000
0001
0000
0100
0000
0001
0000
0010
0100
1000
0001
,
0100
0000
0001
1000
0100
0000
1000
0000
1001
0000
1000
0000
0100
0000
0001
0000
,
1000
0000
0010
0000
0100
0000
0001
0000
0100
1000
0100
1000
0010
0100
0010
0100
,
0001
0010
0100
1000
0100
0010
0001
1000
0010
0000
0100
0000
0001
0000
0100
0000
,
1000
0000
0001
0000
0010
0000
1000
0000
0001
0010
0001
0010
0100
0010
0100
0010
,
1000
0010
1000
0010
0001
0000
0000
0000
1000
0010
1000
0010
1000
0010
1000
0010
,
0100
0001
0100
0001
0100
0001
0100
0001
1000
0100
1000
0100
1000
0100
1000
0100
,
0010
0000
0000
0011
0000
0000
1001
0000
0201
0000
0001
1000
0000
0000
1000
0001
,
0000
0000
0001
1000
0300
0000
0010
0000
0001
0100
0001
0100
0001
0100
0001
0100
,
0010
1000
0100
0010
0001
1000
0010
0100
0002
0000
0000
0000
1000
0000
0000
0000
,
0000
0010
0000
0010
0000
1000
0000
1000
,
0000
0100
0000
0100
0100
0000
0100
0000
,
0000
1000
0000
1000
0000
0010
0000
0010
,
0000
0100
0000
0103
0110
0000
1010
0000
,
1000
0000
0100
0000
0010
0000
1000
0010
1000
0000
0010
0000
0001
0000
0100
0001
,
0100
0000
1000
0000
0100
0000
0001
0000
1000
0010
1000
0010
1000
0010
0100
0001
,
1000
0100
1000
0100
1000
0100
0010
0001
1000
0010
0100
0001
0010
0100
1000
0001
,
0100
0010
1000
0100
0010
0001
0100
0010
2000
0000
0000
0000
3100
0000
1000
0000
,
0001
0010
0100
1000
0010
0100
0001
0020
,
0000
1030
0010
0001
0000
0000
0000
0000
;

//---------------dance-double - t7r----------------
#NOTES:
     dance-double:
     t7r:
     Easy:
     8:
     :
00000000
00000000
00000000
00000000
,
00000000
00000000
00000000
00000000
,
00000000
00000000
00000000
00000000
,
00000000
00000000
00000000
00000000
,
00000000
00000000
00000000
00000000
,
00000000
00000000
00000000
00000000
,
00000000
00000000
00000000
00000000
,
00000000
00000000
00000000
00000000
,
00000000
00000000
00000000
00000000
,
00000001
00000000
00000001
00000000
00000000
00001000
00000000
00000100
,
00000000
00010000
00000000
00001000
00000000
01000000
00000000
00000000
,
00100000
00000000
00100000
00000000
00000000
10000000
00000000
01000000
,
00000000
00100000
00000000
00001000
00000000
00010000
00000000
00000000
,
00000010
00000000
00000010
00000000
00000000
00000001
00000000
00000010
,
00000000
00001000
00000000
00010000
00000000
01000000
00000000
00000000
,
00100000
00000000
00100000
00000000
00000000
10000000
00000000
00000000
,
01000000
00100000
00001000
00010000
,
00001000
00001000
00010000
00000000
,
00000100
00000100
00000010
00000000
,
00000001
00000100
00000010
00000000
,
00010000
00001000
00100000
00000000
,
00010000
00010000
01000000
00000000
,
00100000
00100000
10000000
00000000
,
01000000
00010000
00001000
00000000
,
00010000
00000010
00000100
00000001
,
00000010
00000000
00000010
00000000
00000000
00000100
00000000
00010000
,
00000000
00001000
00000000
01000000
00000000
00100000
00000000
00000000
,
10000000
00000000
10000000
00000000
00000000
01000000
00000000
00010000
,
00000000
00001000
00000000
00000010
00000000
00000100
00000000
00000000
,
00001000
00000010
00000100
00000001
,
00000100
00001000
00010000
01000000
,
10000000
00100000
00010000
00100000
,
01000000
00010000
00001000
00000100
,
00000000
00000010
00000001
00000100
,
00000000
00001000
00010000
00100000
,
00000000
10000000
01000000
00100000
,
00001000
00010000
00000010
00000100
,
00000110
00000000
00000001
00000000
,
00000020
00000000
00000130
00000000
,
00010000
00001000
00010000
00000000
,
00001000
00000000
01000000
00000000
,
01100000
00000000
00010000
00000000
,
20000000
00000000
31000000
00000000
,
10000000
00000000
00100000
00000000
,
01000000
00001000
00010000
00000000
,
00000010
00000001
00000001
00000010
,
00010000
00001000
00011000
01000000
,
00100000
10000000
00010000
10000000
,
01000000
00010000
00000000
00000010
,
00001000
00000001
00000100
00000001
,
00000010
00001000
00000000
00010000
,
00001000
01000000
00100000
10000000
,
01000000
00100000
00001000
00010000
,
00000020
00000000
00000130
00000002
,
00000000
00000013
00000001
00000100
,
00000010
00001000
00000001
00000010
,
00001000
00010000
00000000
00001000
,
01000000
00100000
10000000
01000000
,
00100000
00002000
00000000
01003000
,
01000000
00010000
00010000
10000000
,
01000000
00100000
00000000
00021000
,
00000000
00030010
00000000
00000100
,
00000001
00001000
00000000
00000001
,
00000010
00000100
00000100
00010000
,
00001000
01000000
01000000
00100000
,
10000000
00010000
00010000
00100000
,
00001000
00010000
00010000
00000100
,
00000001
00000100
00000010
00000100
,
00001000
00000100
00010000
00001000
,
01000000
00100000
01000000
00010000
,
00100000
01000000
10000000
00010000
,
00010000
00000000
00000000
10000000
00000000
01000000
00000000
00010000
,
00000000
00000100
00000000
00001000
00000000
00000000
00000010
00000000
,
00000010
00000000
00000000
00001000
00000000
00000100
00000000
00010000
,
00000000
00001000
00010000
00000000
00010000
00000000
00001000
00000000
,
01000000
00100000
00000000
20000000
,
00000000
31000000
00000000
00100000
,
00010000
00001000
00000000
00000010
,
00000000
00000100
00000000
00000001
,
00000010
00000100
00000000
00020000
,
00000000
00031000
00000000
01000000
,
00100000
10000000
00000000
01000000
,
00000000
00011000
00000000
00000010
,
00000001
00000001
00000010
00010000
,
00001000
00011000
01000000
00010000
,
00100000
10000000
00100000
00010000
,
00001000
00000000
00000010
00000001
,
00000010
00001000
00010000
00100000
,
01000000
00000000
00100000
00100000
,
00001000
00000000
00010000
00010000
,
00000010
00000000
00000100
00000020
,
00000000
00010030
00000200
00000000
,
00010300
00001000
01000000
00010000
,
01000000
10000000
01000000
00100000
,
10000000
00010000
10000000
01000000
,
00100000
00010000
00001000
00000010
,
00000200
00000000
00000301
00000001
,
00000010
00000010
00000100
00010000
,
00001000
00000000
00012000
00000000
,
00000000
00000000
01003000
00000000
,
00100000
00000000
20020000
00000000
,
00000000
00000000
00000000
00000000
,
00000000
00000000
30030000
00000000
,
00000000
00000000
00000000
00000000
,
00000000
00000000
10000000
00100000
,
01000000
00010000
00000100
00000010
,
00001000
00000001
00000010
00001000
,
00010000
00100000
10000000
01000000
,
00010000
00001000
00022000
00000000
,
00000000
00000000
00000000
00000000
,
00000000
00000000
00033000
00000000
;

//---------------dance-double - t7r----------------
#NOTES:
     dance-double:
     t7r:
     Medium:
     12:
     :
00000000
00000000
00000000
00000000
,
00000000
00000000
00000000
00000000
,
00000000
00000000
00000000
00000000
,
00000000
00000000
00000000
00000000
,
00000000
00000000
00000000
00000000
,
00000000
00000000
00000000
00000000
,
00000000
00000000
00000000
00000000
,
00000000
00000000
00000000
00000000
,
00000000
00000000
00000000
00000000
,
01000000
00000000
00010000
00000000
00000000
10000000
00000000
00000000
,
01000000
00100000
00000000
00001000
00010000
00001000
00000000
00010000
,
00000010
00000100
00000000
00000001
,
00000010
00000000
00000100
00010000
00001000
00000000
00010000
00000000
,
00001000
01000000
00000000
00100000
,
10000000
00010000
00000000
01000000
00001000
00010000
00000000
00001000
,
00010000
00000010
00000000
00000100
,
00000001
00000010
00000100
00010000
,
00001000
00000000
01000000
00000000
01000000
00000000
00100000
10000000
,
00000000
00010000
00000000
10000000
01000000
00000000
00100000
00000000
,
00001000
00000000
00010000
00000000
00010000
00000000
00000010
00000100
,
00000000
00000000
00000001
00000000
00000010
00000100
00010000
00000000
,
00001000
00000000
00001000
00000000
01000000
00000000
00000000
00100000
,
00000000
10000000
00000000
01000000
00010000
00000000
00001000
00000000
,
00010000
00000010
00000001
00000010
,
00010000
00000000
00000100
00000000
00010000
00001000
00010000
00000000
,
00011000
00000000
00001000
00000000
00000000
01000000
00000000
00000000
,
00010000
00100000
00000000
10000000
00100000
00001000
00000000
00010000
,
00001000
00010000
00000000
00000010
,
00000100
00000001
00001000
00000000
00000100
00000000
00010000
00000000
,
00001000
00000000
01000000
00010000
01000000
00000000
00100000
00000000
,
10000000
00000000
01000000
00010000
01000000
00000000
00100000
00000000
,
00001000
00000000
00010000
00001000
00010000
00000000
00000010
00000000
,
00000001
00000000
00000010
00001000
00000010
00000000
00010000
00000000
,
00000100
00010000
00001000
01000000
,
00100000
10000000
01000000
00100000
,
00001000
00000010
00000100
00010000
,
00001000
00010000
00001000
00010000
00001000
00000000
00011000
00000000
,
01000000
00000000
00100000
00000000
10000000
00000000
00000000
10000000
,
01000000
00000000
00100000
00000000
00001000
00000000
00000000
00001000
,
00010000
00000000
00000010
00000000
00000001
00000000
00000010
00001000
,
00020000
00000000
00000000
00130000
00010000
00000000
00000000
00000000
,
10010000
00000000
01000000
00000000
00100000
00000000
00000000
00100000
,
10000000
00000000
01000000
00000000
00100000
00000000
00000000
00100000
,
01000000
10000000
00100000
00000000
,
00010000
00000000
00011000
00000010
,
00000100
00000001
00000001
00000100
,
00001000
00010000
00001000
00000000
00011000
00000000
00100000
00000000
,
00010000
00100000
00000000
01000000
00100000
00000000
00010000
00000000
,
00100000
10000000
00000000
00100000
00001000
00000000
00010000
00000000
,
00000010
00000100
00000000
00000010
00001000
00000000
00000010
00000000
,
00000001
00000010
00000000
00001000
00000010
00000000
00000100
00000000
,
00000010
00001000
00000000
00000001
00000010
00000000
00000100
00000000
,
00010000
00001000
00000000
01000000
00010000
00000000
01000000
00000000
,
10000000
01000000
00001000
00000020
,
00000000
00000130
00010000
00000000
00001000
00000000
00010000
00001000
,
01000000
00100000
00000000
10000000
00010000
00000000
10000000
00000000
,
01000000
00010000
00000000
00001000
00010000
00000000
00000010
00001000
,
00000010
00000100
00000000
00000001
00000010
00000000
00001000
00000000
,
00000010
00000200
00000000
00000000
00010300
00000000
00001000
00000000
,
01001000
00000000
01000000
00100000
10000000
00000000
01000000
00000000
,
00100000
00000000
00000000
00000000
00001000
00000000
00000000
00001000
00000000
00000000
00001000
00000000
00020000
00000000
00000000
00000000
,
00000000
00030010
00000000
00000200
,
00000000
00000301
00000000
00000010
,
00000010
00000000
00000100
00001000
00010000
00000000
00100000
00000000
,
00100000
00000000
00010000
10000000
00100000
00000000
10000000
00000000
,
01000000
00010000
00001000
00000000
00000010
00000100
00001000
00000000
,
00000010
00000010
00000100
00000001
,
00000100
00001000
00010000
00000000
00100000
00000000
10000000
00000000
,
00010000
00100000
01000000
00000000
00010000
00000000
00001000
00000000
,
00000010
00000100
00000010
00000000
00000100
00000000
00010000
00000000
,
00010000
00000000
00001000
00010000
00001000
00010000
00001000
00000000
,
00011000
00000000
00000000
01000000
00000000
00010000
00000000
01000000
,
00100000
10000000
00000000
01000000
00100000
00000000
00001000
00000000
,
00011000
00000000
00000000
00010000
00000000
00000010
00000100
00000000
,
00000100
00000000
00000001
00000010
00000100
00000000
00000010
00000000
,
00000001
00000000
00000100
00000000
00000000
00000100
00000020
00000000
,
00010000
00001030
00000000
00000010
,
00001000
00000000
00100000
00000000
01000000
00010000
10000000
00000000
,
00000000
10000000
01000000
00000000
00000000
00000000
10000000
00000000
,
00100000
00000000
00010000
00000000
00000000
00010000
00000020
00000000
,
00000100
00001030
00000000
00000001
,
00000010
00000000
00000100
00000000
00010000
00001000
01000000
00000000
,
00100000
00000000
00000000
00000000
10000000
00000000
00000000
10000000
00000000
00000000
10000000
00000000
01000000
00000000
00000000
00000000
,
10000000
00000000
10000000
00000000
01000000
00000000
00010000
00001000
,
00010000
00000000
00011000
00000000
00000010
00000000
00000001
00000010
,
00000000
00010000
00001000
00000000
01000000
00000000
00010000
00100000
,
00000000
01000000
00100000
00000000
00010000
00000000
10000000
01000000
,
00000000
00010000
00001000
00000000
00010000
00000000
00000010
00000100
,
00000000
00000010
00001000
00000000
00000001
00000000
00000010
00001000
,
00000000
00010000
00001000
00000000
01000000
00000000
00100000
10000000
,
00000000
00100000
00010000
00000000
00100000
00000000
20000000
00000000
,
01000000
00000000
30010000
01000000
00002000
00000000
00000000
00103000
,
00001000
00000000
00010000
00000000
00000010
00000100
00000001
00000100
,
00000000
00000010
00010000
00000000
00001000
00000000
01000000
00100000
,
00000000
01000000
00010000
00000000
10000000
01000000
00100000
01000000
,
00000000
10000000
00010000
00000000
01000000
00000000
00001000
00200000
,
00000000
00000000
00000000
00000000
00301000
00010000
00001000
00000000
,
01000000
01000000
10000000
01000000
,
00001000
00000000
00000000
00001000
00000000
00000000
00001000
00000000
00020000
00000000
00000000
00000000
00000010
00000000
00000000
00000000
,
00000100
00000000
00031000
00000000
02000000
00000000
03010000
00100000
,
10000000
00010000
00022000
00000000
,
00000000
00000000
00000000
00000000
,
00000000
00000000
00033000
00000000
,
00000000
00000000
00000000
00000000
,
00000000
00000000
00000000
00000000
00000010
00000100
00000010
00000000
,
00001000
00000000
00000001
00000000
00000010
00001000
00000010
00000000
,
00001000
00000000
00010000
00000000
00100000
10000000
00010000
00000000
,
01000000
00010000
00001000
00000000
00000010
00000100
00000001
00000000
,
00000010
00001000
00010000
00000000
00022000
00000000
00000000
00000000
,
00000000
00000000
00000000
00000000
,
00000000
00000000
00033000
00000000
;

//---------------dance-double - t7r----------------
#NOTES:
     dance-double:
     t7r:
     Hard:
     14:
     :
00000000
00000000
00000000
00000000
,
00000000
00000000
00000000
00000000
,
00000000
00000000
00000000
00000000
,
00000000
00000000
00000000
00000000
,
00000000
00000000
00000000
00000000
,
00000000
00000000
00000000
00000000
,
00000000
00000000
00000000
00000000
,
00000000
00000000
00000000
00000000
,
00000000
00000000
00000000
00000000
,
00010000
00000000
01010000
00000000
00000000
10000000
00000000
01000000
,
00100000
00001000
00000000
00000100
00000001
00000100
00000000
00000001
,
00000010
00000000
00000110
00000000
00000000
00000001
00000000
00000100
,
00000010
00010000
00000000
00001000
00010000
00100000
00000000
10000000
,
00010000
00000000
10010000
00000000
00000000
10000000
00000000
00100000
,
00010000
00001000
00000000
00000010
00000100
00001000
00000000
00000010
,
00000100
00000000
00000110
00000000
00000000
00000001
00000000
00000010
,
00000100
00010000
00001000
00000000
01000000
00000000
01100000
00000000
,
00010000
00000000
00110000
00000000
00010000
00100000
01000000
00000000
,
10000000
00000000
01000000
00010000
00000010
00000100
00000001
00000000
,
00000010
00000000
00000011
00000000
00000001
00001000
00000010
00000000
,
00000100
00000000
00000010
00001000
00100000
01000000
00010000
00000000
,
10000000
00000000
11000000
00000000
10000000
00010000
00100000
00000000
,
00010000
00000000
00000100
00000001
00000010
00001000
00010000
00000000
,
00100000
00000000
10000000
00100000
01000000
00010000
10000000
00000000
,
01000000
00000000
00010000
00001000
00000010
00000100
00000010
00000000
,
00001001
00000000
00000011
00000000
00000000
00000001
00000000
00000010
,
00001000
00100000
00000000
00010000
10000000
00100000
00000000
01000000
,
00100000
00000000
01100000
00000000
00000000
10000000
00000000
00100000
,
00001000
00000010
00000000
00000100
00000010
00001000
00000001
00000000
,
00000010
00000001
00000100
00000000
00000001
00000010
00000100
00001000
,
00000000
00000100
00010000
00001000
01000000
00010000
10000000
00010000
,
10000000
01000000
00100000
00000000
01000000
00010000
00001000
00000010
,
00000000
00000001
00000100
00001000
00100000
00010000
10000000
00100000
,
01000000
00000000
01100000
00000000
10000000
01000000
00010000
00000000
,
00001000
00000000
00011000
00000000
00000010
00000100
00000001
00000000
,
00000100
00001000
00010000
00000000
00100000
01000000
00010000
00000000
,
10000000
01000000
00010000
00001000
00000010
00000000
00000110
00000000
,
00000002
00000000
00000010
00000000
00001003
00000000
00000001
00000100
,
00000010
00010000
00001000
00000000
00011000
00000000
00000000
00000000
,
00002000
00000000
01000000
00000000
00103000
00000000
00010000
01000000
,
00100000
10000000
01000000
00000000
01100000
00000000
00001000
00000000
,
00021000
00000000
00000010
00000000
00030100
00000000
00001000
00000100
,
00000010
00000001
00001000
00000000
00001001
00000000
00000000
00000000
,
00000001
00000000
00000100
00000010
00010000
00000000
00001000
01000000
,
00010000
00100000
01000000
00000000
11000000
00000000
00010000
00000000
,
10000000
01000000
00110000
00001000
,
00010000
00001000
00011000
00001000
,
01000000
10000000
00000000
01000000
00100000
00000000
10000000
01000000
,
00100000
00001000
00000000
00010000
00001000
00000000
00010000
00000000
,
00000010
00000001
00000000
00000010
00000100
00000000
00000001
00000010
,
00000100
00010000
00000000
00001000
00010000
00000000
00001000
00000000
,
01000000
00100000
00000000
10000000
00010000
00000000
01000000
00000000
,
00010000
00001000
00000000
00000010
00000100
00000000
00000001
00000000
,
00000020
00001000
00000001
00000230
,
00000000
00010300
00001000
00000000
00010000
00000000
00001000
00010000
,
00100000
01000000
00000000
00100000
10000000
00000000
01000000
00010000
,
00001000
00000010
00000000
00000100
00001000
00000000
00000001
00000100
,
00001000
00010000
00000000
00100000
01000000
00000000
00100000
10000000
,
00010000
00002000
00000000
00000000
00003000
00000000
00000010
00000100
,
00000001
00000000
00000010
00000100
00010000
00000000
00001000
00010000
,
00001000
00000000
00000000
00000000
01000000
00000000
00000000
01000000
00000000
00000000
01000000
00000000
00200000
00000000
00000000
00000000
,
00010000
01000000
10300000
02000000
,
03010000
00000020
00000130
00000001
,
00000011
00000000
00000001
00000100
00000001
00001000
00000010
00000000
,
00010000
00000000
00000100
00010000
00001000
00100000
00010000
01000000
,
00010000
00000000
10000000
01000000
10000000
00000000
00100000
01000000
,
00100000
00000000
01000000
00001000
00100000
00001000
00010000
00000010
,
00000100
00000000
00000001
00000010
00001000
00010000
01000000
00100000
,
00010000
00000000
10000000
00100000
00010000
00001000
00000100
00000010
,
00001000
00000000
00000001
00000010
00000100
00000000
00010000
00001000
,
00100000
00000000
00010000
01000000
10000000
01000000
00100000
00000000
,
10100000
00000000
10000000
01000000
00000000
00010000
01000000
00001000
,
00000000
00000100
00001000
00000001
00000000
00000100
00000010
00000000
,
00000110
00000000
00000001
00000100
00000000
00001000
00000100
00001000
,
00010000
00100000
01000000
00010000
00100000
00000000
21000000
00000000
,
00010000
00000000
30100000
00000000
10000000
01000000
00020000
00000000
,
00000000
00031000
00010000
00000000
00000010
00000100
00000001
00000000
,
00000010
00001000
00000000
00010000
00001000
01000000
00200000
00000000
,
00000000
10300000
00010000
00000000
01000000
00000000
01100000
00000000
,
10000000
00000000
00010000
00000000
00000010
00000100
00001000
00000010
,
00000001
00000020
00000000
00001030
,
00100000
00000000
01000000
00010000
00001000
00000000
00000100
00000010
,
00000001
00000000
00000000
00000000
00000100
00000000
00000000
00000100
00000000
00000000
00000100
00000000
00000010
00000000
00010000
00000000
,
00000010
00010000
00001000
00010000
00001000
00010000
00100000
10000000
,
00100000
01000000
00010000
00000000
10000000
01000000
10000000
01000000
,
00100000
00010000
00100000
00010000
00001000
00000100
00000001
00000100
,
00000000
00000010
00000001
00001000
00000001
00000010
00000001
00000010
,
00000100
00001000
00000100
00001000
00010000
00100000
10000000
00100000
,
00000000
00010000
10000000
00100000
01000000
00010000
00001000
00000100
,
00000000
00000010
00000001
00001000
00000001
00000100
00001000
00100000
,
00000000
00010000
10000000
00100000
00010000
00000100
00000020
00000000
,
00001000
00000000
00000000
00000000
00000100
00000000
00000000
00000000
00000032
00000000
00000000
00000000
00000000
00000000
00000103
00000010
,
00000100
00000000
00000110
00000000
00000001
00000010
00000001
00000010
,
00001000
00010000
00001000
00010000
01000000
00100000
00010000
10000000
,
00000000
00100000
01000000
00010000
10000000
00100000
10000000
00100000
,
00010000
00001000
00010000
00001000
00000100
00000010
00001000
00000001
,
00000000
00000001
00001000
00000000
00000001
00000010
00000001
00000000
,
00001000
00000100
00010000
00011000
,
01000000
00000000
00000000
00100000
00000000
00000000
10000000
00000000
00020000
00000000
00000000
00000000
00100000
00000000
00000000
00000000
,
10000000
00000000
01030000
00000000
00001000
00010000
00000010
00000100
,
00010000
00100000
01000000
00000000
00022000
00000000
00000000
00000000
,
00000000
00000000
00000000
00000000
,
00000000
00000000
00033000
00000000
,
00000000
00000000
00000000
00000000
,
00000000
00000000
00000000
00000000
00000010
00000001
00000100
00000000
,
00001000
00010000
00100000
00000000
10000000
01000000
00010000
00000000
,
00001000
00000010
00000100
00011000
,
00100000
01000000
10000000
00010000
00000100
00000010
00001000
00000001
,
00000010
00001000
01000000
00010000
20000000
00000000
00000000
00000000
,
00000000
00000000
00000000
00000000
,
00000000
00000000
30000000
00000000
;

//---------------dance-double - t7r----------------
#NOTES:
     dance-double:
     t7r:
     Challenge:
     18:
     :
00000000
00000000
00000000
00000000
,
00000000
00000000
00000000
00000000
,
00000000
00000000
00000000
00000000
,
00000000
00000000
00000000
00000000
,
00000000
00000000
00000000
00000000
,
00000000
00000000
00000000
00000000
,
00000000
00000000
00000000
00000000
,
00000000
00000000
00000000
00000000
,
00000000
00000000
00000000
00000000
,
00000001
00000000
00000101
00000000
00000001
00000010
00000100
00000010
,
00000001
00000000
00001000
00000100
00001000
00000000
00000001
00000000
00000100
00000000
00000010
00001000
00000010
00000000
00010000
00000000
,
00001000
00000000
00011000
00000000
00001000
00010000
00100000
10000000
,
00010000
00000000
00100000
00010000
00100000
00000000
00010000
00000000
10000000
00000000
01000000
00100000
01000000
00000000
10000000
00000000
,
00100000
00000000
10100000
00000000
10000000
01000000
00100000
01000000
,
00010000
00000000
00001000
00010000
00001000
00000000
00010000
00000000
00001000
00000000
00000100
00000001
00000100
00000000
00000001
00000000
,
00000010
00000000
00000011
00000000
00000001
00000100
00000010
00000100
,
00001000
00000000
00010000
00000000
01000000
00000000
10000000
00000000
01000000
00100000
01000000
00000000
00100000
00001000
00100000
00000000
,
00001000
00000000
00011000
00000000
00010000
00001000
00000010
00000001
,
00001000
00000010
00000100
00001000
00000100
00000010
00001000
00000100
,
00010000
00000000
00011000
00000000
00001000
00010000
00100000
10000000
,
00010000
00100000
01000000
00010000
01000000
00100000
00010000
01000000
,
00001000
00000000
00011000
00000000
00010000
00001000
00000100
00000001
,
00001000
00000100
00000010
00001000
00000010
00000100
00001000
00000010
,
00010000
00000000
00011000
00000000
00001000
00010000
01000000
10000000
,
00010000
00000000
01000000
00000000
00001000
00000000
00100000
00000000
00001000
00010000
00001000
00000000
00010000
00000100
00001000
00000000
,
00000010
00000000
00000110
00000000
00000010
00001000
00000100
00001000
,
00000001
00000000
00001000
00000100
00001000
00000000
00000100
00000000
00010000
00000000
00001000
00010000
00001000
00000000
00010000
00000000
,
00100000
00000000
01100000
00000000
00100000
10000000
01000000
00100000
,
01000000
00000000
10000000
00010000
10000000
00000000
00010000
00000000
01000000
00001000
00010000
00000000
00001000
00000000
00000100
00000000
,
00000001
00000000
00000010
00000000
00000100
00000010
00000001
00001000
00000001
00000000
00000100
00000000
00000001
00000010
00000100
00000010
,
00000001
00000000
00000100
00000000
00000010
00001000
00000100
00010000
00001000
00000000
00010000
00000000
00100000
00000000
10000000
00000000
,
00010000
00000000
00100000
00000000
01000000
00100000
00010000
00100000
01000000
00000000
10000000
00000000
00100000
01000000
00010000
01000000
,
00100000
00000000
01000000
00000000
00010000
00100000
00001000
00010000
00001000
00000000
00000010
00000000
00000001
00000000
00000100
00000000
,
00000001
00000000
00000010
00000100
00001000
00000000
00000100
00000010
00000001
00000000
00000100
00000000
00001000
00000000
00010000
00000000
,
01000000
00000000
10000000
00100000
01000000
00000000
00010000
00100000
00001000
00000000
00010000
00000000
00001000
00000000
00000100
00000000
,
00000001
00000000
00000010
00000100
00001000
00000000
00000010
00000100
00000001
00000000
00000010
00000000
00001000
00000000
00010000
00000000
,
00100000
10000000
00100000
10000000
00100000
10000000
00100000
10000000
00010000
01000000
00010000
01000000
00001000
00010000
00001000
00010000
,
00001000
00000000
00000100
00000001
00001000
00000100
00000010
00000001
,
00000100
00000000
00000010
00001000
00000100
00000000
00010000
00000000
00001000
00000000
00100000
00010000
01000000
00000000
00010000
00000000
,
10000000
00000000
01000000
00100000
00000000
01000000
10000000
00000000
00010000
00000000
01000000
00000000
00010000
00000000
00100000
00000000
,
01000000
00000000
00010000
00001000
00010000
00000000
00001000
00000000
00010000
00000000
00000100
00001000
00000100
00000000
00001000
00000000
,
00000010
00000000
00000100
00000001
00000010
00000001
00001000
00000010
,
00001000
00000000
00000100
00010000
00001000
00000000
00010000
00000000
00001000
00000000
01000000
00010000
00100000
00000000
00010000
00000000
,
10000000
00000000
01000000
00100000
00010000
00000000
01000000
00000000
00010000
00000000
00100000
00001000
00010000
00000000
00001000
00000000
,
00010000
00000000
00000010
00001000
00000100
00000000
00001000
00000000
00000010
00000000
00000000
00000000
00000100
00000000
00000001
00000000
,
00001000
00000000
00000001
00000100
00000001
00000000
00001000
00000100
00001000
00000000
00000100
00010000
00001000
00000000
00010000
00000000
,
00001000
00000000
00010000
00100000
10000000
00000000
00000000
00000000
10010000
00000000
00000000
00000000
10000000
00000000
01000000
00000000
,
00100000
00000000
01000000
00000000
00010000
00000000
01000000
00000000
10000000
00000000
00010000
00000000
01000000
00000000
00010000
01000000
,
00010000
00000000
00100000
00001000
00100000
00000000
00001000
00010000
00001000
00000000
00010000
00000000
00001000
00000000
00000010
00000000
,
00000001
00000000
00001000
00000000
00000001
00000000
00000100
00000000
00000010
00000000
00001000
00000000
00000001
00000000
00000010
00000001
,
00000010
00000000
00000001
00000100
00000001
00000000
00001000
00000010
00001000
00000000
00000100
00000000
00010000
00000000
00001000
00000000
,
00010000
00000000
00100000
00000000
10000000
00000000
00100000
00000000
01000000
00000000
00010000
00000000
10000000
00000000
01000000
10000000
,
01000000
00000000
00100000
01000000
00100000
00000000
00010000
00100000
00010000
00000000
00100000
00000000
00001000
00000000
00010000
00000000
,
00001000
00000000
00000000
00001000
00000100
00000000
00000000
00000100
00000001
00000000
00000010
00000000
00000100
00000000
00010000
00000000
,
00001000
00000000
00010000
01000000
10000000
00000000
00000000
00000000
01100000
00000000
00000000
00000000
10000000
00000000
00100000
00000000
,
01000000
00000000
00100000
00000000
00010000
00000000
00100000
00000000
01000000
00000000
00010000
00000000
00100000
00000000
00001000
00010000
,
00000100
00000000
00010000
00000100
00001000
00000000
00000100
00001000
00000001
00000000
00000100
00000000
00000001
00000000
00000010
00000000
,
00000100
00000000
00000010
00000000
00000001
00000000
00000100
00000000
00000010
00000000
00001000
00000000
00000100
00000000
00010000
00001000
,
01000000
00000000
00010000
00100000
01000000
00000000
00100000
00010000
10000000
00000000
00000000
00000000
00010000
00000000
00100000
00000000
,
01000000
00010000
00001000
00000100
00000001
00001000
00000010
00000100
,
00001000
00000000
00010000
00000000
00011000
00000000
00000000
00101000
00000000
00000000
00110000
00000000
00010000
00000000
00000000
00010000
,
01000000
00000000
00000000
01000000
00100000
00000000
00000000
00100000
10000000
00000000
00000000
10000000
01000000
10000000
01000000
00000000
,
10000000
00100000
10000000
00000000
00010000
01000000
00010000
01000000
00001000
00010000
00001000
00010000
00001000
00000000
00000100
00000000
,
00000010
00001000
00000100
00001000
00010000
01000000
10000000
01000000
,
00100000
10000000
01000000
00010000
00001000
00000100
00000001
00000010
,
00001000
00000010
00000100
00001000
00000100
00000010
00000100
00010000
,
00001000
00010000
00100000
10000000
00100000
01000000
00100000
10000000
,
01000000
00000000
00100000
00001000
00100000
00001000
00100000
00000000
00001000
00000000
00010000
00000000
00001000
00000000
00000100
00000000
,
00000010
00000000
00001000
00000001
00001000
00000001
00001000
00000000
00000001
00000000
00000010
00000000
00000100
00000000
00010000
00000000
,
00001000
00000000
00010000
00000000
01000000
10000000
01000000
00000000
10000000
00010000
10000000
00000000
00100000
00000000
01000000
00000000
,
00010000
00000000
00100000
00000000
00001000
00010000
00000100
00000000
00010000
00001000
01000000
00000000
01010000
00000000
00000000
00000000
,
01100000
00000000
00000000
00000000
00100000
00000000
10000000
00000000
01000000
00000000
00100000
00000000
00001000
00000000
00010000
00001000
,
00010000
00000000
00000100
00000000
00001000
00000000
00000010
00001000
00000010
00000000
00000100
00000000
00000101
00000000
00000000
00000000
,
00000011
00000000
00000000
00000000
00000001
00000000
00000010
00000000
00000100
00000000
00010000
00000000
00001000
00010000
00001000
00010000
,
00001000
00010000
00001000
00010000
00000100
00010000
00000100
00010000
00001000
00010000
00001000
00010000
01000000
00000000
00000000
00000000
,
10000000
00000000
00100000
00000000
01000000
00000000
10000000
00000000
01000000
00000000
00100000
00000000
10000000
00000000
00010000
00100000
,
00001000
00000000
00010000
00000000
00001000
00000000
00000100
00000001
00001000
00000000
00000001
00000000
00000010
00001000
00000010
00001000
,
00000010
00000000
00000001
00000100
00000010
00000000
00000001
00000000
00000010
00000000
00001000
00000000
00000100
00010000
00000100
00010000
,
00001000
00000000
00010000
00100000
10000000
00000000
00100000
00000000
01000000
00000000
00010000
00000000
00110000
00000000
00000000
00000000
,
00010000
00000000
00100000
00000000
01000000
00000000
00010000
00000000
01000000
00000000
00100000
00000000
00001000
00000000
00010000
00001000
,
00000010
00000000
00000001
00000000
00000100
00001000
00000100
00001000
00000100
00000000
00000001
00000000
00000011
00000000
00000000
00000000
,
00000001
00000000
00000100
00000001
00000100
00000000
00000010
00001000
00000010
00000000
00001000
00000000
00000000
00000000
00001000
00000000
,
00000100
00000000
00010000
00001000
00010000
00000000
00000000
00011000
00000000
00000000
01010000
00000000
00010000
10000000
00010000
10000000
,
00100000
10000000
00100000
10000000
00010000
01000000
00010000
01000000
00010000
00100000
00010000
00100000
00001000
00010000
00001000
00010000
,
00001000
00000000
00000100
00000001
00000010
00000000
00000010
00000000
00000001
00000000
00000100
00000000
00000010
00000000
00000100
00000000
,
00001000
00000000
00000100
00000000
00000001
00000000
00000010
00000000
00000001
00000000
00000010
00000100
00001000
00000000
00000100
00010000
,
00001000
00000000
00010000
00001000
01000000
00000000
00010000
10000000
00010000
00000000
00100000
00000000
01000000
00000000
00100000
00000000
,
00010000
00000000
01000000
00000000
00100000
00000000
10000000
00000000
01000000
00000000
00100000
00001000
00010000
00000000
00001000
00010000
,
00000010
00000000
00001000
00000100
00000010
00000000
00000001
00000100
00000001
00000000
00000010
00000000
00000100
00000000
00000001
00000000
,
00000100
00000000
00001000
00000000
00000010
00000000
00000100
00000000
00000001
00000000
00000010
00000100
00001000
00000000
00000100
00010000
,
00001000
00000000
01000000
00010000
10000000
00000000
00100000
01000000
00010000
00000000
10000000
00010000
00200000
00000000
00010000
10000000
,
00000000
00000000
10000000
00010000
00300000
00000000
00010000
00000000
01000000
00000000
00100000
00000000
10000000
00000000
01000000
00010000
,
00001000
00000010
00000001
00000100
00000110
00000010
00001000
00000001
,
00000100
00000000
00000010
00000000
00001000
00000000
00000100
00000000
00010000
00001000
00010000
00001000
00010000
00000000
00001000
01000000
,
00001000
00000000
00100000
00010000
10000000
00000000
00010000
00000000
10000000
00000000
01000000
00000000
00100000
00000000
01000000
00000000
,
10000000
00000000
00100000
00000000
01000000
00000000
00010000
00000000
00100000
00001000
00100000
00001000
00100000
00000000
00001000
00010000
,
00001000
00000000
00010000
00000000
00001000
00000000
00000100
00000000
00000001
00000010
00000001
00000010
00000001
00000010
00000001
00000000
,
00001000
00000100
00001000
00000100
00001000
00000100
00001000
00000000
00000100
00010000
00000100
00010000
00000100
00010000
00001000
00000000
,
00011000
00000000
00000000
00001100
00000000
00000000
00011000
00000000
02001000
00000000
00010000
10000000
00000000
00000000
10000000
00010000
,
00000000
00000000
00010000
10000000
03000000
00000000
00100000
00000000
00001000
00010000
00001000
00010000
00001000
00010000
00001000
00010000
,
00100000
00000000
10000000
01000000
00100000
00000000
00010000
01000000
00002000
00000000
00000000
00000000
00000000
00000000
00000000
00000000
,
00000000
00000000
00000000
00000000
,
00000000
00000000
00003000
00000000
,
00000000
00000100
00000000
00001000
00000000
00010000
00000000
00000100
,
00001000
00000001
00001001
00000001
00000100
00000001
00000010
00001000
,
00000010
00000000
00000100
00000000
00001000
00000000
00010000
00000000
00100000
00000000
00010000
10000000
00010000
00000000
00100000
00000000
,
00001000
00000000
00010000
00001000
00010000
00000000
00001000
00000000
00000010
00000001
00000010
00000001
00000100
00000010
00001000
00000000
,
00000100
00010000
00000100
00010000
00001000
00010000
01000000
00000000
00100000
00010000
00100000
00010000
10000000
00100000
00010000
00000000
,
00001000
00010000
00001000
00010000
00001000
00000000
00000010
00000001
00000100
00000000
00001000
00000000
00010000
00000000
00100000
00000000
,
10000000
00010000
01000000
00010000
00001000
00000100
00000001
00000100
,
00001000
00000100
00010000
00001000
00000000
00000000
00000000
00000000
;
