#TITLE:Keng Tae Rueng Kon Eun (EXPERT) Feat. Sprite;
#ARTIST:Ink Waruntorn;
#BANNER:Keng Tae Rueng Kon Eun (EXPERT) Feat. Sprite.png;
#BACKGROUND:Keng Tae Rueng Kon Eun (EXPERT) Feat. Sprite-bg.png;
#JACKET:Keng Tae Rueng Kon Eun (EXPERT) Feat. Sprite-jacket.png;
#CDTITLE:./CDTITLES/NONE.PNG;
#MUSIC:Keng Tae Rueng Kon Eun (EXPERT) Feat. Sprite.ogg;
#SAMPLESTART:40.273;
#SAMPLELENGTH:15;
#BPMS:0=146;

//---------------dance-single - t7r----------------
#NOTES:
     dance-single:
     t7r:
     Beginner:
     3:
     :
0000
0000
0000
0000
,
0000
0000
0000
0000
,
0000
0000
0000
0000
,
0000
0000
0000
0000
,
0000
0000
0000
0000
,
0001
0000
0000
0000
,
1000
0000
0000
0000
,
0010
0000
0000
0100
,
0000
0000
0000
0000
,
0010
0000
0010
0000
,
0010
0000
0000
0000
,
1000
0000
1000
0000
,
1000
0000
0000
0000
,
0001
0000
0001
0000
,
0001
0000
0000
0000
,
0010
0000
0010
0000
,
0010
0000
0000
0000
,
0001
0000
0000
0000
,
1000
1000
1000
0000
,
0010
0000
0000
0000
,
0100
0100
0100
0000
,
0010
0000
0010
0000
,
0010
0000
0010
0000
,
1000
1000
1000
1000
,
1000
0000
0000
0000
,
0001
0000
0000
0001
,
0001
0000
0000
0000
,
1000
0000
0000
1000
,
1000
0000
0000
0000
,
0010
0000
0000
0010
,
0010
0000
0000
0000
,
0100
0000
0100
0100
,
0100
0000
0000
0000
,
0010
0000
0010
0000
,
0010
0000
0000
0000
,
1000
0000
1000
0000
,
1000
0000
0000
0000
,
0001
0000
0001
0000
,
0001
0000
0000
0000
,
0010
0000
0000
0000
,
0000
0000
0000
0000
,
0001
0000
0001
0000
,
0001
0001
0001
0000
,
1000
0000
1000
0000
,
1000
1000
1000
0000
,
0010
0000
0100
0000
,
0010
0010
0010
0000
,
1000
0000
0001
0000
,
1000
1000
1000
0000
,
0100
0000
0000
0000
,
0010
0000
0010
0000
,
0001
0000
0000
0000
,
0100
0000
0100
0000
,
0010
0000
0010
0000
,
1000
0000
0001
0000
,
1000
1000
1000
1000
,
1000
0000
0000
0000
,
0001
0000
0000
0001
,
0001
0000
0000
0000
,
1000
0000
0000
1000
,
1000
0000
0000
0000
,
0010
0000
0000
0010
,
0010
0000
0000
0000
,
0100
0000
0100
0100
,
0100
0000
0000
0000
,
0001
0000
0010
0000
,
0100
0000
0000
0000
,
1000
0000
0010
0000
,
0100
0000
0000
0000
,
0001
0000
1000
0000
,
0010
0000
0100
0000
,
0010
0000
0000
0000
;

//---------------dance-single - t7r----------------
#NOTES:
     dance-single:
     t7r:
     Easy:
     5:
     :
0000
0000
0000
0000
,
0000
0000
0000
0000
,
0000
0000
0000
0000
,
0000
0000
0000
0000
,
0000
0000
0000
0000
,
2000
0000
3100
0000
,
0010
0002
0000
0103
,
0020
0000
0000
2030
,
0000
0000
3001
0000
,
1000
0010
1000
0000
,
0001
0200
0000
0300
,
0001
0010
0001
0000
,
1000
0020
0000
0030
,
1000
0100
0010
0000
,
0001
2000
0000
3000
,
0020
0000
0130
0001
,
1000
0200
0000
0300
,
0010
0000
0001
0000
,
0100
0010
0100
0001
,
0010
0000
0100
0000
,
1000
0010
0100
0010
,
1000
0100
1000
0100
,
0010
0010
0001
0000
,
0001
0100
0010
1000
,
0002
0000
1003
0000
,
1001
0000
1000
0100
,
0020
0000
0031
0100
,
0010
0000
1000
0001
,
0200
0000
0301
0010
,
0100
0000
1000
0000
,
0001
0000
0100
0000
,
0010
1000
0100
0010
,
0001
0000
1000
0001
,
1001
0000
0001
0010
,
0200
0000
1300
0001
,
0010
0000
0001
0100
,
0020
0000
1030
0001
,
0010
0000
0001
0000
,
1000
0000
0010
0000
,
0210
0000
0000
0000
,
0000
0000
0301
0000
,
1000
0100
0010
0100
,
0001
0100
1000
0000
,
0001
0100
0010
0100
,
1000
0100
0001
0000
,
1000
0100
0010
1000
,
0010
0100
1000
0000
,
0001
0100
0010
0001
,
0010
0100
0001
0000
,
2000
0000
3200
0000
,
0310
0001
1000
0000
,
0002
0000
0203
0000
,
0310
1000
0001
0000
,
0100
0010
1000
0001
,
0010
0010
0100
0000
,
1000
0010
0100
0001
,
2002
0000
0000
3003
,
1100
0000
1000
0100
,
0001
0100
1000
0000
,
1001
0000
0001
0100
,
0020
0000
1030
0001
,
0010
0000
1000
0000
,
0001
0000
0100
0000
,
1000
0001
0100
0010
,
2000
3020
0032
0023
,
1030
0000
0001
0010
,
1000
0010
0001
0000
,
1000
0010
0100
0001
,
2000
3200
0302
0203
,
0310
0000
0001
0000
,
0100
0000
1000
0000
,
0220
0000
0000
0000
,
0330
0000
0000
0000
;

//---------------dance-single - t7r----------------
#NOTES:
     dance-single:
     t7r:
     Medium:
     8:
     :
0000
0000
0000
0000
,
0000
0000
0000
0000
,
0000
0000
0000
0000
,
0000
0000
0000
0000
,
0000
0000
0000
0000
,
0002
0000
2003
0000
,
3010
0100
0002
0000
0000
0000
0003
0000
,
2000
0000
0000
3020
,
0000
0000
0130
0010
,
1000
0000
0100
1000
0100
0000
1000
0000
,
0001
0100
0002
0000
0000
0000
0013
0000
,
0001
0000
0100
0001
0100
0000
0001
0000
,
1000
0100
0020
0000
0000
0000
0130
0000
,
1000
0000
0010
1000
0010
0000
1000
0000
,
0001
0010
0002
0000
0000
0000
1003
0000
,
0002
0000
0000
0103
0020
0000
1030
0000
,
0100
0010
0200
0000
0000
0000
1300
0000
,
0010
0000
0000
1000
0020
0000
0000
0000
,
1030
0100
1000
0100
1000
0000
0001
0000
,
0100
0000
0000
0001
0200
0000
0000
0000
,
0301
0010
0001
0010
0001
0000
1000
0000
,
0001
0100
0010
1000
,
0100
0010
2002
3003
,
0001
0100
0010
0110
,
2010
0000
3001
1000
,
0100
0000
1000
0010
1000
0000
0001
0000
,
0200
0000
0301
0010
,
0100
0000
0010
0001
0010
0000
0001
0000
,
2000
0000
3010
0100
,
0010
0000
0000
1000
0100
0000
0000
0100
,
0010
0000
0000
0010
0001
0000
0000
0000
,
0100
0010
0100
0010
0100
0000
0010
0000
,
2000
3002
0203
0320
,
1030
0000
0001
0010
0001
0000
1000
0000
,
0020
0000
1030
0001
,
0100
0000
0010
1000
0010
0000
1000
0000
,
0200
0000
0310
0001
,
0100
0000
0000
0010
1000
0000
0000
1000
,
0001
0000
0000
0001
0010
0000
0000
0000
,
2001
0000
0000
0000
,
0000
0000
3010
0000
,
1000
0100
0010
0110
,
0001
0100
1000
0100
,
0001
0010
0100
0110
,
1000
0010
0001
0010
,
1000
0100
0010
1001
,
0001
0100
1000
0001
,
0010
1000
0100
0110
,
1000
0100
0100
0000
0001
0000
0110
0000
,
1001
0000
0000
1000
0020
0000
0000
0000
,
1030
0100
1000
0100
1000
0000
0001
0000
,
0100
0000
0000
0001
0020
0000
0000
0000
,
0031
0100
0001
0100
0001
0000
1000
0000
,
0001
0100
1000
0001
,
0010
1000
0100
0110
,
1001
1001
1100
0101
,
2001
0000
0010
3010
,
1000
0000
0100
0010
0100
0000
1000
0000
,
0001
0100
0001
0000
1000
0000
0001
0000
,
0010
0000
0001
0100
0001
0000
1000
0000
,
0001
0100
1000
0100
,
0010
0000
0100
0001
1000
0000
0100
1000
,
0001
0000
0100
0001
1000
0000
0001
0000
,
1000
0010
1000
0010
1000
0000
0001
0000
,
2000
3200
0320
0032
,
1003
0000
0010
0100
0010
0000
1000
0000
,
0001
0010
0001
0000
1000
0000
0100
0000
,
0010
0000
1000
0010
0001
0000
0100
0000
,
0020
0230
0302
2003
,
3010
0000
1000
0100
0001
0000
0000
0100
,
1000
0000
0001
0100
1000
0000
0000
0100
,
0020
0000
0000
0000
,
0030
0000
0000
0000
;

//---------------dance-single - t7r----------------
#NOTES:
     dance-single:
     t7r:
     Hard:
     10:
     :
0000
0000
0000
0000
,
0000
0000
0000
0000
,
0000
0000
0000
0000
,
0000
0000
0000
0000
,
0000
0000
0000
0000
,
0020
0000
0000
0000
0032
0000
0000
0103
,
0010
1000
0200
0000
0000
1300
0010
0100
,
0002
0000
0000
0010
0010
0000
2003
0000
,
0000
0010
0010
0000
3100
0000
0010
0000
,
0001
0100
0001
0100
0002
0000
1003
0100
,
1000
0100
2000
0000
0010
0000
3001
0000
,
1000
0010
0100
0010
2000
0000
3001
0010
,
0100
0010
0002
0000
2003
0000
3020
0000
,
1030
0100
0001
0100
0020
0000
0031
0100
,
1000
0100
0020
0000
0001
0000
0130
0000
,
1000
0100
0001
0010
2000
0000
3001
0100
,
1000
0010
0100
0010
0010
0000
1000
0000
,
2001
0000
0000
0010
0010
0000
3100
0000
,
1000
0001
0100
0010
2000
0000
3001
0000
,
0200
0000
0000
0010
0010
0000
0301
0000
,
1000
0100
0010
0001
0200
0000
0310
0000
,
0110
0001
0100
1000
,
0110
0000
1000
0000
0001
0000
1001
0001
,
0100
0101
1100
0011
,
2001
0000
0010
3010
,
1002
0000
1003
0100
0010
0000
0001
0100
,
0010
0100
2000
0000
3100
0000
0010
0000
,
1000
0000
0001
0010
0100
0000
1000
0000
,
0002
0103
2000
3100
,
0020
0000
1030
0100
0020
0000
1030
0010
,
0001
1000
0002
0000
0100
0000
1003
0000
,
0001
0100
0001
0100
0001
0000
1000
0000
,
0002
0023
0230
2300
,
3001
0000
0010
0001
0200
0000
1300
0100
,
0001
1000
0002
0000
0010
0000
1003
0000
,
0001
0000
1000
0100
0010
0000
0001
0000
,
0200
0320
2030
3002
,
1003
0000
0100
0001
0200
0000
1300
0010
,
0001
0010
0200
0000
0301
0000
1000
0000
,
0210
0000
0000
0000
,
0000
0000
0301
0000
,
1001
1000
0100
0001
,
0101
1100
0101
1100
,
1001
0001
0100
1000
,
1100
0110
1010
1001
,
1010
0010
0001
1000
,
1100
0110
0101
1001
,
0011
0010
1000
0001
,
0100
1000
0001
0000
0210
0000
0310
0000
,
2000
0000
0000
0100
0100
0000
3020
0000
,
0031
0010
0100
0010
2000
0000
3001
0000
,
0020
0000
0000
1000
1000
0000
0230
0000
,
0301
0100
0010
0100
2000
0000
3001
0000
,
0100
0000
1000
0000
1100
0000
0100
0001
,
1000
0100
0120
0031
,
1000
0010
0001
1000
0100
0001
1000
0000
,
2001
0000
0010
3010
,
1100
0000
0100
1000
0010
0000
0001
0010
,
0100
0010
1000
0000
0100
0000
0001
0000
,
0101
0000
0100
1000
0001
0000
1000
0000
,
0020
0130
0110
0001
,
1001
0000
0001
0010
2000
0000
3001
0100
,
1000
0001
0100
1000
0200
0000
0000
0310
,
0001
0010
1000
0100
0001
0000
0101
0000
,
1000
0010
0010
0010
0100
0000
0001
0000
,
0011
0000
0010
0001
0100
0000
1000
0100
,
0010
0100
0001
0000
0010
0000
1000
0000
,
2010
0000
3010
0100
1000
0000
0010
0100
,
0002
2003
3020
0130
,
1020
0000
1030
0100
0020
0000
1030
0010
,
0001
0100
0100
1000
0100
0001
0010
0100
,
0220
0000
0000
0000
,
0330
0000
0000
0000
;

//---------------dance-single - t7r----------------
#NOTES:
     dance-single:
     t7r:
     Challenge:
     14:
     :
0000
0000
0000
0000
,
0000
0000
0000
0000
,
0000
0000
0000
0000
,
0000
0000
0000
0000
,
0000
0000
0000
0000
,
2000
0000
0100
0000
3002
0000
0103
0001
,
0010
0100
2000
0000
3010
0100
0001
1000
,
1002
0000
1003
0100
0100
0000
2001
0000
,
3001
0100
0100
0000
0120
0000
1030
0000
,
0001
0010
0100
1000
1100
0000
1000
0010
,
0100
0001
0020
0001
0130
0000
1000
0000
,
0001
0010
0100
1000
1010
0000
1000
0010
,
0100
0001
0200
1000
0320
0000
2030
0000
,
3001
0010
0100
0001
2000
0000
3001
0100
,
1000
0010
0200
0001
0320
0000
1030
0000
,
0001
0100
0010
0001
0012
0000
1003
0010
,
0100
1000
0100
0100
0220
0000
0330
0000
,
2010
0000
0000
3001
1020
0000
1000
0000
,
0032
0000
0023
0000
0230
0000
0320
0000
2030
0000
3100
0000
0100
0000
0010
0001
,
0020
0000
0000
1030
0012
0000
0010
0000
,
2003
3020
0230
0320
0032
0013
1000
0001
,
1001
0000
0011
0000
1100
0000
1010
1000
,
1001
0000
0000
0000
0101
0000
0000
0000
0110
0000
0010
0000
1010
0000
0010
1000
,
0001
0010
1001
0010
0101
0010
0110
0010
,
2010
0000
0001
3001
,
1200
0000
0310
0001
0100
0010
1000
0020
,
0230
0320
2030
3001
0101
0100
0110
0010
,
1010
1000
0001
0010
0001
1000
0010
0100
,
0001
0010
0100
1000
2001
0000
3100
0000
,
1020
0001
0000
1030
0200
1000
0000
0320
,
0032
2003
3020
0130
0110
0000
1001
1000
,
0100
0010
0001
0100
0110
0000
1000
0000
,
0001
0010
0011
0001
1000
0001
0201
0000
,
0302
0000
1003
0010
0100
0010
1000
0200
,
0320
0230
2300
3001
0011
0010
0110
0100
,
1200
0000
1300
0010
0100
0001
1000
0001
,
0012
1000
0103
0000
2010
0001
3100
0010
,
0200
0001
0000
1300
0020
1000
0000
0031
,
0010
0100
0010
0110
1000
0100
0010
0110
,
2002
0000
0000
0000
,
0000
3003
0220
0330
,
1100
0101
1100
0101
,
1010
0011
1010
0011
,
1100
0110
1010
0011
,
0101
0110
0011
1010
,
1001
0101
1100
1010
,
0011
0101
1100
1001
,
0201
0000
1300
0100
0020
0000
2030
0000
,
3001
0010
0100
0101
2000
0000
3010
0000
,
2100
0000
0000
3001
1200
0000
1000
0000
,
0301
0000
0200
0000
2300
0000
3020
0000
0031
0000
0010
0000
0100
0000
0001
1000
,
0002
0000
0000
1003
0201
0000
0001
0000
,
1300
0200
0302
0023
1030
0010
0110
0010
,
1001
0000
1100
0000
0011
0000
0101
0001
,
1001
0000
0000
0000
1010
0000
0000
0000
0110
0000
0100
0000
0101
0000
0100
0001
,
1000
0100
1001
0100
1010
0100
0110
0100
,
0102
0000
1000
1003
,
1200
0000
0301
0100
0010
0100
1000
0020
,
0230
0320
0032
1003
1100
0100
0110
0010
,
1010
1000
0001
0010
0100
0001
0100
0010
,
0001
0100
1000
0100
0110
0100
0001
1000
,
0020
0001
0000
1030
0200
1000
0000
0302
,
0203
0320
0230
1300
1001
0000
0110
0100
,
1000
0100
0001
0010
0110
0001
1000
0000
,
0001
0010
0011
0010
1000
0001
0201
0000
,
0320
0000
1030
0010
0100
0010
0001
0200
,
0320
0230
2300
3001
0011
0010
0110
0100
,
0101
0001
1000
0100
0010
1000
0010
0110
,
0012
0100
1003
0000
2010
0100
3001
0010
,
0200
0001
0000
1300
0020
1000
0000
0031
,
0010
0100
0010
0011
1000
0100
0010
1010
,
0220
0000
0000
0000
,
0000
0330
0000
0000
;
