#TITLE:Jungle Eater;
#ARTIST:Hommarju;
#BANNER:Jungle Eater.png;
#BACKGROUND:Jungle Eater-bg.png;
#JACKET:Jungle Eater-jacket.png;
#CDTITLE:./CDTITLES/BEATMANIA IIDX.PNG;
#MUSIC:Jungle Eater.ogg;
#SAMPLESTART:32.609;
#SAMPLELENGTH:15;
#DISPLAYBPM:92:184;
#BPMS:0=184,36=92,52=184,76=92,80=184,112=368,114=184,144=368,146=184,160=368,162=184,176=92,192=184,216=92,224=184,288=368,290=184,304=368,306=184;
#STOPS:112=0.16304347826086956521739130434783,113=0.16304347826086956521739130434783,144=0.16304347826086956521739130434783,145=0.16304347826086956521739130434783,160=0.12228260869565217391304347826087,160.75=0.12228260869565217391304347826087,161.5=0.08152173913043478260869565217391,288=0.12228260869565217391304347826087,288.75=0.12228260869565217391304347826087,289.5=0.08152173913043478260869565217391,304=0.12228260869565217391304347826087,304.75=0.12228260869565217391304347826087,305.5=0.08152173913043478260869565217391;

//---------------dance-single - t7r----------------
#NOTES:
     dance-single:
     t7r:
     Beginner:
     3:
     :
0000
0000
0000
0000
,
0000
0000
0000
0000
,
0000
0000
0000
0000
,
0000
0000
0000
0000
,
0000
0000
0000
0000
,
0000
0000
0000
0000
,
0000
0000
0000
0000
,
0000
0000
0000
0000
,
0000
0000
0000
0000
,
0010
0000
0000
0000
,
0100
0000
0000
0000
,
0001
0000
0000
0000
,
1000
0000
0000
0000
,
0001
0000
0000
0000
,
1000
0000
0000
0000
,
0010
0000
0000
0000
,
0100
0000
0000
0000
,
0001
0000
0001
0000
,
1000
0000
1000
0000
,
0010
0000
0000
0000
,
0100
0000
0000
0000
,
0100
0000
0000
0000
,
0010
0000
0000
0000
,
0010
0000
0000
0000
,
1000
0000
0000
0000
,
1000
0000
0000
0000
,
0001
0000
0001
0000
,
0001
0000
0000
0000
,
1000
0000
0000
0000
,
1000
0000
0000
0000
,
0010
0000
0000
0000
,
0010
0000
0000
0000
,
0100
0000
0000
0000
,
0100
0000
0000
0000
,
0001
0000
0000
0000
,
0001
0000
0000
0000
,
1000
0000
0000
0000
,
0100
0000
0000
0000
,
0010
0000
0000
0000
,
0100
0000
0000
0000
,
0001
0000
0000
0000
,
0100
0000
0000
0000
,
0010
0000
0000
0000
,
1000
0000
0000
0000
,
0001
0000
0000
0000
,
0010
0000
0000
0000
,
0100
0000
0000
0000
,
1000
0000
0000
0000
,
0010
0000
0000
0000
,
0010
0000
0000
0000
,
0100
0000
0000
0000
,
0100
0000
0000
0000
,
0001
0000
0001
0000
,
0001
0000
0000
0000
,
1000
0000
0000
0000
,
0000
0000
0000
0000
,
0100
0000
0100
0000
,
0100
0000
0000
0000
,
0010
0000
0010
0000
,
0010
0000
0000
0000
,
1000
0000
1000
0000
,
1000
0000
0000
0000
,
0001
0000
0001
0000
,
0001
0000
0000
0000
,
0100
0000
0100
0000
,
0100
0000
0100
0000
,
0010
0000
0010
0000
,
0010
0000
0010
0000
,
1000
0000
1000
0000
,
1000
0000
1000
0000
,
0001
0000
0001
0000
,
0001
0000
0000
0000
,
1000
0000
0000
0000
,
0001
0000
0000
0000
,
0010
0000
0000
0000
,
0100
0000
0000
0000
,
0001
0000
0000
0000
,
1000
0000
0000
0000
,
0010
0000
0010
0000
,
0100
0100
0100
0000
,
0100
0000
0000
0000
;

//---------------dance-single - t7r----------------
#NOTES:
     dance-single:
     t7r:
     Easy:
     7:
     :
0000
0000
0000
0000
,
0000
0000
0000
0000
,
0000
0000
0000
0000
,
0000
0000
0000
0000
,
0000
0000
0000
0000
,
0000
0000
0000
0000
,
0000
0000
0000
0000
,
0000
0000
0000
0000
,
0000
0000
0000
0000
,
0010
1000
0001
0001
,
0010
0001
1000
1000
,
0100
1000
0010
0010
,
0100
0001
0010
0010
,
0001
0100
0010
1000
,
0001
0100
0010
1000
,
0001
0010
0100
1000
,
0001
0010
0100
1000
,
0001
0001
0010
0010
,
0100
0100
1000
1000
,
0020
0000
0000
0000
0000
0000
0000
0130
,
0110
0000
0001
0001
,
0100
0100
1000
0100
,
0010
0000
1000
1000
,
0200
0320
0032
2003
,
3010
0000
1000
1000
,
0100
0100
0001
0100
,
0010
0000
0010
0000
,
0001
0000
0001
0000
,
1000
1000
0001
0001
,
0100
0100
1000
0100
,
0010
0010
1000
1000
,
0002
0203
0320
2030
,
3001
0001
1000
1000
,
0010
0010
0001
0010
,
0100
0000
0100
0000
,
0010
0000
0010
0000
,
1000
1000
0002
0003
,
0010
0010
0200
0300
,
1000
1000
0020
0030
,
0100
0100
0002
0003
,
1000
0000
0002
0003
,
0010
0010
0002
0003
,
0100
0100
0020
0030
,
1000
0001
0100
0010
,
1000
0000
0100
0000
,
0010
0000
0001
0000
,
0100
0000
0010
0000
,
1000
0001
1000
0000
,
0010
0010
0010
0010
,
1000
1000
1000
1000
,
0100
0100
0100
0100
,
0010
0010
0010
0010
,
0001
0100
0010
1000
,
0001
0010
0100
1000
,
0020
0000
0000
0030
,
0100
0000
0100
0000
,
0010
0010
1000
0100
,
0001
0100
1000
0001
,
0100
0100
0001
0100
,
0002
0023
0230
2300
,
3001
0001
1000
0100
,
0001
0100
1000
0001
,
0100
0000
0110
0000
,
0001
0000
1001
0000
,
0100
0100
1000
0010
,
0001
0010
1000
0001
,
0010
0010
0001
1000
,
0200
0320
0032
2003
,
3010
0010
1000
0010
,
0001
0010
1000
0001
,
0100
0000
0110
0000
,
0010
0000
1001
0000
,
1000
0000
0002
0013
,
0001
0100
0020
1030
,
0001
0010
0200
1300
,
0001
1000
0020
0130
,
0010
0000
2002
3003
,
0100
0010
0220
0330
,
0001
0001
1000
1000
,
0010
0010
0100
0010
,
1001
0000
0000
0000
;

//---------------dance-single - t7r----------------
#NOTES:
     dance-single:
     t7r:
     Medium:
     12:
     :
0000
0000
0000
0000
,
0000
0000
0000
0000
,
0000
0000
0000
0000
,
0000
0000
0000
0000
,
0000
0000
0000
0000
,
0000
0000
0000
0000
,
0000
0000
0000
0000
,
0000
0000
0000
0000
,
0000
0000
0000
0000
,
0010
0000
0000
0000
1001
0000
0000
0000
0100
1000
0000
0100
0000
0000
0000
0000
,
0010
0000
0000
0000
1001
0000
0000
0000
0100
0001
0000
0100
0000
0000
0000
0000
,
0010
0000
0000
0000
1100
0000
0000
0000
0001
0010
0000
0001
0000
0000
0000
0000
,
0010
0000
0000
0000
0101
0000
0000
0000
1000
0010
0000
1000
0000
0000
0000
0000
,
0001
0100
0010
0000
1000
0100
0010
0000
,
0001
1000
0100
0000
1000
0010
0100
0000
,
0010
1000
0001
0000
0010
0001
0100
0000
,
0010
0100
0001
0000
0010
0100
1000
0000
,
0001
0010
0001
0010
0100
1000
0001
0000
,
1000
0010
1000
0010
0100
0001
1000
0000
,
0220
0000
0000
0000
0000
0000
0330
0010
,
0110
0000
1000
0000
0001
0100
0001
0000
,
1000
0100
1000
0000
0001
0100
0001
0000
,
0110
0000
1000
0000
0001
0010
0001
0000
,
0020
2030
3002
0203
,
1300
0000
0001
1000
0010
1000
0001
0000
,
1000
0001
1000
0001
0010
0001
1000
0000
,
0010
0000
0000
0100
0000
0000
0100
0000
0010
0000
0000
1000
0000
0000
1000
0000
,
0010
0000
0000
0001
0000
0000
0001
0000
0010
0000
0000
0000
0110
0000
0000
0000
,
0001
0000
0001
0000
1000
0100
1000
0000
,
0100
0001
0100
0000
1000
0100
0010
0001
,
1000
0000
0001
0010
0001
0000
1000
0010
,
0200
2300
3002
0023
,
1030
0000
0001
0100
0001
0100
1000
0000
,
0100
0001
0100
0001
0010
0001
1000
0000
,
0010
0000
0000
1000
0000
0000
0001
0000
0000
0100
0000
0000
0001
0000
0010
0000
,
0001
0000
0000
1000
0000
0000
0010
0000
0000
0100
0000
0000
0001
0000
1000
0000
,
0001
0001
1000
1100
,
1000
1000
0001
0101
,
0010
0010
0100
0110
,
0100
0100
0010
1001
,
1000
0000
0000
1000
0000
0000
1000
0000
0001
0000
0000
0000
0011
0000
0000
0000
,
1000
0000
1010
0000
0001
0100
0001
0000
,
0100
0000
0110
0000
1000
0100
1000
0000
,
0001
0010
0100
0000
1000
0010
0100
0001
,
0020
1000
0100
0031
,
0200
0000
0000
0302
0000
0000
0000
0000
0000
0000
0000
0000
1003
0001
1000
0000
,
0200
0001
0010
1300
,
0020
0000
0000
0230
0000
0000
0000
0000
0000
0000
0000
0000
0301
1000
0001
0000
,
1000
0100
0010
0000
0001
0010
0001
0000
,
1000
0010
0100
0000
0001
0010
0001
0000
,
1000
0100
0001
0000
0100
1000
0100
0000
,
1000
0010
0001
0000
0010
1000
0010
0000
,
1000
0100
1000
0100
0001
0100
1000
0000
,
0001
0100
0001
0100
1000
0100
0001
0000
,
0220
0000
0000
0330
,
0010
0000
0000
0100
0000
0000
0100
0000
0010
0000
0000
1000
0000
0000
1000
0000
0001
0000
0000
0010
0000
0000
0010
0000
0100
0000
1000
0000
0001
0000
0000
0000
,
1000
0000
0000
0010
0000
0000
1000
0000
0100
0000
0001
0000
0100
0000
0001
0000
,
0100
1000
0100
0001
0100
0000
0110
0000
,
0001
0000
0000
0010
0000
0000
0001
0000
0100
0000
1000
0000
0100
0000
0001
0000
,
0020
2030
3002
0203
,
1300
0000
0000
0010
0000
0000
1000
0000
0100
0000
0001
0000
1000
0000
0010
0000
,
0001
1000
0100
0001
1000
0010
0001
0000
,
0100
0000
0000
0010
0000
0000
0010
0000
0100
0000
0000
1000
0000
0000
1000
0000
,
0100
0000
0000
0001
0000
0000
0001
0000
0100
0000
0010
0000
1000
0000
0001
0000
,
1000
0000
0000
0001
0010
0000
0001
0000
0100
0000
0000
0001
0010
0000
0001
0000
,
1000
0000
0000
0100
0010
0000
0001
0000
1000
0000
0010
0000
0100
0000
0001
0000
,
1000
0000
0000
0100
0010
0000
0100
0000
1000
0000
0000
0001
0100
0000
0001
0000
,
0200
2300
3002
0023
,
1030
0000
0000
0001
0100
0000
1000
0000
0100
0000
0000
0001
0010
0000
1000
0000
,
0010
0000
0000
0001
0100
0000
0010
0000
1000
0000
0100
0000
0010
0000
0001
0000
,
0100
0000
0000
0010
0000
0000
1000
0000
0000
0001
0000
0000
0010
0000
0001
0000
,
1000
0010
0000
1000
0100
0010
0001
0001
,
0100
0000
0000
0100
0000
0000
0100
0000
0010
0000
0000
0000
1010
0000
0000
0000
,
1001
0011
0010
0011
,
1001
0000
1010
0000
0100
1000
0100
0001
,
0100
0000
0110
0000
0001
0100
1000
0100
,
0001
0000
0000
0001
0000
0000
0001
0000
0010
0000
0000
0000
0011
0000
0000
0000
,
0101
0000
0110
0000
1000
0010
0100
0001
,
0010
0000
0110
0000
0001
0100
0010
1000
,
0001
0000
0010
0000
0100
0000
1000
0000
0001
0000
0100
0000
0010
0100
0010
0000
,
0100
0000
0000
0000
;

//---------------dance-single - t7r----------------
#NOTES:
     dance-single:
     t7r:
     Hard:
     15:
     :
0000
0000
0000
0000
,
0000
0000
0000
0000
,
0000
0000
0000
0000
,
0000
0000
0000
0000
,
0000
0000
0000
0000
,
0000
0000
0000
0000
,
0000
0000
0000
0000
,
0000
0000
0000
0000
,
0000
0000
0000
0000
,
0010
0000
0000
0000
1001
0000
0000
0000
0100
0001
1000
0001
0100
0000
0000
0000
,
0010
0000
0000
0000
1001
0000
0000
0000
0100
1000
0001
1000
0100
0000
0000
0000
,
0010
0000
0000
0000
1100
0000
0000
0000
0001
0010
0100
0010
0001
0000
0000
0000
,
0100
0000
0000
0000
1010
0000
0000
0000
0100
1000
0001
0010
0001
0000
0000
0000
,
1000
0100
0010
0100
1000
0100
0001
0000
,
0100
0010
0001
1000
0010
0100
0001
1000
,
0001
0010
0100
0010
0001
0100
1000
0000
,
0100
0010
1000
0001
1000
0100
0010
0001
,
1000
0100
1000
0000
0001
0010
0001
0000
1000
0010
1000
0000
0001
0100
0001
0000
,
1000
0001
1000
0000
0010
1000
0010
0000
0100
0001
0100
0000
0001
0010
0001
0000
,
2002
0000
0000
0000
0000
0000
3003
0110
,
0101
0000
0011
0000
0001
0100
0100
0100
,
1000
0100
0100
0100
0010
0000
0110
0000
,
1001
0000
1000
0100
0100
0100
0010
0100
,
0001
0100
0000
0000
1000
0010
0000
0000
0100
0000
0100
0000
0100
0000
0000
0000
,
1001
0000
0001
0010
0010
0010
1000
0010
,
0010
0010
0001
0100
0010
1000
0001
0000
,
0010
0000
0001
0100
0000
0001
0100
0000
0010
0000
0100
1000
0000
0100
1000
0000
,
0100
0000
0010
1000
0000
0001
1000
0000
1001
0000
0000
0000
0110
0000
0000
0000
,
0010
0000
0010
0000
1000
0100
0100
0100
,
0010
1000
1000
1000
0010
0001
1000
0001
,
1001
0000
0001
0100
0100
0100
0010
0001
,
1000
0100
0000
0000
0001
0010
0000
0000
0100
0000
0100
0000
0100
0000
0000
0000
,
0110
0000
0001
0100
0100
0100
1000
0001
,
0010
0010
0010
1000
0001
0100
0110
0000
,
1000
0000
0000
0011
0000
0000
1100
0000
0000
1001
0000
0000
0010
0000
0100
0000
,
0001
0000
0000
1010
0000
0000
0101
0000
1000
0000
0000
0000
0010
0100
0010
0100
,
0010
0000
0010
0000
1000
0010
0001
1000
,
0100
0000
0000
0100
0001
0000
1000
0000
0001
0000
0010
0000
1000
0000
0001
0000
,
0100
0000
0000
0100
1000
0000
0001
0000
1000
0000
0010
0000
0100
0000
1000
0000
,
0100
0000
0000
0100
0001
0000
1000
0000
0001
0000
0010
0000
0100
0000
1000
0000
,
0010
0000
0000
0010
0000
0000
0010
0000
1000
0000
0000
0000
1001
0000
0000
0000
,
0101
0000
1100
0000
0001
0100
0010
0001
,
0010
0000
0000
0010
1000
0000
0001
0000
1000
0000
0100
0000
0010
0000
1000
0000
,
0010
0000
0000
0010
0001
0000
1000
0000
0001
0000
0100
0000
0010
0000
1000
0000
,
0001
0000
1000
0000
0100
1000
0000
0001
0100
0010
0000
0010
0100
0001
0010
0000
,
0001
0000
1000
0000
0100
0010
0000
0010
0100
1000
0000
1000
0001
1000
0100
0000
,
0010
0000
0001
0000
0100
1000
0000
1000
0100
0001
0000
0001
1000
0001
0010
0000
,
0100
0000
1000
0000
0100
0001
0000
0001
0100
1000
0000
1000
0010
0100
0001
0000
,
1000
0100
0010
0100
0001
0100
0010
0001
,
1000
0010
0100
0010
0001
0010
1000
0001
,
1000
0100
0010
0001
0100
0001
0100
1000
,
0001
0010
0100
1000
0100
0001
1000
0001
,
1000
0100
1000
0000
0001
0010
0001
0000
1000
0010
1000
0000
0001
0100
0001
0000
,
1000
0001
1000
0000
0010
0100
0010
0000
1000
0100
0010
0000
0001
0100
0010
0000
,
0220
0000
0000
0330
,
0010
0000
0000
0100
0000
0000
0100
0000
0001
0000
0000
0100
0000
0000
0100
0000
1000
0000
0000
0100
0000
0000
0100
0000
0010
0000
0000
0000
1001
0000
0000
0000
,
1100
0000
0000
1000
0100
0000
1000
0000
0001
0000
0100
0000
0100
0000
1000
0000
,
0001
0010
0010
1000
0001
0100
0010
0010
,
0110
0000
0000
0010
1000
0000
0001
0000
1000
0000
0100
0000
0100
0000
0001
0000
,
1000
0010
0000
0000
0001
0100
0000
0000
0010
0100
0010
0100
0010
0000
0000
0000
,
0110
0000
0000
0001
1000
0000
0001
0000
1000
0000
0010
0000
0010
0000
0100
0000
,
1000
0100
0100
0010
1000
0001
0101
0000
,
0011
0000
1000
0100
0000
1000
0100
0000
0010
0000
0100
0001
0000
0100
0001
0000
,
0100
0000
0010
0001
0000
1000
0001
0000
0100
0000
0010
0000
0110
0000
0000
0000
,
1010
0000
0000
0001
0100
0000
0001
0000
0011
0000
0000
1000
0100
0000
1000
0000
,
0001
0100
0100
1000
0100
0010
0110
0000
,
1001
0000
0000
1000
0100
0000
0001
0000
0101
0000
0000
0100
0010
0000
0100
0000
,
0001
0100
0000
0000
1000
0010
0000
0000
0100
0000
0100
0000
0100
0000
0000
0000
,
0110
0000
0000
1000
0100
0000
0001
0000
0110
0000
0000
0001
0100
0000
1000
0000
,
0110
0000
0000
1000
0100
0000
0001
0000
1000
0000
0010
0000
0110
0000
0000
0000
,
0011
0000
0000
0011
0000
0000
1100
0000
0000
1100
0000
0000
1000
0000
0100
0000
,
1000
0000
0001
0000
0100
0000
0010
0100
0010
0100
0010
0100
0010
0000
0010
0000
,
0100
0000
0000
0100
0000
0000
0100
0000
0010
0000
1000
0000
0100
0000
0001
0000
,
1000
0010
0001
0000
0100
0001
0010
1000
,
0001
0100
1000
0000
0010
1000
0100
0010
,
1000
0010
0100
0000
0010
0001
0100
0010
,
0001
0000
0000
0001
0000
0000
0001
0000
1000
0000
0100
0000
0001
0000
1000
0000
,
0100
0000
0000
0100
0010
0000
0001
0000
1000
0000
0010
0000
0001
0000
1000
0000
,
0100
0000
0000
0100
0010
0000
1000
0000
0001
0000
0010
0000
1000
0000
0010
0000
,
0001
0100
0001
0100
0001
1000
0001
0000
1000
0100
1000
0100
1000
0001
1000
0000
,
0110
0000
0000
0000
;

//---------------dance-single - t7r----------------
#NOTES:
     dance-single:
     t7r:
     Challenge:
     18:
     :
0000
0000
0000
0000
,
0000
0000
0000
0000
,
0000
0000
0000
0000
,
0000
0000
0000
0000
,
0000
0000
0000
0000
,
0000
0000
0000
0000
,
0000
0000
0000
0000
,
0000
0000
0000
0000
,
0000
0000
0000
0000
,
0010
1000
0100
0010
0001
0100
0010
1000
0001
0010
0100
1000
0001
0010
0100
1000
,
0010
1000
0100
0010
0001
0100
0010
1000
0001
0010
0100
1000
0001
0010
0100
1000
,
0010
1000
0100
0010
0001
1000
0010
0100
0001
1000
0100
0010
0001
1000
0100
0010
,
0100
1000
0010
0100
0001
1000
0100
0010
0001
1000
0010
0100
0001
1000
0100
0010
,
0100
0000
0100
0000
1000
0000
0100
0000
0010
0100
0010
0000
0001
0000
0100
0000
,
0010
0000
0010
0000
1000
0000
0010
0000
0100
0010
0100
0000
0001
0000
0010
0000
,
0100
0000
0100
0000
1000
0000
0100
0000
0010
0100
0010
0000
0001
0000
1000
0000
,
0010
0000
0010
0000
0100
0000
0001
0000
0100
0010
0100
0000
0010
0000
1000
0000
,
0001
0010
0100
1000
0001
0010
0100
1000
0010
1000
0010
1000
0001
0100
0001
0100
,
0001
1000
0100
0010
0001
1000
0100
0010
0001
1000
0001
1000
0010
0100
0010
0100
,
0001
0000
1000
0000
0020
0000
0000
0000
0031
0010
0100
0010
1000
0000
1001
0000
,
1100
0000
1001
0000
2000
3200
0320
2030
,
3002
0203
0320
0032
2003
3010
0200
0302
,
1003
0000
0002
0203
0320
0032
2003
3200
,
0310
0100
0000
0100
1000
0100
0000
0100
0010
0100
0010
0100
0001
0000
1000
0000
,
0001
0000
0010
0100
2000
0000
3020
0000
0230
0000
2300
0000
3002
0000
0013
0000
,
0200
0302
2003
3200
0320
2030
3001
0000
,
0100
0000
1000
0100
0000
0010
0100
0000
0001
0000
0100
0010
0000
1000
0010
0000
,
0001
0000
0100
1000
0000
0001
0010
0000
0100
0010
0100
0010
1000
0000
1000
0000
,
0001
1000
0000
0000
0000
0000
0000
0000
0100
0000
0000
0000
0000
0000
0000
0000
0010
0000
0000
0000
0000
0000
0000
0000
0000
0000
0000
0000
0000
0000
0000
0000
0002
0000
0000
0000
0000
0000
0000
0000
0023
0000
0000
0000
0000
0000
0000
0000
0230
0000
0000
0000
0000
0000
0000
0000
0302
0000
0000
0000
0000
0000
0000
0000
,
2003
0000
3020
0000
0230
0000
2300
0000
3001
0100
0010
1000
0001
0000
1000
0000
,
0010
0000
2000
3020
0230
2300
3002
0023
,
0130
0010
0000
0010
0001
0010
0000
0010
0100
0010
0100
0010
1000
0000
0001
0000
,
1000
0000
0100
0010
0001
0000
2000
0000
3002
0000
0203
0000
0320
0000
0031
0000
,
2000
3200
0320
1030
0002
0023
0130
0000
,
1000
0000
0100
0010
0000
1000
0010
0000
0001
0100
0000
0010
1000
0000
0010
0000
,
0100
0000
1000
0100
0000
0010
0100
0000
0001
1000
0100
0010
0001
0000
0100
0010
,
1000
0000
1000
0000
0002
0203
0320
0032
,
1003
0000
0100
0001
0000
1000
0100
0000
2000
0000
3200
0000
0320
0000
2030
0000
,
3001
0000
0100
1000
0000
0001
0100
0000
0002
0000
0023
0000
0230
0000
0302
0000
,
1003
0000
0010
0001
0000
1000
0010
0000
2000
0000
3020
0000
0230
0000
2300
0000
,
3100
0001
0000
0010
0010
0000
0001
0000
2000
0000
3020
0000
0032
0000
2003
0000
,
3100
0000
0001
0010
0000
1000
0010
0000
0002
0000
0203
0000
2300
0000
3002
0000
,
1003
0000
0100
0001
0000
1000
0100
0000
2000
0000
3200
0000
0302
0000
2003
0000
,
3010
0000
0100
0010
0001
0000
1000
0000
0001
0000
0100
0010
1000
0000
0001
0000
,
1000
0000
0100
0000
0010
0000
0001
0000
0100
0000
0010
0000
1000
0000
0001
0000
0010
0000
0100
0000
1000
0000
0010
0000
1000
0100
0010
0001
1000
0000
0001
0000
,
2000
0000
0000
0000
0100
0000
3002
0000
0010
0000
0000
0000
1000
0000
0000
0000
0103
0000
0010
0000
1000
0000
0001
0000
0010
0100
1000
0001
0100
0000
0001
0000
,
1000
0000
0010
0000
0100
0000
0010
0000
1000
0000
0001
0000
0010
0000
0100
0000
1000
0000
0010
0000
0100
0000
0001
0000
1000
0100
0010
0001
1000
0000
0010
0000
,
0200
0000
0000
0000
0001
0000
0320
0000
0001
0000
0000
0000
0100
0000
0000
0000
1030
0000
0100
0000
0010
0000
0001
0000
0100
0010
1000
0001
0010
0000
0001
0000
,
1000
0000
0100
0000
0001
0000
0100
0010
0100
0010
0001
0000
0100
0000
0010
1000
,
0001
0000
0100
0000
1000
0000
0100
0010
0100
0010
1000
0000
0100
0000
0010
0001
,
1000
0000
0010
0000
0001
0000
0010
0100
0010
0100
0001
0000
0010
0000
0100
1000
,
0001
0000
0010
0000
1000
0000
0010
0100
0010
0100
1000
0000
0001
0000
0100
0010
,
1000
0100
0010
0001
0100
0010
1000
0001
0010
0100
1000
0001
0100
0010
1000
0001
,
1000
0100
0010
0001
0100
0010
1000
0001
0010
0100
1000
0001
0100
0010
1000
0001
,
1000
0000
0001
0000
0200
0000
0000
0000
1300
0100
0010
0100
0001
0000
1100
0000
,
0001
0000
0000
0000
0000
0000
0020
0030
0000
0000
0000
0000
0020
0030
0000
0000
1000
0000
0000
0000
0000
0000
0200
0300
0000
0000
0000
0000
0200
0300
0000
0000
0001
0000
0000
0000
0000
0000
0020
0030
0000
0000
0000
0000
0020
0030
0000
0000
1000
0000
0100
0000
0010
0000
0001
0000
1000
0000
0000
0000
0000
0000
0000
0000
,
1001
0000
0000
0000
0000
0000
0000
0000
1000
0000
0000
0000
0100
0000
0000
0000
0000
0000
0000
0000
1000
0000
0000
0000
0010
0000
0000
0000
0000
0000
0000
0000
1000
0000
0000
0000
0000
0000
0000
0000
0200
0300
0000
0000
0000
0000
0000
0000
0200
0300
0000
0000
0000
0000
0000
0000
0001
0000
0000
0000
0000
0000
0000
0000
,
1000
0000
0000
0000
0000
0000
0000
0000
0200
0300
0000
0000
0000
0000
0000
0000
0200
0300
0000
0000
0000
0000
0000
0000
0001
0000
0000
0000
0000
0000
0000
0000
1000
0000
0000
0000
0000
0000
0000
0000
0020
0030
0000
0000
0000
0000
0000
0000
0020
0030
0000
0000
0000
0000
0000
0000
0001
0000
0000
0000
0000
0000
0000
0000
,
1001
0000
0000
0000
0000
0000
0000
0000
0001
0000
0000
0000
0100
0000
0000
0000
0000
0000
0000
0000
0010
0000
0000
0000
1000
0000
0000
0000
0000
0000
0000
0000
0001
0000
0000
0000
0000
0000
0000
0000
0020
0030
0000
0000
0000
0000
0000
0000
0020
0030
0000
0000
0000
0000
0000
0000
1000
0000
0000
0000
0000
0000
0000
0000
,
0001
0100
0000
0100
0010
0100
0000
0100
1000
0100
0010
0100
0010
0000
1000
0000
,
0100
0000
0000
0000
0000
0000
0000
0000
0001
0000
0000
0000
0100
0000
0000
0000
1000
0000
0000
0000
0000
0000
0000
0000
0001
0000
0000
0000
0000
0000
0000
0000
1000
0000
0000
0000
0000
0000
0000
0000
0020
0030
0000
0000
0000
0000
0000
0000
0020
0030
0000
0000
0000
0000
0000
0000
0001
0000
0000
0000
0000
0000
0000
0000
,
1000
0000
0000
0000
0000
0000
0000
0000
0020
0030
0000
0000
0020
0030
0000
0000
0001
0000
0000
0000
0000
0000
0000
0000
1000
0000
0000
0000
0000
0000
0000
0000
0200
0300
0000
0000
0000
0000
0000
0000
0200
0300
0000
0000
0000
0000
0000
0000
0002
0000
0000
0000
0000
0000
0000
0000
0000
0000
0000
0000
0000
0000
0000
0000
,
1003
0000
0100
0001
0000
1000
0001
0000
0100
0000
1000
0001
0000
1000
0010
0000
,
0001
0000
1000
0100
0000
0001
1000
0000
0100
0000
0001
0100
0010
0000
0001
0100
,
0010
0000
0000
1000
0011
0000
1000
0000
0101
0000
0000
1000
0011
0000
1000
0000
,
0101
0000
0000
1000
0011
0000
1000
0000
0001
0100
0010
1000
0001
0000
1000
0000
,
1001
0000
0000
0001
1010
0000
0001
0000
1100
0000
0000
0001
1010
0000
0001
0000
,
1000
0100
0000
0100
0010
0100
0000
0100
0001
0100
0010
0100
0010
0000
0100
1000
,
0001
0000
1000
0010
0100
0000
0011
0000
0100
0000
0001
0010
0100
0000
1010
0000
,
0100
0000
1000
0010
0100
0000
0011
0000
0100
0011
0000
0011
2000
0000
0000
0000
,
3001
0000
0100
1000
0000
0001
1000
0000
0100
0001
0000
0010
1000
0000
0001
0000
,
1000
0010
0000
0001
1000
0000
0010
0100
0001
1000
0001
1000
0001
1000
0001
1000
,
0100
0000
0000
0000
0000
0000
0000
0000
0000
0000
0000
0000
0110
0000
0000
0000
0000
0000
0000
0000
0000
0000
0000
0000
1001
0000
0000
0000
0000
0000
0000
0000
0001
0000
0000
0000
0000
0000
0000
0000
0200
0300
0000
0000
0000
0000
0000
0000
0200
0300
0000
0000
0000
0000
0000
0000
1000
0000
0000
0000
0000
0000
0000
0000
,
0001
0000
0000
0000
0000
0000
0000
0000
0010
0000
0000
0000
0100
0000
0000
0000
1000
0000
0000
0000
0000
0000
0000
0000
1001
0000
0000
0000
0000
0000
0000
0000
1000
0000
0000
0000
0000
0000
0000
0000
0200
0300
0000
0000
0000
0000
0000
0000
0200
0300
0000
0000
0000
0000
0000
0000
0001
0000
0000
0000
0000
0000
0000
0000
,
1000
0000
0000
0000
0000
0000
0000
0000
0010
0000
0000
0000
0100
0000
0000
0000
0001
0000
0000
0000
0000
0000
0000
0000
1001
0000
0000
0000
0000
0000
0000
0000
0001
0000
0000
0000
0000
0000
0000
0000
0020
0030
0000
0000
0000
0000
0000
0000
0020
0030
0000
0000
0000
0000
0000
0000
1000
0000
0000
0000
0000
0000
0000
0000
,
0001
0000
0100
0010
1000
0000
1001
0000
1000
0100
0010
0001
1000
0001
0010
0001
,
0100
0010
0000
1000
1000
0000
0001
0000
1000
0010
0100
0010
0001
0000
0010
0000
,
1000
0100
0010
0100
0001
0000
0100
0000
0010
0100
0001
0100
1000
0000
0010
0000
,
0100
0010
0001
0010
1000
0000
0100
0000
1000
0010
0100
0001
1000
0000
0001
0000
,
1000
0100
1000
0100
0001
0100
0001
0100
1000
0010
0001
1000
0100
0001
0010
0100
,
1000
0000
0000
0000
;

//---------------dance-double - t7r----------------
#NOTES:
     dance-double:
     t7r:
     Easy:
     7:
     :
00000000
00000000
00000000
00000000
,
00000000
00000000
00000000
00000000
,
00000000
00000000
00000000
00000000
,
00000000
00000000
00000000
00000000
,
00000000
00000000
00000000
00000000
,
00000000
00000000
00000000
00000000
,
00000000
00000000
00000000
00000000
,
00000000
00000000
00000000
00000000
,
00000000
00000000
00000000
00000000
,
00100000
10010000
10000000
01000000
,
00100000
00011000
00001000
00000100
,
00000010
00001001
00000001
00000010
,
00000100
00011000
00001000
01000000
,
00010000
00100000
01000000
10000000
,
00010000
00100000
01000000
10000000
,
00100000
01000000
00001000
00010000
,
00000100
00001000
00000001
00000010
,
00000001
00000100
00001000
00010000
,
01000000
00100000
00001000
00010000
,
00002000
00000000
00000000
00000000
00000000
00000000
00000000
00013000
,
00011000
00001000
00000100
00000100
,
00000010
00000010
00001000
00000001
,
00000010
00000010
00000100
00000100
,
00020000
00032000
00023000
02030000
,
13000000
00100000
00100000
10000000
,
00010000
00010000
00010000
10000000
,
01000000
00000000
00010000
00000000
,
00001000
00000000
00000100
00000000
,
00000010
00000010
00001000
00001000
,
00000001
00000001
00000010
00000100
,
00001000
00000001
00000001
00000001
,
00000200
00002300
00023000
02030000
,
03100000
01000000
01000000
10000000
,
01000000
01000000
00100000
00010000
,
10000000
00100000
00010000
00001000
,
01000000
00010000
00100000
00000000
,
00001000
00001000
00011000
00000000
,
00010000
00010000
00000200
00000300
,
00001000
00001000
00000020
00000030
,
00000100
00000100
00000001
00001000
,
00000001
00000000
00000020
00000030
,
00000100
00000100
00020000
00030000
,
00001000
00001000
02000000
03000000
,
00010000
00100000
01000000
10000000
,
00100000
00000000
01000000
00000000
,
00010000
00100000
00001000
00000000
,
00010000
00000000
00000010
00000000
,
00001000
00000001
00000100
00000000
,
00000001
00000010
00000100
00001000
,
00000001
00000010
00000100
00001000
,
00010000
01000000
00100000
10000000
,
00010000
01000000
00100000
10000000
,
01000000
00100000
01000000
00010000
,
00001000
00000100
00000010
00000100
,
00000002
00000000
00000000
00000003
,
00001000
00000000
00000100
00000000
,
00011000
00000000
00001000
00001000
,
00010000
01000000
00100000
01000000
,
10000000
00000000
00100000
00100000
,
00020000
00032000
00003020
00000230
,
00001300
00000000
00000001
00000001
,
00000100
00001000
00010000
00010000
,
00000100
00001000
00000001
00000100
,
00000010
00010000
00001000
00000000
,
00011000
00000000
00100000
00100000
,
00010000
10000000
00100000
01000000
,
00010000
00000000
10000000
10000000
,
02000000
03020000
00032000
00003200
,
00000310
00000000
00000100
00000100
,
00000001
00001000
00000100
00000000
,
00010000
00000000
00010000
00000000
,
00001000
00010000
00011000
00000000
,
00100000
00000000
10010000
00000000
,
10000000
01000000
11000000
00000000
,
00100000
00010000
00110000
00000000
,
00001000
00010000
00011000
00000000
,
00000010
00000000
00001001
00000000
,
00000001
00000100
00000101
00000000
,
00000010
00001000
00001010
00000000
,
00010000
00001000
00011000
00000000
,
01000000
00000000
00000000
00000000
;

//---------------dance-double - t7r----------------
#NOTES:
     dance-double:
     t7r:
     Medium:
     12:
     :
00000000
00000000
00000000
00000000
,
00000000
00000000
00000000
00000000
,
00000000
00000000
00000000
00000000
,
00000000
00000000
00000000
00000000
,
00000000
00000000
00000000
00000000
,
00000000
00000000
00000000
00000000
,
00000000
00000000
00000000
00000000
,
00000000
00000000
00000000
00000000
,
00000000
00000000
00000000
00000000
,
00100000
00000000
00000000
00000000
10010000
00000000
00000000
00000000
10000000
01000000
00000000
00100000
00000000
00000000
00000000
00000000
,
00001000
00000000
00000000
00000000
00011000
00000000
00000000
00000000
00010000
00000100
00000000
00000010
00000000
00000000
00000000
00000000
,
00000100
00000000
00000000
00000000
00001001
00000000
00000000
00000000
00000001
00000100
00000000
00000010
00000000
00000000
00000000
00000000
,
00010000
00000000
00011000
00000000
00001000
01000000
00010000
00000000
,
10000000
00000000
01000000
00100000
00010000
00000000
10000000
00000000
,
00100000
00000000
01000000
00001000
00010000
00000000
00001000
00000000
,
00010000
00000000
00000010
00000100
00000001
00000000
00000010
00000000
,
00000100
00000000
00010000
00000100
00001000
00000000
00000001
00000000
,
00000100
00000000
00001000
00010000
00001000
00000000
00010000
00000000
,
01000000
00000000
00010000
00001000
00010000
00000000
00001000
00000000
,
00022000
00000000
00000000
00000000
00000000
00000000
00033000
00010000
,
00000010
00000000
00000110
00000000
00000001
00000010
00000001
00000000
,
00001000
00000000
00000100
00010000
00000100
00000000
00010000
00000000
,
00001000
00000000
01000000
00010000
01000000
00000000
00010000
00000000
,
02000000
23000000
30020000
00230000
,
10300000
00000000
01000000
00100000
00010000
00000000
10000000
00000000
,
00010000
01000000
00100000
00000000
10000000
00000000
01000000
00000000
,
00010000
00000000
00000000
00001000
00000000
00000000
00001000
00000000
00010000
00000000
00000000
00000100
00000000
00000000
00000100
00000000
,
00001000
00000000
00000000
00000010
00000000
00000000
00000010
00000000
00000100
00000000
00000000
00000000
00000001
00000000
00000000
00000000
,
00000010
00000000
00000010
00000000
00000001
00000100
00000001
00000000
,
00000100
00001000
00000100
00000000
00001000
00000000
00010000
00100000
,
01000000
00000000
00010000
00100000
00010000
00000000
10000000
00010000
,
02000000
23000000
30020000
00230000
,
10300000
00000000
01000000
00010000
00001000
00000000
00010000
00000000
,
00001000
00000000
00000100
00000010
00000100
00000001
00001000
00000000
,
00000001
00000000
00000000
00000010
00000000
00000000
00000100
00000000
00000000
00001000
00000000
00000000
00010000
00000000
00100000
00000000
,
00010000
00000000
00000000
10000000
00000000
00000000
00100000
00000000
01000000
00000000
00010000
00000000
10000000
00000000
00000000
00000000
,
01000000
01000000
10010000
10000000
,
01000000
00100000
00010000
00000000
10000000
00000000
10000000
00000000
,
00100000
01000000
00010000
00000000
10000000
00000000
10000000
00000000
,
00100000
00010000
00001000
00000000
00010000
00000000
00010000
00001000
,
00000010
00000000
00000000
00000010
00000000
00000000
00000010
00000000
00000001
00000000
00000000
00000000
00000100
00000000
00000000
00000000
,
00000001
00000010
00000001
00000000
00000100
00000000
00000010
00000000
,
00001000
00000100
00010000
00000000
00001000
00000000
00010000
00000000
,
01000000
10000000
00100000
00000000
01000000
00000000
00010000
10000000
,
00020000
00130000
01000000
10000000
,
00200000
00000000
00000000
02300000
00000000
00000000
00000000
00000000
00000000
00000000
00000000
00000000
03010000
10000000
00010000
00000000
,
20000000
31000000
00100000
00001000
,
00020000
00000000
00000000
00030020
00000000
00000000
00000000
00000000
00000000
00000000
00000000
00000000
00000130
00000001
00001000
00000000
,
00000001
00000000
00000010
00000100
00001000
00000000
00010000
00000000
,
10000000
00000000
00100000
01000000
00010000
00000000
00001000
00000000
,
00000001
00000000
00000100
00000010
00001000
00000000
00010000
00000000
,
10000000
00000000
01000000
00100000
00010000
00000000
00001000
00000000
,
00000001
00000100
00000001
00000000
00000100
00001000
00000100
00000000
,
00001000
00010000
00001000
00000000
00010000
01000000
00010000
00000000
,
02000000
00000000
00000000
03000000
,
10000000
00000000
00000000
00100000
00000000
00000000
00100000
00000000
01000000
00000000
00000000
00010000
00000000
00000000
00010000
00000000
00100000
00000000
00000000
00001000
00000000
00000000
00001000
00000000
00010000
00000000
00001000
00000000
00011000
00000000
00000000
00000000
,
00010000
00000000
00100000
10000000
01000000
00000000
10000000
00000000
,
00010000
01000000
00010000
01000000
00001000
00010000
00001000
00000000
,
00011000
00000000
00001000
00000000
00000100
00000001
00001000
00000000
,
00000020
00000032
00002003
00003200
,
00000301
00000000
00000010
00000100
00001000
00000100
00000010
00000000
,
00000100
00001000
00000001
00001000
00000010
00000000
00000100
00000000
,
00001000
00000000
00000000
00010000
00000000
00000000
00010000
00000000
00100000
00000000
00000000
01000000
00000000
00000000
01000000
00000000
,
00010000
00000000
00000000
00100000
00000000
00000000
00100000
00000000
01000000
00000000
10000000
00000000
00010000
00000000
00000000
00000000
,
10010000
00000000
00000000
10000000
01000000
00000000
10000000
00000000
00010000
00000000
00000000
10000000
01000000
00000000
10000000
00000000
,
00010000
01000000
00100000
00000000
10000000
01000000
00010000
00000000
,
00001000
00000000
00000000
00000100
00000010
00000000
00000100
00000000
00000001
00000000
00000000
00001000
00000001
00000000
00000010
00000000
,
00000200
00000302
00002003
00003020
,
00000031
00000000
00000000
00000100
00000010
00000000
00001000
00000000
00000010
00000000
00000000
00000100
00000001
00000000
00001000
00000000
,
00000100
00000000
00000000
00010000
00001000
00000000
01000000
00000000
00010000
00000000
00100000
00000000
01000000
00000000
00000000
00000000
,
10000000
00000000
00000000
00100000
00000000
00000000
01000000
00000000
00000000
00010000
00000000
00000000
00001000
00000000
00000010
00000000
,
00001000
00000000
00000000
00000100
00000000
00000000
00000010
00000000
00000001
00000000
00000001
00000000
00001000
00000000
00000000
00000000
,
00000100
00000000
00000000
00000100
00000000
00000000
00000100
00000000
00010000
00000000
00000000
00000000
00011000
00000000
00000000
00000000
,
00010000
00100000
01000000
00000000
00010000
00000000
10010000
00000000
,
10000000
01000000
00100000
00000000
00001000
00000000
00011000
00000000
,
00001000
00000010
00000100
00000000
00000010
00000000
00000011
00000000
,
00000001
00000000
00000000
00000001
00000000
00000000
00000001
00000000
00001000
00000000
00000000
00000000
00001100
00000000
00000000
00000000
,
00000100
00000010
00000001
00000000
00000100
00000000
00001100
00000000
,
00001000
00010000
01000000
00000000
00100000
00000000
00110000
00000000
,
10000000
00100000
01000000
00000000
00010000
01000000
00001000
00010000
,
00011000
00000000
00000000
00000000
;

//---------------dance-double - t7r----------------
#NOTES:
     dance-double:
     t7r:
     Hard:
     15:
     :
00000000
00000000
00000000
00000000
,
00000000
00000000
00000000
00000000
,
00000000
00000000
00000000
00000000
,
00000000
00000000
00000000
00000000
,
00000000
00000000
00000000
00000000
,
00000000
00000000
00000000
00000000
,
00000000
00000000
00000000
00000000
,
00000000
00000000
00000000
00000000
,
00000000
00000000
00000000
00000000
,
00100000
00000000
00000000
00000000
10010000
00000000
00000000
00000000
10000000
01000000
00100000
01000000
10000000
00000000
00000000
00000000
,
00100000
00000000
00000000
00000000
00011000
00000000
00000000
00000000
00010000
00000100
00001000
00000001
00001000
00000000
00000000
00000000
,
00000010
00000000
00000000
00000000
00001001
00000000
00000000
00000000
00000001
00000010
00000100
00000010
00000001
00000000
00000000
00000000
,
00000100
00000000
00000000
00000000
00011000
00000000
00000000
00000000
00001000
01000000
00010000
10000000
00010000
00000000
00000000
00000000
,
10000000
01000000
00100000
01000000
10000000
01000000
00010000
00000000
,
00001000
00000100
00000010
00000100
00000001
00000010
00000100
00000000
,
00001000
00000010
00000100
00000001
00000010
00001000
00010000
00000000
,
00001000
01000000
00100000
01000000
10000000
01000000
00010000
00000000
,
10000000
00000000
01000000
00000000
10000000
00100000
10000000
00000000
00010000
00000000
01000000
00000000
00010000
00100000
00010000
00000000
,
00100000
00000000
00001000
00000000
00010000
00001000
00010000
00000000
00000010
00000000
00001000
00000000
00000001
00001000
00000001
00000000
,
00002002
00000000
00000000
00000000
00000000
00000000
00003003
00000110
,
00000101
00000000
00001001
00000000
00000001
00000100
00000100
00000100
,
00001000
00000100
00000100
00000100
00001000
00010000
00001000
00010000
,
00100000
00000000
10000000
01000000
01000000
01000000
00100000
01000000
,
00010000
01000000
00000000
00000000
10000000
00100000
00000000
00000000
01000000
00000000
01000000
00000000
01000000
00000000
00000000
00000000
,
10010000
00000000
10000000
00100000
00100000
00100000
00010000
00100000
,
00100000
00100000
00010000
00001000
00000010
00000100
00001000
00000000
,
00000001
00000000
00000010
00001000
00000000
00000010
00001000
00000000
00010000
00000000
00001000
00010000
00000000
00001000
00010000
00000000
,
01000000
00000000
10000000
00010000
00000000
10000000
00010000
00000000
01010000
00000000
00000000
00000000
01100000
00000000
00000000
00000000
,
00100000
00000000
00100000
00000000
10000000
01000000
01000000
01000000
,
00100000
10000000
10000000
10000000
00100000
00001000
00010000
00001000
,
00011000
00000000
00001000
00000100
00000100
00000100
00000001
00000010
,
00001000
00000010
00000000
00000000
00000001
00000100
00000000
00000000
00001000
00000000
00001000
00000000
00001000
00000000
00000000
00000000
,
00011000
00000000
00010000
01000000
01000000
01000000
00100000
00010000
,
00010000
00010000
10000000
00100000
00010000
00001000
00011000
00000000
,
00010000
00000000
00000000
01000000
00000000
00000000
10000000
00000000
00000000
10010000
00000000
00000000
00010000
00000000
00100000
00000000
,
00001000
00000000
00000000
00011000
00000000
00000000
00010000
00000000
00000100
00000000
00001000
00000001
00001000
00000000
00000001
00000000
,
00000100
00000000
00000100
00000000
00000001
00000010
00000100
00001000
,
00010000
00000000
00000000
00010000
10000000
00000000
00010000
00000000
10000000
00000000
00100000
00000000
01000000
00000000
00010000
00000000
,
00001000
00000000
00000000
00001000
00000001
00000000
00001000
00000000
00000001
00000000
00000100
00000000
00000010
00000000
00001000
00000000
,
00010000
00000000
00000000
00010000
10000000
00000000
00010000
00000000
10000000
00000000
01000000
00000000
00100000
00000000
00010000
00000000
,
00001000
00000000
00000000
00001000
00000000
00000000
00001000
00000000
00000001
00000000
00000100
00000000
00001000
00000000
00010000
00000000
,
00000100
00000000
00000000
00000100
00010000
00000000
00001000
00000000
00010000
00000000
01000000
00000000
10000000
00000000
00010000
00000000
,
01000000
00000000
00000000
01000000
00100000
00000000
10000000
00000000
01000000
00000000
00010000
00000000
00001000
00000000
00000100
00000000
,
00000010
00000000
00000000
00000010
00001000
00000000
00000001
00000000
00000010
00000000
00001000
00000000
00010000
00000000
00000100
00000000
,
00001000
00000000
00000100
00000000
00001000
00000001
00000000
00000100
00000001
00001000
00000000
00000100
00010000
00001000
00010000
00000000
,
00002000
00000000
01003000
00020000
00000000
00000000
00000000
00000000
10030000
00000000
00100000
00000000
01000000
00010000
10000000
00000000
,
00010000
00000000
00100000
00000000
01000000
00100000
00000000
00001000
00010000
00001000
00000000
00010000
00000010
00001000
00000001
00000000
,
00000200
00000000
00000310
00002000
00000000
00000000
00000000
00000000
00003001
00000100
00000000
00001000
00010000
00001000
01000000
00000000
,
00010000
00100000
01000000
10000000
00010000
00100000
20000000
00000000
,
30100000
00010000
00001000
00000100
00000010
00000001
00002000
00000000
,
00003001
00000010
00000100
00001000
00000001
00000100
00002000
00000000
,
00003100
00001000
00010000
00100000
01000000
00010000
20000000
00000000
,
30010000
00100000
00010000
00000000
00100000
00000000
00001000
00000000
00010000
00001000
00010000
00000000
00001000
00000000
00100000
00000000
,
00001000
00010000
00001000
00000000
00010000
00000000
00000010
00000000
00001000
00000001
00001000
00000000
00000001
00000000
00000100
00000000
,
00002000
00000000
00000000
00003000
,
00010000
00000000
00000000
00001000
00000000
00000000
00001000
00000000
01000000
00000000
00000000
00010000
00000000
00000000
00010000
00000000
10000000
00000000
00000000
00100000
00000000
00000000
00100000
00000000
01000000
00000000
00000000
00000000
00010000
00000000
00000000
00000000
,
10010000
00000000
00000000
10000000
00010000
00000000
10000000
00000000
01000000
00000000
00100000
00000000
00010000
00000000
00001000
00000000
,
00000010
00001000
00010000
01000000
00100000
00010000
00001000
00000100
,
00000001
00000000
00000000
00000001
00001000
00000000
00000001
00000000
00000010
00000000
00000100
00000000
00010000
00000000
00001000
00000000
,
00010000
01000000
00000000
00000000
10000000
00100000
00000000
00000000
10000000
00010000
10000000
00010000
10000000
00000000
00010000
00000000
,
00100000
00000000
00000000
00001000
00010000
00000000
00001000
00000000
00000010
00000000
00000000
00001000
00010000
00000000
00001000
00000000
,
00100000
00010000
10000000
00100000
01000000
00010000
20000000
00000000
,
31000000
00000000
00010000
00001000
00000000
00010000
00001000
00000000
00000100
00000000
00000001
00001000
00000000
00000001
00001000
00000000
,
00000001
00000000
00000010
00001000
00000000
00000010
00001000
00000000
00010000
00000000
00001000
00010000
00001000
00000000
00000000
00000000
,
01010000
00000000
00000000
00010000
00100000
00000000
00001000
00000000
00010000
00000000
00000000
00000010
00010000
00000000
00001000
00000000
,
00010000
00001000
00000010
00000001
00000100
00001000
00010000
00100000
,
10000000
00000000
00000000
00010000
00100000
00000000
00001000
00000000
00010000
00000000
00001000
00000000
00000100
00000000
00000010
00000000
,
00000001
00000010
00000000
00000000
00001000
00000100
00000000
00000000
00001000
00000001
00001000
00000001
00001000
00000000
00000000
00000000
,
00001001
00000000
00000000
00000001
00000100
00000000
00000010
00000000
00001000
00000000
00000100
00000000
00010000
00000000
00001000
00000000
,
00010000
00100000
10000000
01000000
00100000
00001000
00010000
00000000
,
00011000
00000000
00000000
00011000
00000000
00000000
00010100
00000000
00000000
00010100
00000000
00000000
00010000
00000000
00001000
00000000
,
01000000
00000000
00010000
00000000
10000000
00000000
00010000
10000000
00010000
10000000
00010000
10000000
00010000
00000000
10000000
00000000
,
01000000
00000000
00000000
01000000
00000000
00000000
01000000
00000000
00010000
00000000
00001000
00000000
00000100
00000000
00000001
00000000
,
00001000
00000100
00000001
00001000
00000010
00001000
00010000
00000010
,
00001000
00010000
00100000
00010000
10000000
00100000
00010000
00001000
,
00100000
00010000
00100000
10000000
00010000
01000000
00100000
00001000
,
00010000
00000000
00000000
00010000
00000000
00000000
00010000
00000000
00001000
00000000
00000010
00000000
00000100
00000000
00000010
00000000
,
00000001
00000000
00000000
00000001
00000100
00000000
00001000
00000000
00010000
00000000
00000100
00000000
00001000
00000000
00000001
00000000
,
00000100
00000000
00000000
00000100
00001000
00000000
00010000
00000000
00100000
00000000
10000000
00000000
00010000
00000000
00100000
00000000
,
01000000
00000000
00000000
01000000
00100000
00000000
00001000
00000000
00010000
00001000
00010000
00001000
00010000
00001000
00010000
00000000
,
00011000
00000000
00000000
00000000
;

//---------------dance-double - t7r----------------
#NOTES:
     dance-double:
     t7r:
     Challenge:
     18:
     :
00000000
00000000
00000000
00000000
,
00000000
00000000
00000000
00000000
,
00000000
00000000
00000000
00000000
,
00000000
00000000
00000000
00000000
,
00000000
00000000
00000000
00000000
,
00000000
00000000
00000000
00000000
,
00000000
00000000
00000000
00000000
,
00000000
00000000
00000000
00000000
,
00000000
00000000
00000000
00000000
,
00010000
00000010
00001000
00000001
00001000
00000100
00000010
00000001
00001000
00000100
00010000
00001000
01000000
00010000
10000000
00100000
,
01000000
00010000
10000000
00100000
10000000
01000000
00100000
00010000
01000000
00001000
00010000
00000100
00001000
00000001
00000010
00000100
,
00000010
00000001
00001000
00000001
00000100
00000010
00001000
00000001
00000010
00000100
00010000
00001000
01000000
00010000
10000000
00100000
,
10000000
01000000
00100000
00010000
10000000
00010000
00100000
00001000
00010000
00000010
00000100
00000001
00001000
00000001
00000100
00000010
,
00000100
00000000
00000100
00000000
00000001
00000000
00001000
00000100
00001000
00000000
00000001
00000000
00000010
00000000
00000100
00000000
,
00010000
00000000
00010000
00000000
00001000
00000000
01000000
00010000
01000000
00000000
00010000
00000000
10000000
00000000
00100000
00000000
,
10000000
00000000
10000000
00000000
01000000
00000000
00100000
00010000
00100000
00000000
00010000
00000000
10000000
00000000
00100000
00000000
,
00010000
00000000
00010000
00000000
00001000
00000000
00010000
00000100
00010000
00000000
00001000
00000000
00000010
00000000
00000001
00000000
,
00001000
00000100
00000010
00000001
00001000
00000100
00010000
00000000
00001000
01000000
00010000
10000000
00100000
01000000
00010000
00000000
,
10000000
01000000
00100000
00010000
10000000
00100000
01000000
00000000
00010000
00100000
00001000
00010000
00000100
00001000
00000001
00001000
,
00000100
00000000
00010000
00000000
00002000
00000000
00000000
00000000
00013000
01000000
10000000
00010000
01000000
00000000
01100000
00000000
,
10010000
00000000
11000000
00000000
20000000
32000000
03200000
20300000
,
30020000
02030000
03020000
00032000
00003200
00000320
00002030
00003002
,
00001003
00000000
00000002
00000203
00000320
00000032
00002003
00003200
,
00001300
00010000
00000000
00010000
00000100
00010000
00000000
00010000
00001000
01000000
00001000
01000000
00010000
00000000
10000000
00000000
,
00100000
00000000
10000000
01000000
00100000
00000000
20000000
00000000
30200000
00000000
02300000
00000000
23000000
00000000
30020000
00000000
,
00032000
00003020
00000230
00002300
00003002
00000023
00001030
00000000
,
00000001
00000000
00000010
00001000
00000000
00000001
00000100
00000000
00010000
00000000
00001000
00010000
00000000
00100000
10000000
00000000
,
00010000
00000000
01000000
00001000
00000000
00010000
00001000
00000000
00000010
00000100
00000010
00000001
00001000
00000100
00010000
00001000
,
00010000
00001000
00000000
00000000
00000000
00000000
00000000
00000000
01000000
00000000
00000000
00000000
00000000
00000000
00000000
00000000
00010000
00000000
00000000
00000000
00000000
00000000
00000000
00000000
00000000
00000000
00000000
00000000
00000000
00000000
00000000
00000000
20000000
00000000
00000000
00000000
00000000
00000000
00000000
00000000
30200000
00000000
00000000
00000000
00000000
00000000
00000000
00000000
02300000
00000000
00000000
00000000
00000000
00000000
00000000
00000000
23000000
00000000
00000000
00000000
00000000
00000000
00000000
00000000
,
30020000
00000000
00230000
00000000
02300000
00000000
03020000
00000000
10030000
00100000
01000000
00010000
10000000
00000000
01000000
00000000
,
00010000
00000000
00002000
00003020
00000230
00002300
00003002
00000203
,
00000310
00001000
00000000
00001000
00000100
00001000
00000000
00001000
00000100
00010000
00000100
00010000
00001000
00000000
00010000
00000000
,
00100000
00000000
10000000
00010000
00100000
00000000
20000000
00000000
30200000
00000000
02300000
00000000
23000000
00000000
30020000
00000000
,
00230000
02300000
03020000
00032000
00003200
00000320
00001030
00000000
,
00000001
00000000
00000100
00001000
00000000
00000001
00000010
00000000
00001000
00000100
00000000
00010000
00001000
00000000
00010000
00000000
,
01000000
00000000
10000000
00100000
00000000
00010000
00001000
00000000
00010000
00000000
01000000
10000000
00010000
00000000
00100000
00001000
,
00010000
00000000
00010000
00000000
00002000
00003200
00000320
00002030
,
00003001
00000000
00000010
00000100
00000000
00001000
00000001
00000000
00000200
00000000
00002300
00000000
00023000
00000000
02030000
00000000
,
13000000
00000000
00100000
01000000
00000000
00010000
10000000
00000000
02000000
00000000
03020000
00000000
00032000
00000000
00003200
00000000
,
00000310
00000000
00001000
00000100
00000000
00010000
00001000
00000000
00020000
00000000
00230000
00000000
02300000
00000000
03020000
00000000
,
00130000
00001000
00000000
00010000
00001000
00000000
00000010
00000000
00000002
00000000
00000203
00000000
00000320
00000000
00000032
00000000
,
00001003
00000000
00000100
00000010
00000000
00001000
00000100
00000000
00020000
00000000
00032000
00000000
00023000
00000000
00230000
00000000
,
01300000
00000000
00010000
00100000
00000000
00010000
10000000
00000000
02000000
00000000
03200000
00000000
00302000
00000000
00023000
00000000
,
00031000
00000000
00000010
00000001
00001000
00000000
00000001
00000000
00000100
00000000
00001000
00010000
00001000
00000000
01000000
00000000
,
00010000
00000000
00100000
00000000
01000000
00000000
10000000
00000000
00010000
00000000
00100000
00000000
01000000
00000000
10000000
00000000
00100000
00000000
01000000
00000000
00001000
00000000
00010000
00000000
00000010
00001000
00000001
00000010
00000100
00000000
00001000
00000000
,
00000002
00000000
00000000
00000000
00000100
00000000
00002003
00000000
00000100
00000000
00000000
00000000
00003001
00000000
00000000
00000000
00000010
00000000
00000001
00000000
00001000
00000000
00000100
00000000
00010000
00001000
00100000
00010000
10000000
00000000
00010000
00000000
,
10000000
00000000
01000000
00000000
00100000
00000000
00010000
00000000
10000000
00000000
01000000
00000000
00100000
00000000
00010000
00000000
10000000
00000000
00100000
00000000
00010000
00000000
00001000
00000000
00100000
00001000
00010000
00001000
00010000
00000000
00001000
00000000
,
00000020
00000000
00000000
00000000
00000100
00000000
00000032
00000000
00000100
00000000
00000000
00000000
00001003
00000000
00000000
00000000
00000001
00000000
00000100
00000000
00001000
00000000
00010000
00000000
01000000
10000000
00010000
10000000
00100000
00000000
10000000
00000000
,
01000000
00000000
00010000
00000000
00001000
00000000
00100000
00010000
00100000
00010000
10000000
00000000
00100000
00000000
00010000
00001000
,
00100000
00000000
00010000
00000000
00001000
00000000
00000010
00000100
00000010
00000100
00000001
00000000
00000010
00000000
00000100
00001000
,
00000001
00000000
00000100
00000000
00001000
00000000
00010000
00000100
00010000
00000100
00001000
00000000
00000001
00000000
00001000
00000100
,
00010000
00000000
00001000
00000000
00100000
00000000
00010000
01000000
00010000
01000000
00100000
00000000
10000000
00000000
00010000
00100000
,
00010000
10000000
00010000
10000000
01000000
00100000
00001000
00000000
00010000
00001000
00010000
00000010
00001000
00000001
00000100
00000000
,
00000001
00000010
00000100
00010000
00001000
00100000
01000000
10000000
00010000
01000000
00001000
00010000
00000100
00010000
00001000
00000000
,
00010000
00000000
00001000
00000000
00000020
00000000
00000000
00000000
00000130
00001000
00000001
00000100
00001000
00000000
00010000
00000000
,
00000100
00000000
00000000
00000000
00000000
00000000
00002000
00003000
00000000
00000000
00000000
00000000
00002000
00003000
00000000
00000000
00010000
00000000
00000000
00000000
00000000
00000000
02000000
03000000
00000000
00000000
00000000
00000000
02000000
03000000
00000000
00000000
00010000
00000000
00000000
00000000
00000000
00000000
00200000
00300000
00000000
00000000
00000000
00000000
00200000
00300000
00000000
00000000
10000000
00000000
01000000
00000000
00100000
00000000
00010000
00000000
10000000
00000000
00000000
00000000
00000000
00000000
00000000
00000000
,
10010000
00000000
00000000
00000000
00000000
00000000
00000000
00000000
10000000
00000000
00000000
00000000
01000000
00000000
00000000
00000000
00000000
00000000
00000000
00000000
10000000
00000000
00000000
00000000
00010000
00000000
00000000
00000000
00000000
00000000
00000000
00000000
10000000
00000000
00000000
00000000
00000000
00000000
00000000
00000000
00200000
00300000
00000000
00000000
00000000
00000000
00000000
00000000
00200000
00300000
00000000
00000000
00000000
00000000
00000000
00000000
00010000
00000000
00000000
00000000
00000000
00000000
00000000
00000000
,
10000000
00000000
00000000
00000000
00000000
00000000
00000000
00000000
00200000
00300000
00000000
00000000
00000000
00000000
00000000
00000000
00200000
00300000
00000000
00000000
00000000
00000000
00000000
00000000
00010000
00000000
00000000
00000000
00000000
00000000
00000000
00000000
00001000
00000000
00000000
00000000
00000000
00000000
00000000
00000000
00000020
00000030
00000000
00000000
00000000
00000000
00000000
00000000
00000020
00000030
00000000
00000000
00000000
00000000
00000000
00000000
00000001
00000000
00000000
00000000
00000000
00000000
00000000
00000000
,
00001001
00000000
00000000
00000000
00000000
00000000
00000000
00000000
00000001
00000000
00000000
00000000
00000010
00000000
00000000
00000000
00000000
00000000
00000000
00000000
00000001
00000000
00000000
00000000
00001000
00000000
00000000
00000000
00000000
00000000
00000000
00000000
00000001
00000000
00000000
00000000
00000000
00000000
00000000
00000000
00000200
00000300
00000000
00000000
00000000
00000000
00000000
00000000
00000200
00000300
00000000
00000000
00000000
00000000
00000000
00000000
00001000
00000000
00000000
00000000
00000000
00000000
00000000
00000000
,
00000100
00010000
00000000
00010000
00001000
00010000
00000000
00010000
01000000
00010000
01000000
10000000
00100000
00000000
01000000
00000000
,
10000000
00000000
00000000
00000000
00000000
00000000
00000000
00000000
01000000
00000000
00000000
00000000
00010000
00000000
00000000
00000000
10000000
00000000
00000000
00000000
00000000
00000000
00000000
00000000
01000000
00000000
00000000
00000000
00000000
00000000
00000000
00000000
10000000
00000000
00000000
00000000
00000000
00000000
00000000
00000000
00200000
00300000
00000000
00000000
00000000
00000000
00000000
00000000
00200000
00300000
00000000
00000000
00000000
00000000
00000000
00000000
00010000
00000000
00000000
00000000
00000000
00000000
00000000
00000000
,
10000000
00000000
00000000
00000000
00000000
00000000
00000000
00000000
02000000
03000000
00000000
00000000
02000000
03000000
00000000
00000000
00010000
00000000
00000000
00000000
00000000
00000000
00000000
00000000
00001000
00000000
00000000
00000000
00000000
00000000
00000000
00000000
00000020
00000030
00000000
00000000
00000000
00000000
00000000
00000000
00000020
00000030
00000000
00000000
00000000
00000000
00000000
00000000
00000002
00000000
00000000
00000000
00000000
00000000
00000000
00000000
00000000
00000000
00000000
00000000
00000000
00000000
00000000
00000000
,
00000103
00000000
00001000
00010000
00000000
00100000
10000000
00000000
01000000
00000000
00010000
00001000
00000000
00000010
00000001
00000000
,
00000100
00000000
00001000
00010000
00000000
00100000
10000000
00000000
01000000
00100000
00001000
00010000
00001000
00000000
00011000
00000000
,
01001000
00000000
00000000
00001000
00110000
00000000
00001000
00000000
01010000
00000000
00000000
00001000
00110000
00000000
00001000
00000000
,
01010000
00000000
00000000
00001000
00110000
00000000
00001000
00000000
00010000
00000010
00000100
00000001
00001000
00000000
00000100
00000000
,
00010100
00000000
00000000
00010000
00001010
00000000
00010000
00000000
00001100
00000000
00000000
00010000
00001010
00000000
00010000
00000000
,
00001000
00010000
00000000
00010000
01000000
00010000
00000000
00010000
00001000
00000100
00001000
00000100
00000010
00000000
00000100
00000001
,
00001000
00000000
00000000
00000100
00011000
00000000
00000100
00000000
00011000
00000000
00000000
00000100
00011000
00000000
00000100
00000000
,
00011000
00000000
00000000
00000100
00011000
00000000
00000100
00000000
00010000
00001000
00010000
01000000
00100000
00000000
00000000
00000000
,
00010000
00000000
10000000
00100000
00000000
00010000
00001000
00000000
00000100
00000001
00000000
00000010
00001000
00000000
00010000
00000000
,
01000000
10000000
00100000
01000000
00010000
00100000
00001000
00010000
00000100
00001000
00000010
00000100
00000001
00000010
00000100
00010000
,
00001000
00000000
00000000
00000000
00001000
00000000
00000000
00000000
00000000
00000000
00000000
00000000
00010000
00000000
00000000
00000000
00010000
00000000
00000000
00000000
00000000
00000000
00000000
00000000
01000000
00000000
00000000
00000000
00000000
00000000
00000000
00000000
10000000
00000000
00000000
00000000
00000000
00000000
00000000
00000000
00200000
00300000
00000000
00000000
00000000
00000000
00000000
00000000
00200000
00300000
00000000
00000000
00000000
00000000
00000000
00000000
00010000
00000000
00000000
00000000
00000000
00000000
00000000
00000000
,
10000000
00000000
00000000
00000000
00000000
00000000
00000000
00000000
00100000
00000000
00000000
00000000
01000000
00000000
00000000
00000000
00001000
00000000
00000000
00000000
00000000
00000000
00000000
00000000
00011000
00000000
00000000
00000000
00000000
00000000
00000000
00000000
00001000
00000000
00000000
00000000
00000000
00000000
00000000
00000000
00000200
00000300
00000000
00000000
00000000
00000000
00000000
00000000
00000200
00000300
00000000
00000000
00000000
00000000
00000000
00000000
00010000
00000000
00000000
00000000
00000000
00000000
00000000
00000000
,
00000100
00000000
00000000
00000000
00000000
00000000
00000000
00000000
00001000
00000000
00000000
00000000
00000001
00000000
00000000
00000000
00000100
00000000
00000000
00000000
00000000
00000000
00000000
00000000
00000101
00000000
00000000
00000000
00000000
00000000
00000000
00000000
00000001
00000000
00000000
00000000
00000000
00000000
00000000
00000000
00000020
00000030
00000000
00000000
00000000
00000000
00000000
00000000
00000020
00000030
00000000
00000000
00000000
00000000
00000000
00000000
00001000
00000000
00000000
00000000
00000000
00000000
00000000
00000000
,
00000100
00000000
00000000
00000000
00000000
00000000
00000000
00000000
00010000
00000000
00000000
00000000
00001000
00000000
00000000
00000000
01000000
00000000
00000000
00000000
00000000
00000000
00000000
00000000
01010000
00000000
00000000
00000000
00000000
00000000
00000000
00000000
00010000
00000000
00000000
00000000
00000000
00000000
00000000
00000000
00200000
00300000
00000000
00000000
00000000
00000000
00000000
00000000
00200000
00300000
00000000
00000000
00000000
00000000
00000000
00000000
10000000
00000000
00000000
00000000
00000000
00000000
00000000
00000000
,
01000000
00010000
00000000
00001000
00000010
00000000
00000001
00000000
00000100
00000010
00001000
00000100
00010000
00000000
00001000
00000000
,
00010000
01000000
10000000
00100000
01000000
00000000
00100000
00000000
10000000
00100000
01000000
00001000
00010000
00000000
00001000
00000000
,
00000100
00000001
00000010
00000100
00001000
00000000
00000001
00000000
00000010
00000100
00010000
00000010
00001000
00000000
00000100
00000000
,
00010000
00001000
00010000
00001000
01000000
00010000
01000000
00010000
10000000
01000000
00100000
00010000
00001000
00000010
00000100
00000001
,
00001000
00000000
00000000
00000000
;
