#TITLE:Huk lung;
#ARTIST:Retrospect;
#BANNER:Huk lung.png;
#BACKGROUND:Huk lung-bg.png;
#JACKET:Huk lung-jacket.png;
#CDTITLE:./CDTITLES/NONE.PNG;
#MUSIC:Huk lung.ogg;
#SAMPLESTART:72.028;
#SAMPLELENGTH:15;
#BPMS:0=106;

//---------------dance-single - t7r----------------
#NOTES:
     dance-single:
     t7r:
     Beginner:
     1:
     :
0000
0000
0000
0000
,
0000
0000
0000
0000
,
0000
0000
0000
0000
,
1000
0000
0000
0000
,
0001
0000
0000
0000
,
0100
0000
0000
0000
,
0010
0000
0000
0000
,
1000
0000
0000
0000
,
1000
0000
0000
0000
,
0001
0000
0000
0000
,
0001
0000
0000
0000
,
0100
0000
0000
0000
,
0100
0000
0000
0000
,
0010
0000
0000
0000
,
0010
0000
0000
0000
,
1000
0000
1000
0000
,
1000
0000
0000
0000
,
0001
0000
0001
0000
,
0001
0000
0000
0000
,
0100
0000
0100
0000
,
0100
0000
0000
0000
,
0010
0000
0010
0000
,
0010
0000
0000
0000
,
0000
1000
0000
1000
,
0000
0001
0000
0001
,
0000
0100
0000
0100
,
0000
0010
0010
0000
,
0010
0000
1000
1000
,
1000
0000
0001
0001
,
0001
0000
0100
0100
,
0100
0000
0010
0010
,
0010
0000
0000
0000
,
1000
0000
0000
0000
,
0100
0000
0000
0000
,
0010
0000
0000
0000
,
0001
0000
0000
0000
,
0100
0000
0000
0000
,
0010
0000
0000
0000
,
1000
0000
0000
0000
,
0001
0000
0010
0000
,
0001
0000
0001
0000
,
1000
0000
1000
0000
,
0010
0000
0010
0000
,
0100
0000
0100
0000
,
0010
0000
1000
0000
,
0100
0000
0010
0000
,
0001
0000
0100
0000
,
0010
0000
0000
0000
,
1000
0000
1000
0000
,
0001
0000
0001
0000
,
0100
0000
0100
0000
,
0010
0000
0010
0000
,
1000
0000
1000
0000
,
0001
0000
0001
0000
,
0010
0000
0010
0000
,
0100
0000
0100
0000
;

//---------------dance-single - t7r----------------
#NOTES:
     dance-single:
     t7r:
     Easy:
     5:
     :
0000
0000
0000
0000
,
0000
0000
0000
0000
,
0000
0000
0000
0000
,
2000
0000
3100
0000
,
0010
0000
0001
1000
,
0002
0000
0103
0000
,
0010
0000
1000
0001
,
2000
0000
3010
0000
,
0100
0000
0001
1000
,
0002
0000
0013
0000
,
0100
0000
1000
0001
,
1001
0000
0100
0000
,
0010
0000
0100
0000
,
1001
0000
0010
0000
,
0100
0000
0010
0110
,
0001
0000
0100
1000
,
0100
0000
0001
0000
,
1000
0000
0100
0001
,
0100
0000
1000
0000
,
0010
0100
0002
0010
,
1003
0000
0010
0000
,
0100
0001
2000
0010
,
3001
0000
1000
0001
,
0000
1001
0000
1100
,
0000
1001
0000
0101
,
0000
0110
0000
1010
,
0000
1001
0010
1001
,
0000
1100
1000
1100
,
0000
0101
0001
0101
,
0000
1010
1000
1010
,
0000
0011
0001
0011
,
0000
0000
0000
0000
,
0110
0000
0001
0000
,
1000
0000
0010
0000
,
0110
0000
1000
0000
,
0001
0010
0002
0003
,
0101
0000
0010
0000
,
1100
0000
0010
0000
,
0002
2003
3020
0000
,
0001
0000
0130
0001
,
2000
0100
3001
0000
,
0002
0100
1003
0000
,
1010
0000
0011
0000
,
1000
0100
1100
0000
,
0002
0010
1003
0000
,
2000
0010
3001
0000
,
0110
0000
0001
0000
,
1000
0000
0100
0000
,
1000
0010
0100
0100
,
0001
0010
0100
0100
,
1000
0001
0010
0010
,
0001
1000
0010
0110
,
1000
0100
0001
0001
,
0100
1000
0010
0010
,
0001
0010
1000
1000
,
0100
0010
0100
0001
;

//---------------dance-single - t7r----------------
#NOTES:
     dance-single:
     t7r:
     Medium:
     8:
     :
0000
0000
0000
0000
,
0000
0000
0000
0000
,
0000
0000
0000
0000
,
2000
0000
0100
0000
3001
0100
0001
0000
,
1000
0000
0000
0000
0010
0000
0000
0000
0100
0000
0000
0001
0000
0000
1000
0000
,
0002
0000
0010
0000
1003
0010
1000
0000
,
0001
0000
0100
0010
0000
1000
0000
0001
,
2000
0000
0010
0000
3001
1000
0100
0000
,
0010
0000
0000
0100
0000
0000
0002
0000
0000
0000
0103
0000
1000
0000
0000
0000
,
0002
0000
0100
0000
1003
0001
0010
0000
,
0100
0000
0000
0010
0000
0000
2000
0000
0000
0000
3010
0000
0001
0000
0000
0000
,
1001
0100
1001
0100
,
1001
0010
1001
0010
,
0101
0010
1100
0010
,
1001
0000
0100
0000
0001
1000
1001
0000
,
1000
0000
0100
0010
0002
0000
0103
0010
,
0000
0002
0000
0000
0013
0000
0100
0001
,
1000
0000
0000
0000
0100
0000
0000
0000
0001
0000
0000
0100
0000
0000
2000
0000
,
0010
0000
3001
0000
1000
0001
0100
0000
,
0001
0100
0000
0010
0000
2000
0000
3100
,
0010
2000
0000
0000
3010
0000
0100
1000
,
0001
0100
0000
1000
0000
0100
0000
0002
,
0010
0000
0000
0000
1003
0000
0000
0000
0001
0000
1000
0000
0100
0000
0000
1000
,
0000
0100
1000
0000
0100
0001
0100
2000
,
0000
3100
0001
0000
0100
1000
0100
0002
,
0000
0103
1000
0000
0001
0100
1000
0200
,
0000
0000
0301
0000
0100
0000
0000
0000
0010
0000
0000
0100
0000
0000
0210
0000
,
0000
0000
0301
0000
1000
0000
0000
0000
1100
0000
0000
1100
0000
0000
2100
0000
,
0000
0000
3001
0000
1000
0000
0000
0000
0101
0000
0000
0101
0000
0000
0102
0000
,
0000
0000
1003
0000
0001
0000
0000
0000
1010
0000
0000
1010
0000
0000
2010
0000
,
0000
0000
3001
0000
1000
0000
0001
0000
0011
0000
0000
0011
0000
0000
0012
0000
,
1000
0100
1003
0001
,
1000
0100
0000
1000
1001
0000
0000
1000
,
0001
0100
0000
0001
1001
0000
0000
1000
,
0020
0100
0000
1030
0020
0100
0000
1030
,
0001
0010
0100
0000
1000
0000
1100
0000
,
1000
0002
0100
1003
1001
0000
0000
1000
,
0001
0000
2000
0000
0100
0000
3001
0000
1001
0000
0000
0100
0000
0000
0010
0000
,
0100
0200
1000
0000
0010
0000
0301
1000
,
0200
0001
0000
0010
0000
1300
0001
1000
,
0001
0100
0000
0001
1001
0000
0000
0001
,
1000
0000
0100
0000
0000
0000
1000
0000
1001
0000
0000
1000
0000
0000
0001
0000
,
0020
0100
0000
0031
0020
0100
0000
0031
,
1000
0010
0100
0000
0001
0000
0101
0000
,
0001
0000
2000
0000
0100
0000
3001
0000
1001
0000
0000
1000
0000
0000
0001
0000
,
1000
0000
0002
0000
0100
0000
1003
0000
1001
0000
0000
1001
0000
0000
1100
0000
,
2000
0010
0000
0001
3100
0000
0000
1000
,
0002
0010
0000
1000
0000
0103
0000
0001
,
1000
0000
0000
0100
0000
0000
1000
0000
0000
0001
0000
0000
0010
0000
0000
0001
,
0000
0000
1000
0000
0000
0001
0000
0000
0100
0000
0000
0010
0000
0000
1000
0000
,
0001
0000
0000
0010
0000
0000
0001
0000
0000
1000
0000
0000
0100
0000
0000
1000
,
0000
0001
1000
0010
0100
0001
1000
1000
,
0001
0000
0000
0100
0000
0000
1000
0000
0000
0100
0000
0000
0010
0000
0000
1000
,
0000
0000
0100
0000
0000
0001
0000
0000
0100
0000
0000
0010
0000
0000
0100
0000
,
1000
0000
0000
0010
0000
0000
0001
0000
0000
0010
0000
0000
0100
0000
0000
0001
,
0000
0000
1000
0000
0000
0100
0000
0000
0010
0000
0100
0000
1000
0000
0001
1000
;

//---------------dance-single - t7r----------------
#NOTES:
     dance-single:
     t7r:
     Hard:
     12:
     :
0000
0000
0000
0000
,
0000
0000
0000
0000
,
0000
0000
0000
0000
,
0002
0000
0100
0000
1003
0010
0100
0001
,
2000
0000
0000
0000
3100
0000
0010
0000
0100
0000
0000
1000
0001
0000
0100
0000
,
0020
0000
0001
0000
0130
0001
1000
0100
,
0020
0000
0130
2000
0000
3001
0100
0010
,
2000
0000
0100
0000
3001
0010
0100
0000
,
0020
0000
0000
0031
1000
0000
0020
0000
0000
0000
0130
0000
0001
0000
1000
0000
,
0200
0000
0000
0310
0100
0000
2000
0000
0000
0000
3010
0000
0100
0000
0001
0000
,
1000
0000
0100
0010
0000
0000
0001
0000
0100
0010
0000
0000
1001
0000
0000
0000
,
0001
0000
0100
0001
0000
0100
0001
0000
1000
0100
0000
1000
0100
0000
1000
0001
,
0000
1000
0001
0000
0100
0010
0000
0100
0010
0000
0100
0001
0000
2000
0000
3001
,
1000
0000
0100
0010
0000
0100
0010
0000
0001
1000
0000
0001
1000
0000
0010
1000
,
0000
0010
1000
0000
0010
0100
0000
0001
1000
0000
0100
0000
0010
0000
0001
0000
,
1000
0010
0100
0010
0002
0000
0013
0100
,
0001
0000
1000
0100
0000
1000
0000
0001
0100
0000
0001
0000
1000
0000
0001
0000
,
0010
0000
0100
0010
0000
0000
0001
0000
2000
0000
0000
3010
0001
0000
0020
0000
,
0100
0000
0000
0000
1030
0000
0001
0000
0100
0000
0001
0000
1000
0000
0001
1000
,
0001
0000
0010
0000
0100
0000
0020
0000
1000
0000
0230
0000
0010
0000
1300
0001
,
0000
0000
0100
0001
0000
1000
0000
0001
0010
0000
0001
0000
1000
0000
0020
0000
,
0130
0000
0010
1000
0000
0000
0001
0000
2000
0000
0000
3100
0010
0000
0200
0000
,
0001
0000
0010
0000
1300
0000
0001
0000
0010
0001
1000
0000
0001
0000
1000
0002
,
0000
0000
0103
0000
0010
0100
0000
0000
1000
0000
0100
0000
0001
0000
0020
1000
,
0000
0000
0130
0000
0010
0100
0000
0000
0001
0000
0100
0000
1000
0000
0020
0001
,
0000
0000
0130
0000
0010
0100
0000
0000
1000
0000
0100
0000
0001
0000
2000
0010
,
0000
0000
3100
0000
0010
0100
0000
0000
0001
0000
0100
1000
0000
0000
0100
0020
,
0000
0000
0031
0000
1100
0000
0000
0000
2010
0000
3001
0200
0000
0310
0200
0000
,
0010
0000
1300
0000
0100
0000
0001
0000
0020
0000
0130
0020
0000
1030
0020
0000
,
0001
0000
0130
0000
1000
0000
0001
0000
0200
0000
1300
0200
0000
0301
0200
0000
,
1000
0000
0310
0000
1000
0000
0100
0010
0001
0000
0000
1001
0000
0000
0110
0000
,
0010
0000
1000
0001
0000
0010
0001
0010
0000
0010
0000
0010
0001
1000
0001
0000
,
1000
0000
0001
0200
0000
0000
1000
0000
0310
0000
0000
0000
1001
0000
1000
0000
,
0001
0000
1000
0200
0000
0000
0001
0000
0310
0000
0000
0000
1001
0000
0001
0000
,
1000
0000
0001
0020
0000
0000
1000
0000
0130
0000
0000
0000
1001
0000
1000
0000
,
0001
0000
1000
0020
0000
0000
0001
0000
0130
0000
0001
1000
0000
0100
1000
0001
,
1000
0000
0100
0020
0000
0000
1000
0000
0130
0000
0000
0000
1100
0000
1000
0000
,
0001
0000
0100
0020
0000
0000
0001
0000
0130
0000
0000
1001
0000
0000
1010
0000
,
1000
0000
0010
0200
0000
0000
1000
0000
0310
0000
0000
0000
1010
0000
1000
0000
,
0001
0000
0010
0200
0000
0000
0001
0000
0310
0001
1000
0010
0100
0001
1000
0001
,
1000
0000
1200
0000
0010
0000
1300
0001
0100
0000
0000
0001
2000
0000
0100
0000
,
3001
0000
0201
0000
0010
0000
0301
1000
0010
0000
0000
1010
0000
0000
1001
0000
,
1000
0000
2100
0000
0001
0000
3010
0100
0002
0000
0010
0000
1003
0000
0100
0010
,
0001
0000
0201
0000
1000
0000
0310
0000
1000
0000
0001
1000
0000
0100
0010
0000
,
0100
0000
1200
0000
0010
0000
1300
0010
0100
0000
1000
0200
0000
0000
0301
0000
,
0010
0000
0021
0000
0100
0000
0031
0100
0010
0000
0000
0110
0000
0000
1001
0000
,
1000
0000
1020
0000
0001
0000
0130
0010
1000
0000
0100
0010
0000
0000
0100
0000
,
0001
0000
0100
1000
0000
0001
0000
0100
0010
0100
1000
0000
0100
0010
1000
0001
,
1000
0000
0100
0001
0000
0100
0010
0000
0100
0001
0000
0100
0010
0000
0001
1000
,
0000
0001
0100
0000
0010
0100
0000
1000
0100
0000
0010
0100
0000
0001
1000
0001
,
0010
0000
1000
0010
0000
0100
0010
0000
0001
0010
0000
0100
0010
0000
1000
0010
,
0000
0001
0100
0000
1000
0100
0000
0010
0100
0000
0001
0100
0001
1000
0001
1000
,
0001
0000
0100
1000
0000
0001
0010
0000
0100
1000
0000
0001
0010
0000
1000
0100
,
0000
0010
1000
0000
0001
0100
0000
0010
1000
0000
0001
0100
0000
0100
0010
0001
,
1000
0000
0010
0001
0000
1000
0100
0000
0010
0001
0000
1000
0100
0000
0001
0010
,
0000
0100
0001
0000
1000
0010
0000
0100
0010
0001
0100
0010
1000
0100
1000
0001
;

//---------------dance-single - t7r----------------
#NOTES:
     dance-single:
     t7r:
     Challenge:
     18:
     :
0000
0000
0000
0000
,
0000
0000
0000
0000
,
0000
0000
0000
0000
,
1000
0000
0100
0010
0000
0100
0000
1000
0000
0100
0010
0100
1000
0100
0000
0010
,
0001
0100
0100
0010
0100
0001
0000
1000
0001
0000
0100
0010
0000
1000
0001
1000
,
0001
0000
0100
0010
0000
0100
0000
0001
0000
0100
0010
0100
0001
0100
0000
0010
,
0100
0001
0000
0100
0010
1000
0000
0001
1000
0100
1000
1000
0000
0001
0100
0010
,
1000
0000
0010
0100
0000
0010
0000
1000
0000
0010
0100
0010
1000
0010
0000
0100
,
0010
1000
0010
0010
0100
0010
0000
1000
0001
0100
0100
0010
0000
1000
0001
1000
,
0001
0000
0000
0000
0010
0000
0100
0000
0000
0000
0010
0000
0000
0000
0010
0000
1000
0000
0010
0000
0100
0000
0010
0000
0001
0000
0010
0000
0000
0000
0010
0001
,
1000
0000
0010
0000
1000
0000
0010
0000
1000
0000
0010
0000
0100
0000
0010
0000
0100
0000
0010
0000
0100
0000
0001
0000
0100
0000
0001
0000
0100
0000
0001
0000
0010
0000
0100
0000
0010
0000
0100
0000
1000
0000
0001
0000
1000
0000
0001
0000
0100
0010
0000
0000
0000
0000
0000
0000
0000
0000
0000
0000
0000
0000
0000
0000
,
2000
0000
0100
3002
0000
0100
2003
0000
0100
3002
0000
0100
2003
0000
0100
3002
,
0000
0100
2003
0000
0100
3002
0000
0100
2003
0000
0100
3002
0000
1003
0010
0001
,
2000
0000
0100
3002
0000
1000
0023
0000
0001
0230
0000
1000
0320
0000
0001
0230
,
0000
0000
0010
0000
0302
0000
0000
0000
0010
0000
2003
0000
0000
0000
0010
0000
3001
0000
0100
0000
0001
0000
0010
0000
0001
0000
1000
0000
0001
1000
0001
1000
,
0001
0010
0100
0010
0000
0001
0100
0010
0100
0001
0100
0010
1000
0100
0100
0100
,
1000
0010
0100
0010
0000
0001
0010
0100
0010
1000
0100
0010
0001
1000
0200
0010
,
1300
0100
0010
0100
0000
1000
0010
0100
0010
1000
0010
0100
0001
0010
0010
0010
,
0001
0000
0100
0000
0010
0000
0100
0000
0000
0000
1000
0000
0100
0000
0010
0000
0100
0000
0001
0000
0010
0000
0100
0000
1000
0000
0001
0000
1000
0010
1000
0010
,
1000
0100
0010
0100
0000
0001
0100
0010
0100
1000
0001
0100
0001
1000
1000
1000
,
0001
0100
0010
0100
0000
1000
0100
0010
0100
0001
1000
0100
0010
0001
0200
0010
,
0301
0010
0100
0010
0000
1000
0010
0100
0010
0001
1000
0010
0100
0001
0001
0001
,
1000
0000
0001
0100
0010
0000
1000
0010
1000
0001
0100
0010
1000
0100
0010
0200
,
0000
0301
0100
0010
1000
0001
0100
1000
0001
0100
0010
0100
1000
0100
0010
0200
,
0000
0000
1300
0000
0100
0000
0010
0000
0100
0000
0001
0000
1000
0000
0010
0000
1000
0000
0100
0000
1000
0001
1000
0001
1000
0000
0010
0000
0100
0000
0002
0000
,
0000
0013
1000
0001
0100
1000
0010
0100
0001
0100
1000
0100
0010
0100
1000
0200
,
0000
0000
0310
0000
1001
0000
0000
0000
0100
0000
1001
0000
0010
0000
0000
0000
0110
0000
0000
0000
0100
0000
0001
1000
0010
0000
0000
0000
0110
0000
0002
0000
,
0000
1003
0100
0010
0100
1000
0001
0100
0020
0031
1000
0200
0301
0010
2000
3002
,
0000
0000
0103
0000
1000
0010
0100
0010
1000
0000
0100
0000
0010
0001
0010
0001
1000
0000
0100
0000
0100
0000
0100
0000
0010
0000
0100
0000
0100
0000
0002
0000
,
0000
0103
0010
0100
0001
0100
0010
0100
2000
3010
0001
1000
0002
0013
1000
0002
,
0000
0000
1003
0000
0010
0000
0010
0000
0100
0000
0010
0000
0100
0001
0100
0001
1000
0000
0000
0000
0000
0001
0100
0000
0000
0000
0000
1000
0010
0000
0000
0000
,
1000
0001
0010
1000
0001
1000
0010
0001
0100
0010
0100
0001
1000
0001
1000
0001
,
1001
1200
0001
0310
0011
0000
0101
0010
,
1001
0000
0201
0000
1000
0000
0310
0000
1010
0000
1000
0010
0100
0001
1000
0001
,
1001
0000
0021
0000
1000
0000
0130
1000
0020
0000
0001
0000
0130
0000
2010
0000
,
3200
0000
0001
0000
0320
0000
1000
0000
0130
0000
1000
0001
0100
0010
0100
0100
,
1001
1020
0001
0130
0101
0000
0011
0100
,
1001
0000
0000
0000
0021
0000
0000
0000
1000
0000
0000
0000
0130
0000
1000
0010
0200
0000
0000
0000
1000
0000
0320
0000
0000
0000
0001
0000
0130
0000
0001
0000
,
1001
0000
1200
0000
0001
0000
0310
0100
2000
0000
0010
0000
3001
0000
1001
0000
,
1000
0000
0000
0000
1010
0000
0000
0000
0010
0000
0000
0000
0100
0000
0000
0000
0001
1000
0001
1000
0001
0000
1000
0000
0001
0000
0100
0000
0010
0000
1000
0000
,
1001
0000
1200
0000
0001
0000
1300
0100
1010
0000
1000
0001
0100
0000
0010
0000
,
1001
0000
0000
0000
0201
0000
0000
0000
1000
0000
0000
0000
0301
1000
0100
1000
0001
0000
0000
0000
1000
0000
0011
0000
0000
0000
1000
0000
0101
0000
1000
0000
,
1001
0000
0021
0000
0100
0000
1030
0010
0002
0000
0100
0000
1003
0000
2100
0000
,
3020
0000
0031
1000
0200
0000
0310
1000
0200
0000
0301
0100
1000
0000
1010
0000
,
0001
0000
0201
0000
1000
0000
0301
0100
0011
0000
0001
1000
0100
0000
0010
0000
,
1001
0000
0000
0000
1200
0000
0000
0000
0001
0000
0000
0000
1300
0001
0100
0001
1000
0000
0000
0000
0001
0000
1010
0000
0000
0000
0001
0000
1100
0000
0001
0000
,
1001
0000
1020
0000
0100
0000
0031
0010
2000
0000
0100
0000
3001
0000
0102
0000
,
0023
0000
1030
0001
0100
0010
0001
1000
0010
0100
0100
0001
1000
0001
1000
1000
,
0002
0000
0100
2003
0000
0100
3002
0000
0100
2003
0000
0100
3002
0000
0010
2003
,
0000
0010
3002
0000
0010
2003
0000
0010
3002
0000
0010
2003
0000
3001
0010
1000
,
0002
0000
0100
2003
0000
0001
3020
0000
1000
0230
0000
0001
0320
0000
1000
0230
,
0000
0010
2300
0000
0010
3002
0000
0010
1003
0000
1001
0001
0100
0010
0110
0110
,
0001
0010
0011
0011
0000
1001
1001
0000
1100
1100
0000
0110
0110
0000
0011
0011
,
0000
0101
0101
0000
0110
0110
0000
1010
1010
0000
0110
0110
0000
1001
0110
0010
,
1001
0001
0101
1001
1000
1100
1001
1000
1001
0011
0001
1001
1010
1000
1001
0101
,
0100
0000
0000
0000
0110
0000
0000
0000
1010
0000
0000
0000
1000
0000
0000
0000
1100
0000
0000
0000
0110
0000
0000
0000
0010
0000
0001
0000
1000
0000
0010
0000
1000
0001
0000
0000
0100
0000
0000
0000
1001
0000
0000
0000
0100
0000
0000
0000
0110
0000
0000
0000
0010
0000
0000
0000
1010
0000
0000
0000
1001
0000
0000
0000
;

//---------------dance-double - t7r----------------
#NOTES:
     dance-double:
     t7r:
     Easy:
     5:
     :
00000000
00000000
00000000
00000000
,
00000000
00000000
00000000
00000000
,
00000000
00000000
00000000
00000000
,
20000000
00000000
31000000
00000000
,
00100000
00000000
00001000
00000000
,
00020000
00000000
00030100
00000000
,
00001000
00000000
00000001
00000000
,
00002000
00000000
00003010
00000000
,
00010000
00000000
00001000
00000000
,
00200000
00000000
00310000
00000000
,
10000000
01000000
00010000
00000000
,
00011000
00000000
00000100
00000000
,
00000010
00000000
00000001
00000000
,
00000100
00000000
00001000
00000000
,
00010000
00000000
01000000
00000000
,
10000000
00100000
10000000
00000000
,
00010000
00000000
00100000
00000000
,
00001000
00010000
00001000
00000000
,
00010000
00000000
00000010
00000000
,
00001000
00000100
00000020
00001000
,
00000130
00000000
00001000
00000000
,
00000001
00000100
00001000
00000000
,
00020000
00001000
00030010
00000000
,
00010000
00000000
00011000
00000000
,
01000000
00000000
10010000
00000000
,
10000000
00000000
11000000
00000000
,
00100000
00001000
00010000
00000000
,
00001000
00011000
00000000
00010010
,
00000000
00001010
00000000
00001001
,
00000000
00001100
00000000
00010100
,
00000100
00010000
00001000
01000000
,
00010000
00000000
10000000
00100000
,
00010000
00000000
00011000
00000000
,
00001000
00000000
01010000
00000000
,
00100000
00000000
00001000
00000000
,
00010000
00000100
00001000
00000000
,
00001001
00000000
00000001
00000000
,
00000100
00000000
00001000
00010000
,
00001000
00000000
01010000
00000000
,
00100000
00000000
10010000
00000000
,
10000000
01000000
00100000
00000000
,
00001000
00010000
00000010
00000000
,
00002000
00003000
00000002
00000003
,
00000100
00001000
00010000
00000000
,
00000200
00001000
00010300
00000000
,
00002000
00010000
01003000
00000000
,
00100000
00000000
10010000
00000000
,
10000000
01000000
00010000
00001000
,
00010000
00000000
00000100
00000000
,
00001000
00000001
00000100
00000000
,
00001000
00000000
01000000
00000000
,
00010000
10000000
00100000
00000000
,
00010000
00000000
00001000
00000000
,
00000010
00000100
00001000
00001000
,
00000001
00000000
00000010
00000000
,
00001000
00010000
00100000
10000000
;

//---------------dance-double - t7r----------------
#NOTES:
     dance-double:
     t7r:
     Medium:
     8:
     :
00000000
00000000
00000000
00000000
,
00000000
00000000
00000000
00000000
,
00000000
00000000
00000000
00000000
,
00020000
00000000
00001000
00000000
00030100
00001000
00000001
00000000
,
00000100
00000000
00000000
00000000
00001000
00000000
00000000
00000000
00010000
00000000
00000000
01000000
00000000
00000000
10000000
00000000
,
00020000
00000000
01000000
00000000
10030000
00100000
00010000
00000000
,
00001000
00000010
00000001
00000100
,
00002000
00000000
00010000
00000000
01003000
00010000
10000000
00000000
,
01000000
00000000
00000000
00010000
00000000
00000000
00001000
00000000
00000000
00000000
00000100
00000000
00000001
00000000
00000000
00000000
,
00002000
00000000
00000100
00000000
00003001
00000010
00001000
00000000
,
00010000
00000000
00000000
00100000
00000000
00000000
10000000
00000000
00000000
00000000
01000000
00000000
00100000
00000000
00000000
00000000
,
10010000
00000000
00110000
00000000
,
00011000
00000000
00001010
00000000
,
00001001
00000000
00001100
00000000
,
00011000
00000000
00000000
00000000
00001000
01000000
00010000
00000000
,
10000000
00000000
01000000
00100000
00020000
00000000
01030000
00002000
,
00000000
00013000
00000000
00000000
00000100
00001000
00000001
00000100
,
00000010
00000000
00000000
00000000
00001000
00000000
00000000
00000000
00000001
00000000
00000000
00000010
00000000
00000000
00000200
00000000
,
00000000
00010300
00001000
00000000
01000000
00010000
10000000
00000000
,
00100000
00020000
00000000
00032000
00000000
00003200
00000301
00002000
,
00000000
00003200
00000000
00010300
00001000
00000000
00010000
01000000
,
00000000
00100000
00000000
00001000
00000000
00010000
00000000
00000020
,
00000100
00000000
00001030
00000001
00000010
00000100
00010000
00002000
,
00000000
01003000
00010000
00000000
10000000
01000000
00010000
00002000
,
00000000
00013000
00000100
00000000
00001000
00000001
00000100
00002000
,
00000000
00013000
00001000
00000000
00010000
01000000
10000000
00200000
,
00000000
00000000
00310000
00000000
00001000
00000000
00000000
00000000
00011000
00000000
00000000
00010010
00000000
00000000
00000210
00000000
,
00000000
00000000
00000301
00000000
00001000
00000000
00000000
00000000
00000001
00000000
00000000
00000010
00000000
00000000
00002000
00000000
,
00000000
00000000
00013000
00000000
00001000
00000000
00000000
00000000
00010000
00000000
00000000
00100000
00000000
00000000
20000000
00000000
,
00000000
00000000
30010000
00000000
10000000
00000000
00000000
00000000
01000000
00000000
00000000
00010000
00000000
00000000
00002000
00000000
,
00000000
00000000
00003100
00000000
00000001
00000000
00001000
00000000
00000100
00000000
00000000
00010100
00000000
00000000
00012000
00000000
,
00010000
00000000
01003000
00000000
00010000
10000000
01000000
00000000
,
10000000
00100000
00000000
01000000
01010000
00000000
00000000
10000000
,
01000000
00010000
00000000
00001000
00011000
00000000
00000000
00000100
,
00002000
00000000
00003000
00000010
00000200
00000000
00000300
00000001
,
00000020
00000000
00002030
00000000
00023000
00000000
00030100
00001000
,
00000001
00000010
00000000
00000100
00001100
00000000
00000000
00000001
,
00000100
00000000
00001000
00000000
00000000
00000000
00010000
00000000
00011000
00000000
00000000
01001000
00000000
00000000
01100000
00000000
,
01000000
00020000
10000000
00000000
01030000
00000000
00000000
00010000
,
10000000
00000000
00000000
01000000
00000000
00000000
00010000
00000000
00000000
00000000
00001000
00000000
00000000
00000000
00000010
00000000
,
00000002
00000100
00001003
00000001
00001001
00000000
00000000
00001000
,
00000100
00000000
00020000
00000000
00000100
00000000
00031000
00000000
00011000
00000000
00000000
01001000
00000000
00000000
01100000
00000000
,
00020000
00000000
00030000
10000000
02000000
00000000
03000000
00010000
,
00001000
00000000
01000000
00000000
00100000
00000000
00000000
00000000
00010000
00000000
00000000
00001000
00000000
00000000
00000100
00000000
,
00000002
00000000
00000010
00000000
00001003
00000000
00000001
00000000
00001001
00000000
00000000
00001000
00000000
00000000
00000010
00000000
,
00000100
00000000
00000020
00000000
00001000
00000000
00010030
00000000
00011000
00000000
00000000
00101000
00000000
00000000
10010000
00000000
,
20000000
00100000
30010000
10000000
10010000
00000000
00000000
10000000
,
00100000
00010000
00000000
00001000
00000000
00000100
00000000
00000001
,
00000010
00000000
00000000
00000001
00000000
00000000
00000100
00000000
00000000
00000010
00000000
00000000
00001000
00000000
00000000
00000100
,
00000000
00000000
00010000
00000000
00000000
00001000
00000000
00000000
00100000
00000000
00000000
00010000
00000000
00000000
10000000
00000000
,
00010000
00000000
00000000
10000000
00000000
00000000
00100000
00000000
00000000
01000000
00000000
00000000
00010000
00000000
00000000
00100000
,
00000000
00000000
00001000
00000000
00000000
00010000
00000000
00000000
00000010
00000000
00000100
00000000
00000001
00000000
00000000
00000000
,
00001000
00000000
00000000
00000001
00000000
00000000
00000100
00000000
00000000
00001000
00000000
00000000
00010000
00000000
00000000
01000000
,
00000000
00000000
10000000
00000000
00000000
00010000
00000000
00000000
01000000
00000000
00000000
00010000
00000000
00000000
10000000
00000000
,
01000000
00000000
00000000
00010000
00000000
00000000
00001000
00000000
00000000
00000010
00000000
00000000
00000001
00000000
00000000
00000100
,
00000000
00000000
00001000
00000000
00000000
00010000
00000000
00000000
00100000
00000000
01000000
00000000
00010000
00000000
10000000
00010000
;

//---------------dance-double - t7r----------------
#NOTES:
     dance-double:
     t7r:
     Hard:
     13:
     :
00000000
00000000
00000000
00000000
,
00000000
00000000
00000000
00000000
,
00000000
00000000
00000000
00000000
,
00002000
00000000
00010000
00000000
01003000
00010000
10000000
01000000
,
00200000
00000000
00000000
00000000
00301000
00000000
00010000
00000000
00000010
00000000
00000000
00000100
00000001
00000000
00002000
00000000
,
00000100
00000000
00003001
00000000
00000010
00001000
00010000
00000100
,
00002000
00000000
00003001
00000200
00000000
00001300
00010000
00001000
,
02000000
00000000
03100000
10000000
00010000
00100000
01000000
10000000
,
00200000
00000000
00000000
00310000
00000000
00000000
00001000
00000000
00000000
00000000
00000100
00000000
00000001
00000000
00001000
00000000
,
00000200
00000000
00010300
00002000
00000000
01003000
00010000
10000000
,
00010000
00000000
00100000
00001000
00000000
00000000
00010000
00000000
00000100
00010000
00000000
00000000
00011000
00000000
00000000
00000000
,
00000100
00000000
00001000
00000001
00000000
00001000
00000001
00000000
00000100
00000001
00000000
00001000
00000001
00000000
00000010
00000001
,
00000000
00000100
00001000
00000000
00010000
00001000
00000000
00010000
00001000
00000000
01000000
00010000
00000000
20000000
00000000
30010000
,
10000000
00000000
01000000
00100000
00000000
01000000
00100000
00000000
00010000
10000000
00000000
00010000
10000000
00000000
00100000
00010000
,
00000000
00001000
00010000
00000000
00001000
00000010
00000000
00000001
00000100
00000000
00001000
00000000
00010000
00001000
00010000
00000000
,
00001000
01000000
00100000
01000000
20000000
00000000
31000000
00010000
,
10000000
00000000
01000000
00100000
00000000
00000000
00001000
00000000
00010000
00000000
00000100
00000000
00001000
00000000
00000100
00000000
,
00000002
00000000
00000000
00000000
00000103
00000000
00000010
00000000
00000002
00000000
00000000
00000103
00001000
00000000
00020000
00000000
,
00000100
00000000
00031000
01000000
00010000
10000000
00100000
00010000
,
00001000
00020000
01000000
00032000
00000100
00023000
00100000
00031000
,
00000010
00000001
00000100
00001000
00010000
00100000
10000000
01000000
,
00100000
00000000
00010000
10000000
00000000
00000000
00200000
00000000
00000000
00000000
00310000
00000000
00001000
00000000
00010000
00000010
,
00000000
00000000
00001000
00000000
00000001
00000000
00000010
00000000
00001000
00010000
00001000
00000000
00010000
00000000
00001000
02000000
,
00000000
00000000
03010000
00000000
10000000
00000000
01000000
00000000
00010000
00000000
00001000
00000000
00000100
00000000
00000002
00000010
,
00000000
00000000
00001003
00000000
00000001
00000000
00000100
00000000
00001000
00000000
00010000
00000000
01000000
00000000
20000000
00100000
,
00000000
00000000
30010000
00000000
10000000
00000000
00100000
00000000
00010000
00000000
00001000
00000000
00000010
00000000
00000002
00000100
,
00000000
00000000
00001003
00000000
00000001
00000010
00000000
00000000
00001000
00000000
00000000
00010000
00001000
00000000
00020000
00100000
,
00000000
00000000
00031000
00000000
01000000
00000000
00000000
00000000
00011000
00000000
00000000
10010000
00000000
00000000
00021000
00000000
,
00000000
00000000
00030100
00000000
00001000
00000000
00000001
00000000
00001001
00000000
00000000
00011000
00000000
00000000
20010000
00000000
,
00000000
00000000
31000000
00000000
00100000
00000000
00000000
00000000
00011000
00000000
00000000
00001001
00000000
00000000
00012000
00000000
,
00000000
00000000
01003000
00000000
00100000
00000000
10000000
01000000
00100000
00000000
00000000
00101000
00000000
00000000
00011000
00000000
,
00001000
00000000
00000100
00000001
00000000
00000010
00000000
00001000
00000000
00010000
00000000
01000000
10000000
00010000
10000000
00010000
,
10000000
00000000
00010000
02000000
00000000
00000000
10000000
00000000
03100000
00000000
00000000
00000000
10000000
00000000
01000000
00000000
,
00010000
00000000
00001000
00000020
00000000
00000000
00000100
00000000
00000031
00000000
00000000
00000000
00000100
00000000
00001000
00000000
,
00010000
00000000
00001000
02000000
00000000
00000000
00010000
00000000
03100000
00000000
00000000
00000000
10000000
00000000
01000000
00000000
,
01100000
00000000
00100000
00000000
00001000
00000000
00000000
00000000
00011000
00000000
00000000
00001000
00000100
00000000
00000001
00001000
,
00000001
00000000
00001000
00000200
00000000
00000000
00000001
00000000
00000310
00000000
00000000
00000000
00000001
00000000
00000100
00000000
,
00001000
00000000
00010000
00200000
00000000
00000000
01000000
00000000
10300000
00000000
00000000
01000000
00010000
00000000
00011000
00000000
,
00001000
00000000
00010000
02000000
00000000
00000000
00010000
00000000
03100000
00000000
00000000
00000000
00001000
00000000
00010000
00000000
,
00001000
00000000
00000100
00000000
00000010
00000000
00001000
00000000
00000100
00001000
00000100
00010000
00001000
00000000
00010000
00000000
,
00011000
00000000
00020000
00000000
01000000
00000000
10030000
00100000
00010000
00000000
00000000
01000000
00001000
00000000
00010000
00000000
,
00011000
00000000
00002000
00000000
00000100
00000000
00003001
00000010
00001000
00000000
00000000
00000100
00010000
00000000
00001000
00000000
,
00011000
00000000
00002000
00000000
01000000
00000000
00103000
00010000
20000000
00000000
00100000
00000000
00010000
00000000
31000000
00000000
,
20000000
00000000
30100000
00000000
00020000
00000000
00031000
00000100
00000020
00000000
00000130
00000001
00001000
00000000
00000100
00000000
,
00010100
00000000
00020000
00000000
00100000
00000000
10030000
01000000
00010000
00000000
00000000
00100000
00001000
00000000
00010000
00000000
,
00011000
00000000
00002000
00000000
00000010
00000000
00003001
00000100
00001000
00000000
00000000
00000010
00010000
00000000
00000100
00000000
,
00010000
00000000
00002000
00000000
00010000
00000000
01003000
00100000
10000000
00000000
00000000
00000000
01000000
00000000
00010000
00000000
,
00001000
00000000
00000100
00000000
00000001
00000010
00000100
00000000
00001000
00000001
00000100
00000000
00001000
00010000
00001000
00010000
,
00001000
00000000
01000000
00010000
00000000
01000000
00010000
00000000
10000000
01000000
00000000
10000000
01000000
00000000
00100000
00001000
,
00000000
00010000
00001000
00000000
00010000
00000010
00000000
00001000
00000001
00000000
00000100
00001000
00000000
00010000
00001000
00010000
,
00001000
00000000
00010000
01000000
00000000
00010000
01000000
00000000
10000000
00100000
00000000
10000000
00100000
00000000
00010000
00001000
,
00000000
00010000
00001000
00000000
00000010
00000001
00000000
00000010
00000001
00000000
00000100
00001000
00000000
00010000
00001000
00010000
,
00001000
00000000
00010000
01000000
00000000
00010000
00001000
00000000
00000100
00000010
00000000
00000100
00000001
00000000
00000010
00001000
,
00000000
00010000
00001000
00000000
00010000
00100000
00000000
01000000
00100000
00000000
10000000
00100000
00000000
00010000
00100000
01000000
,
00100000
00000000
10000000
01000000
00000000
00010000
00001000
00000000
00000100
00000001
00000000
00001000
00000001
00000000
00000010
00001000
,
00000000
00010000
00001000
00000000
00010000
01000000
00000000
10000000
00100000
00000000
00010000
00001000
00010000
00000100
00001000
00000001
;

//---------------dance-double - t7r----------------
#NOTES:
     dance-double:
     t7r:
     Challenge:
     18:
     :
00000000
00000000
00000000
00000000
,
00000000
00000000
00000000
00000000
,
00000000
00000000
00000000
00000000
,
00010000
00000000
00000100
00001000
00000000
00000001
00000000
00000100
00000000
00001000
00010000
00000100
00010000
00001000
00000000
01000000
,
00010000
01000000
01000000
00100000
10000000
00010000
00000000
10000000
01000000
00000000
00010000
00000100
00000000
00010000
00001000
00010000
,
00001000
00000000
00000010
00000100
00000000
00000010
00000000
00000001
00000000
00000100
00000010
00000100
00000001
00000100
00000000
00001000
,
00010000
01000000
00000000
00100000
00010000
10000000
00000000
00100000
00010000
00001000
00010000
00010000
00000000
00001000
00010000
00000100
,
00001000
00000000
00000010
00000100
00000000
00000001
00000000
00000010
00000000
00000100
00000010
00000100
00001000
00000100
00000000
00010000
,
00001000
01000000
00100000
00100000
10000000
00010000
00000000
00100000
00001000
00010000
00010000
00001000
00000000
00010000
00000010
00001000
,
00000001
00000000
00000000
00000000
00000100
00000000
00001000
00000000
00000000
00000000
00010000
00000000
00000000
00000000
00001000
00000000
00100000
00000000
00010000
00000000
10000000
00000000
00100000
00000000
00010000
00000000
00001000
00000000
00000000
00000000
00010000
00000100
,
00010000
00001000
00010000
00001000
00010000
00000000
00001000
01000000
00001000
01000000
00001000
00000000
01000000
00100000
01000000
00100000
01000000
00000000
00100000
00000000
10000000
00000000
00010000
01000000
00001000
00000000
00000000
00000000
00000000
00000000
00000000
00000000
,
00020000
00000000
00031000
00000200
00000000
00000310
00002000
00000000
00003100
00000020
00000000
00001030
00020000
00000000
01030000
00200000
,
00000000
00310000
02000000
00000000
03100000
00020000
00000000
00031000
00000200
00000000
00000310
00002000
00000000
00003001
00000010
00001000
,
00020000
00000000
00001000
00030200
00000000
00001000
00020300
00000000
00001000
00030200
00000000
00001000
00020300
00000000
00000100
00032000
,
00000000
00000000
00010000
00000000
02003000
00000000
00000000
00000000
00010000
00000000
03200000
00000000
00000000
00000000
01000000
00000000
10300000
00000000
01000000
00000000
00010000
00000000
00001000
00000000
01000000
00000000
00001000
00000000
00010000
00001000
00010000
00001000
,
00010000
00000100
00001000
00000001
00000000
00000100
00000010
00001000
00000001
00000010
00000100
00010000
00001000
00010000
00010000
00010000
,
00001000
01000000
00100000
10000000
00000000
00010000
00100000
01000000
10000000
00100000
01000000
00010000
10000000
01000000
00020000
00000000
,
00031000
00100000
00010000
10000000
00000000
00100000
01000000
00010000
10000000
01000000
00100000
00001000
00010000
00001000
00001000
00001000
,
00010000
00000000
00000010
00000000
00000100
00000000
00000001
00000000
00000000
00000000
00001000
00000000
00000100
00000000
00000010
00000000
00000001
00000000
00000100
00000000
00000010
00000000
00001000
00000000
00000001
00000000
00000010
00000000
00001000
00000000
00010000
00001000
,
00010000
00001000
00000010
00000100
00000000
00001000
00000010
00000100
00000001
00001000
00000100
00010000
00001000
01000000
01000000
01000000
,
00010000
00100000
01000000
10000000
00000000
00100000
01000000
00010000
10000000
01000000
00100000
00001000
00010000
00000000
00002000
00000000
,
00003100
00000000
00000001
00001000
00000200
00000000
00020300
00000000
00031000
00000000
00010000
00000000
01000000
10000000
10000000
10000000
,
00100000
00000000
01000000
00010000
10000000
00000000
01000000
00010000
00001000
00001000
00010000
00000100
00001000
00000001
00000100
00000020
,
00000000
00000130
00001000
00000100
00000001
00001000
00000100
00010000
00002000
00000000
00023000
00000000
02030000
00000000
13000000
00200000
,
01000000
00000000
10300000
01000000
00010000
01000000
00100000
00001000
00020000
00000000
00032000
00000000
00003200
00000000
00000302
00000010
,
00000000
00001003
00000001
00000100
00001000
00000100
00000010
00000100
00002000
00000000
00023000
00000000
02030000
00000000
23000000
00100000
,
00000000
00000000
30010000
00000000
10000000
00000000
00000000
00000000
00010000
00000000
00001000
00000000
00000010
00000000
00000000
00000000
00001000
00000000
00010000
00000000
00100000
00000000
00010000
10000000
01000000
00000000
00000000
00000000
01100000
00000000
00020000
00000000
,
00000000
10030000
01000000
00010000
00001000
01000000
00100000
00010000
00002000
00003100
00000001
00000020
00001030
00000001
00000200
00000010
,
00000000
00000000
00001300
00000000
00000001
00000000
00000100
00000010
00001000
00000000
00000100
00000000
00000010
00000000
00001000
00000000
00020000
00000000
01030000
00000000
10000000
00000000
00200000
00000000
00310000
00000000
10000000
00000000
02000000
00000000
00100000
00000000
,
00000000
03010000
10000000
01000000
00100000
01000000
00010000
00001000
00000200
00000301
00000010
00002000
00003001
00000100
00002000
00000010
,
00000000
00000000
00003001
00000000
00000100
00000000
00000100
00000000
00000010
00000000
00001000
00000000
00000100
00000000
00010000
00001000
00010000
00000000
00000000
00000000
00000000
00000000
00000100
00000000
00000000
00000000
00000000
00000000
01000000
00000000
00000000
00000000
,
00001000
00100000
00010000
10000000
00100000
00010000
00001000
00000010
00000100
00000010
00000001
00000100
00001000
00010000
00001000
00010000
,
00011000
00020000
01000000
00031000
00011000
00000000
00010100
00010000
,
00011000
00000000
00002000
00000000
00000100
00000000
00013000
00000000
00011000
00000000
00001000
01000000
00010000
10000000
00010000
10000000
,
10010000
20000000
01000000
30010000
00210000
00010000
00301000
00011000
,
00010200
00000000
00000010
00000000
00002300
00000000
00000010
00000000
00003001
00000000
00000100
00001000
00010000
00000100
00010000
00001000
,
00011000
00020000
00100000
00031000
00011000
00000000
00010010
00010000
,
00011000
00000000
00000000
00000000
00002000
00000000
00000000
00000000
00000010
00000000
00000000
00000000
00013000
00000000
00001000
00010000
00000200
00000000
00000000
00000000
00000001
00000000
00000320
00000000
00000000
00000000
00000100
00000000
00000031
00000000
00000100
00000000
,
00001000
00021000
00100000
00031000
00011000
00020000
00001000
01030000
,
10000000
00000000
00000000
00000000
11000000
00000000
00000000
00000000
10000000
00000000
00000000
00000000
00100000
00000000
00000000
00000000
00010000
00001000
00010000
00001000
00010000
00000000
00001000
00000000
00000010
00000000
00000100
00000000
00001000
00000000
00001000
00000000
,
00000001
00000100
00001000
00010000
01000000
10000000
00010000
01000000
01100000
00000000
01000000
00010000
10000000
00000000
01010000
00000000
,
10000000
00000000
01000000
00000000
00010000
00000000
00001000
00000000
00000100
00000000
00000001
00000000
00001000
00000100
00001000
00000001
00001000
00000000
00000000
00000000
00000001
00000000
00001010
00000000
00000000
00000000
00000001
00000000
00001100
00000000
00000000
00000000
,
00001001
00000000
00000021
00000000
00000100
00000000
00001030
00010000
00200000
00000000
00010000
00000000
01300000
00000000
00010000
00001000
,
00000020
00000000
00001000
00000000
00000230
00000000
00000301
00000010
00000200
00000000
00001300
00000100
00010000
00000000
00011000
00000000
,
01000000
00000000
02010000
00000000
00100000
00000000
13000000
01000000
00010000
00000000
10000000
00010000
01000000
00000000
00001000
00000000
,
00010000
00000000
00000000
00000000
00021000
00000000
00000000
00000000
00000010
00000000
00000000
00000000
00030100
00000000
00001000
00000001
00000010
00000000
00000000
00000000
00000100
00000000
00011000
00000000
00000000
00000000
01000000
00000000
00011000
00000000
00000000
00000000
,
00101000
00000000
01200000
00000000
01000000
00000000
10300000
00100000
00020000
00000000
01000000
00000000
00031000
00000000
00001200
00000000
,
00000302
00000000
00000023
00000000
00001030
00000001
00000100
00000010
00000001
00000100
00000100
00001000
00010000
00001000
00010000
00010000
,
00000200
00000000
00001000
00020300
00000000
00001000
00030200
00000000
00001000
00020300
00000000
00001000
00030020
00000000
00001000
00020030
,
00000000
00001000
00030020
00000000
00001000
00020030
00000000
00001000
00030020
00000000
00001000
00020030
00000000
00031000
00000010
00000001
,
00000200
00000000
00001000
00000320
00000000
00001000
00020030
00000000
00001000
00030200
00000000
00001000
02000300
00000000
00100000
03020000
,
00000000
00100000
20030000
00000000
00010000
32000000
00000000
00010000
03200000
00000000
00010000
00301000
00010000
00001000
00000100
00000100
,
00000001
00000010
00000011
00000011
00000000
00001001
00001001
00000000
00001100
00001100
00000000
00010100
00010100
00000000
00011000
00011000
,
00000000
01001000
01001000
00000000
01100000
01100000
00000000
10100000
10100000
00000000
10010000
10010000
00000000
10000000
01000000
00010000
,
00011000
00001000
01001000
01010000
00000000
00001000
00011000
00010000
00010100
00001100
00000000
00010000
00011000
00001000
00101000
00110000
,
00000000
00000000
00000000
00000000
00010000
00000000
00000000
00000000
10010000
00000000
00000000
00000000
10000000
00000000
00000000
00000000
10100000
00000000
00000000
00000000
10010000
00000000
00000000
00000000
10000000
00000000
01000000
00000000
00100000
00000000
00010000
00000000
10000000
00100000
00000000
00000000
00010000
00000000
00000000
00000000
00001000
00000000
00000000
00000000
00000010
00000000
00000000
00000000
00000110
00000000
00000000
00000000
00001100
00000000
00000000
00000000
00010100
00000000
00000000
00000000
00011000
00000000
00000000
00000000
;
