#TITLE:Here to Stay;
#ARTIST:Korn;
#BANNER:Here to Stay.png;
#BACKGROUND:Here to Stay-bg.png;
#JACKET:Here to Stay-jacket.png;
#CDTITLE:./CDTITLES/NONE.PNG;
#MUSIC:Here to Stay.ogg;
#SAMPLESTART:50.4;
#SAMPLELENGTH:15;
#BPMS:0=100;

//---------------dance-single - t7r----------------
#NOTES:
     dance-single:
     t7r:
     Beginner:
     1:
     :
0000
0000
0000
0000
,
0000
0000
0000
0000
,
0000
0000
0000
0000
,
0000
0000
0000
0000
,
0000
0000
0000
0000
,
1000
0000
0000
0000
,
0001
0000
0000
0000
,
0100
0000
0000
0000
,
0010
0000
0000
0000
,
0000
1000
0000
1000
,
1000
0000
1000
0000
,
0000
0001
0000
0001
,
0001
0000
0001
0000
,
0000
0100
0000
0100
,
0100
0000
0100
0000
,
0000
0010
0000
0010
,
0010
0000
0010
0000
,
1000
0000
0100
0000
,
0010
0000
0001
0000
,
0100
0000
0010
0000
,
1000
1000
1000
0000
,
0001
0000
0000
0000
,
0010
0000
0000
0000
,
0100
0000
0000
0000
,
1000
0000
0001
0000
,
1000
0000
0000
0000
,
0010
0000
0000
0000
,
0100
0000
0000
0000
,
0001
0001
0001
0000
,
0100
0000
0000
0000
,
0010
0000
0010
0000
,
1000
0000
1000
0000
,
0100
0000
0100
0000
,
0010
0000
0000
0000
,
0010
0000
0000
0000
,
0001
0000
0000
0000
,
0001
0000
0000
0000
,
0100
0000
0000
0000
,
0100
0000
0000
0000
,
0100
0000
0000
0000
,
0100
0000
0000
0000
,
0100
0000
0100
0000
,
0100
0000
0100
0000
,
0100
0100
0100
0000
,
0100
0100
0100
0000
,
0010
0000
0000
0000
,
1000
0000
0000
0000
,
0001
0000
0000
0000
,
0010
0000
0100
0000
;

//---------------dance-single - t7r----------------
#NOTES:
     dance-single:
     t7r:
     Easy:
     4:
     :
0000
0000
0000
0000
,
0000
0000
0000
0000
,
0000
0000
0000
0000
,
0000
0000
0000
0000
,
0000
0000
0000
0000
,
1000
0002
1003
1000
,
0001
2000
3001
0001
,
0100
0020
0130
0100
,
0010
0200
0310
0010
,
1000
0100
0010
0010
,
0001
0100
0010
0010
,
1000
0001
0100
0100
,
0001
0000
0010
0100
,
1001
0001
0100
0100
,
0010
1000
0100
0100
,
0010
0001
1000
1000
,
0010
0000
0001
0100
,
1000
0000
0110
0000
,
0001
0000
0110
0000
,
1000
0000
1100
0000
,
0011
0011
0011
0000
,
2000
0000
3100
0000
,
0002
1000
0013
0000
,
2000
0000
3010
0000
,
0001
0100
1000
0100
,
0002
0003
0011
0000
,
2000
3000
1100
0000
,
0002
0003
0101
0000
,
1000
0100
0001
0100
,
2000
0000
0000
0000
,
3000
0000
0001
0001
,
0200
0300
0020
0030
,
1000
1000
0001
0001
,
0100
0000
1000
0000
,
0100
0000
0001
0000
,
0010
0000
1000
0000
,
0010
0000
0100
0010
,
0200
1000
0000
0301
,
0200
0010
0300
1001
,
0200
0010
0000
1300
,
0200
0001
0000
0310
,
1000
0200
0300
1001
,
0001
0200
0300
1001
,
1000
0200
0300
0011
,
0001
0200
0300
1010
,
1000
0001
0100
2000
,
3001
1000
0100
0002
,
1003
0001
0010
2000
,
3001
1000
0010
0002
,
0000
0000
0000
0000
,
0003
0000
0000
0000
;

//---------------dance-single - Karl with a K----------------
#NOTES:
     dance-single:
     Karl with a K:
     Medium:
     7:
     :
0000
0000
0000
0000
,
0000
0000
0000
0000
,
0000
0000
0000
0000
,
0000
0000
0000
0000
,
0000
0000
0000
0000
,
2000
0000
3020
0000
1030
0100
0010
0000
,
0002
0000
0023
0000
0031
0100
0001
0000
,
0002
0000
0023
0000
0031
0100
0010
0000
,
2000
0000
3020
0000
1030
0100
1000
0010
,
2010
0000
3020
0000
1030
0100
0010
0001
,
0002
0000
0203
0000
0310
0010
1000
1000
,
2000
0000
3002
0000
1003
1000
0100
0010
,
0020
0000
0032
0000
0103
0010
1000
0001
,
1002
0000
0023
0000
0031
0100
0010
1000
,
2000
0000
3200
0000
0310
0010
0001
0001
,
0002
0000
2003
0000
3001
0001
0100
0010
,
0020
0000
2030
0000
3010
0100
1000
0001
,
0020
0000
1030
1000
0001
0001
0100
0100
,
0010
0200
0000
0301
1000
1000
0100
0100
,
0020
0000
0031
0001
1000
1000
0100
0100
,
0010
0200
0000
1300
0001
0100
1000
0100
,
0020
0000
1030
0100
0020
0000
0031
0100
,
0020
0000
1030
0100
0010
0010
0200
0000
,
0320
0000
0031
0100
0020
0000
1030
0100
,
0020
0000
0031
0100
0020
0000
0031
1000
,
0200
0000
0310
1000
0200
0000
0310
0001
,
0200
0000
0310
1000
0100
0100
0020
0000
,
0230
0000
0310
0001
0200
0000
0310
1000
,
0200
0010
0310
0001
0200
0001
0301
1000
,
2002
0000
0000
0000
,
0000
0000
0000
3003
,
2000
0000
3200
0000
,
0320
0001
0032
1000
,
1003
0000
1000
0000
0000
1000
0000
0000
1000
0000
1000
0000
0000
0000
0000
0000
,
0001
0000
0001
0000
0000
0001
0000
0000
0001
0000
0001
0000
0100
0000
0020
0000
,
1000
0000
1000
0000
0000
1000
0000
0000
1000
0000
1030
0000
0000
0000
0000
0000
,
0001
0000
0001
0000
0000
0001
0000
0000
0001
0000
1000
0000
0101
0000
0000
0000
,
0201
0000
0010
0000
0001
0000
0310
1000
,
1200
0000
0010
0000
1000
0000
0320
0001
,
0230
0000
0010
0000
1000
0000
0310
0001
,
0201
0010
0001
0320
,
1030
0000
0010
0010
0100
0000
0001
0001
,
0100
0000
0010
0010
0100
0000
0010
1000
,
0100
0000
1000
1000
0100
0000
0010
0010
,
0100
0000
0001
0001
0100
0000
0001
0100
,
1000
0100
1000
0000
0001
0100
0000
0000
,
0001
0100
0001
0000
1000
0100
0000
0000
,
0100
0100
1000
0000
0001
0100
0000
0000
,
0100
0100
0001
0000
1000
0100
0000
0000
;

//---------------dance-single - t7r----------------
#NOTES:
     dance-single:
     t7r:
     Hard:
     9:
     :
0000
0000
0000
0000
,
0000
0000
0000
0000
,
0000
0000
0000
0000
,
0000
0000
0000
0000
,
0000
0000
0000
0000
,
2000
0001
3200
0000
1300
1000
0001
0100
,
0002
1000
0203
0000
0301
0001
1000
0100
,
2000
0001
3020
0000
1030
1000
0001
0010
,
0002
1000
0023
0000
0031
0001
1000
0010
,
1000
0100
1001
0000
0001
0100
0001
0010
,
0001
0100
1001
0000
0001
0010
0100
0100
,
1000
0010
0100
0000
1000
0100
0010
0100
,
0001
1000
0100
1000
0001
0010
0011
0000
,
0001
0100
1010
0000
0001
0100
0010
1000
,
1100
0000
0000
0000
0011
0000
0000
1000
0100
0000
1000
0000
0001
0000
0100
0000
,
0020
1000
0230
0000
0301
0001
1000
0001
,
0200
1000
0320
0000
0130
0001
1001
1001
,
2000
0000
0001
0000
3200
0000
0000
0000
1300
0100
1000
0000
0001
0000
1000
0000
,
0002
0000
1000
0000
0203
0000
0000
0000
0301
0100
0001
0000
1000
0000
0001
0000
,
2000
0000
0001
0000
3020
0000
0000
0000
1030
0010
1000
0000
0001
0000
1000
0000
,
1001
0000
0110
0000
1010
0010
0100
0001
,
2000
0100
0001
0000
3002
0100
1000
0000
,
2003
0000
0010
0000
0001
0000
0000
0000
3002
0000
0010
0000
1003
0001
0000
0000
,
2001
0100
0010
0000
3002
0100
0010
0000
,
1003
0100
0001
0010
1000
0100
0001
0010
,
1002
0100
0010
0000
2003
0100
0001
0000
,
3020
0000
0001
0000
0100
0000
0000
0000
1030
0000
0100
0000
1000
0001
0000
0000
,
0210
1000
0010
0000
0302
0010
0100
0000
,
1003
0000
0100
0000
0001
0000
0010
0000
1000
0000
0100
0000
0001
1000
0001
0000
,
0200
0000
0320
0000
,
2030
0000
3002
0023
,
0032
0000
0203
0000
,
0320
2030
3002
1003
,
1000
0000
1000
0000
0100
1000
0000
1000
0200
0000
0000
0000
1300
0000
0000
0000
,
0001
0000
0001
0000
0100
0001
0000
0000
1000
0000
0001
0000
0010
0000
0200
0000
,
1300
0000
1000
0000
0010
1000
0000
1000
0010
0000
0100
0000
0001
0000
1000
0000
,
0001
0000
0010
0000
0100
1000
0000
0000
0001
0000
1001
0000
0110
0000
0200
0000
,
0010
0010
0001
0000
0010
0310
0110
0000
,
0200
1000
1000
0000
0010
0310
0110
0000
,
0200
0001
1000
0000
0010
0301
1001
0000
,
0200
0001
0010
0000
1000
0301
1001
0000
,
1000
0000
0100
0000
0010
0000
0000
0200
0000
0000
1300
0000
0001
0000
0000
0200
,
0000
0000
0301
0000
1000
0000
0000
0200
0000
0000
1300
0000
0001
0000
0000
0200
,
0000
0000
0301
0010
0001
0000
1000
0200
0000
0000
1300
0010
1000
0000
0001
0200
,
0000
0000
0301
1000
0001
0000
1000
0200
0000
0000
1300
0001
1000
0000
1001
0000
,
0001
0000
0001
0000
0100
0010
0000
0100
0010
0000
0100
0000
0002
0000
0000
0000
,
1003
0000
1000
0000
0100
0010
0000
0000
0001
1000
0001
0000
2000
0000
0000
0000
,
3010
0000
0010
0000
0100
0001
0000
0000
1000
0100
1000
0000
0002
0000
0000
0000
,
1003
0000
1000
0000
0010
0100
0000
0000
0001
0010
0100
0000
2000
0000
0000
0000
,
0000
0000
0000
0000
,
3000
0000
0000
0000
;

//---------------dance-single - Karl with a K----------------
#NOTES:
     dance-single:
     Karl with a K:
     Challenge:
     12:
     :
0000
0000
0000
0000
,
0000
0000
0000
0000
,
0000
0000
0000
0000
,
0000
0000
0000
0000
,
0000
0000
0000
0000
,
2000
0000
0100
0000
3002
0000
0100
0000
1003
0001
1000
0000
1100
0000
0010
0000
,
0002
0000
0100
0000
2003
0000
0100
0000
3001
1000
0001
0000
0101
0000
0001
0000
,
0002
0000
0010
0000
2003
0000
0010
0000
3001
1000
0001
0000
0101
0000
0010
0000
,
2000
0000
0010
0000
3002
0000
0010
0000
1003
0100
1000
0000
1100
0000
0001
0000
,
2000
0000
0001
0000
3020
0000
0100
0000
1030
0010
1000
0000
1010
0000
0001
0000
,
0002
0000
0100
0000
2003
0000
0100
0000
3001
0010
0001
0000
1001
0000
0001
0000
,
0002
0000
1000
0000
2003
0000
0010
0000
3001
0100
0001
0000
0101
0000
0010
0000
,
2000
0000
0010
0000
3002
0000
0010
0000
1003
0100
0010
0000
0110
0000
0010
0000
,
0002
0000
1000
0000
0023
0000
0100
0000
0031
0010
0001
0000
1100
0000
0100
0000
,
2000
0000
0100
0000
3002
0000
0100
0000
1003
0010
1000
0000
1010
0000
0001
0000
,
2000
0000
0001
0000
3002
0000
0010
0000
1003
0010
1000
0000
0101
0000
0001
0000
,
0002
0000
0010
0000
2003
0000
0010
0000
3001
0010
0001
0000
0011
0000
1001
0000
,
1020
0000
0000
0000
0130
0000
0100
0001
0010
0000
0100
0000
1000
0000
0100
0000
,
0021
0000
0200
0000
0330
0000
0100
1000
0010
0000
0100
0000
0001
0000
0100
0000
,
1020
0000
0000
0000
0130
0000
1000
0100
0010
0000
0100
0000
0001
0000
1000
0000
,
0021
0000
2000
0000
0030
0000
3001
0100
0010
0000
0001
1000
0010
1000
0000
1000
,
0020
0100
1030
0100
0021
0100
0031
0001
,
1100
0000
0010
0000
1100
0000
0010
0001
0200
0000
0010
0000
0301
0010
0000
0001
,
0200
0010
0301
0010
1200
0010
1300
1000
,
0011
0000
0100
0000
0011
0000
0100
1000
0020
0000
0100
0000
1030
0001
0100
0001
,
0020
0100
0031
0100
1020
0100
1030
1000
,
0101
0000
0010
0000
0101
0000
0010
1000
0200
0000
0010
0000
1300
0010
0000
1000
,
0200
0010
1300
0010
0201
0010
0301
0001
,
1010
0000
0110
0000
1000
0010
0100
0001
0020
0000
0100
0000
0031
1000
0100
1000
,
0002
0000
0203
0000
,
2300
0000
3002
0023
,
2030
0000
3200
0000
,
0302
2003
3020
0032
,
0103
0000
0100
0000
0010
0100
0000
0100
0001
0010
0100
0000
1000
0000
0001
1000
,
0100
0000
0100
0000
0010
0100
0000
0000
1000
0010
0100
0000
0001
0010
0001
0010
,
0100
0010
0100
1000
0010
0100
0010
0100
0001
0010
0100
1000
0001
1000
0001
1000
,
0100
1000
0100
1000
0010
0100
0001
1000
0100
0010
0001
0000
0001
0000
0100
0000
,
0200
0000
1000
0000
0010
0010
0000
0001
0301
0100
0001
0000
0001
0010
0000
0010
,
0200
0000
0001
0000
0010
0010
0000
0000
1300
0100
1000
0000
1000
0020
0000
0000
,
0230
0000
0010
0000
1000
1000
0000
0001
0301
0100
0001
0000
0001
0010
0000
0010
,
0200
0000
0010
0000
0001
0001
0000
0000
1300
0100
1000
0000
1000
0020
0000
0000
,
1030
0000
0001
0010
0001
0000
0010
0200
0000
0000
1300
0010
1000
0000
0010
0200
,
0000
0000
0301
0010
0100
0000
0010
0200
0000
0000
1300
0010
0100
0000
0010
0200
,
0000
0000
0301
0010
1000
0000
0010
0200
0000
0000
1300
0010
0001
0000
0010
0200
,
0000
0000
0301
0010
1000
0000
0001
0200
0000
0000
1300
0010
0001
0000
1100
0000
,
0100
0000
0100
0000
0010
0100
0000
0100
0001
0100
0001
0000
0020
0000
0000
0000
,
0130
0000
0100
0000
0010
0100
0000
0000
1000
0100
1000
0000
0020
0000
0000
0000
,
0130
0000
0100
0000
1000
0100
0000
0100
0001
0100
0001
0000
0020
0000
0000
0000
,
0130
0000
0100
0000
0001
0100
0000
0000
1000
0100
1000
0000
0020
0000
0000
0000
,
0000
0000
0000
0000
,
0030
0000
0000
0000
;

//---------------dance-double - t7r----------------
#NOTES:
     dance-double:
     t7r:
     Easy:
     5:
     :
00000000
00000000
00000000
00000000
,
00000000
00000000
00000000
00000000
,
00000000
00000000
00000000
00000000
,
00000000
00000000
00000000
00000000
,
00000000
00000000
00000000
00000000
,
00000001
00000200
00000310
00000010
,
00001000
00000200
00010300
00010000
,
00001000
02000000
03010000
00010000
,
10000000
02000000
13000000
10000000
,
00000000
01000000
00000000
00010000
,
00001000
00010000
00000000
00001000
,
00000100
00000010
00000000
00000100
,
00000001
00000000
00000010
00000100
,
00000010
00000001
00000000
00000100
,
00001000
00010000
00000000
00001000
,
00010000
01000000
00000000
10000000
,
00100000
00000000
01100000
00000000
,
10010000
00000000
10000000
01000000
,
00100000
00000000
00001000
00010000
,
00000010
00000000
00000100
00000001
,
00001000
00001000
00000001
00000001
,
00001002
00000000
00000013
00000000
,
00002000
00000000
00013000
00000000
,
02000000
00000000
13000000
00000000
,
00100000
01000000
00100000
00100000
,
20000000
00000000
31000000
00000000
,
00020000
00000000
00031000
00000000
,
00000020
00000000
00000031
00000000
,
00000100
00000010
00010000
00001000
,
00022000
00000000
00000000
00000000
,
00033000
00000000
00000000
00000000
,
01000000
00000000
10000000
00000000
,
00100000
00000000
10000000
00010000
,
10000000
00000000
01000000
00000000
,
00100000
00000000
00010000
00000000
,
00001000
00000000
00000100
00000000
,
00000010
00000000
00000001
00001000
,
00000200
00000000
00010300
00001000
,
02000000
00000000
03001000
00010000
,
00000200
00000000
00010300
00001000
,
02000000
00000000
03100000
10000000
,
00010000
10000000
02000000
03000000
,
00010000
00001000
00000200
00000300
,
00000010
00001000
00000200
00000300
,
00000010
00000001
00000100
00001000
,
00010000
00001000
00020000
00030000
,
01000000
10000000
00200000
00300000
,
10000000
01000000
00020000
00030000
,
00001000
00000010
00000200
00000000
,
00000000
00000000
00000000
00000000
,
00000300
00000000
00000000
00000000
;

//---------------dance-double - Karl with a K----------------
#NOTES:
     dance-double:
     Karl with a K:
     Medium:
     7:
     :
00000000
00000000
00000000
00000000
,
00000000
00000000
00000000
00000000
,
00000000
00000000
00000000
00000000
,
00000000
00000000
00000000
00000000
,
00000000
00000000
00000000
00000000
,
20000000
00000000
30200000
00000000
01300000
00001000
00010000
00000000
,
00020000
00000000
00030020
00000000
00000130
00000001
00000100
00000000
,
00000002
00000000
00000023
00000000
00000130
00010000
00001000
00000000
,
00002000
00000000
00203000
00000000
01300000
10000000
01000000
00000000
,
20000000
00000000
30200000
00000000
10300000
00100000
01000000
00000000
,
00002000
00000000
00023000
00000000
00031000
00001000
00001000
00000000
,
00020000
00000000
00032000
00000000
00003010
00000010
00000001
00000000
,
00002000
00000000
00003020
00000000
00000031
00000010
00000100
00000000
,
00000002
00000000
00000023
00000000
00000031
00000010
00000100
00000000
,
00020000
00000000
00032000
00000000
00013000
00010000
00010000
00000000
,
00002000
00000000
00023000
00000000
00130000
00100000
10000000
00000000
,
00020000
00000000
00230000
00000000
10300000
00100000
01000000
01000000
,
00200000
00000000
00310000
01000000
00100000
10000000
01000000
00000000
,
00100000
02000000
00000000
03010000
00001000
00010000
00000100
00001000
,
00000020
00000000
00001030
00000100
00000010
00000001
00000100
00000000
,
00000010
00000200
00000000
00001300
00010000
01000000
10000000
01000000
,
00200000
00000000
00310000
01000000
00200000
00000000
10300000
00000000
,
00200000
00000000
10300000
00100000
01000000
00010000
00002000
00000000
,
00003020
00000000
00001030
00000100
00000020
00000000
00000031
00000000
,
00000200
00002300
00023000
01030000
,
02000000
00000000
03100000
00010000
02000000
00000000
03100000
00000000
,
02000000
00000000
03100000
00010000
00001000
00000100
00000002
00000000
,
00000203
00000000
00000310
00001000
00000200
00000000
00000310
00000000
,
00000200
00000010
00000310
00000000
00000001
00000100
00001000
00000000
,
00022000
00000000
00000000
00000000
,
00000000
00000000
00000000
00033000
,
20000000
00000000
32000000
00000000
,
03200000
00302000
00023000
00030020
,
00001030
00000000
00001000
00000000
00000000
00001000
00000000
00000000
00001000
00000000
00001000
00000000
00000000
00000000
00000000
00000000
,
00000001
00000000
00000001
00000000
00000000
00000001
00000000
00000000
00000001
00000000
00000001
00000000
00000010
00000000
00002000
00000000
,
00100000
00000000
00100000
00000000
00000000
00100000
00000000
00000000
00100000
00000000
00103000
00000000
00000000
00000000
00000000
00000000
,
00010000
00000000
00010000
00000000
00000000
00010000
00000000
00000000
00010000
00000000
00000000
00000000
10010000
00000000
00000000
00000000
,
02010000
00000000
00001000
00000000
00010000
00000000
03100000
10000000
,
02000000
00000000
00100000
00000000
00010000
00000000
03010000
00001000
,
00000200
00000000
00001000
00000000
00010000
00000000
00000310
00001000
,
00000200
00000010
00000001
00000320
,
00000031
00000001
00000100
00010000
,
01000000
00000000
00001000
00000000
00000100
00000000
00001000
00010000
,
01000000
00001000
00000100
00010000
,
01000000
00000000
00001000
00000000
00000100
00000000
00010000
00001000
,
01000000
01000000
00001000
00000000
00010000
00010000
00000000
00000000
,
00000100
00000100
00010000
00000000
00001000
00001000
00000000
00000000
,
01000000
00100000
10000000
00000000
00010000
00001000
00000000
00000000
,
00000100
00000010
00000001
00000000
00001000
00010000
00000000
00000000
;

//---------------dance-double - t7r----------------
#NOTES:
     dance-double:
     t7r:
     Hard:
     9:
     :
00000000
00000000
00000000
00000000
,
00000000
00000000
00000000
00000000
,
00000000
00000000
00000000
00000000
,
00000000
00000000
00000000
00000000
,
00000000
00000000
00000000
00000000
,
00000002
00000000
00000203
00000000
00000310
00001000
00000100
00010000
,
00002000
00000000
00023000
00000000
01030000
10000000
00010000
00100000
,
00020000
00000000
02030000
00000000
03100000
10000000
01000000
00100000
,
00002000
00000000
00023000
00000000
00031000
00000100
00000001
00001000
,
00000000
00000001
00000100
00000000
00000001
00000010
00000100
00000100
,
00010000
00000000
00001000
00000000
00010000
01000000
10000000
00010000
,
10000000
00000000
00100000
00000000
01000000
01000000
00010000
00100000
,
00001000
00000000
00010000
00001000
00000100
00000010
00001000
00000000
,
00000001
00000010
00000100
00000000
00000001
00000100
00001000
00000001
,
00000100
00000000
00001000
00000000
00010000
00001000
00011000
00000000
,
00010000
01000000
00100000
00000000
00010000
01000000
00100000
10000000
,
10010000
00000000
10000000
02000000
03010000
00001000
00000200
00000301
,
00001000
00000000
00000001
00000000
00000100
00000000
00000000
00000000
00000001
00000010
00000001
00000000
00001000
00000000
00000000
00000000
,
00000001
00000000
00000100
00000000
00001000
00000000
00000000
00000000
00010000
00001000
00010000
00000000
00001000
00000000
00010000
00000000
,
01000000
00000000
10000000
00000000
00100000
00000000
00000000
00000000
01000000
00100000
01000000
00000000
00100000
00000000
10000000
00000000
,
10010000
00000000
00011000
00000000
00001001
00000001
00000100
00000000
,
00000002
00000010
00001000
00000000
00000203
00000000
00000310
00000000
,
00002000
00000100
00000001
00000000
00003200
00000000
00020300
00000000
,
00032000
00010000
00100000
00000000
00023000
00000000
02030000
00000000
,
13000000
00100000
01000000
10000000
01000000
00010000
00100000
00000000
,
00012000
00003100
00000102
00001003
,
00001200
00010300
00021000
01030000
,
00100000
01000000
10000000
00000000
00100000
01000000
00001000
00000000
,
00100000
00000000
00001000
00000000
00010000
00000000
00001000
00000000
00000010
00000000
00000100
00000000
00000010
00000001
00000010
00000000
,
00000002
00000000
00000203
00000000
,
00000320
00000000
00002030
00003200
,
00020300
00000000
00032000
00000000
,
00013000
01000000
10000000
00100000
,
10000000
00000000
01000000
00000000
00000000
10000000
00000000
10000000
00010000
00000000
01000000
00000000
00000000
00000000
00000000
00000000
,
00001000
00000000
00010000
00000000
00000000
00001000
00000000
00001000
00010000
00000000
00001000
00000000
00000000
00000000
00000200
00000000
,
00000310
00000000
00001000
00000000
00000000
00000001
00000000
00000001
00000010
00000000
00000001
00000000
00000000
00000000
00000000
00000000
,
00000100
00001000
00010000
00000000
00001000
00000000
00011000
00000000
,
02000000
00100000
03100000
00000000
10000000
01000000
00020000
00000000
,
00030200
00000010
00000310
00000000
00000001
00000100
00002000
00000000
,
02003000
00000000
00100000
00000000
03100000
10000000
00000000
00000000
01000000
00100000
01000000
00000000
00020000
00000000
00000000
00000000
,
00030200
00000000
00000010
00000000
00000310
00000001
00000000
00000000
00000100
00000010
00000100
00000000
00000002
00000000
00000000
00000000
,
00000013
00000000
00000001
00000000
00001000
00000000
00000000
00000200
00000000
00000000
00010300
00000000
00001000
00000000
00000000
02000000
,
00000000
00000000
03001000
00000000
00010000
00000000
00000000
00000200
00000000
00000000
00010300
00000000
00001000
00000000
00000000
02000000
,
00000000
00000000
03010000
00000000
00100000
00000000
00000000
02000000
00000000
00000000
03010000
00000000
00001000
00000000
00000000
00000200
,
00000000
00000000
00000310
00000000
00010000
00000000
00000000
02000000
00000000
00000000
13000000
00010000
10000000
00000000
10010000
00000000
,
10000000
00000000
00100000
00000000
01000000
00000000
00000000
10000000
01000000
00000000
00010000
00000000
00200000
00000000
00000000
00000000
,
00301000
00000000
00010000
00000000
00001000
00000000
00000000
00000000
00000100
00000010
00000100
00000000
00000002
00000000
00000000
00000000
,
00000013
00000000
00000100
00000000
00000010
00000000
00000000
00000001
00001000
00000000
00000001
00000000
00000200
00000000
00000000
00000000
,
00001300
00000000
00010000
00000000
00001000
00000000
00000000
00000000
01000000
10000000
00010000
00000000
00200000
00000000
00000000
00000000
,
00000000
00000000
00000000
00000000
,
00300000
00000000
00000000
00000000
;

//---------------dance-double - Karl with a K----------------
#NOTES:
     dance-double:
     Karl with a K:
     Challenge:
     12:
     :
00000000
00000000
00000000
00000000
,
00000000
00000000
00000000
00000000
,
00000000
00000000
00000000
00000000
,
00000000
00000000
00000000
00000000
,
00000000
00000000
00000000
00000000
,
20000000
00000000
01000000
00000000
30020000
00000000
00000000
00000000
10030000
00010000
10000000
00000000
00100000
00000000
00010000
00000000
,
00002000
00000000
00010000
00000000
00203000
00000000
00000000
00000000
00301000
00010000
00001000
00000000
01000000
00000000
00001000
00000000
,
00020000
00000000
00001000
00000000
00030020
00000000
00000000
00000000
00001030
00000001
00001000
00000000
00000100
00000000
00000001
00000000
,
00000002
00000000
00000100
00000000
00000203
00000000
00000000
00000000
00000310
00000100
00000010
00000000
00000100
00000000
00001000
00000000
,
00000002
00000000
00001000
00000000
00000023
00000000
00000000
00000000
00000031
00000010
00000001
00000000
00000100
00000000
00001000
00000000
,
00020000
00000000
00001000
00000000
00030200
00000000
00000000
00000000
00010300
00001000
00010000
00000000
00001000
00000000
00100000
00000000
,
00002000
00000000
00010000
00000000
02003000
00000000
00000000
00000000
03010000
00100000
00010000
00000000
01000000
00000000
00100000
00000000
,
20000000
00000000
00100000
00000000
30020000
00000000
00100000
00000000
00130000
01000000
00100000
00000000
01000000
00000000
10000000
00000000
,
00020000
00000000
10000000
00000000
00230000
00000000
00000000
00000000
00310000
00100000
00010000
00000000
01000000
00000000
00001000
00000000
,
00020000
00000000
00001000
00000000
00030200
00000000
00000000
00000000
00010300
00001000
00010000
00000000
00000010
00000000
00010000
00000000
,
00002000
00000000
00010000
00000000
00023000
00000000
00000000
00000000
00030010
00010000
00000010
00000000
00001000
00000000
00000100
00000000
,
00002000
00000000
00000010
00000000
00003002
00000000
00000000
00000000
00001003
00000010
00001000
00000000
00000011
00000000
00000100
00000000
,
00000021
00000000
00000000
00000000
00000130
00000000
00000100
00010000
00001000
00000000
00001000
00000000
00010000
00000000
01000000
00000000
,
00200000
00000000
02000000
00000000
03000000
00000000
01300000
10000000
00010000
00000000
01000000
00000000
10000000
00000000
01000000
00000000
,
00200000
00000000
00000000
00000000
10300000
00000000
01000000
00100000
00010000
00000000
01000000
00000000
00001000
00000000
00010000
00000000
,
00000020
00000000
00002000
00000000
00000030
00000000
00003010
00001000
00000100
00000000
00000010
00000001
00000100
00000001
00000000
00001000
,
00000020
00000100
00001030
00000100
00000020
00000001
00000130
00000000
,
00001100
00000000
00000000
00000000
00011000
00000000
00000000
00001000
00100000
00000000
00100000
00000000
00010000
00100000
00000000
00010000
,
00200000
01000000
00310000
01000000
00200000
01000000
10300000
00000000
,
00110000
00000000
00000000
00000000
00011000
00000000
00000000
00010000
00000020
00000000
00000000
00000000
00000130
00000001
00000000
00000001
,
00000020
00000100
00000031
00000100
00000020
00001000
00000130
00000000
,
00001010
00000000
00000000
00000000
00011000
00000000
00000000
00001000
01000000
00000000
00100000
00000000
10000000
00100000
00000000
10000000
,
00200000
01000000
10300000
01000000
00200000
00010000
01300000
00000000
,
00110000
00000000
00000000
00000000
00011000
00000000
00000000
00001000
00010000
00000000
00000100
00000000
00000010
00000001
00000010
00000000
,
00000002
00000000
00000203
00000000
,
00002300
00000000
00023000
00230000
,
20300000
00000000
32000000
00000000
,
03020000
00032000
00003020
00000032
,
00000103
00000000
00000100
00000000
00000000
00000100
00000000
00000100
00000001
00000100
00000001
00000000
00000010
00000000
00001000
00000000
,
00010000
00000000
00010000
00000000
00000000
00010000
00000000
00000000
00001000
00000000
00010000
00000000
01000000
00000000
00100000
00000000
,
01000000
00100000
01000000
00000000
00100000
01000000
00000000
01000000
10000000
00100000
01000000
00000000
00010000
00000000
10000000
00000000
,
10000000
01000000
10000000
00000000
00010000
00100000
00010000
00000000
00100000
00000000
00100000
00000000
00010000
00000000
00001000
00000000
,
00000200
00000000
00001000
00000000
00000010
00000000
00000000
00000000
00010300
00000000
00001000
00000000
00010000
00100000
00000000
00100000
,
02000000
00000000
00010000
00000000
00100000
00000000
00000000
00000000
03001000
00000000
00010000
00000000
00001000
00000020
00000000
00000000
,
00000230
00000000
00000001
00000000
00001000
00000000
00000000
00000000
00010300
00000000
00001000
00000000
00010000
00100000
00000000
00100000
,
02000000
00000000
10000000
00000000
00010000
00000000
00000000
00000000
03001000
00000000
00010000
00000000
00001000
00000020
00000000
00000000
,
00000031
00000000
00001000
00000000
00000010
00000000
00000010
00000200
00000000
00000000
00001300
00000000
00010000
00000000
00010000
02000000
,
00000000
00000000
03010000
00000000
00001000
00000000
00001000
00000200
00000000
00000000
00001300
00000000
00010000
00000000
00010000
02000000
,
00000000
00000000
03010000
00000000
00000010
00000000
00000010
00000200
00000000
00000000
00001300
00000000
00100000
00000000
00100000
02000000
,
00000000
00000000
03010000
00000000
00000010
00000000
00000010
00000200
00000000
00000000
00000310
00000000
00001000
00000000
00010000
00000000
,
01000000
00000000
01000000
00000000
00100000
10000000
00000000
00000000
01000000
00010000
00001000
00000000
00000020
00000000
00000000
00000000
,
00000130
00000000
00000100
00000000
00000010
00000001
00000000
00000000
00000100
00001000
00010000
00000000
00200000
00000000
00000000
00000000
,
01300000
00000000
01000000
00000000
00010000
10000000
00000000
00000000
00100000
00010000
00001000
00000000
00000020
00000000
00000000
00000000
,
00000130
00000000
00000100
00000000
00001000
00000001
00000000
00000000
00000010
00001000
00010000
00000000
00002000
00000000
00000000
00000000
,
00000000
00000000
00000000
00000000
,
00003000
00000000
00000000
00000000
;
