#TITLE:Harden Soul;
#ARTIST:James Harden;
#BANNER:Harden Soul.png;
#BACKGROUND:Harden Soul-bg.png;
#JACKET:Harden Soul-jacket.png;
#CDTITLE:./CDTITLES/NONE.PNG;
#MUSIC:Harden Soul.ogg;
#SAMPLESTART:2.326;
#SAMPLELENGTH:15;
#BPMS:0=103;

//---------------dance-single - t7r----------------
#NOTES:
     dance-single:
     t7r:
     Beginner:
     1:
     :
0000
0000
0000
0000
,
0000
0000
0000
0000
,
0000
0000
0000
0000
,
0000
0000
0000
0000
,
0000
0000
0000
0000
,
0000
0000
0000
0000
,
0000
0000
0000
0000
,
1000
0000
0000
0000
,
0001
0000
0000
0000
,
0100
0000
0000
0000
,
0010
0000
0000
0000
,
1000
0000
0000
0000
,
0100
0000
0000
0000
,
0010
0000
0000
0000
,
0001
0000
0000
0000
,
0100
0000
0000
0000
,
0010
0000
0000
0000
,
0010
0000
0000
0000
,
1000
0000
0000
0000
,
0001
0000
0000
0000
,
0010
0000
0000
0000
,
0100
0000
0000
0000
,
1000
0000
1000
0000
,
1000
0000
0000
0000
,
0000
0001
0000
0000
,
0000
0100
0000
0000
,
0000
0010
0000
0000
,
1000
0000
0000
0000
,
0100
0000
0000
0000
,
0010
0000
0000
0000
,
0001
0000
0000
0000
,
0100
0000
0000
0000
,
0010
0000
0000
0000
,
1000
0000
0000
0000
,
0001
0000
0000
0000
,
1000
0000
1000
0000
,
1000
0000
0000
0000
,
0001
0000
0001
0000
,
0001
0000
0000
0000
,
0100
0100
0100
0000
,
0010
0010
0010
0000
,
1000
1000
1000
0000
,
0001
0001
0001
0000
;

//---------------dance-single - t7r----------------
#NOTES:
     dance-single:
     t7r:
     Easy:
     4:
     :
0000
0000
0000
0000
,
0000
0000
0000
0000
,
0000
0000
0000
0000
,
0000
0000
0000
0000
,
0000
0000
0000
0000
,
0000
0000
0000
0000
,
0000
0000
0000
0000
,
1000
0100
0010
0000
,
0001
0100
0010
0000
,
1000
0001
0010
0000
,
0001
1000
0010
0000
,
1000
0001
0000
1001
,
0000
0100
0000
1001
,
0001
1000
0000
1001
,
0000
0100
0000
1001
,
2000
0000
0000
3000
,
0001
0001
0100
0100
,
0020
0000
0000
0030
,
1000
1000
0100
0100
,
0020
0000
0000
0030
,
0001
1000
0010
0100
,
0002
0000
0000
0003
,
1000
0100
0010
0001
,
0200
0000
0000
0300
,
0000
0010
0000
0010
,
0000
1000
0000
1000
,
1000
0000
0001
0000
,
1000
0100
0010
0000
,
1000
0100
0001
0000
,
0001
0100
0010
0000
,
0001
0100
1000
0000
,
1000
0010
0100
0000
,
1000
0010
0001
0000
,
0001
0010
0100
0000
,
0001
0010
1000
0000
,
0001
0000
0110
0000
,
1000
0000
0220
0330
,
1000
0000
0101
0000
,
0001
0000
2200
3300
,
0010
0010
0020
0030
,
0100
0100
0200
0300
,
1000
1000
2000
3000
,
0001
0001
0002
0003
,
0100
0000
0000
0000
0000
0000
0000
0000
0000
0000
1001
0000
;

//---------------dance-single - t7r----------------
#NOTES:
     dance-single:
     t7r:
     Medium:
     6:
     :
0000
0000
0000
0000
,
0000
0000
0000
0000
,
0000
0000
0000
0000
,
0000
0000
0000
0000
,
0000
0000
0000
0000
,
0000
0000
0000
0000
,
0000
0000
0000
0000
0000
0000
0000
0001
,
0100
0000
0010
0200
0000
0301
0000
1000
,
0100
0000
0010
0200
0000
0000
1300
0000
,
0010
0000
0100
0002
0000
0013
0000
0100
,
1000
0000
0010
0200
0000
0000
0301
0000
,
1000
0000
0001
0000
0000
0100
0001
0000
,
0010
0000
0100
0000
0000
1000
0010
0000
,
0100
0000
0001
0020
0000
0130
0000
1000
,
0001
0000
0100
0020
0000
0000
1030
0002
,
0010
1000
0000
1003
,
0020
0100
0000
0130
,
0001
0000
0010
0000
0000
0100
1000
0000
,
0010
0000
0100
0000
0001
1000
0100
0020
,
0100
1000
0000
0031
,
2000
0000
0010
0000
3001
0100
0001
0000
,
0010
0000
0100
0000
0000
1000
0001
0000
,
0100
0010
0100
0000
0001
0000
1000
0002
,
0100
0000
1003
0000
0000
0001
1000
0000
,
0100
0000
0010
0000
0000
0100
1000
0000
,
0010
0000
0100
0000
0000
0001
0010
0000
,
0001
1000
1000
0000
0010
0000
0110
0000
,
1000
0000
0100
0002
0000
0103
0000
0000
,
1000
0000
0001
0200
0000
0000
1300
0000
,
0100
0000
0001
0020
0000
1030
0000
0000
,
0010
0000
0100
2000
0000
0000
3010
0000
,
1000
0000
0100
0020
0000
0130
0000
0000
,
0001
0000
0100
0020
0000
0000
0130
0000
,
1000
0000
0100
0002
0000
0103
0000
0000
,
0001
0100
0010
0000
1000
0000
1001
0000
,
1000
0000
0000
0100
0000
0100
0000
0000
0010
0000
0000
0100
0000
0100
0000
0000
,
1000
0000
0000
0100
0000
0100
0000
0000
2000
0000
0000
0000
0010
0000
0000
0000
,
3001
0000
0000
0100
0000
0100
0000
0000
0010
0000
0000
0100
0000
0100
0000
0000
,
0001
0000
0000
0100
0000
0100
0000
0000
0020
0000
0000
0000
0001
0000
0000
0000
,
0130
0000
0000
0100
0000
0000
0100
0000
0000
0000
0010
0000
1000
0000
0001
0000
,
1000
0200
0000
0320
0000
0031
0000
1000
,
0010
0000
0000
0010
0000
0000
0010
0000
0000
0000
0100
0000
0001
0000
1000
0000
,
0001
0100
0000
0000
0000
0000
1000
0200
,
0000
0000
0000
0000
0000
0000
0000
0000
0000
0300
1001
0000
;

//---------------dance-single - t7r----------------
#NOTES:
     dance-single:
     t7r:
     Hard:
     8:
     :
0000
0000
0000
0000
,
0000
0000
0000
0000
,
0000
0000
0000
0000
,
0000
0000
0000
0000
,
0000
0000
0000
0000
,
0000
0000
0000
0000
,
0000
0000
0000
0000
0000
0000
0000
1000
,
0001
0100
0010
2000
0000
3001
0000
1000
,
0100
0010
0001
0200
1000
0000
0310
1000
,
0001
0010
0100
2000
0000
3001
0000
1000
,
0010
0100
0001
0020
1000
0000
0130
0010
,
0001
0000
1100
0000
0001
1000
0100
0000
,
1000
0000
0101
0000
1000
0001
0100
0000
,
0010
0000
1001
0000
1000
0100
0010
0000
,
1100
1000
0001
0200
0010
0000
0301
0020
,
0100
0000
0001
0000
0130
1000
0001
0000
,
1000
0010
0100
0000
1000
0100
0010
0200
,
1000
0000
0010
0000
0301
1000
0010
0000
,
1000
0100
0010
0000
0100
0001
0100
0020
,
0001
0000
0100
0000
0031
1000
0010
0000
,
0002
0000
0013
0000
0100
0001
1000
0200
,
0001
0000
0010
0000
1300
0001
0100
1000
,
0100
0000
0010
0000
0100
0001
0000
0000
1000
0000
0000
0001
1000
0000
0001
0000
,
0200
1000
1000
0000
0010
0000
0302
0000
,
1003
0000
0110
0000
0000
1000
0001
0000
,
0100
0000
1010
0000
0000
0001
1000
0000
,
0100
0000
0010
0000
0010
0000
0010
0000
0001
1000
0001
0000
1000
0001
1000
0001
,
1000
0100
0010
2000
0001
0000
3010
0001
,
0100
1000
0100
0020
0001
0000
0130
0001
,
1000
0010
0100
2000
0001
0000
3100
0001
,
0010
1000
0010
0200
0001
0000
0310
0001
,
1000
0100
1100
0000
0001
1000
0010
0000
,
0001
0100
0101
0000
1000
0001
0010
0000
,
1000
0100
0011
0000
0001
0100
0010
0000
,
0001
0000
1000
0001
1000
0001
1000
0000
0001
0000
0000
0100
0010
0000
0010
0000
,
1000
0000
0100
0010
0000
0010
0000
0000
1000
0000
0100
0010
0000
0010
0000
0000
,
1000
0000
0100
0001
0000
0001
0000
0000
0020
0000
1000
0000
0031
0100
0000
0000
,
0001
0000
0010
0100
0000
0100
0000
0000
0001
0000
0010
0100
0000
0100
0000
0000
,
0001
0000
0010
1000
0000
1000
0000
0000
0200
0000
0001
0000
1300
0010
0000
0000
,
0200
0300
0000
0200
0300
0000
0200
0300
0000
0000
0110
0000
0001
0000
0110
0000
,
0020
0000
2030
0000
0000
0000
3002
0000
0000
0000
1003
0100
1000
0000
0001
0000
,
2000
3000
0000
2000
3000
0000
2000
3000
0000
0000
0110
0000
1000
0000
0110
0000
,
0001
0000
0000
0000
0000
1001
0000
0000
0000
0000
0000
0000
0000
0000
0000
0000
0000
0000
0000
0000
0000
0000
0000
0000
1000
0000
0000
0000
0020
0000
0000
0000
,
0000
0000
0000
0000
0000
0000
0000
0000
0000
0030
1001
0000
;

//---------------dance-single - t7r----------------
#NOTES:
     dance-single:
     t7r:
     Challenge:
     13:
     :
0000
0000
0000
0000
,
0000
0000
0000
0000
,
0000
0000
0000
0000
,
0000
0000
0000
0000
,
0000
0000
0000
0000
,
0000
0000
0000
0000
,
0000
0000
0000
0000
0000
0000
0000
0002
,
0203
0000
0320
0000
2030
0000
3200
0000
0001
0000
0310
0000
0001
0100
0010
0000
,
2000
0000
3200
0000
0320
0000
0032
0000
0100
0000
1003
0000
0010
0100
0001
0000
,
2000
0000
3020
0000
0032
0000
0023
0000
0100
0000
1030
0000
0010
0100
0001
0000
,
2000
0000
3200
0000
0302
0000
0203
0000
0010
0000
1300
0000
0010
0100
0001
0000
,
0020
0000
0230
0000
2300
0000
3020
0000
0001
0000
0130
0000
0001
0010
0100
0000
,
0020
0000
0032
0000
2003
0000
3200
0000
0001
0000
0310
0000
0001
1000
0010
0000
,
1010
0110
0101
0022
0033
2001
0100
3001
,
0011
0000
0000
0000
0000
0000
1100
0000
0000
0000
0000
0000
1001
0000
0000
0000
0000
0000
0210
0000
0000
0000
0000
0000
0001
0000
0000
0000
0000
0000
0310
0000
0000
0100
0000
0000
0001
0000
0000
0000
0000
0000
0010
0000
0100
0000
0010
0000
,
0002
0100
1000
0000
0100
0100
0010
1003
,
0200
0000
0302
0000
0203
0000
0000
0000
2300
0000
3010
0002
0000
0000
0023
0000
,
1000
0100
1000
0000
0130
0010
1000
0100
,
0002
0000
0000
0000
0000
0000
0000
0000
0203
0000
0000
0000
0000
0000
0000
0000
2300
0000
0000
0000
0000
0000
0000
0000
0000
0000
0000
0000
0000
0000
0000
0000
3002
0000
0000
0000
0000
0000
0000
0000
0203
0000
0000
0000
0000
0000
0000
0000
2300
0000
0000
0000
0000
0000
0000
0000
3200
0000
0000
0000
0000
0000
0000
0300
,
0200
0000
0000
0000
0000
0000
0000
0300
0200
0000
0000
0000
0000
0000
0000
0300
0000
0000
0000
0000
0000
0000
0000
0000
0000
0000
0000
0000
0000
0000
0000
0000
0000
0000
0000
0000
0000
0000
0000
0000
0020
0000
0000
0000
0000
0000
0000
0000
2030
0000
0000
0000
0000
0000
0000
0000
3002
0000
0000
0000
0000
0000
0000
0000
,
0203
1000
0320
0001
0130
1000
0010
2000
,
0100
0001
0010
0000
3100
0010
0001
1000
,
0020
0000
0032
0000
2003
0100
0000
0000
3200
0000
0301
0010
0100
0000
1000
0000
,
0020
0000
0000
0000
0000
0000
0000
0030
0020
0000
0000
0000
0000
0000
0000
0030
0020
0000
0000
0000
0000
0000
0000
0030
0000
0000
0000
0000
0000
0000
0000
0000
0000
0000
0000
0000
0000
0000
0000
0000
0000
0000
0000
0000
0000
0000
0000
0000
0000
0000
0000
0000
1000
0000
0000
0000
0000
0000
0000
0000
0000
0000
0000
0000
,
1000
0000
0100
1000
0000
0000
0001
0000
0100
0000
0010
0000
0000
0000
0000
0000
0000
0000
0000
0000
0000
0000
0000
0000
,
1000
0000
0000
1000
0000
0001
0000
0100
0000
0000
0000
0001
0000
0000
0000
0000
0000
0000
0010
0000
0000
0000
0000
0000
,
0001
0000
1000
0000
1001
0000
0001
0000
0010
0100
0010
0000
0001
1000
0001
0001
,
0200
0000
1300
0100
0010
0000
2000
0000
0100
0000
0001
0000
3010
1000
0001
0000
,
0020
0000
1030
0010
0100
0000
2000
0000
0010
0000
0001
0000
3100
1000
0001
0000
,
0200
0000
2300
0000
3002
0000
0023
0000
2030
0000
0100
0000
3001
0010
0100
1000
,
0001
0000
0011
0000
0110
0000
2100
0000
0001
0000
3010
0000
0100
0001
1000
0000
,
0020
0000
0230
0000
0302
0000
0023
0000
1000
0000
0130
0000
1000
0010
0100
0000
,
0020
0000
2030
0000
3002
0000
0203
0000
1000
0000
0310
0000
1000
0001
0010
0000
,
0011
0110
1100
2020
3030
1002
0100
1003
,
1010
0000
0101
0000
1001
0001
0010
0000
1001
0000
1100
0100
1000
0000
1010
0000
,
1000
0100
0001
0200
0000
1300
0000
0000
1000
0100
0001
0200
0000
1300
0000
0000
,
1000
0100
0001
0200
0000
1300
0000
0000
0012
0000
1000
0000
0103
0000
0000
0000
,
0001
0100
1000
0200
0000
0301
0000
0000
0001
0100
1000
0200
0000
0301
0000
0000
,
0001
0100
1000
0200
0000
0301
0000
0000
2010
0000
0001
0000
3100
0000
0000
0000
,
0020
0030
0000
0020
0030
0000
0020
0030
0000
0000
0001
0000
1000
0000
0110
0000
,
0002
0000
0200
0000
0003
0000
0020
0000
0330
0000
1000
1000
0001
0000
1000
0000
,
0002
0003
0000
0020
0030
0000
0200
0000
0001
0000
0010
0000
1300
0000
0010
0000
,
0100
0000
0001
1000
0010
0000
0100
0000
0002
0000
0010
0000
1003
0100
0020
0000
,
0000
0000
0000
0000
0000
0000
0000
0000
0000
0030
1001
0000
;

//---------------dance-double - t7r----------------
#NOTES:
     dance-double:
     t7r:
     Easy:
     4:
     :
00000000
00000000
00000000
00000000
,
00000000
00000000
00000000
00000000
,
00000000
00000000
00000000
00000000
,
00000000
00000000
00000000
00000000
,
00000000
00000000
00000000
00000000
,
00000000
00000000
00000000
00000000
,
00000000
00000000
00000000
00000000
,
00000001
00000100
00000010
00000000
,
00001000
00000001
00000010
00000000
,
00000100
00010000
00001000
00000000
,
01000000
00010000
10000000
00000000
,
01000000
00000000
00011000
00000000
,
00000100
00000010
00000001
00000000
,
00000100
00000000
00011000
00000000
,
01000000
00100000
10000000
00000000
,
00020000
00000000
00000000
00030000
,
10000000
10000000
01000000
00010000
,
00002000
00000000
00000000
00003000
,
00010000
00010000
00001000
00000100
,
00000020
00000000
00000000
00000030
,
00001000
00001000
00000001
00000010
,
00002000
00000000
00000000
00003000
,
00010000
00010000
01000000
10000000
,
00200000
00000000
00000000
00300000
,
10000000
00000000
00000000
00000000
,
01000000
00000000
00000000
00000000
,
00010000
00000000
00001000
00000000
,
00010000
00001000
01000000
00000000
,
00100000
00010000
20000000
00000000
,
31000000
00010000
00001000
00000000
,
00000100
00001000
00000002
00000000
,
00000000
00000103
00000000
00001010
,
00001000
00000100
00000000
00011000
,
00001000
00100000
00000000
10010000
,
10000000
00100000
00020000
00000000
,
00031000
00000000
01100000
00000000
,
00010000
10000000
02000000
00000000
,
03010000
00000000
00000110
00000000
,
00000001
00001000
00000200
00000000
,
00010300
00010000
00020000
00030000
,
00001000
00001000
00002000
00003000
,
01000000
01000000
02000000
03000000
,
00001000
00000000
00010000
00000000
,
00000010
00000000
00000000
00000000
00000000
00000000
00000000
00000000
00000000
00000000
00011000
00000000
;

//---------------dance-double - t7r----------------
#NOTES:
     dance-double:
     t7r:
     Medium:
     7:
     :
00000000
00000000
00000000
00000000
,
00000000
00000000
00000000
00000000
,
00000000
00000000
00000000
00000000
,
00000000
00000000
00000000
00000000
,
00000000
00000000
00000000
00000000
,
00000000
00000000
00000000
00000000
,
00000000
00000000
00000000
00000000
00000000
00000000
00000000
01000000
,
00010000
00000000
10000000
02000000
00000000
03100000
00000000
00001000
,
00010000
00000000
00001000
00000200
00000000
00000000
00000301
00000000
,
00000010
00000000
00000100
00000020
00000000
00000031
00000000
00001000
,
00000010
00000000
00000100
00000002
00000000
00000000
00001003
00000000
,
00000001
00000000
00000010
00002000
00000000
00013000
00000000
00001000
,
00100000
00000000
00010000
20000000
00000000
00000000
30100000
00000000
,
10000000
00000000
01000000
00020000
00000000
00031000
00000000
00010000
,
00000200
00000000
00001300
00000002
00000100
00000000
00001003
00000020
,
00000001
00000000
00000100
00000000
00000000
00000000
00000130
00000001
,
00001000
00000100
00000000
00010000
,
00001000
01000000
00000000
00010000
,
10000000
00100000
10000000
00000000
01000000
00000000
00010000
00001000
,
00020000
00000100
00000000
00031000
,
00000200
00000000
00000302
00000000
00000013
00000100
00001000
00000000
,
00000200
00001000
00000000
00010300
,
00001000
00010000
00001000
00000000
00010000
00000000
01000000
20000000
,
00100000
30010000
00000000
01000000
,
00010000
00000000
10000000
00000000
00000000
01000000
00010000
00000000
,
00001000
00000000
00010000
00000000
00000000
00001000
00000100
00000000
,
00000010
00000100
00000100
00000000
00000001
00000000
00001001
00000000
,
00000001
00000010
00000100
00000000
00001000
00000000
00000001
00000000
,
00000100
00010000
00001000
00000000
00022000
00000000
00033000
00000000
,
00010000
01000000
10000000
00000000
00100000
00000000
01000000
00000000
,
10000000
01000000
00100000
00002000
01000000
00000000
00013000
00000000
,
00001000
00000010
00000100
00000000
00000010
00000000
00000001
00000000
,
00000100
00010000
00001000
00000000
00022000
00000000
00033000
00000000
,
00001000
00000100
00000001
00000000
00000010
00000000
00000100
00000000
,
00000001
00000100
00001000
00000000
00010000
00000000
00011000
00000000
,
00001000
00000000
00000000
01000000
00000000
01000000
00000000
00000000
00010000
00000000
00000000
00000100
00000000
00000100
00000000
00000000
,
00001000
00000000
00000000
01000000
00000000
01000000
00000000
00000000
00022000
00000000
00000000
00000000
00033000
00000000
00000000
00000000
,
00001000
00000000
00000000
00100000
00000000
00100000
00000000
00000000
00010000
00000000
00000000
00000010
00000000
00000010
00000000
00000000
,
00001000
00000000
00000000
00100000
00000000
00100000
00000000
00000000
00022000
00000000
00000000
00000000
00033000
00000000
00000000
00000000
,
00001000
00000000
00000000
00001000
00000000
00000000
00001000
00000000
00000000
00000000
00000100
00000000
00000001
00000000
00000000
00000000
,
00000010
00002000
00000000
00023000
00000000
00031000
00000000
00010000
,
01000000
00000000
00000000
01000000
00000000
00000000
01000000
00000000
00000000
00000000
10000000
00000000
00100000
00000000
01000000
00000000
,
00100000
10000000
00000000
00000000
01000000
00000000
00010000
00002000
,
00000000
00000000
00000000
00000000
00000000
00000000
00000000
00000000
00000000
00003000
00011000
00000000
;

//---------------dance-double - t7r----------------
#NOTES:
     dance-double:
     t7r:
     Hard:
     9:
     :
00000000
00000000
00000000
00000000
,
00000000
00000000
00000000
00000000
,
00000000
00000000
00000000
00000000
,
00000000
00000000
00000000
00000000
,
00000000
00000000
00000000
00000000
,
00000000
00000000
00000000
00000000
,
00000000
00000000
00000000
00000000
00000000
00000000
00000000
00010000
,
00001000
01000000
00010000
20000000
00000000
31000000
00000000
10000000
,
00100000
00010000
00001000
00020000
01000000
00000000
00031000
00010000
,
00001000
00000100
00000010
00000200
00000000
00000301
00000000
00001000
,
00000001
00000010
00001000
00020000
01000000
00000000
00031000
00010000
,
00001000
01100000
00010000
10010000
,
10000000
01000000
00010000
00002000
00000010
00000000
00013000
00001000
,
00010000
00000110
00001000
00001001
,
00000001
00000100
00001000
00020000
00100000
00000000
00031000
00010000
,
00002000
00000000
00000100
00000000
00000000
00000000
01003000
00010000
,
10000000
01000000
10000000
00000000
00100000
01000000
10000000
02000000
,
00100000
00000000
03010000
00000000
10000000
01000000
00010000
00001000
,
00000100
00000010
00001000
00000000
00000001
00000010
00000100
00002000
,
00000010
00000000
00003001
00000000
00000100
00001000
00010000
00100000
,
20000000
00000000
31000000
00000000
10000000
00100000
00010000
00002000
,
00000100
00000000
01000000
00000000
00003100
00000001
00001000
00000001
,
00000010
00000000
00001000
00000000
00010000
00001000
00000000
00000000
00010000
00000000
00000000
00001000
00010000
00000000
00100000
00000000
,
20000000
01000000
01000000
00000000
00000000
00000000
30020000
00000000
,
10030000
00000000
01100000
00000000
00000000
10000000
00010000
00000000
,
10000000
00000000
01000000
00000000
00000000
00010000
00001000
00000000
,
00000010
00000000
00000001
00000000
00000001
00000000
00000100
00000000
00000010
00001000
00000010
00000000
00001000
00000001
00001000
00000001
,
00001000
00000100
00000010
00002000
00000000
00013000
00001000
00000100
,
00000010
00001000
00010000
00200000
00000000
00310000
10000000
00000000
,
00010000
01000000
00100000
00020000
00000000
00031000
00010000
01000000
,
00100000
00010000
00001000
00000020
00000000
00001030
00000001
00000000
,
00000100
00001000
00010000
00000000
01000000
00010000
10010000
00000000
,
10000000
01000000
00100000
00000000
10000000
00010000
10010000
00000000
,
10000000
00100000
00010000
00000000
00100000
00001000
00011000
00000000
,
00001000
00000000
00000100
00000010
00000100
00000010
00000100
00000000
00000001
00000000
00000000
00000010
00000100
00000000
00000100
00000000
,
00010000
00000000
00001000
00010000
00000000
01000000
00000000
00000000
00001000
00000000
00010000
00001000
00000000
00000100
00000000
00000000
,
00010000
00000000
00001000
00010000
00000000
01000000
00000000
00000000
00200000
00000000
00001000
00000000
00310000
00000000
00000000
00000000
,
00001000
00000000
00010000
00001000
00000000
00000010
00000000
00000000
00010000
00000000
00001000
00010000
00000000
00100000
00000000
00000000
,
00001000
00000000
00010000
00001000
00000000
00000010
00000000
00000000
00000200
00000000
00010000
00000000
00001300
00000000
00000000
00000000
,
00000002
00000003
00000000
00002000
00003000
00000000
00020000
00030000
00000000
00000000
01100000
00000000
10000000
00000000
01100000
00000000
,
20000000
00000000
30200000
00000000
00000000
00000000
00320000
00000000
00000000
00000000
00031000
00010000
00001000
00000000
00010000
00000000
,
00000200
00000300
00000000
02000000
03000000
00000000
00000200
00000300
00000000
00000000
00011000
00000000
00100000
00000000
00011000
00000000
,
00001000
00000000
00000000
00000000
00000000
01100000
00000000
00000000
00000000
00000000
00000000
00000000
00000000
00000000
00000000
00000000
00000000
00000000
00000000
00000000
00000000
00000000
00000000
00000000
10000000
00000000
00000000
00000000
00020000
00000000
00000000
00000000
,
00000000
00000000
00000000
00000000
00000000
00000000
00000000
00000000
00000000
00030000
00000011
00000000
;

//---------------dance-double - t7r----------------
#NOTES:
     dance-double:
     t7r:
     Challenge:
     13:
     :
00000000
00000000
00000000
00000000
,
00000000
00000000
00000000
00000000
,
00000000
00000000
00000000
00000000
,
00000000
00000000
00000000
00000000
,
00000000
00000000
00000000
00000000
,
00000000
00000000
00000000
00000000
,
00000000
00000000
00000000
00000000
00000000
00000000
00000000
20000000
,
32000000
00000000
03200000
00000000
00302000
00000000
00023000
00000000
00000100
00000000
00031000
00000000
00000100
00000001
00001000
00000000
,
00000002
00000000
00000023
00000000
00000230
00000000
00020300
00000000
00000100
00000000
00031000
00000000
00010000
00001000
01000000
00000000
,
00020000
00000000
00230000
00000000
20300000
00000000
30200000
00000000
01000000
00000000
10300000
00000000
00100000
00010000
10000000
00000000
,
00200000
00000000
00320000
00000000
00032000
00000000
00003200
00000000
00000001
00000000
00000310
00000000
00000100
00000001
00001000
00000000
,
00000002
00000000
00000023
00000000
00000230
00000000
00002300
00000000
00000010
00000000
00003001
00000000
00000100
00000010
00001000
00000000
,
00000002
00000000
00000203
00000000
00002300
00000000
00023000
00000000
00000100
00000000
00031000
00000000
00010000
00001000
00100000
00000000
,
00110000
01100000
11000000
20200000
30300000
20010000
01000000
30010000
,
10100000
00000000
00000000
00000000
00000000
00000000
01100000
00000000
00000000
00000000
00000000
00000000
01001000
00000000
00000000
00000000
00000000
00000000
00021000
00000000
00000000
00000000
00000000
00000000
00000010
00000000
00000000
00000000
00000000
00000000
00031000
00000000
00000000
00000100
00000000
00000000
00000010
00000000
00000000
00000000
00000000
00000000
00001000
00000000
00000001
00000000
00001000
00000000
,
00000200
00000001
00000010
00000000
00001000
00001000
00000310
00000001
,
00000200
00000000
00000320
00000000
00002030
00000000
00000000
00000000
00003200
00000000
00010300
00002000
00000000
00000000
02003000
00000000
,
10000000
00100000
10000000
00000000
03100000
01000000
00010000
10000000
,
02000000
03020000
00032000
00000000
00003200
00000302
00000013
00000002
,
00002003
00023000
00030000
00000000
00000000
20000000
30200000
02300000
,
03020000
00100000
20030000
01000000
30010000
10000000
01000000
00100000
,
00010000
00001000
00000010
00000000
00000100
00000001
00001000
00000001
,
00000020
00000000
00000230
00000000
00020300
00000100
00000000
00000000
00032000
00000000
01003000
00010000
10000000
00000000
20010000
00000000
,
30020000
00000000
00032000
00000000
00003002
00000000
00000003
00000000
00000000
00000000
00000000
00000000
00000000
00000010
00000000
00000000
,
00000010
00000000
00000001
00000100
00000000
00000000
00000001
00000000
00001000
00000000
00000100
00000000
00000000
00000000
00000000
00000000
00000000
00000000
00000000
00000000
00000000
00000000
00000000
00000000
,
00010000
00000000
00000000
00010000
00000000
00001000
00000000
01000000
00000000
00000000
00000000
00010000
00000000
00000000
00000000
00000000
00000000
00000000
10000000
00000000
00000000
00000000
00000000
00000000
,
00100000
00000000
00010000
00000000
00011000
00000000
00001000
00000000
00000010
00000100
00000010
00000000
00000001
00001000
00000001
00000001
,
00000200
00000000
00001300
00000100
00000010
00000000
00002000
00000000
00000100
00000000
00003002
00000000
00000013
00000100
00001000
00000000
,
00020000
00000000
00130000
00010000
10000000
00000000
00200000
00000000
00010000
00000000
01300000
00000000
00100000
10000000
00010000
00000000
,
20000000
00000000
32000000
00000000
03200000
00000000
00302000
00000000
01000000
00000000
00013000
00000000
00000100
00001000
00000001
00000000
,
00000100
00000000
00000101
00000000
00000110
00000000
00020010
00000000
00001000
00000000
00030100
00000000
00010000
00001000
00100000
00000000
,
00002000
00000000
00023000
00000000
02030000
00000000
23000000
00000000
00100000
00000000
30010000
00000000
10000000
00100000
01000000
00000000
,
00200000
00000000
20300000
00000000
30020000
00000000
00230000
00000000
00010000
00000000
00301000
00000000
00010000
00000010
00001000
00000000
,
00001010
00000110
00000101
00002002
00003003
00020100
00001000
00030010
,
00001001
00000000
00011000
00000000
10010000
10000000
01000000
00000000
10000000
00000000
00100000
01000000
00010000
00000000
00001000
00000000
,
00000001
00000100
00001000
00000200
00000000
00000301
00000000
00000000
00000001
00000100
00001000
00000200
00000000
00000301
00000000
00000000
,
00000001
00000100
00001000
00020000
00000000
00031000
00000000
00000000
00201000
00000000
00010000
00000000
01300000
00000000
00000000
00000000
,
10000000
00100000
00010000
00200000
00000000
10300000
00000000
00000000
10000000
00100000
00010000
00200000
00000000
10300000
00000000
00000000
,
10000000
00100000
00010000
00002000
00000000
00013000
00000000
00000000
00010200
00000000
00001000
00000000
00000310
00000000
00000000
00000000
,
00000002
00000003
00000000
00002000
00003000
00000000
00020000
00030000
00000000
00000000
01100000
00000000
00100000
00000000
10010000
00000000
,
20000000
00000000
30020000
00000000
00000000
00000000
00032000
00000000
00000000
00000000
00003001
00000001
00000100
00000000
00000010
00000000
,
00002000
00003000
00000000
00000200
00000300
00000000
00020000
00000000
01000000
00000000
00001000
00000000
00030100
00000000
00010000
00000000
,
00001000
00000000
00010000
00100000
10000000
00000000
01000000
00000000
00100000
00000000
00001000
00000000
00010000
00000010
00002000
00000000
,
00000000
00000000
00000000
00000000
00000000
00000000
00000000
00000000
00000000
00003000
11000000
00000000
;
