#TITLE:Hands Up feat. kradness BEMANI Sound Team "Sota Fujimori" Remix;
#ARTIST:BEMANI Sound Team "Sota Fujimori";
#TITLETRANSLIT:Hands Up feat. kradness Sota Fujimori Remix;
#ARTISTTRANSLIT:Sota Fujimori;
#BANNER:Hands Up feat. kradness Sota Fujimori Remix.png;
#BACKGROUND:Hands Up feat. kradness Sota Fujimori Remix-bg.png;
#JACKET:Hands Up feat. kradness Sota Fujimori Remix-jacket.png;
#CDTITLE:./CDTITLES/NONE.PNG;
#MUSIC:Hands Up feat. kradness Sota Fujimori Remix.ogg;
#SAMPLESTART:83.721;
#SAMPLELENGTH:15;
#BPMS:0=172;
#STOPS:228=0.3488372093023255813953488372093,229=0.3488372093023255813953488372093;

//---------------dance-single - t7r----------------
#NOTES:
     dance-single:
     t7r:
     Beginner:
     3:
     :
0000
0000
0000
0000
,
0000
0000
0000
0000
,
0000
0000
0000
0000
,
0000
0000
0000
0000
,
0000
0000
0000
0000
,
0000
0000
0000
0000
,
0001
0000
0000
0000
,
0001
0000
0000
0000
,
1000
0000
0000
0000
,
0010
0000
0100
0000
,
0001
0000
0001
0000
,
1000
0000
1000
0000
,
0010
0000
0010
0000
,
0010
0000
0000
0000
,
0000
0100
0100
0000
,
0100
0000
0100
0000
,
0010
0000
0010
0000
,
0010
0000
0000
0000
,
1000
0000
1000
0000
,
0001
0000
0001
0000
,
0100
0000
0100
0000
,
0010
0000
0010
0000
,
0000
0000
1000
0000
,
0001
0000
0001
0000
,
0010
0000
0010
0000
,
0100
0000
0000
0000
,
1000
0000
0001
0000
,
1000
0000
0000
0000
,
0010
0000
0100
0000
,
0010
0000
0000
0000
,
1000
0000
0001
0000
,
0010
0000
0000
0000
,
0001
0000
1000
0000
,
0010
0000
0000
0000
,
1000
0000
1000
0000
,
0100
0100
0100
0000
,
0010
0000
0010
0000
,
0001
0000
1000
0000
,
0001
0000
1000
0000
,
0010
0010
0010
0000
,
0100
0000
0100
0000
,
0010
0000
0000
0000
,
1000
0000
1000
0000
,
0001
0000
0001
0000
,
0100
0000
0100
0000
,
0010
0000
0010
0000
,
1000
1000
1000
0000
,
0001
0001
0001
0000
,
0100
0100
0100
0000
,
0010
0000
0000
0000
,
0000
1000
0000
1000
,
0000
0001
0000
0001
,
0000
0010
0000
0010
,
0000
0100
0000
0100
,
0100
0000
1000
0000
,
0001
0000
0100
0000
,
0000
0010
0010
0000
,
1000
0001
1001
0000
,
0000
0000
0000
0000
,
0000
0000
0010
0000
,
0000
0000
0001
0000
,
0000
0000
0100
0000
,
0000
0000
1000
0000
,
0000
0000
0000
0010
,
0010
0000
1000
0000
,
0000
0000
0100
0000
,
0000
0000
0001
0000
,
0000
0000
1000
0000
,
0010
0000
0100
0000
,
0010
0000
1000
0000
,
0100
0000
0010
0000
,
0001
0000
0000
1000
,
1000
0000
0001
0000
,
0010
0000
0100
0000
,
0010
0000
1001
0000
,
0000
0000
0000
0000
,
0000
0000
0100
0000
,
0010
0010
0010
0000
,
1000
0000
0001
0000
,
0010
0010
0010
0000
,
0000
0100
0000
0000
;

//---------------dance-single - t7r----------------
#NOTES:
     dance-single:
     t7r:
     Easy:
     7:
     :
0000
0000
0000
0000
,
0000
0000
0000
0000
,
0000
0000
0000
0000
,
0000
0000
0000
0000
,
0000
0000
0000
0000
,
0000
0000
0000
0000
,
0010
0000
1001
0000
,
1000
0000
0100
0000
,
0010
0000
1001
0000
,
0001
0000
1000
1000
,
0100
0000
1001
0000
,
0010
0000
0110
0000
,
0001
0000
1000
0100
,
0020
0000
0001
0000
,
0130
0000
1001
0000
,
0010
0000
0110
0000
,
0001
1000
0010
0100
,
0002
0000
0000
1003
,
0100
0000
0010
0001
,
0100
0000
0100
0000
,
0010
0000
1000
0001
,
0010
0000
0010
0000
,
0001
0000
1000
0010
,
0100
0000
0100
0000
,
0010
0000
1000
0001
,
0020
0000
0000
0031
,
1000
0000
0001
0100
,
0001
0000
1000
0010
,
1000
0100
0010
0001
,
1000
0000
0001
0100
,
0010
0000
0100
0001
,
0010
0100
1100
0000
,
1000
0000
0010
0000
0100
0000
0000
0220
,
0000
0000
0000
0330
,
0001
0010
0001
1000
,
0001
0100
0010
1000
,
0100
0010
0100
1000
,
0010
0100
0001
0011
,
1000
0100
1000
0000
,
0001
0100
0010
0000
,
1000
0001
0010
0001
,
2000
0100
0010
3001
,
1000
0100
0001
0100
,
1000
1000
0001
0001
,
1000
0100
0001
0100
,
1000
1000
0010
1001
,
0001
0100
0010
0010
,
0001
0010
0100
0100
,
0001
0100
0010
0010
,
1000
0100
0010
1001
,
1000
0010
0001
0010
,
1000
0100
0010
0001
,
1000
0100
0001
0100
,
1000
0001
0100
0100
,
0000
0110
0001
0000
,
0010
0000
1000
0000
,
0100
1001
0010
0000
,
0110
1001
0020
0000
,
0000
0000
0100
0100
,
0130
1001
0001
0010
,
0001
0000
1000
0010
,
1000
0000
0001
0100
,
0010
1000
0002
0000
,
0010
0000
1003
0001
,
0100
0000
0010
1000
,
0001
0000
1000
0100
,
0010
0001
2000
0000
,
0000
3010
0100
0001
,
0100
0100
1000
0100
,
0010
0010
0001
0010
,
1000
1000
0001
0010
,
0100
1000
0000
0110
,
0001
0000
1000
0010
,
0100
0100
0110
0000
,
1001
0000
0020
0000
,
0000
0000
1030
0000
,
0000
0001
2000
0000
,
3100
1000
0001
0100
,
0010
1000
0002
0000
,
0013
0100
1000
0010
,
0100
1001
0000
0000
;

//---------------dance-single - t7r----------------
#NOTES:
     dance-single:
     t7r:
     Medium:
     10:
     :
0000
0000
0000
0000
,
0000
0000
0000
0000
,
0000
0000
0000
0000
,
0000
0000
0000
0000
,
0000
0000
0000
0000
,
0000
0000
0000
0000
,
0100
0000
1001
0000
0001
0100
0001
0000
,
0010
0000
1001
0000
1000
0100
1000
0000
,
0001
0100
0010
1000
,
0100
0000
0010
0100
1000
0000
1001
0000
,
0010
0100
0010
0000
2000
0000
0000
0000
,
3100
0010
0100
0000
0020
0000
0000
0000
,
0031
1000
0001
0000
0100
0000
0010
2000
,
0001
0000
0100
3100
,
0010
0010
0002
0000
,
0103
0010
0100
0000
0020
0000
0000
0000
,
1030
0001
1000
0000
0002
0000
0013
0200
,
0000
0000
0000
0310
,
0002
0000
0003
0000
1000
0000
0000
0001
,
0000
1000
0100
0000
1000
0000
0010
0000
,
0200
0000
0300
0000
0001
0000
0000
0010
,
0000
0100
0010
0000
0001
0000
1000
0000
,
0020
0000
0030
0000
0100
0000
0000
0001
,
0000
1000
0010
0000
1000
0000
0001
0000
,
2000
3000
0100
0000
,
1000
0010
0100
1001
,
0001
0000
0010
0000
0100
0000
0010
0002
,
0000
0000
1003
0010
,
0100
0000
0010
0000
1000
0000
0100
2000
,
0000
0000
3100
0010
,
0002
0000
0000
0000
2003
0000
0000
3010
,
0000
0100
0010
0000
1000
0000
0001
0000
,
1000
0000
0100
0000
0001
0000
0100
0010
,
0100
0100
0010
1001
,
0001
0100
0001
0000
1000
0000
0010
0000
,
1000
0000
0001
0000
0100
0001
1000
0000
,
0100
1000
0100
0000
0010
0000
0001
0000
,
1000
0010
0100
1001
,
0010
0000
0100
0000
0001
0000
0010
0100
,
0000
0100
1000
0000
0010
0000
0100
0000
,
0001
0000
1000
0000
0010
0000
0100
0020
,
0000
0000
0000
0130
,
0001
0010
1000
0010
,
0001
0010
0100
0001
,
0100
1000
0100
0001
,
0100
0010
0001
1000
,
0010
0000
0100
0010
0000
0000
0100
0000
0000
0110
0000
0000
,
0001
0000
1000
0001
0000
0000
1000
0000
0000
1001
0000
0000
,
0100
0000
1000
0100
0000
0000
1000
0000
0000
1100
0000
0000
,
0010
0000
0010
0000
0010
0000
0100
0000
0000
1001
0000
0000
,
0001
0100
0001
0000
0001
0010
0001
0000
,
0001
1000
0100
0010
0002
0000
0000
0000
,
1003
0100
1000
0000
1000
0010
1000
0000
,
0010
0100
0010
0000
0100
0000
0100
0000
,
0010
0000
1001
0000
0010
0100
1000
0000
,
0010
0100
0001
0000
1000
0000
0010
0000
,
0100
0110
0001
0010
,
1001
0110
0020
0000
,
0000
0000
0000
0000
0130
0001
0100
1000
,
0100
0010
1000
0100
,
2100
3001
0100
0001
,
0012
1003
0010
0100
,
0210
0000
0301
2000
0010
0000
0001
0000
,
0100
3010
0100
0110
,
0002
0000
0103
2000
0000
3100
0010
0000
,
2000
0000
3100
0002
0000
0103
0010
0000
,
0200
0000
0310
0002
1000
0000
0100
0000
,
0013
0000
1001
0000
0001
0100
0001
0000
,
0010
0000
0001
0000
1000
0010
1000
0000
,
0001
0000
0100
0000
0010
1000
0001
0000
,
0010
0000
0001
0000
1000
0001
0100
0000
,
0010
0010
0100
1001
,
0100
1000
0010
0000
0100
0000
0001
0000
,
0010
0001
0100
0000
2002
0000
3003
0000
,
0100
0000
0000
0010
0000
0000
2001
0000
0000
0000
0000
0000
0000
0000
0000
0000
,
0000
0000
0000
3010
0000
0000
1000
0000
0100
0000
0010
0000
,
0001
1001
1000
0010
,
0100
0000
0000
1000
0000
0000
0100
0000
0010
0000
0000
0000
1000
0000
0000
0000
,
0100
0010
1001
0100
,
0001
0000
0000
0010
0000
0000
0100
0000
0001
0000
0000
0000
0100
0000
0000
0000
,
1000
0110
0000
0000
;

//---------------dance-single - t7r----------------
#NOTES:
     dance-single:
     t7r:
     Hard:
     13:
     :
0000
0000
0000
0000
,
0000
0000
0000
0000
,
0000
0000
0000
0000
,
0000
0000
0000
0000
,
0000
0000
0000
0000
,
0000
0000
0000
0000
,
0010
0000
0000
0000
1001
0000
0000
0000
0001
0000
0000
0010
0000
0000
0001
0000
,
0100
0000
0000
0000
0110
0000
0000
0000
1000
0000
0000
0010
0000
0000
1000
0000
,
0100
0000
1000
0000
0001
0000
0000
0000
0100
0000
0000
0001
0000
0000
1000
0000
,
0010
0000
0000
0200
0000
0000
0301
0000
1000
0000
0000
0000
2001
0000
0000
0000
,
3010
1000
0100
0000
1100
0000
0000
0000
,
0010
0001
0100
0000
0101
0000
0000
0000
,
0001
0010
0100
0000
1000
0000
0001
0020
,
0001
0000
0001
0000
0031
0000
0100
0010
,
1000
0010
1001
0000
,
0100
0001
0010
0000
0011
0000
0000
0000
,
0100
1000
0010
0000
1000
0000
0001
2000
,
0100
0100
3100
0110
,
0001
0000
0000
0000
1000
0000
0000
0000
0010
0000
0000
1000
0000
0000
0100
0000
,
0000
1000
0001
0000
0100
0000
0001
0000
,
1000
0000
0100
0000
0000
0000
0000
0000
0010
0000
0000
0001
0000
0000
1000
0000
,
0000
0001
0010
0000
0001
0100
0010
0100
,
0000
0000
0000
0000
0010
0000
0000
0000
1001
0000
0000
0001
0000
0000
0001
0000
,
1000
0010
0000
1000
0100
0010
0001
0000
,
0100
0000
0000
0000
0010
0000
0000
0000
1001
0000
0000
1000
0000
0000
1000
0000
,
0002
2003
3020
0130
,
0010
1000
0100
0000
0010
1000
0100
1000
,
0000
1000
0010
0000
0100
0001
1000
0000
,
0001
0010
0100
0000
0001
0010
0100
0010
,
0000
0010
0001
0000
1000
0001
0010
0000
,
0100
1000
0010
0000
0100
1000
0010
1000
,
0000
1000
0001
0000
0100
0000
0110
0000
,
1000
0001
0010
0000
1000
0001
0010
0001
,
0100
0000
0000
0010
0000
0000
0100
0000
0001
0000
0000
0000
1001
0000
0000
0000
,
1000
0100
0010
0100
1000
0000
0010
0100
,
1000
0100
0010
1000
0001
0000
0011
0000
,
0001
0010
0100
0010
0001
0000
0100
0010
,
0001
0010
0100
0001
1000
0000
0110
0000
,
0100
0001
1000
0010
0100
0000
0010
1000
,
0000
0001
0000
0110
0000
1000
0001
0000
,
0010
0001
1000
0100
0000
0001
0100
0010
,
0001
1010
0101
1100
,
0010
0000
0010
1000
0000
1000
0001
0000
0001
0100
0000
0000
,
0010
0000
0010
1000
0000
1000
0001
0000
0001
0010
0000
0000
,
0100
0000
0100
0010
0000
0010
0001
0000
0001
1000
0000
0000
,
0100
0000
0100
1000
0000
1000
0010
0000
0010
0100
0000
0000
,
0010
0000
1000
0001
1000
0001
1000
0000
0000
0010
0000
0000
,
0100
0000
0001
1000
0001
1000
0001
0000
0000
0010
0000
0000
,
0100
0000
0010
0001
0010
0001
0010
0000
0000
0001
0000
0000
,
0100
0000
0010
0000
0100
0000
2001
0000
0000
3010
0000
0000
,
1000
0100
1000
0100
0010
0001
0010
0001
,
1000
0100
0010
0001
0010
0100
1000
0001
,
1000
0010
1000
0010
0100
0001
0100
0001
,
1000
0010
0100
0001
0100
0000
0110
0000
,
1001
0000
0010
0000
0001
0100
0001
0100
,
0001
0010
0100
1000
0100
0010
0001
1000
,
0001
0110
1000
0110
,
1001
0110
0020
0000
,
0000
0000
0100
0100
,
0130
0000
1001
0000
0001
0010
0100
0000
,
0001
0000
0000
1000
0000
0000
0001
0000
1000
0000
0010
0000
0100
0000
0000
0000
,
1000
0000
0000
0001
0000
0000
1000
0000
0001
0000
0100
0000
0010
0000
0000
0000
,
0001
0000
0000
1000
0000
0000
0020
0000
0001
0000
0000
0000
0100
0000
0000
0000
,
1030
0000
0100
0010
0100
0000
0110
0000
,
1000
0000
0000
0100
0000
0000
0010
0000
0001
0000
0100
0000
0010
0000
0000
0000
,
0001
0000
0000
0010
0000
0000
0100
0000
2001
0000
0000
0000
3010
0000
0000
0000
,
0110
0000
0000
0001
0000
0000
0200
0000
1000
0000
0000
0000
0010
0000
0000
0000
,
0301
0000
1001
0000
0001
0010
0001
0100
,
0001
0010
0100
1000
0001
0100
0010
1000
,
0001
0010
1000
0000
0010
0001
0100
0001
,
1000
0100
0010
0001
1000
0010
0100
0001
,
1000
0100
0001
0100
0010
0000
1001
0000
,
0001
0100
0010
0001
1000
0100
0010
1000
,
0001
0010
0100
1000
0010
0000
0110
0000
,
0101
0000
0000
1100
0000
0000
0201
0000
0010
0000
0000
0000
1000
0000
0000
0000
,
0301
0000
0000
1001
0000
0000
1000
0000
0001
0000
0100
0000
,
0010
0110
2010
3001
,
1100
0000
0000
0101
0000
0000
1000
0000
0001
0000
0100
0000
0010
0000
0000
0000
,
0001
0010
0100
1000
0001
0000
0110
0000
,
1010
0000
0000
0011
0000
0000
1000
0000
0001
0000
0100
0000
0100
0000
1000
0000
,
0001
0100
0110
0000
0000
0000
0000
0000
;

//---------------dance-single - t7r----------------
#NOTES:
     dance-single:
     t7r:
     Challenge:
     16:
     :
0000
0000
0000
0000
,
0000
0000
0000
0000
,
0000
0000
0000
0000
,
0000
0000
0000
0000
,
0000
0000
0000
0000
,
0000
0000
0000
0000
,
0001
0000
0100
0001
1000
0000
0100
1000
0001
0000
1000
0100
0000
1000
0100
0000
,
1000
0000
0010
0100
0001
0000
0010
0100
1000
0000
0010
1000
0000
0010
1000
0001
,
1000
0000
1000
0000
0100
0000
0100
0000
0010
0000
0000
1001
0000
0000
0001
0000
,
0001
0000
1000
0100
0000
0010
0200
0000
0301
0000
0100
0000
1001
0000
0000
0000
,
1100
0100
0010
0000
2002
0000
3003
0000
,
0101
0100
0010
0000
0220
0000
0330
0000
,
0011
0010
0100
0000
2001
0000
3010
0100
,
0001
0000
0010
0000
0100
0000
0001
0100
0001
0000
0100
0000
0010
0000
0001
0000
,
0101
0010
2002
3003
,
1100
0100
0010
0000
0220
0000
0330
0000
,
1010
0010
0100
0000
1002
0000
0013
0100
,
1000
0000
0010
0000
0100
0000
1000
0100
1000
0000
0100
0000
0110
0000
0000
0000
,
1000
0000
0000
0100
0000
0000
0010
0000
1000
0000
0010
0100
0000
0000
1000
0000
,
0001
0000
0100
0010
0100
0000
0001
0000
0010
0000
0100
0010
0100
0000
0010
0000
,
0001
0000
0200
0000
0000
0000
1300
0000
0100
0000
0010
1000
0000
0000
0001
0000
,
0010
0000
0001
0100
0001
0000
1000
0000
0100
0000
1000
0010
1000
0000
0001
0000
,
1000
0001
0000
0100
0010
0000
0000
0000
1001
0000
0000
0010
0000
0000
0100
0000
,
0001
0000
0100
0010
0100
0000
0010
0000
0001
0000
0100
0010
0100
0000
0010
0000
,
1000
0001
0000
0010
0100
0000
0000
0000
1001
0000
0000
0010
0000
0000
1000
0000
,
0200
0000
0000
0000
0301
0100
0001
0100
1000
0001
1000
0001
0100
0000
0000
0000
,
0010
1000
0100
0010
0100
1000
0010
0100
,
0001
0010
1000
0010
0100
1000
0001
1000
,
0100
0001
0100
0010
0100
1000
0100
0010
,
0001
0100
1000
0100
0010
1000
1001
0001
,
0101
0001
0010
0100
1000
0100
0010
0001
,
1000
0010
0001
0010
0100
0001
1000
0001
,
0010
1000
0010
0100
0000
0110
0001
0001
,
1000
0010
0000
0010
0100
0000
0001
0000
0100
0000
0010
0000
1001
0000
0000
0000
,
0001
0000
0010
0000
0001
0100
0010
1000
0000
1000
0001
0000
1000
0000
0100
0000
,
1000
0000
0010
0000
1000
0100
0010
0001
0000
0001
1000
0000
0001
0000
0010
0000
,
0001
0100
0001
0000
0100
0000
1000
0000
0100
0000
0010
0000
1000
0000
0100
0000
,
0001
0100
0010
0000
0100
0000
1001
0000
,
0010
0000
1000
0000
0100
0010
0001
1000
0000
1000
0010
0000
0100
0000
0101
0000
,
0000
1010
0000
1100
0000
0010
1001
0000
,
0010
0100
0001
0011
0000
1000
1010
0010
,
0100
0001
0000
0000
0100
1000
0000
0000
0100
0000
0000
0000
1010
0000
0000
0000
,
1000
0000
1000
0100
0000
0100
0001
0100
1000
0001
0100
1000
,
0100
0001
0100
0010
1000
0001
0010
0100
0010
0001
1000
0010
,
1000
0000
1000
0010
0000
0010
0001
0010
1000
0001
0010
1000
,
0010
0000
0110
0000
1100
0000
0001
0100
0010
0110
0000
0000
,
1000
0010
0001
1000
0100
0010
1000
0100
0001
0100
0000
1000
,
0001
0010
1000
0001
0100
0010
0001
0100
1000
0100
0000
0000
,
0010
0010
0010
0010
0100
0001
0100
1000
0100
0010
0000
0000
,
0100
0000
0110
0000
0101
0000
0001
0010
0100
1001
0000
0000
,
1000
0000
0001
0000
0100
0000
0010
1000
0010
0000
1000
0001
1000
0000
0001
0000
,
0010
0000
0100
0000
0010
0001
1000
0010
0100
0001
1000
0100
0010
0001
1000
0001
,
0100
0000
0001
0000
0010
0000
0100
0000
1000
0000
0001
0000
0100
0000
0010
1000
,
0010
0010
0001
0010
1010
0000
0101
0000
,
2100
0000
3010
0000
1001
0100
0010
0000
,
0001
0010
0100
1000
0001
0010
0100
1000
0001
0100
0010
1000
0001
0100
0010
1000
,
0001
0100
0010
0000
0110
0000
0000
0000
0101
0000
0000
0000
1010
0000
0000
0000
,
1100
0011
2001
0000
,
0000
0000
0000
0000
0000
0000
0000
0000
3010
0001
0010
0001
0010
1000
0010
1000
,
0010
0100
0010
0100
0010
0000
0000
0000
1000
0000
0100
0010
0001
0000
1000
0000
,
0010
0000
0000
1010
0000
0000
0101
0000
0001
0000
0010
0100
1000
0000
0001
0000
,
0010
0000
0000
0011
0000
0000
1100
0000
0100
0000
1000
0010
0100
0000
0010
0000
,
0110
0000
0000
1001
0000
0000
0110
0000
0010
0000
1000
0000
0100
0000
0001
0100
,
0001
0000
0100
1000
0100
0000
1000
0000
0010
0000
0000
0000
0110
0000
0000
0000
,
0101
0000
0000
0011
0000
0000
1001
0000
0000
0000
0100
1000
0001
0000
0100
0000
,
0110
0000
0010
1000
0001
0000
1000
0000
1010
0000
0010
1000
0100
0000
0001
0000
,
0100
0000
0010
0001
1000
0000
0020
0000
0000
0000
0000
0000
0000
0000
0000
0000
,
1030
0010
1000
0010
0100
0000
0000
0000
0001
0000
0010
0000
0100
0001
0100
0010
,
0000
0010
0001
0000
1000
0001
0010
0000
0001
0000
0100
0000
1000
0100
0000
0010
,
0100
0000
0010
0001
0000
0010
1000
0001
1000
0000
0100
0000
0010
1000
0010
0001
,
0000
0010
0000
0001
1000
0000
1001
0000
0001
0000
0100
0000
0010
0000
0001
0010
,
1000
0000
0100
0000
0010
0000
0100
0000
1000
0010
0100
0000
1001
0000
1000
0100
,
0000
0100
0010
0000
1000
0010
0100
0000
1000
0000
0001
0000
0100
1000
0000
0100
,
0010
0000
0001
0010
0000
1000
0100
0010
0001
0000
0010
0001
1000
0000
0000
0010
,
0100
0000
0000
0110
0000
0000
1001
0000
0001
0000
0010
0000
1000
0000
0010
0000
,
0001
0100
0010
1000
0001
0010
0100
1000
0020
0000
0000
0000
0000
0000
0000
0000
,
0030
0000
0000
0000
1001
0000
0000
0000
1000
0000
0100
0000
0010
0001
0100
0001
,
0010
0000
0001
0100
0000
1000
0100
0000
0010
0000
1000
0010
1000
0000
0010
0001
,
0010
0000
0100
0000
0010
0000
1000
0000
0001
0010
0100
0000
0010
0000
0000
0000
,
0011
0000
0000
1100
0000
0000
0101
0000
1000
0000
0010
0000
0001
0010
0100
0010
,
1000
0100
0010
0001
1000
0000
0000
0000
0000
0000
0000
0000
0000
0000
0000
0000
;

//---------------dance-double - t7r----------------
#NOTES:
     dance-double:
     t7r:
     Easy:
     7:
     :
00000000
00000000
00000000
00000000
,
00000000
00000000
00000000
00000000
,
00000000
00000000
00000000
00000000
,
00000000
00000000
00000000
00000000
,
00000000
00000000
00000000
00000000
,
00000000
00000000
00000000
00000000
,
01000000
00000000
00010000
10000000
,
01000000
00000000
00100000
00001000
,
00010000
00000000
00000010
00001000
,
00000001
00000100
00000010
00000000
,
00001000
00000000
00001100
00000000
,
00000100
00000000
00010100
00000000
,
00010000
00000000
00011000
00000000
,
00002000
00010000
01003000
00000000
,
00100000
00000000
01100000
00000000
,
10000000
00000000
11000000
00000000
,
01000000
00000000
01100000
00000000
,
00100000
00001000
00010000
00011000
,
00001000
00000000
00000010
00000000
,
00000001
00000100
00000010
00000000
,
00001000
00000000
00000100
00010000
,
00001000
00000000
00010000
00000000
,
01000000
00000000
00100000
00010000
,
10000000
00000000
00100000
00000000
,
00010000
00000000
00001000
00010000
,
00001000
00000000
00000010
00000000
,
00000001
00000000
00000100
00000000
,
00000010
00001000
00000100
00000000
,
00010000
00000000
00001000
00000000
,
01000000
00010000
00100000
00000000
,
01000000
00000000
00100000
00000000
,
00010000
10000000
00100000
00000000
,
00010000
00000000
00001000
00000000
,
00000100
00000010
00000100
00000000
,
00000001
00000010
00000100
00000010
,
00000001
00000100
00000010
00001000
,
00010000
01000000
00100000
01000000
,
00010000
00100000
01000000
00100000
,
00010000
10000000
01000000
00100000
,
01000000
00000000
01000000
00000000
,
10000000
00100000
01000000
00010000
,
00001000
00000010
00001010
00000000
,
00000001
00000001
00000020
00000000
,
00000031
00000001
00000100
00000010
,
00001000
00001000
00000200
00000000
,
00010300
00001000
00010000
00011000
,
00001000
00010000
01000000
10000000
,
00010000
00100000
00001000
00010000
,
00001000
00010000
00001000
00000100
,
00000001
00000010
00000100
00001000
,
00000001
00000100
00000001
00000100
,
00000010
00000010
00001000
00001000
,
00000100
00010000
00000100
00010000
,
00001000
00001000
00010000
00010000
,
01000000
00100000
00010000
10000000
,
00100000
01000000
00010000
00001000
,
00000010
00000100
00000001
00001000
,
00001001
00001100
00020000
00000000
,
00000000
00000000
00031000
00001000
,
00001000
00000000
00010000
01000000
,
00100000
00000000
00010000
01000000
,
00100000
00000000
10000000
01000000
,
00100000
00001000
00020000
00000000
,
00000010
00000100
00031000
00000100
,
00000010
00000000
00001000
00000100
,
00000010
00000000
00000001
00000000
,
00000100
00001000
00020000
00000000
,
00000000
00031000
00100000
00010000
,
00100000
00010000
10000000
00100000
,
01000000
00010000
00001000
00000010
,
00000100
00000010
00001000
00000100
,
00000010
00000001
00000100
00001000
,
00011000
00000000
01000000
00010000
,
00011000
00000000
00000010
00000000
,
00001000
00000000
00000001
00000010
,
00000100
00001000
00020000
00000000
,
00000000
10030000
01000000
00000000
,
00100000
00000000
00001000
00010000
,
00001000
00000000
00010000
00000000
,
00000010
00000000
00000100
00000010
,
00001000
00001100
00000000
00000000
;

//---------------dance-double - t7r----------------
#NOTES:
     dance-double:
     t7r:
     Medium:
     10:
     :
00000000
00000000
00000000
00000000
,
00000000
00000000
00000000
00000000
,
00000000
00000000
00000000
00000000
,
00000000
00000000
00000000
00000000
,
00000000
00000000
00000000
00000000
,
00000000
00000000
00000000
00000000
,
00100000
00000000
10010000
00000000
10000000
01000000
10000000
00000000
,
00100000
00000000
01000000
00000000
00010000
00100000
00010000
00000000
,
00100000
00001000
00010000
00000100
,
00001000
00000000
00000010
00000100
00000001
00000000
00001001
00000000
,
00000001
00000100
00000001
00000000
00002000
00000000
00000000
00000000
,
00003100
00010000
00000100
00000000
00020000
00000000
00000000
00000000
,
00031000
01000000
00001000
00000000
00020000
00000000
00000000
00000000
,
01030000
00000000
01000000
00000000
10000000
00100000
01000000
00000000
,
00010000
10000000
20010000
00000000
,
31000000
00010000
00000000
00000000
00012000
00000000
00000000
00000000
,
00003100
00000010
00000000
00000000
00001001
00000000
00000001
00000020
,
00000000
00000000
00000000
00000130
,
00000020
00000000
00000030
00000000
00000001
00000000
00000000
00001000
,
00000000
00000100
00010000
00000000
00001000
00000000
01000000
00000000
,
00010000
00000000
00000000
00000000
10000000
00000000
01000000
00100000
,
00000000
01000000
10000000
00010000
,
01000000
00001000
00011000
00000000
,
00000100
00000000
00001000
00000000
00000001
00000100
00000000
00000000
,
00000001
00000010
00000110
00000000
,
00000001
00000100
00001000
00010000
,
00001000
00000000
01000000
00000000
00010000
00000000
10000000
00200000
,
00000000
01300000
00010000
10000000
,
01000000
00000000
00010000
00000000
00001000
00000000
00010000
00000020
,
00000000
00000130
00000001
00001000
,
00000002
00000000
00000010
00000000
00002003
00000000
00003100
00020000
,
00000000
00000000
00031000
00000000
00010000
00000000
01000000
00100000
,
01000000
00000000
10000000
00000000
00100000
00000000
01000000
00020000
,
10000000
00000000
01030000
00100000
,
10000000
01000000
10000000
00000000
00010000
00000000
00100000
00000000
,
01000000
00100000
01000000
00000000
00100000
00000000
00001000
00000000
,
00010000
00001000
00010000
00000000
00000010
00000000
00001000
00000000
,
00000001
00000100
00000001
00000000
00000010
00000000
00000110
00000000
,
00000001
00000100
00000001
00000000
00000010
00000000
00001000
00010000
,
00000000
00001000
01000000
01010000
,
00010000
00000000
00100000
01000000
10000000
00000000
00100000
01000000
,
00010000
00100000
00001000
00011000
,
00010000
01000000
10000000
00010000
,
01000000
00100000
00010000
00011000
,
00001000
00000100
00000001
00001000
,
00000100
00000010
00001000
00011000
,
00010000
00000000
01000000
00100000
00000000
00000000
01100000
00000000
00000000
00000000
00000000
00000000
,
10000000
00000000
00100000
01000000
00000000
00000000
01010000
00000000
00000000
00000000
00000000
00000000
,
00001000
00000000
00010000
00000010
00000000
00000000
00001010
00000000
00000000
00000000
00000000
00000000
,
00000001
00000000
00000001
00000000
00000001
00000000
00000010
00000000
00000000
00001000
00000000
00000000
,
00010000
00000000
00100000
01000000
00100000
00000000
10000000
00000000
,
01000000
00100000
00001000
00010000
,
00001000
00000000
00000010
00000100
00000010
00000000
00000001
00000000
,
00000100
00000010
00001000
00010000
,
10000000
10010000
01000000
00000000
,
00001000
00000000
00011000
00000000
00100000
00000000
01000000
10000000
,
00010000
10000000
00100000
00010000
,
00001000
00011000
00000020
00000000
,
00000000
00000000
00000000
00000000
00000130
00000001
00001000
00000000
,
00000100
00011000
00001000
01000000
,
01020000
10030000
01000000
00100000
,
01200000
00310000
10000000
00100000
,
00020000
00000000
00030010
00002000
00000100
00000000
00000001
00000000
,
00003010
00000100
00000010
00000000
00001000
00000000
00000100
00000000
,
00010100
00000000
00000100
00020000
00001000
00000000
00030100
00000000
,
00010000
00000000
00001000
02000000
00010000
00000000
03100000
00000000
,
10000000
00000000
01000000
00020000
00001000
00000000
00000100
00000000
,
00031000
00011000
00001000
00010000
,
00100000
10000000
00010000
00100000
,
01000000
10000000
01000000
00100000
,
00001000
00000000
00010000
00000000
00001000
00000000
00000010
00000100
,
00000010
00000010
00000001
00000100
,
00000001
00000010
00000001
00000000
00001000
00000000
00000010
00000000
,
00001000
00000100
00001000
00000000
00000100
00000000
00000000
00010000
,
00001000
00000000
00000000
00010000
00000000
00000000
02000000
00000000
00100000
00000000
00000000
00000000
00000000
00000000
00000000
00000000
,
13000000
00000000
00000000
00010000
00000000
00000000
10000000
00000000
01000000
00000000
00100000
00000000
,
00010000
00001000
00000010
00000100
,
00000001
00000000
00000000
00000010
00000000
00000000
00000001
00000000
00001000
00000000
00000000
00000000
00000001
00000000
00000000
00000000
,
00000100
00001000
00010000
00001000
,
00011000
00000000
00000000
00100000
00000000
00000000
01000000
00000000
10000000
00000000
00000000
00000000
00010000
00000000
01000000
00000000
,
00001000
00011000
00000000
00000000
;

//---------------dance-double - t7r----------------
#NOTES:
     dance-double:
     t7r:
     Hard:
     13:
     :
00000000
00000000
00000000
00000000
,
00000000
00000000
00000000
00000000
,
00000000
00000000
00000000
00000000
,
00000000
00000000
00000000
00000000
,
00000000
00000000
00000000
00000000
,
00000000
00000000
00000000
00000000
,
00000002
00000000
00000000
00000000
00000100
00000000
00000000
00000000
00001003
00000000
00000000
00000010
00000000
00000000
00000200
00000000
,
00000000
00000000
00000301
00001000
00000000
00000100
00010000
00000000
,
00002000
00000000
00000000
00000000
01000000
00000000
00000000
00000000
00013000
00000000
00000000
00000100
00000000
00000000
00010000
00000000
,
00001000
00000000
00000000
00010000
00000000
00000000
01000000
00000000
10000000
00000000
00100000
00000000
01000000
00000000
00000000
00000000
,
10010000
00000000
10000000
00000000
02000000
00000000
03100000
00020000
,
10000000
00000000
00130000
00000000
00002000
00000000
00013000
00000020
,
00000100
00000000
00001030
00000000
00000002
00000000
00000013
00001000
,
00010000
00000000
00010000
00001000
00010000
01000000
10000000
00100000
,
01000000
00000000
00100000
00000000
10010000
00000000
10000000
02000000
,
00010000
00000000
03100000
00000000
00001000
00000000
00010000
00002000
,
00000100
00000000
00013000
00000000
00001000
00001000
00000010
00000200
,
00000001
00000000
00000010
00000000
00001300
00000001
00001000
00000000
,
00000001
00000000
00000200
00000000
00000000
00000000
00000000
00000000
00000301
00000000
00000000
00000010
00000000
00000000
00000001
00000000
,
00000100
00000010
00001000
00000000
00000100
00010000
00001000
00000000
,
00100000
00000000
00010000
00000000
10000000
00000000
00000000
00000000
00100000
00000000
00000000
01000000
00000000
00000000
00010000
00000000
,
10000000
01000000
00100000
00010000
00001000
00000000
00000010
00000000
,
00001000
00000000
00000000
00000000
00000001
00000000
00000000
00000000
00001001
00000000
00000000
00000001
00000000
00000000
00000100
00000000
,
00000010
00001000
00000100
00000000
00010000
00001000
01000000
00000000
,
00010000
00000000
00100000
00000000
01000000
00000000
00000000
00000000
10000000
00000000
00000000
00100000
00000000
00000000
00010000
00000000
,
00001000
00000000
00000010
00000001
00000100
00000000
00001001
00000000
,
00000001
00000010
00000100
00000000
00000001
00000010
00000100
00001000
,
00000000
00001000
00000001
00000000
00000100
00001000
00010000
00000000
,
00001000
00100000
01000000
00000000
00010000
00100000
01000000
10000000
,
00000000
10000000
00100000
00000000
10000000
00010000
01000000
00010000
,
10000000
00100000
01000000
00000000
10000000
00100000
01000000
00010000
,
00000000
00010000
10000000
00000000
01000000
00000000
00010000
00001000
,
00010000
00000000
00001000
00000010
00000001
00000000
00000100
00000010
,
00001000
00000000
00000000
00000100
00000000
00000000
00010000
00000000
00001000
00000000
00000000
00000000
00011000
00000000
00000000
00000000
,
00001000
00000100
00000010
00000000
00001000
00000100
00000010
00001000
,
00000000
00001000
00010000
00000000
00001000
00000000
00011000
00000000
,
00010000
01000000
00100000
00000000
00010000
01000000
00100000
00010000
,
00000000
00010000
00001000
00000000
00010000
00000000
00011000
00000000
,
00001000
00010000
00100000
10000000
00000000
10000000
00010000
10000000
,
00000000
01000000
00010000
00000000
00001000
00000000
00011000
00000000
,
00001000
00000000
00000010
00000000
00000001
00000000
00000100
00002000
,
00010000
01000000
00013000
00011000
,
00010000
00000000
00010000
00100000
00000000
00100000
01000000
00000000
01000000
00010000
00000000
00000000
,
10000000
00000000
10000000
01000000
00000000
01000000
00100000
00000000
00100000
00010000
00000000
00000000
,
00001000
00000000
00001000
00000010
00000000
00000010
00000100
00000000
00000100
00000001
00000000
00000000
,
00001000
00000000
00000000
00000100
00000000
00000000
00010000
00001000
00010000
00001000
00000000
00000000
,
00010000
00000000
01000000
10000000
00000000
00010000
00100000
00000000
00001000
00010000
00000000
00000000
,
00001000
00000000
00000100
00000001
00000000
00001000
00000010
00000000
00010000
00001000
00000000
00000000
,
00010000
00000000
00100000
10000000
00000000
00010000
01000000
00000000
00001000
00010000
00000000
00000000
,
00001000
00000000
00000010
00000001
00000100
00000010
00001000
00000000
00000100
00010000
00000000
00000000
,
00001000
00010000
01000000
00000000
00100000
00010000
01000000
00000000
,
00100000
10000000
01000000
00100000
00010000
00001000
00000010
00000100
,
00000001
00000010
00000100
00000000
00000010
00000001
00001000
00000000
,
00000001
00000100
00000010
00001000
00010000
00000000
10000000
00000000
,
00100000
00000000
10010000
00000000
10000000
01000000
00100000
00000000
,
00010000
00001000
00000010
00000100
00000001
00001000
00000001
00000010
,
00000100
00011000
01000000
00011000
,
00100000
00000010
00012000
00000000
,
00000000
00000000
00010000
00010000
,
00013000
00000000
00011000
00000000
00010000
01000000
10000000
00000000
,
00100000
00000000
00000000
01000000
00000000
00000000
00001000
00000000
00010000
00000000
00001000
00000000
00000100
00000000
00000000
00000000
,
00000010
00000000
00000000
00000100
00000000
00000000
00000001
00000000
00000010
00000000
00000100
00000000
00010000
00000000
00000000
00000000
,
00001000
00000000
00000000
00010000
00000000
00000000
00200000
00000000
00010000
00000000
00000000
00000000
01000000
00000000
00000000
00000000
,
10300000
00010000
10000000
00010000
00100000
00000000
10010000
00000000
,
10000000
01000000
00100000
02000000
00000000
13000000
00010000
00000000
,
01000000
00001000
00010000
00002000
00000100
00000000
00013000
00000000
,
00001000
00000010
00000001
00000200
00001000
00000000
00000010
00000000
,
00000301
00000010
00001001
00000000
00000001
00000100
00000001
00000010
,
00000001
00000100
00001000
00010000
00001000
00100000
00010000
01000000
,
00010000
00100000
01000000
10000000
00100000
01000000
00010000
10000000
,
01000000
00100000
01000000
10000000
00010000
00100000
00001000
00010000
,
00000010
00001000
00000001
00000100
00000010
00000000
00001001
00000000
,
00000001
00000100
00000001
00001000
00000010
00010000
00000100
00010000
,
00001000
00010000
00100000
01000000
00010000
00100000
01000000
00100000
,
00010000
10000000
00100000
00010000
00001000
00000010
00000100
00000010
,
00000001
00000000
00000000
00000100
00000000
00000000
00001001
00000000
00000000
00000000
00000000
00000000
00000001
00000000
00000000
00000000
00000100
00000000
00000000
00000000
00001000
00000000
00000000
00000000
,
00010000
00000000
00011000
00000000
00010000
00100000
10000000
00000000
,
01000000
00000000
00000000
00100000
00000000
00000000
10000000
00000000
01000000
00000000
00100000
00000000
00000000
00000000
10000000
00000000
,
01000000
00010000
00001000
00000000
00010000
00000000
00011000
00000000
,
00001000
00000000
00000000
00000100
00000000
00000000
00000010
00000000
00001000
00000000
00000000
00000000
00000001
00000000
00000000
00000000
,
00000010
00001000
00011000
00000000
00000000
00000000
00000000
00000000
;

//---------------dance-double - t7r----------------
#NOTES:
     dance-double:
     t7r:
     Challenge:
     16:
     :
00000000
00000000
00000000
00000000
,
00000000
00000000
00000000
00000000
,
00000000
00000000
00000000
00000000
,
00000000
00000000
00000000
00000000
,
00000000
00000000
00000000
00000000
,
00000000
00000000
00000000
00000000
,
00000001
00000000
00000100
00000001
00001000
00000000
00000100
00001000
00000001
00000000
00000100
00000010
00000000
00000100
00000001
00000000
,
00000010
00000000
00000100
00010000
00001000
00000000
00010000
00001000
01000000
00000000
00100000
01000000
00000000
00010000
01000000
00010000
,
10000000
00000000
10000000
00000000
01000000
00000000
01000000
00000000
00100000
00000000
00000000
10010000
00000000
00000000
10000000
00000000
,
00100000
00000000
00010000
00001000
00000000
00010000
00000020
00000000
00000130
00000000
00000001
00000000
00001001
00000000
00000000
00000000
,
00000101
00000100
00000010
00001000
00000001
00000100
00001000
00010000
,
00011000
00010000
00100000
01000000
00010000
00100000
01000000
10000000
,
11000000
00000000
01000000
00000000
00100000
00000000
01000000
00000000
10000000
00000000
00100000
00000000
00010000
00000000
00001000
00010000
,
00001000
00000000
00010000
00000000
00000100
00000000
00001000
00000001
00001000
00000000
00000001
00000000
00000100
00000000
00001000
00000000
,
00010000
00000000
00001000
00000000
00011000
00010000
01000000
00100000
,
01000000
10000000
00100000
01000000
00100000
00010000
00001000
00000010
,
00000110
00000000
00000010
00000000
00000001
00000000
00000100
00000000
00001000
00000000
00001000
00000000
00010000
00000000
01000000
00100000
,
01000000
00000000
00100000
00010000
00100000
00000000
00001000
00010000
00001000
00000000
00010000
00000000
00011000
00000000
00000000
00000000
,
00001000
00000000
00000000
00000100
00000000
00000000
00000010
00000000
00001000
00000000
00000100
00000010
00000000
00000100
00001000
00000000
,
00000001
00000000
00000100
00000001
00000100
00000000
00000001
00000000
00001000
00000000
00000100
00010000
00000100
00000000
00010000
00000000
,
00001000
00000000
00010000
00000100
00001000
00000000
00000001
00000000
00000100
00000000
00001000
00010000
00000000
00001000
01000000
00010000
,
10000000
00000000
01000000
00100000
01000000
00000000
10000000
00000000
00100000
00000000
00010000
00000000
00001000
00000000
00100000
00000000
,
01000000
10000000
00000000
00000000
11000000
00000000
00000000
00000000
10000000
00000000
00000000
00100000
00000000
00000000
01000000
00000000
,
00010000
00000000
10000000
01000000
10000000
00000000
01000000
00000000
00010000
00000000
00001000
00000000
00000100
00000000
00000010
00000000
,
00000100
00000001
00000000
00001000
00000001
00000000
00000000
00000000
00000010
00000000
00000000
00000100
00000000
00000000
00010000
00000100
,
00001000
00000000
00000001
00000000
00000100
00000010
00000100
00000010
00000100
00000001
00000010
00000100
00001000
00000000
00000000
00000000
,
00000001
00000100
00000010
00000100
00000001
00000010
00000100
00001000
,
00010000
00100000
01000000
00100000
10000000
00100000
01000000
00100000
,
00010000
01000000
00100000
10000000
01000000
00010000
00001000
00000100
,
00000010
00000100
00000001
00000010
00000100
00001000
00010000
00010000
,
10000000
00100000
01000000
00010000
10000000
01000000
00100000
00010000
,
00001000
00000010
00000100
00000001
00001000
00000100
00000001
00000100
,
00000010
00000100
00010000
00000010
00000100
00001000
00010000
00100000
,
10000000
01000000
00000000
00100000
00010000
00000000
00001000
00000000
00000010
00000000
00000100
00000000
00001001
00000000
00000000
00000000
,
00000001
00000000
00000010
00000000
00000001
00000100
00000001
00001000
00000000
00001000
00000001
00000000
00000010
00000000
00000100
00000000
,
00000010
00000000
00000001
00000000
00001000
00000100
00000010
00000001
00000000
00000001
00000100
00000000
00001000
00000000
00010000
00000000
,
00100000
01000000
00100000
00000000
10000000
00000000
01000000
00000000
00100000
00000000
00010000
00000000
10000000
00000000
00100000
00000000
,
00010000
00001000
00100000
01000000
10000000
00100000
00010000
00000000
,
00001000
00000000
00010000
00000000
00000100
00001000
00000001
00000010
00000000
00000010
00000001
00000000
00000100
00000000
00000101
00000000
,
00000000
00001001
00000000
00001100
00000100
00010000
00011000
00000000
,
00010000
01000000
10000000
10100000
00000000
01100000
01000000
00001000
,
00011000
00000000
00000000
00000000
00010000
00000100
00000000
00000000
00001100
00000000
00000000
00000000
00001001
00000000
00000000
00000000
,
00000101
00000000
00000001
00000100
00000001
00000010
00000001
00001000
00000100
00000010
00000001
00000100
,
00001000
00010000
01000000
00100000
00010000
00000000
10000000
01000000
00100000
00010000
10000000
00100000
,
01000000
00000000
00100000
10000000
00010000
00100000
00010000
10000000
01000000
00100000
00001000
00010000
,
00000010
00000000
00000110
00000000
00000101
00000000
00000001
00000010
00001000
00010000
00000000
00000000
,
00001000
00000100
00000010
00001000
00000100
00000010
00000001
00000100
00001000
00010000
00000000
00001000
,
00010000
01000000
00100000
00010000
01000000
00100000
10000000
01000000
00010000
00001000
00000000
00010000
,
00001000
00000010
00000010
00000100
00001000
00000001
00000100
00001000
00010000
00001000
00000000
00000000
,
00010000
00000000
00100000
00000000
10100000
00000000
10000000
01000000
00100000
10010000
00000000
00000000
,
10000000
00000000
01000000
00000000
00100000
00000000
01000000
10000000
01000000
00000000
10000000
00100000
10000000
00000000
00010000
00000000
,
10000000
00000000
01000000
00100000
00010000
00000000
00001000
00000100
00000010
00000000
00000001
00000100
00000010
00000000
00001000
00000001
,
00001000
00000000
00000001
00000000
00000100
00000000
00000010
00001000
00000010
00000000
00001000
00000001
00001000
00000000
00000001
00000100
,
00000001
00000001
00000100
00000100
00001000
00000000
00011000
00000000
,
00100000
00000000
00000000
00000000
10010000
00000000
10000000
00000000
01000000
00000000
00100000
00000000
00010000
00000000
10000000
00010000
,
10000000
00000000
00100000
01000000
00010000
00000000
00001000
00000100
00000010
00000000
00000001
00000100
00000010
00000000
00001000
00000001
,
00000100
00000010
00000100
00000000
00001000
00000000
00010000
00000100
00001000
00000000
00000001
00000000
00000100
00000000
00001000
00010000
,
00001000
01100000
20010000
00000000
,
00000000
00000000
00000000
00000000
00000000
00000000
00000000
00000000
30100000
10000000
00100000
10000000
00010000
01000000
00010000
01000000
,
00001000
00100000
00001000
00010000
00001000
00000000
00000000
00000000
00000100
00000000
00000010
00001000
00000001
00000000
00000010
00000000
,
00000100
00000000
00000000
00001100
00000000
00000000
00010100
00000000
00010000
00000000
00001000
01000000
00010000
00000000
00100000
00000000
,
00010000
00000000
00000000
00110000
00000000
00000000
10010000
00000000
10000000
00000000
00100000
01000000
00010000
00000000
10000000
00000000
,
11000000
00000000
00000000
00110000
00000000
00000000
10010000
00000000
10000000
00000000
00100000
00000000
00010000
00000000
00001000
00000000
,
00000010
00000000
00000001
00000100
00000010
00000000
00000100
00000000
00000001
00000000
00000000
00000000
00001001
00000000
00000000
00000000
,
00000101
00000000
00000000
00000110
00000000
00000000
00001001
00000000
00000000
00000000
00000001
00000010
00000100
00000000
00001000
00000000
,
00001001
00000000
00000001
00000000
00000100
00000000
00001000
00000000
00011000
00000000
00000000
00000000
00010000
00000000
00100000
10000000
,
00100000
00000000
00000000
10100000
00000000
00000000
20010000
00000000
00000000
00000000
00000000
00000000
00000000
00000000
00000000
00000000
,
31000000
00100000
00010000
10000000
00100000
00000000
00000000
00000000
10000000
00000000
00100000
00000000
01000000
10000000
01000000
00100000
,
00000000
00100000
10000000
00000000
00010000
00100000
01000000
00000000
00100000
00000000
00001000
00000000
00010000
00001000
00000000
00000010
,
00000100
00000000
00001000
00000010
00000000
00000001
00000010
00000100
00000010
00000000
00001000
00000000
00000001
00001000
00000100
00000010
,
00000000
00000001
00000000
00001000
00000100
00010000
00001000
00000000
00010000
00000000
01000000
00000000
10000000
00000000
00010000
00000000
,
01000000
00000000
10000000
00000000
01000000
00000000
00100000
10000000
00010000
00100000
01000000
00000000
10010000
00000000
10000000
01000000
,
00000000
01000000
00100000
00000000
10000000
00100000
01000000
00000000
00100000
00000000
00010000
00000000
00001000
00000010
00000100
00000001
,
00001000
00000000
00000100
00000010
00000000
00000010
00001000
00000010
00000100
00000000
00000010
00000000
00000001
00000000
00000100
00001000
,
00010000
00000000
00000000
00011000
00000000
00000000
00010100
00000000
00000100
00000000
00001000
00000000
00000001
00000000
00000100
00000000
,
00001000
00000000
00000000
00010000
00000000
00000000
02000000
00000000
00000000
00000000
00000000
00000000
13000000
00000000
00000000
00000000
00010000
00000000
00000000
00000000
00001000
00000000
00000000
00000000
,
00000001
00000000
00000010
00000000
00001001
00000000
00000000
00000000
00000001
00000000
00000100
00000000
00000001
00000010
00001000
00010000
,
00001000
00000000
00000000
00011000
00000000
00000000
00101000
00000000
00100000
00000000
00010000
01000000
00100000
00000000
10000000
01000000
,
00100000
00000000
00001000
00010000
00000010
00000000
00000100
00000000
00001000
00000100
00000001
00000010
00000100
00000000
00000000
00000000
,
00010100
00000000
00000000
00011000
00000000
00000000
01001000
00000000
00001000
00000000
00010000
00100000
01000000
00000000
00001000
00000000
,
00010000
00000100
00001001
00000000
00000000
00000000
00000000
00000000
;
