#VERSION:0.83;
#TITLE:HEARTACHE;
#SUBTITLE:;
#ARTIST:BEMANI Sound Team "HuΣeR" feat.ゆきまめ;
#TITLETRANSLIT:;
#SUBTITLETRANSLIT:;
#ARTISTTRANSLIT:HuΣeR feat.Yukimame;
#GENRE:;
#CREDIT:t7r;
#MUSIC:HEARTACHE.ogg;
#BANNER:HEARTACHE.png;
#BACKGROUND:HEARTACHE-bg.png;
#CDTITLE:./CDTITLES/BEATMANIA IIDX.PNG;
#SAMPLESTART:60.666;
#SAMPLELENGTH:15.000;
#SELECTABLE:YES;
#OFFSET:0.000;
#BPMS:0.000=90.000;
#STOPS:64.000=0.33333333333333333333333333333333
,64.500=0.33333333333333333333333333333333
,119.000=0.33333333333333333333333333333333
,119.500=0.33333333333333333333333333333333
;
#BGCHANGES:;
#FGCHANGES:;

//--------------- dance-single - t7r ----------------
#NOTEDATA:;
#STEPSTYPE:dance-single;
#DESCRIPTION:t7r;
#DIFFICULTY:Beginner;
#METER:1;
#RADARVALUES:0,0,0,0,0;
#CREDIT:t7r;
#NOTES:
0000
0000
0000
0000
,
0000
0000
0000
0000
,
0000
0000
0000
0000
,
0000
0000
0000
0000
,
0000
0000
0000
0000
,
1000
0000
0000
0000
,
0001
0000
0000
0000
,
0100
0000
0000
0000
,
0010
0000
0000
0000
,
1000
0000
0000
0000
,
1000
0000
0000
0000
,
0001
0000
0000
0000
,
0001
0000
0000
0000
,
0100
0000
0000
0000
,
0100
0000
0000
0000
,
0010
0000
0000
0000
,
0010
0000
0000
1000
,
0000
0000
0000
1000
,
0000
0000
0000
0001
,
0000
0000
0000
0001
,
0001
0001
0001
0000
,
0000
0000
0000
0000
,
0000
0000
0000
0010
,
0000
0010
0000
0010
,
0000
0000
0000
0100
,
0000
0100
0000
0100
,
0000
0000
0000
1000
,
0000
1000
0000
1000
,
0000
0000
0000
0001
,
0000
0001
0000
0001
,
0000
0000
1000
0000
,
1000
0000
1000
0000
,
0000
0000
0100
0000
,
0100
0000
0100
0000
,
0000
0000
0010
0000
,
0010
0000
0010
0000
,
0000
0000
0001
0000
,
0001
0000
0001
0000
,
0000
0000
1000
0000
,
0000
0000
0010
0000
,
0000
0000
0100
0000
,
0000
0000
0001
0001
,
0001
0001
0000
0000
;

//--------------- dance-single - t7r ----------------
#NOTEDATA:;
#STEPSTYPE:dance-single;
#DESCRIPTION:t7r;
#DIFFICULTY:Easy;
#METER:4;
#RADARVALUES:0,0,0,0,0;
#CREDIT:t7r;
#NOTES:
0000
0000
0000
0000
,
0000
0000
0000
0000
,
0000
0000
0000
0000
,
0000
0000
0000
0000
,
0000
0000
0000
0000
,
1000
0000
1001
0000
,
0001
0000
1001
0000
,
0100
0000
0110
0000
,
0010
0000
0000
0000
,
1000
0000
0100
0200
,
0310
0000
0001
0002
,
1003
0000
0010
0020
,
0130
0000
0100
0200
,
0301
1000
0001
0002
,
1003
0001
1000
2000
,
3100
0010
0100
0200
,
1300
0010
0100
0000
0020
0000
1030
0000
,
0000
0100
0010
0001
,
0100
1000
0100
0001
,
0000
0010
0100
1000
,
0010
0001
0010
1000
,
0000
0000
0000
0000
,
0000
0002
0003
1000
,
0000
0100
0000
0010
,
0001
0100
0000
0001
,
0000
0010
0000
0100
,
1000
0010
0100
0010
,
0000
1000
0100
0001
,
0000
0100
0100
0010
,
0000
0001
0100
1000
,
0000
0110
1000
0001
,
0010
0200
1300
0001
,
0100
0020
1030
0001
,
0010
0200
1300
0100
,
0001
0100
1000
0020
,
0130
0002
0013
0000
,
0000
0000
0100
1000
,
0100
0010
0001
0100
,
1000
0100
0010
0000
,
0110
0000
1000
0000
,
1001
0000
0001
0000
,
0011
0000
1000
0100
,
0001
0100
0000
0000
;

//--------------- dance-single - t7r ----------------
#NOTEDATA:;
#STEPSTYPE:dance-single;
#DESCRIPTION:t7r;
#DIFFICULTY:Medium;
#METER:7;
#RADARVALUES:0,0,0,0,0;
#CREDIT:t7r;
#NOTES:
0000
0000
0000
0000
,
0000
0000
0000
0000
,
0000
0000
0000
0000
,
0000
0000
0000
0000
,
0000
0000
0000
0000
,
0100
0000
1001
0000
0001
0100
0010
0000
,
0100
0000
1001
0000
1000
0100
0010
0000
,
0002
0000
0103
0010
2000
0000
3100
0010
,
0001
0100
1000
0120
,
1030
0100
0100
0000
0010
0001
2000
0000
,
3001
0100
0100
0000
0010
1000
0001
0001
,
1000
0100
0010
0000
0001
0100
0020
0000
,
0130
0000
0100
0000
0001
1000
0100
0100
,
0000
1000
0001
0010
0001
1000
0010
1000
,
0000
0001
1000
0010
1000
0001
0010
0001
,
0000
0000
1000
0100
0010
0001
0100
0000
,
0010
0010
1000
0000
0002
0000
1003
1000
,
0000
0000
0000
0000
0000
0000
0001
0010
,
0000
0001
1000
0001
0200
0000
0310
0010
,
0000
0000
1000
0200
,
0320
0032
2003
3010
,
0000
0100
0000
0010
,
0010
2000
3001
1000
,
0001
0100
0010
0000
1000
0100
0010
0000
,
1000
0010
1000
0000
0010
0001
0100
0000
,
0010
0100
0010
0000
0001
0010
0100
0000
,
0010
0010
1000
0001
0010
0001
0100
0000
,
0010
1000
0100
0000
0001
0100
0010
0000
,
0001
0100
0010
1000
,
0100
0010
0001
0000
0100
1000
0100
0010
,
1000
0000
1002
0000
1003
0000
0001
0100
,
0001
0000
0100
1000
0100
0000
0010
0000
,
1000
0000
0001
1000
0010
0000
1000
0100
,
1000
0000
0100
0001
0100
0000
0100
0000
,
0010
0000
0010
0001
0100
0000
0010
0001
,
0010
0000
1000
0010
2000
0000
0000
0000
,
3100
0000
0020
0000
0031
0000
1000
0010
,
1000
0000
0010
0001
0010
0000
0010
0000
,
0100
0100
0020
0000
1030
1000
0001
0000
,
0010
0000
1100
0000
0001
0001
1000
0000
,
0010
0000
0101
0000
1000
1000
0001
0000
,
0010
0000
1001
0000
0002
0100
2003
0000
,
3002
0010
1003
0001
0000
0000
0000
0000
;

//--------------- dance-single - t7r ----------------
#NOTEDATA:;
#STEPSTYPE:dance-single;
#DESCRIPTION:t7r;
#DIFFICULTY:Hard;
#METER:10;
#RADARVALUES:0,0,0,0,0;
#CREDIT:t7r;
#NOTES:
0000
0000
0000
0000
,
0000
0000
0000
0000
,
0000
0000
0000
0000
,
0000
0000
0000
0000
,
0000
0000
0000
0000
,
1000
0100
1100
0000
2000
0000
3010
0100
,
0001
0000
0000
0000
0010
0000
0000
0000
0011
0000
0000
0000
0000
0000
0000
0000
0002
0000
0000
0000
1003
0000
0000
0000
0001
0000
0000
1000
0000
0000
0100
0000
,
1000
0010
0110
0000
0001
0010
0110
0000
,
1000
0000
0100
0000
0000
0010
0000
0000
0001
1000
0001
0000
2002
0000
3003
0000
,
1000
0100
0010
0000
0001
0100
0201
0000
,
0301
0010
0100
0000
1000
0010
0210
0000
,
0310
1000
0001
0000
0010
0001
2001
0000
,
3100
0000
0000
0000
0100
0000
0000
0100
0100
0000
0100
0000
0020
0000
0032
0000
,
1003
0010
1010
0000
1000
0100
1100
0000
,
0001
0000
0010
0000
0011
0000
0000
0000
0001
0000
0100
0000
0001
1000
0001
0000
,
1000
0100
0110
0000
0001
0100
0110
0000
,
1001
0000
0101
0000
2000
0100
0000
0000
3020
0000
0000
0000
0130
0000
0110
0000
,
0001
0010
0000
0000
0100
0000
0000
1000
0010
0000
2000
0000
3100
0000
0010
0000
,
0000
0100
0001
0000
0100
0000
0010
0000
0100
2000
0000
0000
3010
0000
0100
0000
,
0101
0000
1000
0010
0110
0002
1003
0100
,
0011
0000
0101
0000
1010
0000
1000
0002
,
1003
0000
0100
0000
0010
0000
0100
0100
,
1000
1000
0002
0103
1001
0000
0001
0100
,
0000
0001
1000
0000
0100
0000
0010
0000
0000
0100
1000
0000
0001
0000
1000
0000
,
0100
0010
0000
0000
0100
0000
0000
0100
0010
0000
0002
0000
1003
0000
0100
0000
,
0000
1000
0001
0000
1000
0000
0010
0000
0000
0100
0001
0000
0120
0000
1030
0000
,
0210
0301
2010
3100
0012
1003
1100
0100
,
0000
0010
0001
0000
1000
0000
0010
0000
0000
0100
0001
0000
0200
0000
0000
0000
,
0310
0000
0000
0010
0100
0000
0001
1000
0100
0000
0020
0000
0031
0000
1000
0000
,
0000
0001
0100
0000
0010
0000
1000
0000
0000
0001
0010
0000
1100
0000
0101
0000
,
2000
0100
3000
0000
1020
0000
0000
0000
1030
0000
0100
0000
0010
0001
0000
0000
,
1000
0000
0100
0000
0002
0000
0000
0000
0103
0000
0010
0000
0001
1000
0000
0000
,
0001
0000
0100
0000
2000
0000
0000
0000
3100
0000
0010
0000
1000
0001
0000
0000
,
0010
1000
0020
0000
0130
0010
2001
0000
,
3010
0100
1002
0000
0103
0101
2010
0000
,
3100
0000
0000
0000
0011
0000
1001
0000
1200
0000
0000
0000
0310
0100
0000
0010
,
0100
0000
1000
0000
2001
0000
0000
0000
3001
0000
0100
0000
0000
0010
0100
0000
,
1000
0000
0100
0000
0000
0010
0100
0000
0002
0010
0000
2003
0100
0000
3001
0010
,
0100
1000
0001
0000
0110
0000
0002
0000
1003
0000
1100
0000
0010
0000
0000
0000
,
0100
0010
1001
0000
0001
0011
0010
0000
,
0100
0000
0010
0001
1000
0002
0000
0000
1003
0000
1010
0000
0010
0000
0000
0000
,
0100
0010
1001
2000
3002
0010
2003
0100
,
3002
0100
2003
0010
3000
0000
0000
0000
;

//--------------- dance-single - t7r ----------------
#NOTEDATA:;
#STEPSTYPE:dance-single;
#DESCRIPTION:t7r;
#DIFFICULTY:Challenge;
#METER:16;
#RADARVALUES:0,0,0,0,0;
#CREDIT:t7r;
#MUSIC:../HEARTACHE (Original Mix)/HEARTACHE (Original Mix).ogg;
#NOTES:
0000
0000
0000
0000
,
0000
0000
0000
0000
,
0000
0000
0000
0000
,
0000
0000
0000
0000
,
0000
0000
0000
0000
,
1000
0000
0001
0100
0000
0001
0100
0000
0000
0001
0000
0001
0010
0000
0000
0100
0000
1000
0100
0000
0010
0000
0000
0100
,
1000
0000
0010
0000
0000
1000
0001
0000
0100
0010
0000
0100
0001
0000
0010
0100
0000
1000
0010
0000
1000
0100
0000
0010
,
0002
0100
1003
0100
2000
0010
3001
1000
,
1100
0000
0100
0000
0010
0010
0100
1000
0001
0100
0010
1000
0002
0000
0000
0000
,
1003
0000
0000
0100
0000
0000
1000
0000
0010
0100
0000
0010
0001
0000
0010
0100
0000
0010
2000
0000
3100
0010
0000
0000
,
0001
0000
0000
0000
0000
0000
0100
0000
0000
0000
0000
0000
0001
0000
0000
0000
0010
0000
0100
0000
0000
0000
0010
0000
1000
0000
0000
0000
0010
0000
0100
0000
0000
0000
0010
0000
0001
0000
0000
0100
0000
0000
1000
0000
0000
0100
0000
0000
,
0001
0000
0000
0010
0000
0000
0001
0000
0100
0010
0000
0100
1000
0000
0100
0010
0000
0100
0002
0000
0013
0100
0000
0000
,
1000
0000
0100
0000
0001
0100
0000
0010
0010
0100
1000
1000
0001
0001
0100
0100
,
0010
0000
0000
0000
0100
0000
0001
0000
0000
0000
0100
0000
0010
0000
0000
0000
0100
0000
1000
0000
0000
0000
0100
0000
0010
0000
0000
0000
1000
0000
0100
0000
0000
0000
0010
0000
0001
0000
0000
1000
0000
0000
0020
0000
0000
0000
0000
0000
,
1030
0000
0000
0000
0001
0000
0100
0000
0000
0000
1000
0000
0100
0000
0000
0000
0010
0000
0100
0000
0000
0000
0001
0000
0010
0000
0000
0000
1000
0000
0010
0000
0000
0100
0000
0000
0010
0000
0000
0001
0000
0000
1000
0000
0000
1000
0000
0000
,
0001
0000
0000
0000
0100
0000
0010
0000
0000
0000
0000
0000
0100
0000
0000
0000
1000
0000
0100
0000
0000
0000
0010
0000
0100
0000
0000
0000
0001
0000
0010
0000
0000
1000
0000
0000
0020
0000
0000
0000
0000
0000
0130
0000
0000
0100
0000
0000
,
1100
0000
0011
0000
2000
0100
0001
0000
3002
0100
1000
1003
1001
0000
1001
0000
,
1000
0000
0010
0000
0000
0000
0001
0000
0010
0000
0000
0000
1000
0000
0100
0000
0000
0000
0001
0000
0200
0000
0000
0000
0310
0000
0010
0000
0001
0000
1000
0010
,
1000
0010
1000
0000
0001
0000
1000
0001
0100
0010
0100
0000
0001
0010
0100
0000
1000
0000
0002
0000
0010
0000
1003
0000
1001
0000
0000
0000
1001
0000
0000
0000
,
1000
0000
0200
0000
0000
0000
0310
0000
0001
0000
0200
0000
0000
0000
0310
0000
1000
0000
0100
0000
0020
0000
0000
0000
0031
0000
0100
0000
0010
0000
0001
0010
,
0100
0000
0010
0000
1000
0000
0100
0000
0010
0000
1000
0000
0010
0000
0100
1000
0001
0010
0100
1000
0100
0010
0001
1000
0001
0000
0000
0000
0200
0000
0000
0000
,
0310
0000
0000
0000
0000
0000
0000
0000
0100
0000
0000
0000
0000
0000
0000
0000
1000
0000
0000
0000
0000
0000
0000
0000
0100
0000
0000
0000
0010
0000
0100
0001
,
1000
0100
0000
0100
0010
0000
0100
1000
0001
0000
0100
0001
1000
0100
0000
0100
0010
0000
0001
0000
0200
0000
0000
0000
0301
0000
0010
0000
0100
0000
1000
0000
,
0100
0010
0001
0100
1000
0100
0010
0100
0001
0010
2000
0000
3010
0100
1000
0010
,
0001
0010
0100
1000
0100
0010
0100
0001
1000
0100
0020
0000
1030
0010
0100
0010
,
0001
0000
1000
0000
0010
0000
0100
0000
0010
0000
0001
0000
1000
0000
0100
0000
0010
0000
0100
0000
0002
0000
0000
0000
1003
0000
0100
0000
0010
0000
0100
1000
,
0001
0000
0100
0000
0010
0000
0100
0001
1000
0000
0010
0000
0100
0000
0010
1000
0001
0000
0010
0000
0100
0000
0010
0001
1000
0000
0100
0000
0010
0000
0100
1000
,
0100
0000
1000
0000
0010
0000
0100
0000
0001
0000
0010
0000
0100
0000
0010
0001
0010
0000
0001
0000
2000
0000
0000
0000
3010
0000
0000
0000
0000
0000
0000
0000
,
0010
0000
0100
0000
0000
0000
0010
0000
0100
0000
0100
0000
0001
0010
0100
0010
0001
1000
0010
0100
0001
1000
0100
0010
0001
0000
0010
0000
0100
0000
1000
0010
,
1000
0000
0001
0000
0100
0000
0010
0000
1000
0000
0100
0000
0010
0000
0001
1000
0001
0000
0100
0000
0020
0000
0000
0000
1030
0000
0000
0000
1001
0000
0000
0000
,
0002
0000
0100
0000
1000
0000
0000
0000
2003
0000
0100
0000
0001
0000
0000
0000
3010
0000
0100
0000
0001
0000
1000
0010
1000
0000
0001
0000
0010
0000
0100
0000
,
1000
0000
0100
0000
0001
0000
0100
0010
0001
0000
0100
0000
0002
0000
0000
0000
0103
0000
0010
0000
1000
0000
0001
0100
0001
0000
1000
0000
0100
0000
0010
0000
,
0001
0000
0010
0000
1000
0000
0010
0100
1000
0010
0100
0001
2000
0000
0000
0000
3100
0000
0010
0000
0001
0000
1000
0100
1000
0000
0001
0000
0100
0000
0010
0000
,
1000
0000
0010
0000
0001
0000
0010
0100
0001
0000
0010
0000
0002
0000
0000
0000
1003
0000
0100
0000
0010
0000
1000
0010
1000
0000
0010
0000
0100
0000
1000
0010
,
1000
0000
0010
0000
0100
0000
1000
0100
1000
0000
0100
0000
0010
0000
0100
0000
0001
0000
0000
0000
0011
0000
0001
0000
0100
0000
0010
0000
1010
0000
0000
0000
,
1100
0000
1010
0010
0100
0001
1002
0000
0103
0000
0000
0000
0010
0100
0000
0010
,
0100
0000
0100
0001
1000
0000
0100
0000
1000
0010
0100
0001
2000
0000
0000
0000
3001
0000
0010
0000
0100
0000
0001
0100
0001
0000
0100
0000
0010
0000
0001
0000
,
0100
0000
0010
0000
0001
0000
0010
0100
0010
0000
0001
0000
0010
0000
1000
0000
0100
0000
1100
0000
0000
0000
0001
0000
0011
0000
0000
0000
1000
0000
0010
0000
,
0100
0000
0000
0000
1000
0000
0000
0000
0100
0000
0000
0000
0010
0000
0000
0000
0200
0000
0000
0000
0000
0000
0000
0300
0200
0000
0000
0000
0000
0000
0000
0000
0310
0000
0000
0000
0000
0000
0000
0000
1010
0000
0000
0000
0000
0000
0000
0000
0001
0000
0000
0000
0010
0000
0000
0000
0000
0000
0000
0000
0000
0000
0000
0000
,
0100
0000
0110
0000
1001
0000
1020
0000
1030
0000
0101
0000
0001
1000
0000
0000
,
0010
0000
0110
0000
1010
0010
1010
0010
1000
0000
1001
0000
1000
0200
0001
0000
,
0310
0000
0001
0100
0010
1000
0001
0010
0100
1000
0100
0010
0002
0000
0000
0000
1003
0000
0000
0000
0101
0000
0001
0000
1001
0000
0000
0000
1100
0000
1000
0000
,
1001
0000
0011
0001
1001
0000
0010
0000
0000
0000
0000
0000
0000
0000
0000
0000
;

//--------------- dance-double - t7r ----------------
#NOTEDATA:;
#STEPSTYPE:dance-double;
#DESCRIPTION:t7r;
#DIFFICULTY:Easy;
#METER:4;
#RADARVALUES:0,0,0,0,0;
#CREDIT:t7r;
#NOTES:
00000000
00000000
00000000
00000000
,
00000000
00000000
00000000
00000000
,
00000000
00000000
00000000
00000000
,
00000000
00000000
00000000
00000000
,
00000000
00000000
00000000
00000000
,
00100000
00000000
00010000
00000000
,
10000000
00000000
00100000
00000000
,
00010000
00000000
00001000
00000000
,
00011000
00000000
00000000
00000000
,
00000010
00000000
00001000
00000000
,
00000001
00000000
00000010
00000000
,
00000100
00000000
00000100
00000000
,
00010000
00000000
00010000
00000000
,
00001000
00010000
00002000
00003000
,
01000000
00010000
02000000
03000000
,
00100000
00000000
10000000
00000000
,
01000000
01000000
00000000
00000000
00000000
00000000
00100000
00000000
,
00000000
00000000
00000000
00001000
,
00001000
00010000
00010000
00011000
,
00000000
00000000
00000000
00000010
,
00000100
00000001
00001000
00000000
,
00000000
00000000
00000000
00000000
,
00000000
00000200
00000300
00010000
,
00000000
00001000
00000000
00010000
,
01000000
10000000
00000000
00100000
,
00000000
01000000
00000000
00001000
,
00010000
00001000
00000100
00000001
,
00000000
00000010
00000000
00000100
,
00000000
00000000
00000000
00010000
,
00001000
00000000
00010000
00000000
01000000
00000000
00100000
00100000
,
00000000
00011000
00001000
01000000
,
00010000
00010000
10000000
01000000
,
00100000
00002000
00013000
00000010
,
00000100
00000100
00000001
00000010
,
00001000
00010000
00100000
01000000
,
00010000
10000000
01000000
00000000
,
00000000
00010000
00011000
00000100
,
00001000
00000001
00000100
00001000
,
00010000
02000000
03100000
00000000
,
01100000
00000000
00100000
00000000
,
00011000
00000000
00000010
00000000
,
00000110
00000000
00010000
00011000
,
00001000
00011000
00000000
00000000
;

//--------------- dance-double - t7r ----------------
#NOTEDATA:;
#STEPSTYPE:dance-double;
#DESCRIPTION:t7r;
#DIFFICULTY:Medium;
#METER:7;
#RADARVALUES:0,0,0,0,0;
#CREDIT:t7r;
#NOTES:
00000000
00000000
00000000
00000000
,
00000000
00000000
00000000
00000000
,
00000000
00000000
00000000
00000000
,
00000000
00000000
00000000
00000000
,
00000000
00000000
00000000
00000000
,
00000010
00000000
00001001
00000000
00000001
00000100
00000010
00000000
,
00001000
00000000
00001100
00000000
00000100
00010000
00001000
00000000
,
00010000
00000000
00001000
01000000
00010000
00000000
10000000
01000000
,
00100000
00010000
10000000
00200000
,
00310000
00000000
00001000
00000000
00000100
00000010
00000100
00000000
,
00000001
00000000
00000010
00000000
00000100
00010000
00001000
00001000
,
00010000
00000000
00001000
00010000
01000000
00000000
00100000
00010000
,
10000000
00000000
00100000
00000000
00100000
00000000
10000000
00010000
,
00000000
10000000
01000000
10000000
01000000
00010000
00001000
00000000
,
00000000
00010000
00000010
00001000
00000001
00000010
00000001
00000001
,
00001000
00000000
00000001
00000100
00000010
00001000
00000100
00000000
,
00010000
00010000
00001000
00000000
00020000
00000000
01030000
01000000
,
00000000
00000000
00000000
00000000
00000000
00000000
00100000
00010000
,
00000000
10000000
00010000
10000000
00200000
00000000
01300000
01000000
,
00000000
00000000
00000000
00000000
00001000
00010000
00001000
00000000
,
00011000
00000010
00001001
00000000
,
00000000
00000001
00001000
00000001
,
00000100
00002000
00013000
00001000
,
00010000
01000000
10000000
00000000
00010000
01000000
00100000
00000000
,
10000000
01000000
00100000
00000000
00001000
00010000
00000010
00000000
,
00001000
00000100
00000010
00000000
00000001
00000100
00000020
00000000
,
00001030
00001000
00000100
00010000
00001000
00001000
01000000
00000000
,
00010000
00100000
01000000
00000000
10000000
00100000
00010000
00000000
,
00001000
00000000
00010000
00000000
00001000
00000010
00000100
00000000
,
00001000
00000010
00000100
00000000
00000001
00000010
00000100
00010100
,
00010000
00000000
00012000
00000000
00013000
00010000
01000000
00000000
,
00100000
01000000
10000000
00100000
10000000
10000000
01000000
00000000
,
00100000
00001000
00010000
00000010
00001000
00001000
00000001
00000000
,
00000100
00000010
00001000
00000001
00000020
00000000
00002030
00000000
,
00023000
00000000
00230000
00000000
10300000
00010000
01000000
00000000
,
00100000
10000000
01000000
00100000
00002000
00000000
00000000
00000000
,
00013000
00000000
00012000
00000000
00003100
00000000
00000010
00001000
,
00000100
00000000
00000010
00000001
00001000
00000000
00000001
00000000
,
00000100
00000000
00001000
00020000
00031000
00001000
00010000
00000000
,
01000000
00000000
01100000
00000000
00010000
00010000
10000000
00000000
,
00100000
00010000
00002000
00000000
00103000
00100000
00001000
00000000
,
00010000
00000000
00001000
00000020
00000130
00010000
00011000
00000000
,
01000000
00001000
00011000
00000000
00000000
00000000
00000000
00000000
;

//--------------- dance-double - t7r ----------------
#NOTEDATA:;
#STEPSTYPE:dance-double;
#DESCRIPTION:t7r;
#DIFFICULTY:Hard;
#METER:10;
#RADARVALUES:0,0,0,0,0;
#CREDIT:t7r;
#NOTES:
00000000
00000000
00000000
00000000
,
00000000
00000000
00000000
00000000
,
00000000
00000000
00000000
00000000
,
00000000
00000000
00000000
00000000
,
00000000
00000000
00000000
00000000
,
01000000
00100000
10010000
00000000
10000000
01000000
01010000
00000000
,
00010000
00000010
00011000
00000000
00010000
00000010
00000200
00000000
,
00000301
00001000
00000110
00000000
00000001
00000100
00001100
00000000
,
00010000
00000000
00001000
00000000
00000000
01000000
00000000
00000000
00100000
00000000
00100000
00000000
10020000
00000000
00000000
00000000
,
10030000
01000000
00100000
00000000
00010000
01000000
20000000
00000000
,
31000000
00010000
00100000
00000000
00001000
00010000
00001000
00001000
,
00000100
00000001
00000010
00000000
00001000
00000010
00000002
00000000
,
00000103
00000000
00000000
00000000
00001000
00000000
00000000
00010000
00001000
00000000
00001000
00000000
00010000
00000000
01000000
00000000
,
10000000
00100000
00010000
00000000
00001000
01000000
00011000
00000000
,
00010000
00001000
00000010
00000000
00000100
00000010
00001001
00000001
,
00000100
00001000
00010000
00000000
00000100
00010000
00001000
00001000
,
00101000
00000000
10010000
00000000
20000000
01000000
00000000
00000000
30200000
00000000
00000000
00000000
10300000
00000000
12000000
00000000
,
00000000
03010000
00000000
00000000
00010000
00000000
00000000
00010000
00000000
00000000
00000020
00000000
00001030
00000000
00000010
00000000
,
00000100
00000000
00000001
00000000
00000010
00000000
00000100
00000000
00010000
00002000
00000000
00000000
00003100
00000000
00000001
00000000
,
00000000
00000010
00000000
00000000
00000010
00000000
00000000
00000010
00000000
00000000
00000002
00000000
00000013
00000000
00001000
00000000
,
00011000
00000000
01100000
00000000
10010000
00000000
10000000
02000000
,
03100000
00000000
00001000
00000000
00011000
00000000
00010000
00001000
,
00000010
00000001
00000200
00000000
00000310
00000000
00001001
00000001
,
00000000
00000100
00000010
00000000
00001000
00000000
00000001
00000000
00000000
00000010
00000100
00000000
00010000
00000000
00001000
00000000
,
00000000
00001000
00000000
00000000
00001000
00000000
00000000
00001000
00000000
00000000
00200000
00000000
00310000
00000000
01000000
00000000
,
00000000
00100000
10000000
00000000
00010000
00000000
10000000
00000000
00000000
01000000
00200000
00000000
20300000
00000000
00000000
00000000
,
30200000
00000000
00302000
00000000
00023000
00000000
00030010
00000100
,
00000001
00000010
00000000
00000100
00000000
00000000
00000010
00000001
00000000
00000000
00002000
00000000
00003010
00000000
00000000
00000000
,
00010000
00000000
00000000
00001000
01000000
00000000
00010000
00000000
00100000
00000000
00020000
00000000
10030000
00000000
00100000
00000000
,
01000000
00100000
00000000
01000000
00000000
00000000
00000000
00010000
00100000
00000000
00002000
00000000
00003100
00000000
00001001
00000000
,
00000002
00001000
00000003
00000000
00001200
00000000
00000000
00000000
00010300
00000000
00001000
00000000
00100000
00010000
00000000
00000000
,
01000000
00000000
10000000
00000000
02000000
00000000
00000000
00000000
03100000
00000000
10000000
00000000
01000000
00010000
00000000
00000000
,
00001000
00000000
00000010
00000000
00000002
00000000
00000000
00000000
00000103
00000000
00000010
00000000
00000100
00000001
00000000
00000000
,
00000010
00000100
00020000
00000000
00032000
01000000
00023000
00000000
,
00032000
00100000
00023000
00000100
00031000
00000100
00000002
00000000
,
00001003
00000000
00000100
00000000
00000010
00000000
00000001
00000000
00000200
00000000
00000000
00000000
00001300
00010000
00000000
00001000
,
00010000
01000000
20010000
00100000
30010000
00100000
10000000
00100000
,
00010000
00000000
00001000
00000000
00000010
00000000
00000001
00000000
00000010
00000100
00000000
00000010
00001000
00000000
00000100
00000000
,
00010000
00001000
00010000
00012000
01003000
00010000
00110000
00000000
,
00001000
00000000
00000000
00010000
00001000
00000000
00000020
00000000
00000031
00000000
00000100
00000000
00000101
00000000
00000000
00000000
,
00000001
00000000
00000010
00001000
00010000
00002000
00000000
00000000
01003000
00000000
00010000
00000000
10010000
00000000
00000000
00000000
,
10000000
00000000
00000000
01000000
00010000
00000000
00002000
00000000
00003100
00000000
00001000
00000000
00011000
00000000
00000000
00000000
,
01100000
00001000
00011000
00100000
00000000
00000000
00000000
00000000
;

//--------------- dance-double - t7r ----------------
#NOTEDATA:;
#STEPSTYPE:dance-double;
#DESCRIPTION:t7r;
#DIFFICULTY:Challenge;
#METER:16;
#RADARVALUES:0,0,0,0,0;
#CREDIT:t7r;
#MUSIC:../HEARTACHE (Original Mix)/HEARTACHE (Original Mix).ogg;
#NOTES:
00000000
00000000
00000000
00000000
,
00000000
00000000
00000000
00000000
,
00000000
00000000
00000000
00000000
,
00000000
00000000
00000000
00000000
,
00000000
00000000
00000000
00000000
,
00100000
00000000
00010000
10000000
00000000
00010000
10000000
00000000
00000000
01000000
00000000
01000000
00100000
00000000
00000000
00010000
00000000
01000000
00001000
00000000
00010000
00000000
00000000
00000100
,
00001000
00000000
00000010
00000000
00000000
00000100
00000001
00000000
00000010
00000100
00000000
00000010
00001000
00000000
00000010
00000001
00000000
00000100
00000010
00000000
00001000
00000100
00000000
00010000
,
00001000
00000000
00000000
00010000
00000000
01000000
20000000
00000000
00000000
00100000
00000000
00000000
30010000
00000000
01000000
00010000
00000000
10000000
00200000
00000000
00000000
00310000
00000000
00000000
,
00011000
00000000
00000100
00000000
00001000
00001000
00000010
00000100
00000001
00000010
00000100
00001000
00020000
00000000
00000000
00000000
,
10030000
00000000
00000000
00100000
00000000
00000000
10000000
00000000
01000000
00100000
00000000
01000000
00010000
00000000
01000000
00100000
00000000
01000000
20000000
00000000
00000000
30100000
00000000
00000000
,
00010000
00000000
00000000
00000000
00000000
00000000
00001000
00000000
00000000
00000000
00000000
00000000
00010000
00000000
00000000
00000000
00001000
00000000
00000010
00000000
00000000
00000000
00000100
00000000
00000010
00000000
00000000
00000000
00000001
00000000
00000100
00000000
00000000
00000000
00000001
00000000
00001000
00000000
00000000
00000100
00000000
00000000
00010000
00000000
00000000
00001000
00000000
00000000
,
00010000
00000000
00000000
01000000
00000000
00000000
00100000
00000000
01000000
10000000
00000000
00100000
01000000
00000000
00100000
00010000
00000000
00100000
20000000
00000000
00000000
01000000
00000000
00000000
,
30010000
00000000
10000000
00000000
01000000
00100000
00000000
00001000
00001000
00010000
00001000
00001000
00000100
00000100
00000001
00000001
,
00000010
00000000
00000000
00000000
00000100
00000000
00001000
00000000
00000000
00000000
00000001
00000000
00000010
00000000
00000000
00000000
00000100
00000000
00001000
00000000
00000000
00000000
00010000
00000000
00100000
00000000
00000000
00000000
01000000
00000000
10000000
00000000
00000000
00000000
00100000
00000000
01000000
00000000
00000000
00010000
00000000
00000000
20000000
00000000
00000000
00000000
00000000
00000000
,
30010000
00000000
00000000
00000000
10000000
00000000
00100000
00000000
00000000
00000000
01000000
00000000
00010000
00000000
00000000
00000000
00001000
00000000
00000010
00000000
00000000
00000000
00000100
00000000
00000001
00000000
00000000
00000000
00000010
00000000
00000100
00000000
00000000
00000000
00010000
00000000
00001000
00000000
00000000
00010000
00000000
00000000
01000000
00000000
00000000
01000000
00000000
00000000
,
00100000
00000000
00000000
00000000
00010000
00000000
01000000
00000000
00000000
00000000
00000000
00000000
00100000
00000000
00000000
00000000
10000000
00000000
00010000
00000000
00000000
00000000
00100000
00000000
00001000
00000000
00000000
00000000
00010000
00000000
00000010
00000000
00000000
00000100
00000000
00000000
00000002
00000000
00000000
00000000
00000000
00000000
00000013
00000000
00000000
00000010
00000000
00000000
,
00000110
00000000
01100000
00000000
10000000
01000000
00020000
00000000
00031000
00000100
00000001
00000001
00000011
00000000
00000011
00000000
,
00000001
00000000
00000100
00000000
00000000
00000000
00000010
00000000
00001000
00000000
00000000
00000000
00010000
00000000
00100000
00000000
00000000
00000000
01000000
00000000
20000000
00000000
00000000
00000000
30010000
00000000
00010000
00000000
10000000
00000000
00010000
00100000
,
00010000
00100000
00010000
00000000
10000000
00000000
00100000
00000000
00010000
00001000
00010000
00000000
00001000
00000000
00000010
00000000
00000001
00000000
00002000
00000000
00000100
00000000
00003001
00000000
00001001
00000000
00000000
00000000
00001001
00000000
00000000
00000000
,
00000001
00000000
00000200
00000000
00000000
00000000
00001300
00000000
00010000
00000000
00200000
00000000
00000000
00000000
10300000
00000000
01000000
00000000
00200000
00000000
00000000
00000000
00301000
00000000
00010000
00000000
00000010
00000000
00000100
00000000
00001000
00000100
,
00000010
00000000
00000100
00000000
00000001
00000000
00000010
00000000
00001000
00000000
00010000
00000000
01000000
00000000
00100000
00010000
10000000
00100000
01000000
00010000
10000000
01000000
00100000
00001000
00010000
00000000
00000000
00000000
00000200
00000000
00000000
00000000
,
01000300
00000000
00000000
00000000
00000000
00000000
00000000
00000000
00000100
00000000
00000000
00000000
00000000
00000000
00000000
00000000
00011000
00000000
00000000
00000000
00000000
00000000
00000000
00000000
00010000
00000000
01000000
00000000
00100000
00000000
00010000
10000000
,
00100000
01000000
00000000
01000000
00010000
00000000
10000000
01000000
10000000
00000000
00100000
00000000
00010000
00001000
00010000
00000000
00021000
00000000
00000000
00000000
00000000
00000000
00000000
00000000
00031000
00000000
00000010
00000000
00000100
00000000
00000010
00000000
,
00000001
00000100
00000010
00001000
00000001
00000010
00001000
00010000
00000100
00000010
00000002
00000000
00000103
00001000
00010000
00000100
,
00000010
00000001
00000100
00001000
00010000
00100000
01000000
00020000
00100000
10030000
00020000
00000000
10030000
01000000
00100000
00010000
,
10000000
00000000
00100000
00000000
00010000
00000000
00001000
00000000
01000000
00000000
00100000
00000000
10000000
00000000
01000000
00000000
00010000
00000000
00001000
00000000
00000100
00000000
00000010
00000000
00001000
00000000
00000100
00000000
00000010
00000000
00000001
00000100
,
00000010
00000000
00001000
00000000
00000100
00000000
00010000
00001000
01000000
00000000
00100000
00000000
10000000
00000000
00010000
00100000
01000000
00000000
00100000
00000000
00010000
00000000
10000000
00010000
01000000
00000000
10000000
00000000
01000000
00000000
00100000
01000000
,
00100000
00000000
10000000
00000000
01000000
00000000
00010000
00000000
00001000
00000000
00000100
00000000
00000001
00000000
00000010
00000100
00000010
00000000
00001000
00000000
00000010
00000000
00000001
00000000
00000200
00000000
00000000
00000000
00000000
00000000
00000000
00000000
,
00000301
00000000
00000010
00000000
00000000
00000000
00001000
00000000
00010000
00000000
00010000
00000000
00001000
01000000
00100000
01000000
00010000
00000000
10000000
00000000
01000000
00100000
00010000
10000000
00100000
00000000
01000000
00000000
00010000
00000000
10000000
00100000
,
10000000
00000000
00010000
00000000
00100000
00000000
00001000
00000000
00010000
00000000
00001000
00000000
00000010
00000000
00000100
00000010
00000100
00000000
00000010
00000000
00000001
00000000
00000100
00000000
00000110
00000000
00000000
00000000
01100000
00000000
00000000
00000000
,
00001000
00000000
00010000
00001000
00010000
00000000
00000000
00000000
00012000
00000000
00000000
00000000
00000000
00000000
00000000
00000000
00003100
00000000
00000001
00000000
00001000
00000000
00000001
00000010
00000001
00000000
00001000
00000000
00000100
00000000
00000010
00000000
,
00001000
00000000
00010000
00000000
00100000
00000000
01000000
00100000
10000000
00000000
00010000
00000000
00200000
00000000
00000000
00000000
00310000
00000000
10000000
00000000
01000000
00000000
10000000
00100000
10000000
00000000
01000000
00000000
00010000
00000000
00001000
00000000
,
01000000
00000000
00100000
00000000
00010000
00000000
00001000
00010000
00000010
00000100
00000001
00001000
00000002
00000000
00000000
00000000
00000013
00000000
00001000
00000000
00010000
00000000
00000100
00000010
00000100
00000000
00000010
00000000
00000001
00000000
00000100
00000000
,
00000010
00000000
00001000
00000000
00000100
00000000
00010000
00001000
01000000
00000000
00010000
00000000
00200000
00000000
00000000
00000000
00310000
00000000
10000000
00000000
11000000
00000000
00000000
00000000
01000000
00000000
00010000
00000000
00011000
00000000
00000000
00000000
,
00001000
00000100
00000101
00000000
00000001
00000010
00000011
00000000
00001001
00000000
00000101
00000001
00000011
00000001
00001001
00001000
,
00001100
00000000
00010100
00010000
00011000
00001000
00101000
00100000
01100000
00000000
00000000
00000000
10000000
01000000
00000000
00100000
,
01000000
00000000
01000000
00000000
10000000
00000000
00100000
00000000
00010000
00001000
00010000
00000010
00002000
00000000
00000000
00000000
00003001
00000000
00000010
00000000
00000100
00000000
00000001
00000100
00000001
00000000
00000100
00000000
00000010
00000000
00000001
00000000
,
00000100
00000000
00001000
00000000
00010000
00000000
00100000
01000000
00100000
00000000
10000000
00000000
01000000
00000000
00010000
00000000
00001000
00000000
00011000
00000000
00000000
00000000
01000000
00000000
01010000
00000000
00000000
00000000
00001000
00000000
00011000
00000000
,
00010000
00000100
00001000
00000001
00001000
00000000
00020000
00000000
10030000
00000000
11000000
00000000
10000000
00100000
00000000
00000000
,
01010000
00000000
01010000
00000000
00110000
00000000
00200000
00000000
00301000
00000000
00011000
00000000
00001000
00000010
00000000
00000000
,
00000110
00000000
00000110
00000000
00000001
00000100
00001000
00001000
00011000
00000000
00011000
00000000
00100000
00020000
00000000
10030000
,
00100000
00000000
00010000
00000000
00001000
00010000
00000010
00001000
00000001
00000010
00000100
00001000
00000002
00000000
00000000
00000000
00000103
00000000
00000000
00000000
00001000
00000000
00010000
00000000
00011000
00000000
00000000
00000000
00100000
00000000
00010000
00000000
,
10010000
00000000
10000000
00100000
00110000
00000000
00001000
00000000
00000000
00000000
00000000
00000000
00000000
00000000
00000000
00000000
;
