#TITLE:拷訊惨獄;
#ARTIST:DEVILOOF;
#TITLETRANSLIT:Goujin zangoku;
#BANNER:Goujin zangoku.png;
#BACKGROUND:Goujin zangoku-bg.png;
#JACKET:Goujin zangoku-jacket.png;
#LYRICSPATH:Goujin zangoku.lrc;
#CDTITLE:./CDTITLES/NONE.PNG;
#MUSIC:Goujin zangoku.ogg;
#SAMPLESTART:47.805;
#SAMPLELENGTH:15;
#BPMS:0=117,19=101.37,24=147,222=117;

//---------------dance-single - t7r----------------
#NOTES:
     dance-single:
     t7r:
     Beginner:
     6:
     :
0000
0000
0000
0000
,
0000
0000
0000
0000
,
0000
0000
0000
0000
,
0000
0000
0000
0000
,
0000
0000
0000
0000
,
0000
0000
0000
0000
,
0000
0000
0001
0000
,
0000
0000
1000
0000
,
0000
0000
0010
0000
,
0010
0000
0100
0100
,
0100
0000
0001
0000
,
0000
0000
1000
1000
,
1000
0000
0100
0100
,
0100
0000
0010
0010
,
0010
0000
0001
0001
,
0001
0000
0100
0100
,
0100
0100
0010
0010
,
0010
0010
1000
1000
,
1000
1000
0001
0001
,
0001
0001
1000
0000
,
0000
0000
0100
0000
,
0000
0000
0010
0000
,
0000
0000
0001
0000
,
0001
0000
0100
0000
,
0100
0000
0010
0000
,
0010
0000
1000
1000
,
1000
0000
0001
0001
,
0001
0000
1000
0000
,
0100
0000
0000
0000
,
0000
0000
0010
0000
,
0001
0000
0000
0000
,
0000
0000
0100
0000
,
0110
0000
0000
0000
,
0000
0000
0010
0000
,
1001
0000
0000
0000
,
0000
0000
1000
0000
,
0001
0000
0100
0100
,
0100
0000
1010
0000
,
1000
0000
0100
0000
,
0010
0000
0011
0000
,
0001
0000
0100
0000
,
0010
0000
1001
0000
,
1000
0000
1100
0000
,
0000
0000
1001
0000
,
0100
0000
0101
0000
,
0000
0000
0001
0000
,
0010
0000
1000
0000
,
0100
0000
0001
0000
,
0000
0000
1000
0000
,
0000
0000
0010
0000
,
0000
0000
0100
0000
,
0110
0000
1000
1000
,
0000
1000
1000
0000
,
1100
0000
0001
0001
,
0000
0001
0001
0000
,
0101
0000
0100
0000
,
0100
0000
0010
0000
,
0010
0010
1000
0000
,
1000
0000
0100
0000
,
0100
0100
0010
0000
,
0001
1001
1000
0000
,
0010
0110
0100
0000
,
0001
1001
1000
0000
,
0100
1100
1000
1000
,
0100
0100
0100
0000
0010
0000
0010
0000
,
0001
0001
0001
0000
0100
0000
0100
0000
,
0010
0010
0010
0000
1000
1000
0001
0001
,
1000
0000
1000
0000
0001
0000
0000
0000
0100
0100
0000
0000
0000
0000
0000
0000
;

//---------------dance-single - t7r----------------
#NOTES:
     dance-single:
     t7r:
     Easy:
     10:
     :
0000
0000
0000
0000
,
0000
0000
0000
0000
,
0000
0000
0000
0000
,
0000
0000
0000
0000
,
0000
0000
0000
0000
,
0000
0000
0000
0000
,
0000
0000
2000
0100
,
3001
1000
0002
0100
,
1003
0001
1000
0100
,
1000
0010
1000
0000
0001
0000
0100
0000
,
0001
0010
0001
0000
2000
0000
3002
0000
,
0203
0000
0320
0000
1030
0000
0100
1000
,
0100
1000
0100
0000
1000
0000
0010
1000
,
0010
1000
0010
0000
0100
0000
0001
0010
,
0001
0010
0001
0000
1000
0000
0100
0000
,
0010
0001
1000
0000
0001
0000
0100
0010
,
0100
0010
0200
0000
0301
0000
0010
0001
,
0010
0001
0010
0000
0001
0000
1000
0001
,
1000
0001
1000
0000
0001
0000
0100
0000
,
0010
1000
0001
0000
1000
0000
0100
0020
,
0000
0032
0000
1003
0001
0000
0100
0020
,
0000
0000
1030
0001
1000
0000
0100
0020
,
0000
0000
0130
1000
0020
0000
0031
0020
,
0000
1030
0002
0000
0013
0001
0010
0000
,
0001
0000
1000
0000
0001
0000
0000
0000
0100
0000
0000
0100
0000
0000
0001
0000
,
1000
0100
1000
0000
0010
1000
0010
0000
,
1000
0000
0001
0000
1000
0000
0000
0000
0100
0000
0000
0100
0000
0000
1000
0000
,
0001
0100
0010
0000
2000
0000
3100
0000
,
2001
3010
1000
0100
,
0010
0001
1000
0000
0002
0000
0103
0000
,
1002
0013
0001
0100
,
0010
1000
0001
0000
1000
0000
1100
0000
,
1010
1001
0001
0101
,
0011
1001
0001
1001
,
0110
0000
1010
0000
1000
0100
0010
0000
,
0001
0100
0010
0000
2000
0000
0010
0000
,
0001
0000
0100
0000
3001
0100
0010
0000
,
1000
0100
0020
0000
0031
0000
0100
0000
,
1000
0100
0000
0100
0000
0010
0000
0100
,
0001
2000
0000
3001
1000
0000
0100
0000
,
0001
0100
0000
0100
0000
0010
0100
1000
,
0001
0100
0110
0110
,
0001
1000
0000
2100
0000
0000
0001
0000
,
0010
3001
0110
0110
,
1000
0001
0000
0102
0000
0000
1003
0000
,
0010
0100
0001
0000
0010
0100
1000
0000
,
0001
1000
0010
0000
1000
0100
0010
0000
,
0001
0001
0100
0010
2000
0000
0000
0000
,
0000
0000
0000
0000
,
0000
0000
3000
0000
,
0000
0000
0000
0000
,
0110
0000
0101
0102
,
1003
0101
0102
0000
,
1003
0000
1100
2100
,
3001
0000
0000
0000
1100
0000
0000
0000
1100
0000
0000
0100
0000
0000
0010
0000
,
0001
0000
0000
0100
0000
0000
0010
0000
1000
0000
0000
0000
0100
0000
0000
0000
,
1000
0001
0100
0000
0001
0000
0010
0000
,
0001
1000
0010
0000
1000
0000
0010
0000
,
0100
0001
1000
0000
0100
0010
0001
0100
,
0010
2000
0010
3002
0013
0100
1100
1000
,
0010
0000
0201
0000
0310
0100
0101
0001
,
0010
0000
1200
0000
0310
0001
1001
1000
,
0010
0000
0120
0000
1030
0100
0010
0001
,
0100
0010
0110
0000
0001
0001
0010
0010
,
0100
0100
1100
1100
1000
1000
0010
0010
,
0100
0100
0101
0101
0001
0001
1000
1000
,
0010
0010
0110
0110
1000
0100
0001
0100
,
0010
0001
1001
0010
0200
0000
0000
0000
,
0000
0000
0000
0300
;

//---------------dance-single - t7r----------------
#NOTES:
     dance-single:
     t7r:
     Medium:
     14:
     :
0000
0000
0000
0000
,
0000
0000
0000
0000
,
0000
0000
0000
0000
,
0000
0000
0000
0000
,
0000
0000
0000
0000
,
0000
0000
0000
0000
,
0000
0000
0000
0000
0100
0100
0002
0000
,
0010
0000
1003
0000
0100
0100
2000
0000
,
0010
0000
3001
0000
0100
0100
0010
1000
,
0010
0000
0010
0000
1000
0001
1000
0000
0001
0100
0001
0000
1000
0000
0001
0000
,
0100
0100
0010
0110
2000
0000
3200
0000
,
0320
0000
0000
0000
0032
0000
0000
0000
1003
0000
1000
0000
0001
0100
0001
0000
,
1000
0001
1000
0000
0001
0000
0100
0000
0001
0000
0001
0000
1000
0100
1000
0000
,
0001
1000
0001
0000
1000
0000
0100
0000
1000
0000
1000
0000
0001
0010
0001
0000
,
1000
0001
1000
0000
0001
0000
0100
0000
0001
0000
0001
0000
0010
0000
0100
0000
,
1000
0010
0000
0100
0001
0000
1000
0000
0100
0000
0100
0000
0010
0100
1000
0000
,
0010
0000
0100
0000
0002
0000
0000
0000
0103
0000
0100
0000
0010
0100
0001
0000
,
0010
0000
0100
0000
1000
0000
0100
0000
0010
0000
0010
0000
0001
0100
0010
0000
,
1000
1000
0001
0010
0001
0100
0001
0001
,
1000
0000
0100
0000
1000
0010
1000
0000
0002
0000
0000
0100
0000
0000
2003
0000
,
0100
0000
3020
0000
0000
0000
0130
0000
0000
0001
0100
0000
0000
0001
2000
0000
,
0100
0000
0000
0000
3002
0000
0010
0000
1003
0000
0010
0100
0010
0000
2000
0000
,
0100
0000
3002
0000
0203
0320
0032
2003
,
3200
0000
0302
0000
0023
0000
0000
0000
1030
0000
0010
0100
0010
0000
0001
0000
,
1000
0000
0001
0100
0001
0000
1000
0000
0010
0100
0010
0100
0000
0000
0010
0001
,
0000
0010
0000
0010
0000
1000
0000
0100
0001
0000
0100
0010
0100
0000
1000
0000
,
0001
0000
1000
0010
1000
0000
0001
0000
0100
0010
0100
0010
0000
0000
0100
1000
,
0100
0000
0010
0100
0001
0000
1000
0000
0002
0100
0000
0100
0000
1003
0001
0000
,
2000
0100
0000
0100
0000
3001
1000
0000
0001
0000
0100
0000
0001
1000
0000
1000
,
0100
0000
1000
0000
0001
0010
0000
0001
2000
0100
0000
0100
0000
3001
1000
0000
,
0020
0100
0000
0100
0000
1030
0001
0000
1000
0100
1000
0000
0001
0100
0001
0000
,
0100
0000
0000
0110
0000
0000
0010
0100
0001
0000
0010
0000
0001
0000
1000
0000
,
1001
0000
1100
0000
1000
0010
1000
0001
,
1001
0000
0000
0101
0000
0000
0001
0000
0010
0100
0000
0100
,
1000
0000
0000
0000
0010
0000
0000
0000
0100
0000
0000
0000
0001
0000
0000
0000
0000
0000
0000
0000
0000
0000
0000
0000
1000
0000
0000
0100
0000
0000
1000
0000
0000
0000
0000
0000
0001
0000
0000
0100
0000
0000
0001
0000
0000
0000
0000
0000
,
1000
0001
0100
0000
0120
0000
0001
0000
,
0100
0000
0000
0000
1030
0000
0000
0000
0100
0000
0010
0001
1000
0000
0010
0000
,
0100
0000
0001
0010
0002
0000
0000
0000
1003
0000
0000
0000
1000
0000
0000
0000
,
0100
0000
0001
0000
0000
0000
0100
0000
0000
0000
0200
0000
0000
0000
0310
0100
,
1000
0020
0000
1030
0001
0000
0001
0000
,
0100
0000
1000
0000
0000
0000
0100
0000
0000
0000
0010
0100
0000
0001
0100
0000
,
0010
0100
0001
0000
1001
0000
0000
0000
1100
0000
0000
0000
1100
0000
0100
1000
,
0001
0000
0100
0000
0000
0000
0210
0000
0000
0000
1000
0000
0000
1000
0000
0000
,
0310
0100
0001
0000
1000
0001
0000
0000
0101
0000
0000
0000
0101
0000
0100
0001
,
1000
0000
0100
0000
0000
0000
0210
0000
0000
0000
0301
0100
0000
0010
0100
0000
,
1000
0100
1000
0000
0001
0000
0100
0000
0001
0010
0001
0000
1000
0000
0001
0000
,
1000
0010
1000
0000
0001
0000
1000
0000
0010
0100
0010
0000
1000
0000
0100
0000
,
0010
0000
0010
0000
0001
0100
0010
0000
2000
0000
0000
0000
0000
0000
0000
0000
,
0000
0000
0000
0000
,
3001
0000
0100
0200
,
0310
0100
0200
0300
,
2002
0000
0000
0000
3003
0000
0000
0000
1000
0100
0000
0000
1000
0100
0000
0000
,
1001
0000
0000
0000
0001
0100
0000
0000
0001
0200
0000
0000
0000
0000
0300
0000
,
2020
0000
0000
0000
3030
0000
0000
0000
0001
0010
0000
0000
0001
0010
0000
0000
,
1001
0000
0000
0000
1000
0010
0000
0000
0100
0000
0000
0110
0000
0000
1000
0001
,
1000
0000
0000
1001
0000
0000
1100
0000
1000
0000
0100
0010
0001
0000
1000
0100
,
0010
0000
0001
0000
0100
0000
0010
0000
1000
0000
0010
0100
0001
0000
1000
0010
,
0100
0000
0001
0000
0010
0100
1000
0000
0001
0000
0100
0010
1000
0000
0001
0100
,
0010
0000
1000
0000
0001
0000
0010
0000
0100
0000
1000
0001
0100
0000
0001
1000
,
0100
0020
0130
0002
0103
1200
0001
0310
,
2200
3300
1002
0010
0103
0201
1000
0310
,
0202
0000
0303
0000
2001
0000
3010
1000
0010
0000
1020
0000
0001
0000
0130
0000
,
2020
0000
3030
0000
1002
0000
0010
0000
1003
0000
0100
1000
0001
0000
0100
0000
,
0010
0000
0100
0000
0110
0000
0001
1000
0001
0000
1000
0100
1000
0100
1000
0100
,
1000
0100
1000
0100
0020
0000
0032
0000
1003
0000
0001
0100
0001
0100
0001
0100
,
0001
0100
0001
0100
0020
0000
2030
0000
3001
0000
0010
0100
0010
0100
0010
0100
,
0010
0100
0010
0100
2000
0000
3002
0000
0103
0000
0010
1000
0001
1000
0010
0000
,
0100
0000
1001
0000
0010
0000
1001
0000
1000
0002
0000
0000
0000
0000
0000
0000
,
0000
0000
0000
0003
;

//---------------dance-single - t7r----------------
#NOTES:
     dance-single:
     t7r:
     Hard:
     16:
     :
0000
0000
0000
0000
,
0000
0000
0000
0000
,
0000
0000
0000
0000
,
0000
0000
0000
0000
,
0000
0000
0000
0000
,
0000
0000
0000
0000
,
0000
0000
0000
0000
0001
0201
1000
0000
,
0010
0000
0301
0000
1000
1200
0001
0000
,
0310
0000
0001
0100
0001
0000
1000
0100
1000
0000
1000
0000
0001
0100
0001
0100
,
0001
1000
0001
1000
0001
0010
0001
0010
0001
0100
0010
0000
1000
0100
0010
0000
,
0001
0100
0110
0110
2000
0000
3200
0000
,
0302
0000
0000
0000
2003
0000
0000
0000
3010
0000
0011
0000
0001
0100
0001
0100
,
0001
1000
0001
1000
0001
0000
0001
0000
1000
0000
1010
0000
1000
0100
1000
0100
,
1000
0001
1000
0001
1000
0000
1010
0000
0010
0000
0110
0000
0010
1000
0010
1000
,
0001
1000
0001
1000
0100
0000
1100
0000
0001
0000
0011
0000
1000
0000
1010
0000
,
0001
0100
0000
0001
1000
0000
1001
0000
1010
0000
1010
0000
1000
0100
1000
0100
,
0010
0100
0010
0100
0020
0000
0032
0000
1003
0000
1001
0000
0001
0100
0001
0100
,
0010
0100
0010
0100
0020
0000
2030
0000
3100
0000
1100
0000
1000
0100
0010
0001
,
1000
0100
0010
0001
2000
0000
3002
0000
1003
0000
1010
0000
0010
1000
0001
1000
,
0010
0000
0110
0000
0100
0001
1000
0001
0010
0000
0001
0100
0001
0010
0000
0001
,
1000
0000
0100
1000
0000
0001
1000
0100
0000
1000
0000
0001
1000
0010
1000
0000
,
0001
0000
1000
0100
0000
0010
0001
1000
0001
0000
0100
0010
1000
0100
0010
0000
,
0001
0000
1000
0010
0100
0001
1000
0000
0100
0010
0100
0001
0100
0000
2000
0000
,
3010
0100
0010
0001
0020
0000
0000
1030
0001
0000
0010
0100
1000
0100
0010
0100
,
1000
0000
0010
0100
0001
0100
0010
0100
0001
1000
0100
0010
0000
0100
1000
0001
,
1000
0010
0000
0100
0000
0001
1000
0001
1000
0100
1000
0100
0010
0001
0010
0001
,
1000
0010
1000
0010
0100
0001
0100
0001
1000
0100
0010
0001
0100
0010
1000
0001
,
0010
0100
1000
0010
0100
1000
0100
0000
0001
0000
0010
0001
0100
0001
0000
0001
,
1000
0000
0001
0100
0001
1000
0000
0100
1000
0000
0100
0010
0001
1000
0000
1000
,
0010
0000
0100
0010
1000
0001
1000
0100
1000
0000
0010
1000
0100
1000
0000
1000
,
0001
0000
1000
0100
1000
0001
0000
0100
0001
0000
0100
0010
1000
0001
0000
0001
,
0010
0000
0100
0010
0001
1000
0001
0100
0001
0010
0100
0010
0001
0000
0100
0000
,
0110
0000
0010
0000
1010
0000
0010
0000
1000
0100
0010
0100
1000
0000
0010
0000
,
1010
0000
0000
0000
0000
0000
0010
0000
0000
0000
0000
0000
0100
0000
0000
0010
0000
0000
1000
0000
0000
0000
0000
0000
0001
0000
0000
0000
0010
0000
0000
0000
0001
0000
0000
0000
1000
0000
0000
0000
0010
0000
0000
0000
1000
0000
0000
0000
,
0001
0000
0000
0000
0100
0000
0000
0000
0001
0000
0000
0000
1000
0000
0000
0000
0100
0000
0000
0000
1000
0000
0000
0000
0001
0000
0000
0010
0000
0000
0100
0000
0000
1000
0000
0000
0100
0000
0000
0010
0000
0000
0001
0000
0000
0100
0000
0000
,
0010
0100
1001
0000
2010
0000
0001
0000
,
0001
0000
0000
0000
3001
0000
0000
0000
1000
0100
1000
0001
0100
0001
1000
0010
,
0100
0001
0010
0100
0020
0000
0000
0000
0031
0000
0000
0000
0100
0000
0000
0000
,
1000
0000
0100
0000
0001
0000
1001
0000
0000
0000
1100
0000
0000
0000
0100
0010
,
0001
2000
0100
3001
1000
0000
0100
0000
,
0001
0000
0100
0000
1000
0000
0001
0000
0101
0000
0100
1000
0000
0100
0010
0100
,
0001
0010
0100
0000
1000
0010
0100
0001
1000
0000
0000
0000
1100
0000
0100
0001
,
1000
0000
1010
0000
0000
0000
0120
0000
0000
0000
0031
0100
0000
1000
0100
0000
,
0010
0100
0001
0010
0100
1000
0010
0100
0001
0000
0000
0000
0101
0000
0100
1000
,
0001
0000
0011
0000
0000
0000
0120
0000
0000
0000
1030
0100
1000
0001
0100
0001
,
1000
0010
1000
0010
1000
0001
1000
0001
1000
0100
0010
0100
1000
0100
0010
0100
,
1000
0010
0100
0010
1000
0010
0100
0010
1000
0100
0010
0001
1000
0100
0010
0001
,
0100
0000
1100
0000
0100
0001
0010
0100
2000
0000
0000
0000
0000
0000
0000
0000
,
0000
0000
0000
0000
,
0002
0003
0100
0100
,
0002
0000
0000
0003
0000
0000
0100
0000
0000
0000
0000
0000
3200
0000
0000
0000
0000
0000
0000
0000
0000
0310
0001
1000
,
0020
0000
0000
0000
0000
0000
0000
0000
0130
1000
0100
0000
0001
0100
0001
0000
,
0101
0000
0000
0000
0100
1000
0100
0000
0001
0100
0002
0000
0000
0000
0003
0000
,
1100
0000
0000
0000
0000
0000
0000
0000
0100
0001
0100
0000
1000
0100
1000
0000
,
1100
0000
0000
0000
0000
0000
0000
0000
0000
0000
0000
0000
0100
0000
0000
0001
0000
0000
0100
0000
0000
0000
0000
0000
0101
0000
0000
0000
0000
0000
0000
0000
0000
0110
0000
0000
0000
0000
0000
0000
0000
0000
0010
0000
0001
0000
1000
0000
,
0010
0000
0000
0110
0000
0000
1001
0000
1000
0100
0001
0100
1000
0100
0001
0100
,
1000
0100
0010
0001
1000
0100
0010
0001
1000
0100
0001
0100
1000
0100
0001
0100
,
1000
0010
0100
1000
0001
0010
0100
0001
1000
0010
0001
0010
1000
0010
0001
0010
,
1000
0010
0100
0001
1000
0010
0100
0001
1000
0100
0001
0100
1000
0010
0001
0010
,
0100
0000
0001
0000
1000
0000
0020
0000
0000
0000
0000
0000
1030
0000
0100
0000
0010
0000
0002
0000
0000
0000
0000
0000
1003
0000
0000
0100
0000
0000
0100
0000
0000
0000
0000
0000
1001
0000
0000
0000
0000
0000
0001
0000
0000
0100
0000
0000
,
0200
0000
0000
0300
2002
0000
3003
0000
1000
0010
0010
0000
1001
0000
0001
0010
,
0020
0000
0000
0030
1001
0000
0001
1000
0001
0100
0100
0000
1010
0000
1000
0100
,
0200
0000
0000
0300
0022
0000
0033
0000
1000
0100
0001
0100
1000
0010
0001
0010
,
0100
0000
0001
0000
1000
0000
0010
0000
0000
0000
0000
0000
1000
0000
0100
0000
0010
0000
0001
0000
0000
1000
0000
0000
0001
0000
0000
0000
0000
0000
0100
0000
0000
1000
0000
0000
0100
0000
0000
0100
0000
0000
0010
0000
0000
0010
0000
0000
,
1000
1000
0100
0100
0020
0032
2003
3002
1003
0000
0100
0001
0100
0100
0010
0010
,
0001
0001
1000
1000
0020
0230
2300
3200
0301
0000
0010
0010
1000
1000
0001
0001
,
0100
0100
1000
1000
0020
0032
2003
3200
0301
0010
0100
0001
1000
0010
0100
1000
,
0001
0000
0100
0000
0010
0000
2000
0000
0000
0000
0000
0000
3001
0000
0010
0000
0100
0000
0020
0000
0000
0000
0000
0000
0031
0000
0000
2002
0000
0000
0000
0000
0000
0000
0000
0000
0000
0000
0000
0000
0000
0000
0000
0000
0000
0000
0000
0000
,
0000
0000
0000
3003
;

//---------------dance-single - t7r----------------
#NOTES:
     dance-single:
     t7r:
     Challenge:
     18:
     :
0000
0000
0000
0000
,
0000
0000
0000
0000
,
0000
0000
0000
0000
,
0000
0000
0000
0000
,
0000
0000
0000
0000
,
0000
0000
0000
0000
,
0000
0000
0000
0000
0000
0000
0000
0000
1001
0000
1001
0000
1000
0100
0010
0001
,
1000
0010
0100
0001
1000
0100
0010
0001
1000
0000
1001
0000
0001
0010
0100
1000
,
0010
0000
0100
0001
1000
0100
0010
0100
1000
0000
1010
0000
0010
1000
0001
0100
,
0001
0000
0000
1000
0000
0000
0100
0000
0000
0010
0000
0000
0001
0000
0000
1000
0000
0000
0010
0000
0000
0100
0000
0000
0010
0000
1000
0000
0010
0000
1000
0000
0000
0001
0000
0000
1000
0000
0100
0000
1000
0000
0100
0000
0000
0010
0000
0000
,
0001
0100
0001
0100
0010
1000
0010
1000
0001
1000
0000
0000
0200
0000
0000
0000
0000
0000
0320
0000
0000
0000
0000
0000
,
0032
0000
0000
0000
2003
0000
0000
0000
3001
0000
0101
0000
0001
0100
0100
1000
,
0001
0100
0100
1000
0001
0100
0100
1000
0001
0000
1001
0000
1000
0100
0100
0001
,
1000
0100
0100
0001
1000
0100
0100
0001
1000
0000
1010
0000
0001
0010
0010
1000
,
0001
0000
0010
0000
0010
0000
1000
0000
0001
0000
0010
0000
0010
0000
1000
0000
0010
0000
0100
0001
1000
0000
0100
1000
0001
0000
0000
0000
0110
0000
0000
0000
,
1000
0001
0100
0000
0001
0000
1000
0000
0001
0000
0100
0010
1000
0000
0000
0000
1001
0000
0000
0000
1001
0000
0000
0000
1000
0000
0100
0000
0100
0000
0010
0000
,
1000
0100
0100
0010
1000
0100
0100
0010
1000
0000
1001
0000
0001
0100
0100
0010
,
0001
0100
0100
0010
0001
0100
0100
0010
0001
0000
0110
0000
1000
0010
0010
0100
,
1000
0000
0010
0000
0010
0000
0100
0000
1000
0000
0010
0000
0010
0000
0100
0000
1000
0000
0100
0010
0001
0000
0100
0010
1000
0000
0010
0100
0001
0000
0000
0000
,
0110
0000
0110
0000
1000
0001
1000
0001
1000
0100
0100
0010
1000
0100
0100
0001
,
1000
0001
0100
0100
1000
0001
1000
0001
1000
0100
0100
0010
1000
0100
0100
0001
,
1000
0001
0100
0100
1000
0001
1000
0001
1000
0010
0010
0100
1000
0010
0010
0001
,
1000
0001
0010
0010
1000
0001
1000
0001
1000
0100
0100
0001
0010
0010
2000
0000
,
0100
0000
3001
0000
0020
0000
0031
1000
0001
0100
0100
0010
0001
0100
0100
1000
,
0001
1000
0100
0100
0001
1000
0001
1000
0001
0010
0010
0010
0001
1000
0001
1000
,
0100
1000
0100
0001
0100
0010
0100
1000
0001
0010
0010
0100
0001
0010
0010
1000
,
0001
1000
0010
0010
0001
1000
0001
1000
0001
0100
0100
0100
0001
1000
0001
1000
,
0010
0000
1000
0000
0001
0000
1000
0000
0001
0000
1000
0000
0100
0000
0010
0000
0100
0000
0010
0000
0001
0000
1000
0000
0010
0000
0000
0001
0000
0000
1000
0000
0000
0100
0000
0000
0001
0000
0000
1000
0000
0000
0100
0000
0000
0010
0000
0000
,
0100
0001
1000
0010
0001
1000
0010
0100
0010
0001
1000
0100
0001
1000
0100
0010
,
0100
0001
1000
0010
0100
1000
0001
0000
0100
1000
0001
0010
1000
0001
0010
0100
,
0010
1000
0001
0100
1000
0001
0100
0010
0100
1000
0001
0010
1000
0001
0010
0100
,
0010
1000
0001
0100
1000
0100
1000
0001
1001
0001
0100
0001
1000
0100
0100
0001
,
1000
0100
0100
0001
1000
0100
0100
0001
1000
0100
0100
0010
1000
0100
0100
0010
,
1000
0000
0000
0100
0000
0000
0100
0000
0000
0001
0000
0000
1000
0000
0000
0010
0000
0000
0010
0000
0000
0100
0000
0000
1000
0000
0000
0000
0010
0000
1000
0000
0010
0000
0000
0000
1000
0000
0000
0000
0001
0000
0010
0000
0001
0000
0000
0000
,
1000
0000
0100
1000
0100
0000
1000
0000
0001
0100
0001
0000
1000
0100
1000
0100
0010
0001
1000
0001
1000
0001
0100
0001
,
1000
0010
1000
0010
0100
0010
0100
0000
0000
0001
0000
0000
2001
0000
0000
0000
0000
0000
0100
0000
0000
0000
0000
0000
,
0001
0000
0000
0000
0000
0000
0000
0000
0000
0000
0000
0000
3010
0000
0000
0000
0000
0000
0000
0000
0000
0000
0000
0000
1000
0000
0000
0001
0000
0000
0100
0000
0000
0100
0000
0000
1000
0000
0000
0001
0000
0000
0100
0000
0010
0000
0100
0000
,
0001
1000
0001
0010
0010
0000
1000
0001
0010
0000
0000
0000
0100
0000
0000
0000
,
1001
0000
0000
0100
0000
0000
0000
0000
0000
0100
0000
0000
0000
0000
0000
0100
0000
0000
0000
0000
0000
0100
0010
0001
,
1000
0020
0000
0130
0101
0000
0110
0000
,
1001
0000
0100
0000
0000
0000
0100
0000
0000
0000
0001
0100
0100
1000
0001
0100
,
0100
0000
0000
1000
0000
0000
0100
0000
0000
0100
0000
0000
0010
0000
0000
1000
0000
0000
0001
0000
0000
0100
0000
0000
0101
0000
0000
0000
0000
0000
0000
0000
0000
0000
0000
0000
1001
0000
0000
0000
0000
0000
1000
0000
0100
0000
1000
0000
,
0010
0000
0110
0000
0000
0000
1002
0000
0000
0000
1003
0100
0100
0001
1000
0100
,
0100
0000
0000
0001
0000
0000
0010
0000
0000
0100
0000
0000
1000
0000
0000
0001
0000
0000
0100
0000
0000
0010
0000
0000
1010
0000
0000
0000
0000
0000
0000
0000
0000
0000
0000
0000
1001
0000
0000
0000
0000
0000
0001
0000
0100
0000
0001
0000
,
0010
0000
0110
0000
0000
0000
1002
0000
0000
0000
1003
0100
1000
0001
0100
0100
,
1000
0010
0100
0100
1000
0010
0100
0100
1000
0001
0010
0010
1000
0001
0010
0010
,
1000
0100
0010
0010
1000
0100
0010
0010
1000
0100
0100
0100
0001
0100
0100
0100
,
1000
0000
0000
0100
0000
0000
1001
0000
0000
0000
0000
0000
0001
0000
0010
0000
0001
0000
0010
0000
0100
0000
1000
0000
0020
0000
0000
0000
0000
0000
0000
0000
0000
0000
0000
0000
0000
0000
0000
0000
0000
0000
0000
0000
0000
0000
0000
0000
,
0000
0000
0000
0000
,
0030
0000
0000
0000
,
0000
0000
0000
0000
0000
0000
0000
0000
0000
0000
0000
0000
0000
0000
0000
0000
0000
0000
0000
0000
0000
1000
0100
1000
,
0001
0010
0000
0000
0000
0000
0000
0000
0000
0000
0000
0000
0000
0000
0000
0000
0000
0000
0000
0000
0000
0000
0000
0000
0100
0000
0000
0100
0000
0000
0001
0000
0000
0000
0000
0000
0100
0000
0000
0100
0000
0000
1000
0000
0000
0000
0000
0000
,
2001
0000
0000
0000
3100
0100
0001
0000
0100
0100
2000
0000
0000
0000
3000
0000
,
1002
0000
0000
0000
0000
0000
0000
0000
0013
0010
1000
0000
0010
0010
0001
0000
,
1002
0000
0000
0000
0000
0000
0000
0000
0000
0000
0000
0000
0013
0000
0000
0010
0000
0000
1000
0000
0000
0000
0000
0000
1010
0000
0000
0000
0000
0000
0000
0000
0000
0110
0000
0000
0000
0000
0000
0000
0000
0000
0100
0000
0001
0000
1000
0000
,
0001
0010
0000
0000
0000
0000
0000
0000
0000
0110
0000
0000
0000
0000
0000
0000
0000
0000
1001
0000
0000
0000
0000
0000
1000
0000
0000
0100
0000
0000
0100
0000
0000
0001
0000
0000
1000
0000
0000
0100
0000
0000
0100
0000
0000
0001
0000
0000
,
1000
0100
0100
0001
1000
0100
0100
0010
1000
0100
0100
0001
1000
0100
0100
0001
,
1000
0010
0010
0001
0100
0100
0100
0010
1000
0100
0100
0001
1000
0100
0100
0001
,
1000
0100
0100
0001
1000
0100
0100
0010
1000
0100
0100
0001
1000
0100
0100
0001
,
0100
0000
0100
0000
0100
0000
0002
0000
0000
0000
0000
0000
0103
0000
0100
0000
0100
0000
0020
0000
0000
0000
0000
0000
1030
0000
0001
0000
0100
0000
0001
0000
0000
0100
0000
0000
0100
0000
0000
1000
0000
0000
0001
0000
1000
0000
0100
0000
,
1000
0000
0000
0100
0000
0000
0100
0000
0000
0001
0000
0000
0010
0000
0100
0000
0010
0000
0100
0000
0000
1000
0000
0000
0001
0000
1000
0000
0100
0000
1000
0000
0000
0100
0000
0000
0100
0000
0000
0001
0000
0000
1000
0000
0001
0000
0100
0000
,
0001
0000
0000
0100
0000
0000
0100
0000
0000
1000
0000
0000
0010
0000
0000
0000
0000
0000
1001
0000
0000
1000
0000
0000
0001
0000
1000
0000
0010
0000
1000
0000
0000
0010
0000
0000
0010
0000
0000
0001
0000
0000
1000
0000
0001
0000
0010
0000
,
0001
0000
0000
0000
0000
0000
0010
0000
0000
0000
0000
0000
0010
0000
0000
0000
0000
0000
1000
0000
0000
0000
0000
0000
0100
0000
0000
0000
0010
0000
0000
0000
0100
0000
0000
0000
0010
0000
0000
0000
0000
0000
0001
0000
0000
0000
0000
0000
1000
0000
0000
0000
0001
0000
0000
0000
0100
0000
0000
0000
0010
0000
0000
0000
0000
0000
1000
0000
0000
0000
0000
0000
0001
0000
0000
0000
0000
0000
0100
0000
0000
0010
0000
0000
1000
0000
0000
0000
0000
0000
0001
0000
0000
0000
0000
0000
,
1000
0000
0100
0000
1000
0000
0100
0000
1000
0000
0100
0000
0010
0000
0001
0000
0010
0000
0001
0000
0000
1000
0000
0000
0001
0000
0100
0000
0100
0000
0100
0000
0000
0010
0000
0000
1000
0000
0000
0100
0000
0000
0100
0000
0000
0001
0000
0000
,
1000
0000
0000
0100
0000
0000
0100
0000
0000
0001
0000
0000
1000
0000
0000
0010
0000
0000
0010
0000
0000
0001
0000
0000
1000
0000
0100
0000
0100
0000
0100
0000
0000
0010
0000
0000
0001
0000
0000
0100
0000
0000
0100
0000
0000
1000
0000
0000
,
0001
0000
0000
0100
0000
0000
0100
0000
0000
1000
0000
0000
0001
0000
0000
0010
0000
0000
0010
0000
0000
1000
0000
0000
0001
0000
0010
0000
0010
0000
0010
0000
0000
0100
0000
0000
1000
0000
0000
0010
0000
0000
0010
0000
0000
0001
0000
0000
,
1000
0000
0000
0010
0000
0000
0010
0000
0000
0001
0000
0000
1000
0000
0000
0100
0000
0000
0100
0000
0000
0001
0000
0000
1000
0000
0010
0000
0010
0000
0010
0000
0000
0100
0000
0000
0001
0000
0000
0010
0000
0000
0010
0000
0000
1000
0000
0000
,
0001
0000
1000
0000
0100
0000
0010
0000
0001
0000
0100
0000
0010
0000
1000
0000
0010
0000
0200
0000
0000
0000
0000
0000
0301
0000
0000
2002
0000
0000
0000
0000
0000
0000
0000
0000
0000
0000
0000
0000
0000
0000
0000
0000
0000
0000
0000
0000
,
0000
0000
0000
3003
;

//---------------dance-double - t7r----------------
#NOTES:
     dance-double:
     t7r:
     Easy:
     10:
     :
00000000
00000000
00000000
00000000
,
00000000
00000000
00000000
00000000
,
00000000
00000000
00000000
00000000
,
00000000
00000000
00000000
00000000
,
00000000
00000000
00000000
00000000
,
00000000
00000000
00000000
00000000
,
00000000
00000000
20000000
01000000
,
30010000
10000000
01000000
01000000
,
00010000
00011000
00001000
00000100
,
00000010
00000100
00000001
00000010
,
00000100
00010000
00002000
00023000
,
00230000
00000000
20300000
00000000
30010000
00000000
10000000
01000000
,
10000000
01000000
10000000
00000000
00010000
00000000
01000000
00010000
,
01000000
00010000
01000000
00000000
00100000
00000000
10000000
01000000
,
00100000
00001000
00010000
00000000
00001000
00000000
00011000
00000000
,
00010000
00000100
00001000
00000000
00000010
00000000
00000100
00000001
,
00000100
00000001
00000200
00000000
00000301
00000000
00000010
00000001
,
00000010
00000001
00000010
00000000
00000001
00000000
00001000
00000001
,
00000100
00000010
00010000
00000000
00000100
00000000
00010000
00000000
,
00001000
00000000
00011000
00000000
00010000
00000000
01000000
20000000
,
00000000
30020000
00000000
00000000
01030000
00000000
00100000
20000000
,
00000000
00000000
32000000
00000000
03010000
00000000
00001000
00000200
,
00000000
00000000
00000310
00000100
00000002
00000000
00000013
00002000
,
00000000
00013000
00200000
00000000
10300000
00010000
10000000
00000000
,
00010000
01000000
00010000
00000000
00100000
00001000
00100000
00000000
,
00001000
00010000
00001000
00000000
00010000
00000010
00010000
00000000
,
00000010
00000100
00000010
00000000
00001000
00000000
00000100
00000010
,
00000001
00000110
00000002
00000103
,
00000020
00000000
00000001
00000100
,
00001030
00000001
00000020
00001030
,
00020000
00000000
00100000
00001000
,
01030000
10000000
00010000
10000000
,
01000000
11000000
10000000
01000000
,
00010000
00011000
00001000
00000100
,
00000010
00000000
00001010
00000000
00000001
00000010
00000100
00000000
,
00010000
00001000
00022000
00000000
,
00000000
00033000
00010000
01000000
,
10000000
00100000
01000000
00000000
10010000
00000000
10000000
00000000
,
01000000
00100000
00000000
01000000
00000000
01000000
00000000
00010000
,
00001000
00020000
00000000
00031000
00000100
00000000
00000100
00000000
,
00000010
00000100
00000000
00000100
00000000
00000001
00000010
00000100
,
00010000
00011000
00001000
00000100
,
00000001
00001000
00000000
00002001
00000000
00000000
00000000
00000000
,
00003100
00000000
00000100
00010000
00001000
00000000
00011000
00000000
,
00010000
01000000
00000000
21000000
00000000
00000000
30010000
00000000
,
10000000
00100000
10000000
00000000
00010000
00100000
01000000
00000000
,
00100000
00001000
00010000
00000000
00001000
00010000
00000010
00000000
,
00000100
00000100
00000001
00000000
00000022
00000000
00000000
00000000
,
00000000
00000000
00000000
00000000
,
00000000
00000000
00000033
00000000
,
00000000
00000000
00000000
00000000
,
00002002
00003003
00000101
00000102
,
00001003
00000100
00020100
00000000
,
00031000
00000000
01001000
02001000
,
03010000
00000000
00000000
00000000
10000000
00000000
00000000
00000000
01000000
00000000
00000000
00100000
00000000
00000000
00000000
00000000
,
00001000
00000000
00000000
00010000
00000000
00000000
00001000
00000000
00000100
00000000
00000000
00000000
00000001
00000000
00000000
00000000
,
00001000
00000001
00000100
00000000
00000001
00000000
00000010
00000000
,
00000100
00010000
00001000
00000000
00010000
00000000
01000000
00000000
,
00100000
01000000
10000000
00000000
00100000
00000000
01000000
01000000
,
00010000
20000000
00000000
30020000
10030000
02000000
00000000
03010000
,
00001000
00000000
00021000
00000000
00031000
00000200
00000000
00000310
,
00000100
00000000
00000201
00000000
00000301
00000020
00000000
00001030
,
00010000
00000000
00012000
00000000
00013000
00100000
10000000
00000000
,
01000000
00100000
00010000
00000000
10000000
10000000
01000000
00010000
,
00010000
00000000
00021000
00000000
00031000
00001000
00000100
00000001
,
00000001
00000000
00002001
00000000
00003001
00000001
00000010
00001000
,
00001000
00000000
00012000
00000000
00013000
00100000
10000000
01000000
,
00100000
00001000
00010000
00000000
00022000
00000000
00000000
00000000
,
00000000
00000000
00000000
00033000
;

//---------------dance-double - t7r----------------
#NOTES:
     dance-double:
     t7r:
     Medium:
     14:
     :
00000000
00000000
00000000
00000000
,
00000000
00000000
00000000
00000000
,
00000000
00000000
00000000
00000000
,
00000000
00000000
00000000
00000000
,
00000000
00000000
00000000
00000000
,
00000000
00000000
00000000
00000000
,
00000000
00000000
00000000
00000000
00000001
00000001
00000200
00000000
,
00001000
00000000
00000310
00000000
00001000
00001000
00000200
00000000
,
00010300
00000000
00011000
00000000
00010000
01000000
10000000
10000000
,
00100000
00000000
00100000
00000000
01000000
00000000
00010000
00000000
10000000
01000000
10000000
00000000
00100000
00000000
00000000
00000000
,
00010000
00001000
00010000
00000000
00001000
00000000
00001000
00000000
00000020
00000000
00000000
00000000
00000032
00000000
00000000
00000000
,
00000203
00000000
00002300
00000000
00013000
00010000
00100000
10000000
,
00010000
00100000
00010000
00000000
10000000
00000000
01000000
00000000
10000000
00000000
10000000
00000000
00100000
00000000
00010000
00000000
,
00001000
00010000
00001000
00000000
00010000
00000000
00001000
00000000
00000010
00000000
00000010
00000000
00000100
00000000
00001000
00000000
,
00000001
00000100
00000001
00000000
00001000
00000000
00000010
00000000
00000100
00000000
00001000
00000000
00010000
00000000
00010000
00000000
,
01000000
10000000
00000000
00000000
10010000
00000000
00000000
00000000
10000000
00000000
10000000
00000000
00100000
10000000
00100000
00000000
,
10000000
00000000
01000000
00000000
00020000
00000000
00000000
00000000
00031000
00000000
00001000
00000000
00010000
00000100
00010000
00000000
,
00001000
00000000
00001000
00000000
00000100
00000000
00000001
00000000
00001000
00000000
00001000
00000000
00000001
00000010
00000001
00000000
,
00000100
00000010
00001000
00000100
00010000
00010000
00001000
00010000
,
01000000
00000000
00100000
00000000
10020000
00000000
00000000
00000000
10030000
00000000
00100000
01000000
00000000
00000000
00200000
00000000
,
10000000
00000000
02300000
00000000
00000000
00000000
03010000
00000000
00100000
00000000
00001000
00010000
00000000
00000000
00002000
00000000
,
00000100
00000000
00000000
00000000
00023000
00000000
00000000
00000000
00031000
00000000
00000010
00000000
00000100
00000010
00000200
00000000
,
00000001
00000000
00000320
00000000
00000032
00000203
00002300
00023000
,
00230000
00000000
00000000
00000000
20300000
00000000
00000000
00000000
30010000
00000000
10000000
01000000
10000000
00000000
00010000
00000000
,
00100000
00000000
00001000
00000000
00010000
00000000
00000000
00000000
00000100
00001000
00000100
00001000
00000000
00000000
00000001
00000100
,
00000000
00000001
00000000
00001000
00000000
00000010
00000000
00010000
00001000
00000000
00010000
00000100
00010000
00000000
00001000
00000000
,
01000000
00000000
00010000
10000000
00010000
00000000
00000000
00000000
10000000
00100000
10000000
00100000
00000000
00000000
00000000
10000000
,
01000000
00000000
00010000
00000000
00001000
01000000
00001000
00000000
00010000
00000200
00000000
00000000
00000000
00001000
00000000
00000000
,
00010300
00002000
00000000
00000000
00000000
01000000
00000000
00000000
00013000
00000000
00001000
00000000
00000100
00000010
00000000
00000010
,
00000100
00000000
00000001
00000000
00000010
00001000
00000000
00001000
00010000
00000020
00000000
00000000
00000000
00001000
00000000
00000000
,
00010030
00002000
00000000
00000000
00000000
00100000
00000000
00000000
00013000
00000000
00001000
00000000
00010000
00000000
01000000
00000000
,
10000000
00000000
00100000
01000000
00000000
01000000
00010000
00000000
10000000
00000000
01000000
00000000
00100000
00000000
00010000
00000000
,
10010000
00000000
11000000
00000000
10000000
00100000
01000000
00001000
,
00011000
00000000
00000000
00010100
00000000
00000000
00010000
00000000
00001000
00000100
00000000
00000100
,
00000001
00000000
00000000
00000000
00000000
00000000
00000000
00000000
00000001
00000000
00000000
00000000
00000010
00000000
00000000
00000000
00000000
00000000
00000000
00000000
00000010
00000000
00000000
00000000
00000100
00000000
00000000
00000000
00000000
00000000
00010000
00000000
00000000
00000100
00000000
00000000
00010000
00000000
00000000
00000000
00000000
00000000
00001000
00000000
00000000
00000000
00000000
00000000
,
01000000
00000000
00010000
00100000
00010000
00000000
00000000
00000000
20010000
00000000
00000000
00000000
00100000
00000000
00000000
00000000
,
00010000
00000000
00000000
00000000
31000000
00000000
00000000
00000000
10000000
00000000
00010000
00100000
01000000
00000000
10000000
00000000
,
00100000
00000000
00010000
00001000
00020000
00000000
00000000
00000000
00031000
00000000
00000000
00000000
00001000
00000000
00000000
00000000
,
00000100
00000000
00000001
00000000
00000000
00000000
00000010
00000000
00000000
00000000
00000020
00000000
00000000
00000000
00000130
00010000
,
00001000
00020000
00000000
00031000
00010000
00000000
00010000
00000000
,
01000000
00000000
10000000
00000000
00000000
00000000
00100000
00000000
00000000
00000000
00100000
01000000
00000000
00010000
01000000
00000000
,
00010000
00000000
00100000
00000000
10010000
00000000
00000000
00000000
11000000
00000000
00000000
00000000
11000000
00000000
01000000
10000000
,
00010000
00000000
00100000
00000000
00000000
00000000
00002000
00000000
00000000
00000000
00013000
00000100
00000000
00001000
00000100
00000000
,
00001000
00000001
00000100
00000000
00000001
00001000
00000000
00000000
00000101
00000000
00000000
00000000
00000101
00000000
00000100
00000001
,
00001000
00000000
00000010
00000000
00000000
00000000
00020000
00000000
00000000
00000000
00031000
00010000
00000000
01000000
10000000
00000000
,
00100000
00000000
01000000
00010000
01000000
00000000
00010000
00000000
10000000
00000000
01000000
10000000
01000000
00000000
10000000
00000000
,
00100000
00000000
01000000
00010000
10000000
00000000
01000000
00000000
00010000
00001000
00010000
00000000
00001000
00000000
00000100
00000000
,
00000010
00000000
00000010
00000000
00000100
00000001
00001000
00000000
00000200
00000000
00000000
00000000
00000000
00000000
00000000
00000000
,
00000000
00000000
00000000
00000000
,
00000310
00000000
00000100
00000200
,
00010300
00001000
00002000
00003000
,
00022000
00000000
00000000
00000000
00033000
00000000
00000000
00000000
00010000
01000000
00000000
00000000
10000000
00010000
00000000
00000000
,
10010000
00000000
00000000
00000000
10000000
01000000
00000000
00000000
00010000
00002000
00000000
00000000
00000000
00000000
00003000
00000000
,
00022000
00000000
00000000
00000000
00033000
00000000
00000000
00000000
00001000
00000100
00000000
00000000
00000001
00001000
00000000
00000000
,
00001001
00000000
00000000
00000000
00000001
00000010
00000000
00000000
00001000
00000000
00000000
00011000
00000000
00000000
00010000
00000000
,
01010000
00000000
00000000
01100000
00000000
00000000
00110000
00000000
10000000
00000000
01000000
00100000
00010000
00000000
10000000
01000000
,
00100000
00000000
00010000
00000000
10000000
00000000
00100000
00000000
00010000
00000000
00001000
00010000
00000100
00000000
00010000
00001000
,
01000000
00000000
00001000
00000000
00010000
00000000
00001000
00000000
00000010
00000000
00000001
00000100
00000010
00000000
00001000
00000100
,
00000010
00000000
00000001
00000000
00000100
00000000
00001000
00000000
00010000
00000000
00001000
01000000
00010000
00000000
10000000
01000000
,
00100000
02000000
03010000
00002000
00003100
00001200
00000010
00000301
,
00000012
00000000
00000000
00000000
00001003
00000000
00000100
00010000
00001000
00000000
00021000
00000000
00000100
00000000
00031000
00000000
,
00012000
00000000
00000000
00000000
01003000
00000000
00010000
10000000
01000000
00000000
02010000
00000000
00100000
00000000
13000000
00000000
,
20100000
00000000
00000000
00000000
30010000
00000000
01000000
00001000
00010000
00000000
00000100
00010000
00000100
00000000
00010000
00000000
,
00001000
00000000
00000100
00000000
00000110
00000000
00000010
00001000
00000001
00000000
00001000
00000010
00001000
00000010
00001000
00000000
,
00000001
00000010
00000100
00010000
00002000
00000000
00000000
00000000
00013000
00000000
00001000
01000000
00001000
01000000
00001000
00000000
,
00100000
00010000
10000000
00100000
02000000
00000000
00000000
00000000
03100000
00000000
10000000
01000000
10000000
01000000
10000000
00000000
,
01000000
00100000
00001000
00010000
00002000
00000000
00000000
00000000
00003100
00000001
00001000
00000100
00000010
00000001
00000100
00000000
,
00001000
00010000
00001000
00000000
00010000
01000000
20000000
00000000
30100000
02000000
00000000
00000000
00000000
00000000
00000000
00000000
,
00000000
00000000
00000000
03000000
;

//---------------dance-double - t7r----------------
#NOTES:
     dance-double:
     t7r:
     Hard:
     16:
     :
00000000
00000000
00000000
00000000
,
00000000
00000000
00000000
00000000
,
00000000
00000000
00000000
00000000
,
00000000
00000000
00000000
00000000
,
00000000
00000000
00000000
00000000
,
00000000
00000000
00000000
00000000
,
00000000
00000000
00000000
00000000
01000000
01000000
00020000
00000000
,
20030000
00000000
32000000
00000000
03010000
00010000
00002000
00000000
,
00003010
00000000
00000001
00001000
00000001
00000000
00000100
00000000
00000001
00000000
00000001
00000000
00001000
00000010
00001000
00000010
,
00001000
00000001
00001000
00000001
00001000
00000100
00010000
00000000
00001000
00000000
01000000
00010000
10000000
00000000
01000000
10000000
,
00100000
01000000
01100000
01100000
20000000
00000000
30200000
00000000
,
00320000
00000000
00000000
00000000
00032000
00000000
00000000
00000000
00003100
00000000
00000101
00000000
00000001
00000010
00000001
00000010
,
00000001
00001000
00000001
00001000
00000001
00000000
00000001
00000000
00001000
00000000
00001001
00000000
00001000
00000100
00001000
00000100
,
00010000
00001000
00010000
00001000
01000000
00000000
01000000
00000000
00010000
00000000
10010000
00000000
10000000
00100000
10000000
00100000
,
10000000
00010000
10000000
00010000
10000000
00000000
11000000
00000000
01000000
00000000
00010000
00000000
00001000
00000000
00011000
00000000
,
00001000
00000100
00000000
00000001
00001000
00000000
00001001
00000000
00000011
00000000
00000011
00000000
00000001
00000100
00000001
00000100
,
00000001
00001000
00000001
00001000
00000200
00000000
00000000
00000000
00010300
00000000
00011000
00000000
00001000
01000000
00001000
01000000
,
00010000
10000000
00010000
10000000
01000000
00000000
01100000
00000000
00100000
00000000
00110000
00000000
10000000
00100000
10000000
00100000
,
10000000
00010000
10000000
00010000
10000000
00000000
10100000
00000000
00100000
00000000
00010000
00001000
00000010
00000000
00000100
00000000
,
00001000
00000000
00001001
00000000
00000001
00001000
00000001
00001000
00000001
00000000
00000100
00000010
00001000
00000001
00000000
00000100
,
00000010
00000000
00001000
00000100
00000000
00010000
00001000
01000000
00000000
00010000
00000000
10000000
00010000
00100000
00010000
00000000
,
10000000
00000000
01000000
00010000
00000000
00001000
00010000
00001000
00010000
00000000
00001000
00000000
00000100
00000010
00000100
00000000
,
00000001
00000000
00000010
00000001
00001000
00000000
00000001
00000100
00000001
00001000
00000100
00000000
00010000
00000000
00001000
00010000
,
00200000
00000000
10300000
00010000
00200000
00000000
00000000
00000000
01300000
00000000
10000000
00100000
01000000
00100000
10000000
00010000
,
00100000
00000000
00010000
00100000
01000000
00100000
00001000
00010000
00000010
00001000
00000010
00001000
00000000
00000010
00001000
00000100
,
00000010
00000001
00000000
00000100
00000000
00000001
00001000
00000001
00000010
00000000
00000001
00000100
00000010
00000000
00001000
00000100
,
00000010
00000000
00000100
00010000
00001000
00000000
01000000
00010000
10000000
00100000
10000000
00100000
00000000
00010000
00001000
00010000
,
00001000
00000010
00000100
00001000
00000010
00000100
00000001
00000000
00000010
00000000
00000001
00000100
00000000
00000001
00001000
00000100
,
00010000
00000000
00001000
01000000
00010000
10000000
00010000
00000000
10000000
01000000
00100000
01000000
00000000
01000000
10000000
00000000
,
00100000
01000000
00010000
00100000
00001000
00010000
00000010
00001000
00000001
00000000
00001000
00000010
00000000
00001000
00000100
00010000
,
00001000
00000000
01000000
00010000
10000000
01000000
10000000
00000000
00010000
00100000
01000000
00100000
00000000
00100000
00010000
00000000
,
01000000
00010000
10000000
00010000
00000000
00010000
00100000
00001000
00010000
00000000
00001000
00010000
00000100
00000000
00010000
00000000
,
00011000
00000000
00001000
00000000
01001000
00000000
00001000
00000000
00011000
00000000
00010000
00001000
01000000
00000000
00001000
00000000
,
00011000
00000000
00000000
00000000
00000000
00000000
00010000
00000000
00000000
00000000
00000000
00000000
00001000
00000000
00000000
00000100
00000000
00000000
00000010
00000000
00000000
00000000
00000000
00000000
00001000
00000000
00000000
00000000
00000100
00000000
00000000
00000000
00000010
00000000
00000000
00000000
00000001
00000000
00000000
00000000
00000100
00000000
00000000
00000000
00000010
00000000
00000000
00000000
,
00001000
00000000
00000000
00000000
00000100
00000000
00000000
00000000
00010000
00000000
00000000
00000000
00001000
00000000
00000000
00000000
01000000
00000000
00000000
00000000
00010000
00000000
00000000
00000000
10000000
00000000
00000000
01000000
00000000
00000000
10000000
00000000
00000000
01000000
00000000
00000000
00100000
00000000
00000000
00010000
00000000
00000000
00100000
00000000
00000000
00010000
00000000
00000000
,
00001000
00000100
00000010
00000001
00001000
00000000
00000001
00000000
00000201
00000000
00000000
00000000
00002300
00000000
00000000
00000000
,
00023000
00000000
00000000
00000000
02030000
00000000
00000000
00000000
13000000
00010000
01000000
00010000
10000000
00000000
01000000
00000000
,
00010000
00001000
00000100
00000001
00000020
00000000
00000000
00000000
00000031
00000000
00000000
00000000
00000100
00000000
00000000
00000000
,
00001100
00000000
00000100
00000000
00001000
00000000
00010000
00000000
00000100
00000000
00001000
00000000
00010000
00000000
01000000
00100000
,
01000000
02200000
03300000
00010000
10000000
00000000
01000000
00000000
,
01010000
00000000
01000000
00000000
00010000
00000000
00001000
00000000
01000000
00000000
00010000
00001000
00000000
00000100
00000001
00000000
,
00000100
00000010
00000100
00000000
00001001
00000000
00000001
00000100
00000010
00000000
00000000
00000000
00010000
00000000
00001000
00010000
,
00001000
00000000
00011000
00000000
00000000
00000000
02001000
00000000
00000000
00000000
03001000
00010000
00000000
01000000
10000000
00000000
,
00010000
00100000
01000000
10000000
00010000
01000000
00100000
00000000
01000000
00000000
00000000
00000000
00001000
00000000
00010000
00001000
,
00010000
00000000
00011000
00000000
00000000
00000000
00010020
00000000
00000000
00000000
00010030
00001000
00010000
00000100
00001000
00000001
,
00001000
00000001
00001000
00000001
00001000
00000100
00001000
00000100
00010000
00001000
00010000
00001000
00010000
00000010
00010000
00000010
,
00010000
00001000
00010000
00001000
00100000
00010000
00100000
00010000
10000000
01000000
00100000
00010000
10000000
01000000
00100000
00010000
,
10000000
00000000
10100000
00000000
00100000
00010000
00001000
00000000
00020000
00000000
00000000
00000000
00000000
00000000
00000000
00000000
,
00000000
00000000
00000000
00000000
,
00002000
00003000
01000000
01000000
,
00002000
00000000
00000000
00003000
00000000
00000000
01000000
00000000
00000000
00000000
00000000
00000000
02030000
00000000
00000000
00000000
00000000
00000000
00000000
00000000
00000000
13000000
00010000
10000000
,
00200000
00000000
00000000
00000000
00000000
00000000
00000000
00000000
10300000
01000000
10000000
00000000
01000000
00010000
01000000
00000000
,
01100000
00000000
00000000
00000000
00001000
00010000
00001000
00000000
00010000
00000100
00010000
00000000
00000000
00000000
00000000
00000000
,
00011000
00000000
00000000
00000000
00000000
00000000
00000000
00000000
00000001
00000100
00000001
00000000
00000100
00001000
00000100
00000000
,
00000110
00000000
00000000
00000000
00000000
00000000
00000000
00000000
00000000
00000000
00000000
00000000
00010000
00000000
00000000
00001000
00000000
00000000
00010000
00000000
00000000
00000000
00000000
00000000
00001000
00000000
00000000
00000000
00000000
00000000
00000000
00000000
00000000
00011000
00000000
00000000
00000000
00000000
00000000
00000000
00000000
00000000
00001000
00000000
01000000
00000000
00010000
00000000
,
10000000
00000000
00000000
10010000
00000000
00000000
11000000
00000000
10000000
01000000
00100000
00010000
10000000
01000000
00100000
00010000
,
10000000
01000000
00100000
01000000
00010000
00001000
00000100
00000010
00000100
00000001
00000100
00001000
00000100
00000001
00000100
00001000
,
00000100
00000001
00000010
00000100
00001000
00010000
00100000
01000000
10000000
00100000
01000000
00010000
10000000
00100000
01000000
00010000
,
10000000
00100000
01000000
00100000
00010000
00001000
00000010
00000100
00000010
00000001
00000010
00001000
00000010
00000001
00000010
00001000
,
00000010
00000000
00000001
00000000
00001000
00000000
00000020
00000000
00000000
00000000
00000000
00000000
00001030
00000000
00000100
00000000
00010000
00000000
00002000
00000000
00000000
00000000
00000000
00000000
00013000
00000000
00000000
01000000
00000000
00000000
10000000
00000000
00000000
00000000
00000000
00000000
01100000
00000000
00000000
00000000
00000000
00000000
10000000
00000000
00000000
00100000
00000000
00000000
,
00020000
00000000
00030000
00000000
00022000
00000000
00033000
00000000
00001000
00000100
00000001
00000000
00000110
00000000
00000001
00000010
,
00002000
00000000
00003000
00000000
00011000
00000000
00010000
00001000
00010000
00100000
10000000
00000000
01100000
00000000
10000000
01000000
,
00020000
00000000
00030000
00000000
00022000
00000000
00033000
00000000
00001000
00000010
00000001
00000100
00000010
00001000
00000100
00010000
,
00001000
00000000
00100000
00000000
00010000
00000000
10000000
00000000
00000000
00000000
00000000
00000000
00100000
00000000
01000000
00000000
00010000
00000000
10000000
00000000
00000000
00010000
00000000
00000000
10000000
00000000
00000000
00000000
00000000
00000000
01000000
00000000
00000000
01000000
00000000
00000000
00100000
00000000
00000000
00100000
00000000
00000000
00010000
00000000
00000000
00010000
00000000
00000000
,
00001000
00001000
00000010
00000010
00000200
00000302
00002003
00003002
00001003
00000000
00000001
00000001
00000010
00000010
00000100
00000100
,
00001000
00001000
00010000
00010000
00200000
00320000
20030000
30020000
10030000
00000000
00100000
00100000
00010000
00010000
00001000
00001000
,
00000100
00000100
00000001
00000001
00000020
00000230
00020300
00032000
00013000
01000000
10000000
00100000
00010000
00001000
00000100
00000001
,
00000010
00000000
00000100
00000000
00010000
00000000
00002000
00000000
00000000
00000000
00000000
00000000
01003000
00000000
00010000
00000000
00100000
00000000
00020000
00000000
00000000
00000000
00000000
00000000
10030000
00000000
00000000
20020000
00000000
00000000
00000000
00000000
00000000
00000000
00000000
00000000
00000000
00000000
00000000
00000000
00000000
00000000
00000000
00000000
00000000
00000000
00000000
00000000
,
00000000
00000000
00000000
30030000
;

//---------------dance-double - t7r----------------
#NOTES:
     dance-double:
     t7r:
     Challenge:
     18:
     :
00000000
00000000
00000000
00000000
,
00000000
00000000
00000000
00000000
,
00000000
00000000
00000000
00000000
,
00000000
00000000
00000000
00000000
,
00000000
00000000
00000000
00000000
,
00000000
00000000
00000000
00000000
,
00000000
00000000
00000000
00000000
00000000
00000000
00000000
00000000
00011000
00000000
00011000
00000000
00001000
01000000
00010000
10000000
,
01000000
00100000
00010000
10000000
00100000
01000000
00010000
00100000
00001000
00000000
00011000
00000000
00010000
00000100
00001000
00000001
,
00000100
00000010
00001000
00000001
00000010
00000100
00001000
00000010
00010000
00000000
00011000
00000000
00001000
00000100
00000010
00000100
,
00000001
00000010
00000100
00010000
00001000
00010000
01000000
00100000
00001000
00000000
00011000
00000000
00010000
01000000
10000000
00100000
,
00010000
00001000
00000100
00000001
00000010
00000000
00000110
00000000
00000002
00000000
00000000
00000000
00002003
00000000
00000000
00000000
,
00023000
00000000
00000000
00000000
20030000
00000000
00000000
00000000
30010000
00000000
01010000
00000000
10000000
01000000
01000000
00010000
,
10000000
01000000
01000000
00010000
00001000
00000100
00000100
00000001
00001000
00000000
00001001
00000000
00000001
00000100
00000100
00001000
,
00000001
00000100
00000100
00001000
00010000
01000000
01000000
10000000
00010000
00000000
00110000
00000000
10000000
00100000
00100000
00010000
,
10000000
00100000
00100000
00010000
00001000
00000010
00000010
00000001
00001000
00000000
00001001
00000000
00011000
00000000
10010000
00000000
,
10000000
00010000
01000000
00000000
00010000
00000000
10000000
00000000
01000000
00000000
00010000
00000000
00001000
00000000
00000000
00000000
00011000
00000000
00000000
00000000
00011000
00000000
00000000
00000000
00001000
00000000
00010000
00000000
00010000
00000000
01000000
00000000
,
00001000
00010000
00010000
01000000
00010000
00100000
00100000
01000000
00001000
00000000
00011000
00000000
00010000
00001000
00001000
00000100
,
00010000
00001000
00001000
00000100
00001000
00000010
00000010
00000100
00010000
00000000
00011000
00000000
00001000
00010000
00010000
00100000
,
00001000
00010000
00010000
00100000
00010000
01000000
01000000
00100000
00001000
00000000
00011000
00000000
00001001
00000000
00011000
00000000
,
01001000
00000000
01100000
00000000
00100000
10000000
00010000
10000000
00010000
01000000
01000000
10000000
00010000
01000000
01000000
10000000
,
01000000
00010000
00010000
00100000
00000000
00001000
00010000
00000010
00001000
00000100
00000100
00000001
00001000
00000100
00000100
00000001
,
00000100
00001000
00001000
00000010
00000000
00010000
00001000
01000000
00010000
00100000
00100000
10000000
00010000
00100000
00100000
10000000
,
00100000
00010000
00010000
01000000
00000000
00001000
00010000
00000100
00001000
00000010
00000010
00000001
00001000
00000010
00000010
00000001
,
00000010
00001000
00001000
00000100
00020000
00000000
00000000
00000000
00031000
01000000
00010000
10000000
01000000
00100000
00010000
10000000
,
00100000
01000000
00010000
10000000
01000000
00010000
00001000
00010000
00000100
00001000
00001000
00001000
00000000
00000001
00000100
00001000
,
00010000
00000100
00000010
00001000
00010000
00001000
01000000
00001000
00010000
00000100
00001000
00000001
00000100
00000010
00001000
00000001
,
00000010
00000100
00001000
00000001
00000100
00001000
00010000
00001000
01000000
00010000
00010000
00010000
00000000
10000000
01000000
00010000
,
00001000
01000000
00100000
00010000
00001000
00000100
00000001
00001000
00000100
00000002
00000000
00001003
00000010
00000001
00000100
00001000
,
00010000
00200000
00000000
10300000
01000000
00010000
00001000
00000000
00100000
00001000
00010000
00001000
00000010
00000100
00000010
00001000
,
00010000
00000100
00010000
00001000
00010000
00100000
10000000
00010000
01000000
20000000
00000000
30010000
00100000
10000000
01000000
00010000
,
00001000
00000020
00000000
00000031
00000100
00001000
00010000
00000000
00000010
00010000
00001000
00010000
00100000
01000000
00100000
00010000
,
00001000
01000000
00001000
00010000
00001000
00000010
00000001
00001000
00000001
00001000
00000100
00001000
00000001
00000100
00000100
00001000
,
00000001
00000100
00000100
00001000
00000001
00000100
00000100
00001000
00010000
01000000
01000000
10000000
00010000
01000000
01000000
10000000
,
00010000
00000000
00000000
01000000
00000000
00000000
01000000
00000000
00000000
10000000
00000000
00000000
00010000
00000000
00000000
01000000
00000000
00000000
01000000
00000000
00000000
10000000
00000000
00000000
00010000
00000000
00000000
00000000
00100000
00000000
00010000
00000000
00100000
00000000
00000000
00000000
00001000
00000000
00000000
00000000
00010000
00000000
00000010
00000000
00010000
00000000
00000000
00000000
,
00001000
00000000
01000000
00010000
01000000
00000000
00001000
00000000
00010000
00000100
00010000
00000000
00001000
00000000
00000010
00000100
00001000
00000000
00000100
00000000
00010000
00001000
01000000
00000000
,
00001000
00000000
00010000
01000000
00100000
00000000
10010000
00000000
00000000
10000000
00000000
00000000
00200000
00000000
00000000
00000000
00000000
00000000
00320000
00000000
00000000
00000000
00000000
00000000
,
00032000
00000000
00000000
00000000
00000000
00000000
00000000
00000000
00000000
00000000
00000000
00000000
00003200
00000000
00000000
00000000
00000000
00000000
00000000
00000000
00000000
00000000
00000000
00000000
00000301
00000000
00000000
00001000
00000000
00000000
00000100
00000000
00000000
00000100
00000000
00000000
00000001
00000000
00000000
00000010
00000000
00000000
00001000
00000000
00010000
00000000
00001000
00000000
,
01000000
00100000
10000000
00010000
00100000
00000000
00001000
00010000
00011000
00000000
00000000
00000000
01000000
00000000
00000000
00000000
,
00000100
00000000
00000000
01000000
00000000
00000000
00000000
00000000
00000000
00011000
00000000
00000000
00000000
00000000
00000000
01000000
00000000
00000000
00000000
00000000
00000000
00000100
00010000
00001000
,
00010000
00002000
00000000
00013000
00011000
00000000
00000100
00000000
,
01000000
00000000
00000100
00000000
00000000
00000000
01000000
00000000
00000000
00000000
00000100
00010000
00010000
01000000
00000000
00000000
,
00010000
00000000
00000000
10000000
00000000
00000000
01000000
00000000
00000000
01000000
00000000
00000000
00010000
00000000
00000000
00001000
00000000
00000000
00000100
00000000
00000000
00000100
00000000
00000000
00000001
00000000
00000000
00000000
00000000
00000000
00000000
00000000
00000000
00000000
00000000
00000000
00001001
00000000
00000000
00000000
00000000
00000000
00000001
00000000
00000100
00000000
00000001
00000000
,
00001000
00000000
00000100
00000000
00000000
00000000
00021000
00000000
00000000
00000000
00030100
00001000
00001000
00010000
00000100
00001000
,
00001000
00000000
00000000
00010000
00000000
00000000
00001000
00000000
00000000
01000000
00000000
00000000
00010000
00000000
00000000
10000000
00000000
00000000
01000000
00000000
00000000
00100000
00000000
00000000
00010000
00000000
00000000
00000000
00000000
00000000
00000000
00000000
00000000
00000000
00000000
00000000
10010000
00000000
00000000
00000000
00000000
00000000
10000000
00000000
00100000
00000000
10000000
00000000
,
00010000
00000000
00100000
00000000
00000000
00000000
00102000
00000000
00000000
00000000
00013000
00000100
00001000
00000001
00000100
00000100
,
00001000
00000010
00000100
00000100
00001000
00000010
00000100
00000100
00001000
00010000
00100000
00100000
01000000
00010000
00100000
00100000
,
01000000
00001000
00010000
00010000
00100000
00001000
00010000
00010000
00100000
00001000
00001000
00001000
00010000
00001000
00001000
00001000
,
01000000
00100000
10010000
00000000
10000000
01000000
00010000
00001000
00000020
00000000
00000000
00000000
00000000
00000000
00000000
00000000
,
00000000
00000000
00000000
00000000
,
00000030
00000000
00000000
00000000
,
00000000
00000000
00000000
00000000
00000000
00000000
00000000
00000000
00000000
00000000
00000000
00000000
00000000
00000000
00000000
00000000
00000000
00000000
00000000
00000000
00000000
00000001
00000100
00000001
,
00001000
00000010
00000000
00000000
00000000
00000000
00000000
00000000
00000000
00000000
00000000
00000000
00000000
00000000
00000000
00000000
00000000
00000000
00000000
00000000
00000000
00000000
00000000
00000000
00001000
00000000
00000000
00001000
00000000
00000000
00010000
00000000
00000000
00000000
00000000
00000000
00001000
00000000
00000000
00001000
00000000
00000000
00000001
00000000
00000000
00000000
00000000
00000000
,
00001001
00000000
00000000
00000000
00000001
00000100
00001000
00000000
00010000
01000000
10000000
00000000
00000000
00000000
00000000
00000000
,
02100000
00000000
00000000
00000000
00000000
00000000
00000000
00000000
03010000
00010000
00001000
00000000
00010000
00010000
10000000
00000000
,
10010000
00000000
00000000
00000000
00000000
00000000
00000000
00000000
00000000
00000000
00000000
00000000
10000000
00000000
00000000
01000000
00000000
00000000
00010000
00000000
00000000
00000000
00000000
00000000
00011000
00000000
00000000
00000000
00000000
00000000
00000000
00000000
00000000
00010010
00000000
00000000
00000000
00000000
00000000
00000000
00000000
00000000
00000010
00000000
00001000
00000000
00000001
00000000
,
00001000
00000100
00000000
00000000
00000000
00000000
00000000
00000000
00000000
00000110
00000000
00000000
00000000
00000000
00000000
00000000
00000000
00000000
00001001
00000000
00000000
00000000
00000000
00000000
00000001
00000000
00000000
00000100
00000000
00000000
00000100
00000000
00000000
00001000
00000000
00000000
00000001
00000000
00000000
00000100
00000000
00000000
00000100
00000000
00000000
00001000
00000000
00000000
,
00000001
00000100
00000100
00001000
00000001
00000010
00001000
00010000
00001000
00010000
00010000
01000000
00001000
00010000
00010000
01000000
,
00010000
00100000
00010000
10000000
00100000
00010000
00001000
01000000
00010000
01000000
01000000
10000000
00010000
01000000
01000000
10000000
,
00010000
01000000
01000000
10000000
00100000
00010000
00001000
00000010
00000100
00001000
00001000
00010000
00000100
00001000
00001000
00010000
,
00001000
00000000
01000000
00000000
00010000
00000000
20000000
00000000
00000000
00000000
00000000
00000000
31000000
00000000
00100000
00000000
00001000
00000000
00020000
00000000
00000000
00000000
00000000
00000000
00031000
00000000
00000000
00000100
00000000
00000000
00000001
00000000
00000000
00000010
00000000
00000000
00001000
00000000
00000000
00010000
00000000
00000000
00100000
00000000
00000000
10000000
00000000
00000000
,
01000000
00000000
00000000
00010000
00000000
00000000
00010000
00000000
00000000
00100000
00000000
00000000
00001000
00000000
00010000
00000000
00001000
00000000
00010000
00000000
00000000
00001000
00000000
00000000
00010000
00000000
00000000
01000000
00000000
00000000
10000000
00000000
00000000
00100000
00000000
00000000
00010000
00000000
00000000
00001000
00000000
00000000
00000010
00000000
00000000
00000001
00000000
00000000
,
00000100
00000000
00000000
00001000
00000000
00000000
00001000
00000000
00000000
00000010
00000000
00000000
00010000
00000000
00001000
00000000
00010000
00000000
00001000
00000000
00000000
00010000
00000000
00000000
00001000
00000000
00000000
00000010
00000000
00000000
00000001
00000000
00000000
00000100
00000000
00000000
00001000
00000000
00000000
00010000
00000000
00000000
01000000
00000000
00000000
10000000
00000000
00000000
,
00100000
00000000
00000000
00000000
00000000
00000000
00010000
00000000
00000000
00000000
00000000
00000000
00010000
00000000
00000000
00000000
00000000
00000000
01000000
00000000
00000000
00000000
00000000
00000000
00001000
00000000
00000000
00000000
00010000
00000000
00000000
00000000
00001000
00000000
00000000
00000000
00010000
00000000
00000000
00000000
00000000
00000000
00001000
00000000
00000000
00000000
00000000
00000000
00010000
00000000
00000000
00000000
00000000
00000000
01000000
00000000
00000000
00000000
00000000
00000000
10000000
00000000
00000000
00000000
00000000
00000000
00100000
00000000
00000000
00000000
00000000
00000000
01000000
00000000
00000000
00000000
00000000
00000000
00100000
00000000
00000000
10000000
00000000
00000000
00010000
00000000
00000000
00000000
00000000
00000000
10000000
00000000
00000000
00000000
00000000
00000000
,
01000000
00000000
00100000
00000000
00001000
00000000
00010000
00000000
00000000
00000000
00000000
00000000
00000100
00000000
00001000
00000000
00000001
00000000
00000010
00000000
00000000
00000001
00000000
00000000
00000100
00000000
00000010
00000000
00000100
00000000
00000001
00000000
00000000
00000010
00000000
00000000
00001000
00000000
00000000
00001000
00000000
00000000
00000100
00000000
00000000
00000010
00000000
00000000
,
00001000
00000000
00000000
00001000
00000000
00000000
00000100
00000000
00000000
00010000
00000000
00000000
00002000
00000000
00000000
00023000
00000000
00000000
00130000
00000000
00000000
00100000
00000000
00000000
01000000
00000000
00100000
00000000
01000000
00000000
10000000
00000000
00000000
00100000
00000000
00000000
00010000
00000000
00000000
00010000
00000000
00000000
01000000
00000000
00000000
00100000
00000000
00000000
,
00010000
00000000
00000000
00010000
00000000
00000000
01000000
00000000
00000000
00001000
00000000
00000000
00020000
00000000
00000000
00032000
00000000
00000000
00003010
00000000
00000000
00000010
00000000
00000000
00000100
00000000
00000010
00000000
00000100
00000000
00000001
00000000
00000000
00000010
00000000
00000000
00001000
00000000
00000000
00001000
00000000
00000000
00000100
00000000
00000000
00000010
00000000
00000000
,
00001000
00001000
00000100
00010000
00002000
00023000
01030000
01000000
00010000
10000000
00100000
00010000
00001000
00000100
00000001
00000010
,
00000100
00000000
00010000
00000000
00001000
00000000
00020000
00000000
00000000
00000000
00000000
00000000
00031000
00000000
01000000
00000000
00010000
00000000
20000000
00000000
00000000
00000000
00000000
00000000
30010000
00000000
00000000
00002000
00000000
00000000
00000000
00000000
00000000
00000000
00000000
00000000
00000000
00000000
00000000
00000000
00000000
00000000
00000000
00000000
00000000
00000000
00000000
00000000
,
00000000
00000000
00000000
00003000
;
