#TITLE:GiGaGaHell;
#ARTIST:m1dy, RoughSketch;
#BANNER:GiGaGaHell.png;
#BACKGROUND:GiGaGaHell-bg.png;
#JACKET:GiGaGaHell-jacket.png;
#CDTITLE:./CDTITLES/BEATMANIA IIDX.PNG;
#MUSIC:GiGaGaHell.ogg;
#SAMPLESTART:20.16;
#SAMPLELENGTH:19.21;
#BPMS:0=250;

//---------------dance-single - Pandemonium X----------------
#NOTES:
     dance-single:
     Pandemonium X:
     Beginner:
     7:
     :
0000
0000
0000
0000
,
0000
0000
0000
0000
,
0000
0000
0000
0000
,
0000
0000
0000
0000
,
0000
0000
0000
0000
,
1001
0000
0000
0000
,
0000
0000
0000
1000
,
1000
0000
0000
0000
,
0000
0000
0000
0000
,
1001
0000
0000
0000
,
0000
0000
0000
0001
,
0001
0000
0000
0000
,
0000
0000
0000
0000
,
0001
0000
0000
0000
,
0100
0000
0000
0000
,
0010
0000
0000
0000
,
1000
0000
0000
0000
,
0100
0000
1000
0000
,
0001
0001
0001
0000
,
0100
0000
0010
0000
,
0100
0000
0000
0010
0000
0000
0000
0000
,
0100
0000
0000
0000
,
0010
0000
0000
0000
,
1000
0000
0000
0000
,
0100
0000
0000
0000
,
0010
0000
0000
0000
,
0001
0000
0000
0000
,
0100
0000
0000
0000
,
0010
0000
0000
1001
,
0001
0000
0000
0000
,
1000
0000
0000
0000
,
0010
0000
0000
0000
,
0100
0000
0000
0000
,
0010
0000
0000
0000
,
1000
0000
0000
0000
,
0001
0000
1000
0000
,
0010
0000
0000
0010
0000
0000
0000
0000
,
0100
0000
0000
0000
,
0010
0000
0000
0000
,
1001
0000
0000
0000
,
0000
0000
0000
0000
,
1000
0000
0000
0000
,
0100
0000
0000
0000
,
0010
0000
0000
0000
,
0100
0000
1000
0000
,
0010
0000
0000
0000
,
0100
0000
0000
0000
,
0010
0000
0100
0000
,
0001
0000
1000
0000
,
0001
0000
0000
0000
,
0010
0000
0000
0000
,
0100
0000
0000
0000
,
1000
0000
0001
0000
,
1000
0000
0000
0000
,
0010
0000
0000
0000
,
0100
0000
0010
0000
,
1001
0000
0000
0000
,
0001
0000
0000
0000
,
0010
0000
0000
0000
,
0100
0000
0000
0000
,
1000
1000
1000
0000
,
0100
0000
0000
0000
,
1000
0000
0000
0000
,
0010
0000
0100
0000
,
0110
0000
0000
0000
,
0010
0000
0000
0000
,
0100
0000
0000
0000
,
0010
0000
0000
0000
,
0100
0100
0100
0000
,
0010
0000
0000
0000
,
1000
0000
0000
0000
,
0001
0000
1000
0000
,
0110
0000
0000
0000
,
0001
0001
0000
0000
,
1000
0000
0000
0000
,
0100
0000
0000
0100
0000
0000
0000
0000
,
0000
0000
0000
0000
,
0010
0010
0000
0000
,
0100
0100
0100
0100
,
1000
0000
0000
0000
,
0001
0001
0001
0000
,
1000
0000
0000
1000
0000
0000
1000
0000
,
0000
0000
0000
0000
,
0001
0000
0000
0001
0000
0000
0001
0000
,
0000
0000
0000
0000
,
0100
0000
0000
0010
,
0000
0000
1001
0000
,
0110
0000
0000
0000
,
0000
0000
0000
0000
,
0110
0000
0000
0000
,
0000
0000
0000
0000
,
0000
0000
0000
0000
,
0000
0000
0000
1000
,
0001
0000
0000
0000
,
1000
0000
0000
0000
,
0001
1000
0001
1000
,
0001
0000
0000
0000
,
1000
0000
0000
1000
0000
0000
1000
0000
,
0001
0000
0000
0000
,
0001
0000
0000
0001
0000
0000
0001
0000
,
1000
0000
0000
0000
,
0010
0000
0000
0010
0000
0000
0010
0000
,
0100
0000
0000
0000
,
0100
0000
0000
0100
0000
0000
0100
0000
,
0010
0000
0000
0000
,
1000
0000
0010
0000
,
0100
0000
0001
0010
,
0100
0000
0010
0000
,
0001
0010
0100
1000
,
0001
0000
0001
0000
,
1000
0000
1000
0000
,
1001
0000
0100
0100
,
0000
0000
0010
0000
,
1001
0000
0000
0000
,
0000
0000
0000
0000
,
0110
0000
0000
0000
,
0000
0000
0000
0000
,
1001
0000
0000
0000
,
0110
0000
0000
0000
,
1000
0001
0001
0001
,
0001
0001
0001
0001
,
0001
0000
0000
0000
0000
0110
0000
0000
,
1001
0000
0000
0000
;

//---------------dance-single - t7r----------------
#NOTES:
     dance-single:
     t7r:
     Easy:
     11:
     :
0000
0000
0000
0000
,
0000
0000
0000
0000
,
0000
0000
0000
0000
,
0000
0000
0000
0000
,
0000
0000
0000
0000
,
1001
0000
0000
0000
,
0000
0000
0000
0001
,
0001
0000
0000
0000
,
0000
0000
1000
0001
,
1000
0000
0000
0000
,
0000
0000
0000
0100
,
0100
0000
0000
0000
,
0000
0000
0010
0001
,
1000
0000
0000
1000
0000
0000
0001
0000
,
0100
0000
0000
0100
0000
0000
0001
0000
,
1000
0000
0000
1000
0000
0000
0001
0000
,
0010
0000
0000
0010
0000
0000
0001
0000
,
1000
0100
1000
0001
,
0100
0010
2000
0000
,
3001
0010
0001
1000
,
0010
0000
0000
0100
0000
0000
0020
0000
,
1030
0000
0000
0100
0000
0000
0010
0000
,
0100
0000
0000
1000
0000
0000
0001
0000
,
1000
0000
0000
0010
0000
0000
0100
0000
,
0010
0000
0000
1000
0000
0000
0001
0000
,
0010
0000
0000
0001
0000
0000
0100
0000
,
0010
0000
0000
1000
0000
0000
0001
0000
,
0010
0000
0000
0100
0000
0000
1000
0000
,
0001
0100
0010
1000
,
0001
0000
0000
0010
0000
0000
1000
0000
,
0010
0000
0000
0001
0000
0000
1000
0000
,
0001
0000
0000
0100
0000
0000
1000
0000
,
0100
0100
0001
1000
,
0001
0000
0000
0010
0000
0000
0100
0000
,
0001
0000
0000
0100
0000
0000
1000
0000
,
0010
0100
0010
0100
,
0001
0000
0000
2000
0000
0000
3000
0000
,
0010
0000
1000
0000
,
0100
0000
0010
0000
,
0001
0100
0001
0100
,
0020
2030
3002
1003
,
0001
0010
0100
0010
,
0001
0100
0010
1000
,
0001
0010
0001
1000
,
0010
0100
0001
1000
,
0100
0010
0100
1000
,
0010
0100
0001
1000
,
0010
0000
0000
0100
0000
0100
0000
0100
,
0000
0001
0000
1000
0001
0000
1000
0000
,
0001
0010
0100
0010
,
1000
0010
0001
1000
,
0010
0001
0010
1000
,
0100
0010
0001
1000
,
0001
0000
0000
0200
0000
0000
0310
0000
,
1000
0000
0000
0200
0000
0000
0310
0000
,
0001
0000
0000
2000
0000
0000
3010
0000
,
0100
0100
0010
1001
,
1000
1000
0100
0001
,
1000
1000
0010
0001
,
1000
1000
0010
0100
,
0001
0010
0100
1000
,
0001
0001
0100
1000
,
0001
0001
0010
1000
,
0001
0001
0010
0100
,
1000
1000
1000
1001
,
0001
0100
0100
0010
,
1000
0100
0100
0010
,
0001
1000
1000
0010
,
1000
0100
0001
0100
,
1000
0010
0010
0001
,
1000
0100
0100
0001
,
1000
0100
0010
0001
,
2000
0000
3020
0000
,
0130
0001
0200
0000
,
1300
0100
0001
0100
,
0010
0000
1000
0001
0000
0000
1000
0000
,
0001
0020
1030
0020
,
0031
0000
0000
0100
0020
0000
0000
0000
,
1030
1000
1000
1000
,
0002
0203
2300
3200
,
0301
0001
1000
0002
,
0013
0000
0000
0110
0000
0000
1000
0000
,
1001
0001
0100
0010
,
1000
0000
0100
0020
0000
0000
0031
0000
,
0000
0100
0000
0000
0010
0000
2000
0000
,
3001
0000
0000
0010
0000
0000
0100
0000
,
0000
1000
0000
0000
0001
0000
0100
0000
,
0010
0000
1000
0000
,
0002
2003
3002
0023
,
0032
0000
0000
0000
,
0000
0000
0000
0000
,
0003
0000
0000
0000
,
0000
0000
0000
0100
,
0110
0000
0000
0000
,
1001
0000
0000
0000
,
0011
0000
0000
0000
0000
1000
0000
1000
,
0001
0100
0010
1000
,
0001
0010
0001
0010
,
0100
1000
0100
0010
,
0001
0100
0001
0100
,
0010
1000
0010
0100
,
0001
1000
0001
1000
,
0100
0010
0100
1000
,
0100
0010
0001
1000
,
0020
0230
0302
2003
,
3001
0000
0000
0010
0000
0000
1000
0000
,
0010
0000
0000
0001
2000
0000
3002
0000
,
1003
0000
0000
0010
0000
0000
0001
0000
,
0020
0230
0302
2003
,
3100
0000
0000
0001
0000
0000
0100
0000
,
1000
0000
0000
0010
0000
0000
0100
0000
,
0001
0000
0000
0010
0000
0000
0100
0000
,
1000
0010
0100
0001
,
1000
0000
0000
0100
0000
0000
0010
0000
,
0100
0000
0000
1000
0000
0000
0001
0000
,
1000
0000
0000
0010
0000
0000
0100
0000
,
0010
0000
0000
1000
0000
0000
0001
0000
,
0010
0000
0000
0100
0000
0000
0010
0000
,
0001
0000
0000
1000
0000
0000
0010
0000
,
0100
0100
0100
0100
,
0200
0320
2030
3002
,
2003
0000
3200
0000
0310
0001
0000
1000
,
0002
0000
0003
0000
;

//---------------dance-single - Pandemonium X----------------
#NOTES:
     dance-single:
     Pandemonium X:
     Medium:
     15:
     :
0000
0000
0000
0000
,
0000
0000
0000
0000
,
0000
0000
0000
0000
,
0000
0000
0000
0000
,
0000
0000
0000
0000
,
1001
0000
0000
0000
,
0000
0000
0000
0110
,
1001
0000
0000
0000
,
0000
0000
0000
0000
0001
1000
0001
1000
,
1001
0000
0000
0000
,
0000
0000
0000
0110
,
1001
0000
0000
0000
,
0000
0000
0000
0100
,
0001
0001
0100
0100
,
0010
0010
1000
1100
,
1010
1000
0001
0001
,
0010
0010
0100
0100
,
0010
0001
0000
0010
0100
1000
0000
0100
,
0010
0100
0010
0100
0010
0100
0020
0000
,
0031
0100
1000
0100
0001
1000
0100
0001
,
0100
1000
0001
0200
0000
0000
0300
0000
,
0010
0000
1000
0001
0000
0010
0100
0000
,
0010
0000
0001
0010
0000
0100
1000
0000
,
0100
0000
1000
0010
0000
0100
0001
0000
,
0010
0000
0100
0010
0000
0100
1000
0010
,
0100
0000
0001
0010
0000
0100
1000
0000
,
0100
0000
1000
0010
0000
0100
0001
0000
,
0010
0000
0100
0010
0000
0100
1000
0000
,
0001
0000
1000
0010
0100
0001
0010
0100
,
1000
0100
1000
0100
1000
0100
1000
0000
,
0001
0100
0001
0100
0001
0100
0001
0000
,
1000
0010
1000
0010
1000
0010
1000
0000
,
0001
0010
0001
0010
0001
0010
0001
0000
,
1000
0001
0010
0001
1000
0001
0010
0000
,
0001
1000
0010
1000
0001
1000
0010
0000
,
0100
0010
0100
0010
0100
0010
0100
0010
,
1000
0001
0010
0200
0000
0000
0300
0000
,
1001
0000
0000
0000
,
0110
0000
0000
0000
,
2000
3200
0320
0032
,
2000
0000
0000
3003
,
0001
0100
0010
1000
,
0100
0001
0100
1000
,
0010
0001
0010
0100
,
0001
0010
0100
0100
,
0010
0001
0100
0010
,
1000
0001
0100
0010
,
0100
0000
0100
0001
0000
0010
0000
0100
,
0000
0010
0000
0100
1000
0000
0011
0000
,
1001
1000
0010
0100
,
0001
0000
0010
0000
0100
0000
0010
0001
,
0100
0010
1000
0001
,
0010
0000
0100
0000
1000
0100
0010
0000
,
0100
1000
0010
0100
,
0001
0010
0100
0010
,
0001
0100
0010
1000
,
0001
0010
0100
1100
,
2001
0001
0001
3001
,
1002
1000
1000
1003
,
2001
0001
0001
3001
,
0110
0000
1001
0000
0001
0100
0010
1000
,
0002
0100
0100
0103
,
2010
0010
0010
3010
,
2000
3100
0002
0103
,
0000
0000
0000
0000
,
0010
0100
0010
0000
1000
0000
0001
0000
,
0010
0100
0010
0000
0001
0000
1000
0000
,
0010
0100
0010
0000
0100
0000
0001
0000
,
1000
0000
1100
0000
1000
0100
0010
0001
,
0100
0010
0100
0000
0010
0000
1000
0000
,
0001
0010
0001
0000
0010
0000
0100
0000
,
1000
0000
0100
0000
1000
0000
0000
0000
0100
0000
0000
1000
0000
0000
0001
0000
,
0200
0000
0000
0300
,
0010
1000
0100
0000
0200
0000
2300
0000
,
3010
0010
0010
0010
,
0100
0010
1000
0001
0000
0000
1001
0000
,
0110
0000
0002
0000
0103
0010
2000
0000
,
3100
0010
0001
0000
0020
0000
0032
0000
,
0103
0001
0100
1000
0100
0001
0100
0001
,
2000
0000
3100
0010
,
0011
1010
0011
0000
,
0002
0000
0103
0020
0000
1030
0200
0000
,
0310
0000
0000
0100
0000
0000
1000
0000
0000
0001
0000
0000
1000
0000
0001
0000
1000
0000
0001
0000
1000
0000
0001
0000
,
0100
0001
0010
0100
0000
0010
0001
0000
,
0100
0010
0000
1000
0001
0000
0000
0000
,
1100
0000
0000
0101
0000
0000
0011
0000
,
0000
1010
0000
0000
1001
0000
0110
0000
,
2002
0000
3003
0000
,
2000
3200
0320
0032
,
1003
0000
0000
1000
0000
0000
1000
0000
,
0001
0000
0000
0001
0000
0000
0001
0000
,
0100
0000
0000
0100
0000
0000
0100
0000
,
0010
0000
0000
0010
0000
0000
0110
0000
,
1001
0001
0010
0100
,
1001
1000
0100
0010
,
0100
0010
0001
0100
0010
1000
0001
0010
,
0001
0010
0100
0011
,
1000
0100
1000
0010
0100
0001
0010
0100
,
0010
0001
0100
0010
1000
0001
0010
0100
,
0010
0001
0100
0010
1000
0100
0010
0100
,
1000
0010
0100
0001
0010
0100
1000
0000
,
0001
0010
0001
0100
0010
0100
0001
1000
,
0100
0010
0100
1000
0010
1000
0001
0010
,
0001
1000
0100
0010
0100
0010
0001
0100
,
0020
2030
3200
0320
,
0031
0010
0100
1000
0001
0010
0100
1000
,
0001
0010
0100
1000
0002
0000
2003
0000
,
3010
0100
0001
1000
0010
0100
0001
1000
,
0020
2030
3002
0203
,
0301
0000
0010
0100
0000
0010
0001
0000
,
0010
0000
0100
1000
0000
0100
0010
0000
,
2001
0000
0000
0000
0001
0000
0000
0001
,
0000
0000
0002
3003
,
0110
0000
0000
0100
0000
0000
0010
0000
,
1000
0000
0000
0001
0000
0000
0011
0000
,
1100
0000
0000
0100
0000
0000
0010
0000
,
0001
0000
0000
0010
0000
0000
0110
0000
,
1100
0000
0000
0100
0000
0000
0010
0000
,
0011
0000
0000
0001
0000
0000
0100
0000
,
0001
0100
0010
1000
0001
0100
0010
1000
,
0001
1000
0001
1000
0001
1000
0001
1000
0001
1000
0001
1000
,
0002
0000
2003
0000
3000
0001
0100
0010
,
2000
0000
3000
0000
;

//---------------dance-single - Pandemonium X & t7r----------------
#NOTES:
     dance-single:
     Pandemonium X & t7r:
     Hard:
     16:
     :
0000
0000
0000
0000
,
0000
0000
0000
0000
,
0000
0000
0000
0000
,
0000
0000
0000
0000
,
0000
0000
0000
0000
,
1001
0000
0000
0000
,
0000
0000
0000
0101
,
1010
0000
0000
0000
,
0000
0000
0000
0000
1000
0100
1000
0010
,
1010
0000
0000
0000
,
0000
0000
0000
0101
,
0011
0000
0000
0000
,
0000
0000
0000
0000
,
0001
0001
1000
1000
,
0010
0100
0001
0110
,
1001
1000
0010
0010
,
0100
0001
1000
0100
,
0110
0010
0001
1000
,
1001
1000
1000
1000
,
0001
0100
0010
0100
0010
0100
0010
0100
,
0010
0100
0002
2000
0000
0000
3003
0000
,
0001
0100
0001
0100
0001
0100
0001
0000
,
1000
0010
1000
0010
1000
0010
1000
0000
,
0001
1000
0001
1000
0001
1000
0001
0000
,
1000
0100
1000
0100
0010
0001
1000
0000
,
0010
0100
0010
0100
0010
0100
0010
0000
,
1000
0001
1000
0001
1000
0001
1000
0000
,
0001
0010
0001
0010
0001
0010
0001
0000
,
0010
0100
0010
0100
0010
0001
0100
0010
,
1000
0000
0001
0100
0000
1000
0100
0000
,
1001
0000
1000
0010
0000
0001
0010
0000
,
1001
0000
0001
0010
0000
1000
0010
0000
,
1001
0000
0001
0100
0000
0100
0010
0000
,
1000
0001
1000
0001
0100
0010
0100
0010
,
1000
0001
1000
0001
0100
0010
0100
0010
,
1000
0100
0010
0100
0010
0100
0010
0100
,
0010
0001
1000
0010
0000
0000
0000
0000
,
1001
0000
0000
0000
,
0110
0000
0000
0000
,
2000
3200
0320
0032
,
1003
0000
0000
0000
,
0001
0000
0100
0001
0000
0010
0100
0010
,
0000
0100
1000
0100
0000
1000
0100
1000
,
0001
0000
0100
0010
0000
1000
0010
1000
,
0000
0001
0100
0001
1000
0010
0100
0010
,
1000
0000
0001
1000
0000
0010
1000
0010
,
0000
0100
0010
0100
0000
0001
0100
0001
,
0010
0000
0100
1000
0000
1100
0000
1000
,
0000
0001
0000
1000
0001
0000
0110
0000
,
1000
0000
0010
1000
0010
0000
0100
0001
,
0100
0000
0001
0010
0001
0000
0010
0100
,
1000
0000
1000
0010
0100
0000
0010
1000
,
0001
0000
0000
0000
0000
0000
1000
0000
0000
0100
0000
0000
0010
0000
0001
0000
0010
0000
0001
0000
0000
0000
0000
0000
,
0001
0000
1000
0001
0100
0000
0010
1000
,
0001
0000
0010
0100
1000
0000
0100
1000
,
0010
0000
0100
0001
0010
0100
1000
0000
,
0001
0001
0001
0110
,
2010
0001
0001
3001
,
0012
1000
1000
1003
,
2100
0001
0001
3001
,
1001
0000
0110
0000
0001
0100
0010
1000
,
0002
1000
1000
1003
,
2010
0001
0001
3001
,
0102
1000
1000
1003
,
0020
0000
0100
0000
0130
0000
0001
1000
,
0001
0010
0100
0000
0011
0000
1001
0000
,
1000
0010
0100
0000
1010
0000
0001
0100
,
0001
0010
0100
0000
0110
0000
0011
0000
,
1000
0000
0000
0100
1000
0000
0001
0000
0100
0000
0010
0000
1000
0000
0001
0000
,
1000
0010
0100
0000
1100
0000
1000
0100
,
0001
0010
0100
0000
0001
0100
0100
0010
,
0100
0000
0000
1000
0010
0000
0100
0000
0001
0000
0000
0010
0100
0000
0010
0000
,
0002
0000
2000
3003
,
0001
0100
0010
0100
2000
0000
3002
0000
,
0013
1000
0100
1000
0010
1000
0100
1000
,
0010
0100
0100
0002
0000
0000
1003
0100
,
0001
0000
1000
0010
0100
0010
0002
0000
,
0103
0000
1000
0000
0100
0000
0000
0010
0200
0000
0000
0000
0000
0000
0000
0000
,
0301
0010
0000
0000
1000
0010
0000
0000
0100
0010
0000
0000
0001
1000
0000
0000
,
0002
0000
0000
0203
0000
0000
0320
0000
0000
0230
0000
0000
0302
0000
0000
2003
0000
0000
3100
0000
0000
0000
1000
0000
,
0001
0011
0101
0002
,
1003
0000
0020
0130
0000
0020
0031
0000
,
0010
0000
0000
1000
0000
0000
0100
0000
0000
0010
0000
0000
0001
0000
0000
0000
0100
0000
0001
0000
0000
0000
0001
0000
,
1000
0100
0010
0100
0000
0000
0101
0000
,
0000
1100
0000
0000
1010
0000
0020
0000
,
0130
0000
0000
1100
0000
0000
0110
0000
,
0000
0101
0000
0000
0001
0000
0010
0000
,
0100
0000
2001
0000
,
3001
0010
0001
0010
0100
1000
0020
0000
,
0230
0000
0000
0000
,
0000
0000
0000
0000
,
0300
0000
0000
0000
,
0000
0000
0000
0110
,
0110
0000
0000
0000
,
1001
0000
0000
0000
,
1100
0000
0000
0000
0000
0001
0010
0001
,
1000
0100
0001
0110
,
1000
0010
1000
0010
0100
0010
1000
0001
,
1000
0100
1000
0100
0010
0100
1000
0002
,
1003
0100
1000
0100
0010
0100
1000
0001
,
0100
1100
0110
0101
,
0001
0010
0001
0010
0100
0010
0001
1000
,
0001
0100
0001
0100
0010
0100
0001
2000
,
3001
0100
0001
0100
0010
0100
0001
1000
,
0200
2300
3020
0032
,
1003
0100
0010
0100
1000
0100
0010
0100
,
1000
0100
0001
0010
0200
0000
0302
0000
,
1003
0010
0100
0010
1000
0010
0100
0010
,
0002
0203
2300
3002
,
1003
0100
0001
0100
1000
0100
0001
0100
,
1000
0100
0010
0100
0001
1000
0020
0000
,
0031
0010
1000
0010
0001
0010
1000
0010
,
0100
0100
0002
0003
,
1001
0000
1000
0100
0000
0010
0100
0000
,
0001
0000
0100
1000
0000
0001
1000
0000
,
1001
0000
0001
0100
0000
0010
0100
0000
,
1000
0000
0100
0001
0000
1000
0001
0010
,
0100
0000
1000
0010
0000
0100
0010
0000
,
0001
0000
0010
1000
0000
0001
1000
0000
,
0001
0010
0100
1000
0010
0010
0100
0100
,
0001
1000
0001
1000
0001
1000
0010
0100
0010
0100
0010
0100
,
0002
0000
0000
0000
0023
0000
0000
0000
0000
0031
0100
0000
0100
0000
0010
0000
,
1010
0000
0000
0000
;

//---------------dance-single - t7r & Pandemonium X----------------
#NOTES:
     dance-single:
     t7r & Pandemonium X:
     Challenge:
     18:
     :
0000
0000
0000
0000
,
0000
0000
0000
0000
,
0000
0000
0000
0000
,
0000
0000
0000
0000
,
0000
0000
0000
0000
,
2001
0000
0000
0100
0000
0000
0010
0000
,
0010
0000
0000
3001
0000
0000
1001
0000
,
1002
0000
0000
0100
0000
0000
0010
0000
,
0010
0000
0000
0000
0000
0000
1003
0000
0001
0000
0000
1000
0100
0000
1000
0000
,
0020
0000
0000
0001
0000
0000
0100
0000
,
0100
0000
0000
1030
0000
0001
0010
0000
,
0210
0000
0000
1000
0000
0000
0310
0000
,
0002
0000
0000
0103
0020
0000
1030
0001
,
1000
0100
0010
0100
0000
1000
0001
1000
,
0100
0010
0100
1000
0000
0000
1001
0000
,
0001
0100
0010
0100
0000
0001
1000
0001
,
0100
0000
0010
0000
0100
0000
0001
0000
0000
0000
1000
0000
0001
0010
0001
0000
,
1000
0100
1000
0100
0010
0001
0010
0001
,
1000
0000
0000
0010
0100
0000
0000
0001
1000
0000
0001
1000
0002
0000
0000
0000
,
1003
0100
0100
0100
0001
0100
0100
0100
,
0010
0000
0100
0000
1000
0000
0020
0000
0000
0000
0000
0000
0130
0020
0000
0000
,
1030
0000
0100
1000
0100
0000
1000
0000
0000
0000
0001
0000
0100
0000
0000
0000
,
0001
0000
0010
0001
0010
0000
0001
0000
0000
0000
1000
0000
0001
0000
0000
0000
,
1000
0000
0100
1000
0100
0000
0010
0000
0000
0000
0100
0000
1000
0000
0000
0000
,
0001
0000
0100
0001
0100
0000
0001
1000
0001
0000
0100
0001
0100
0000
0001
0000
,
1000
0000
0010
1000
0010
0000
1000
0000
0000
0000
0001
0000
1000
0000
0000
0000
,
0001
0000
0010
0001
0010
0000
0001
0000
0000
0000
1000
0000
0002
0000
0000
0000
,
0103
0000
0010
0100
0010
0000
0100
0000
0000
0000
0001
0000
0100
0000
0000
0000
,
0001
0000
0010
0001
0010
0000
0001
0000
0100
0000
0010
0000
2000
0000
0000
0000
,
3001
0010
0100
0010
0001
0100
0010
0100
,
0001
0000
0100
0000
1000
0000
0100
0000
0010
0000
0100
0000
0001
0000
1000
0001
,
1000
0010
0100
0010
1000
0100
0010
0100
,
1000
0000
0100
1000
0100
0000
1000
0000
0001
0000
0000
0000
0110
0000
0000
0000
,
0001
0000
0010
0000
0100
0000
1000
0000
0010
0000
0100
0000
0001
0000
1000
0001
,
1000
0000
0010
0000
0100
0000
0001
0000
1000
0000
0100
0010
0200
0000
0000
0000
,
1300
0010
0010
0010
0001
0010
0010
0010
,
1000
0100
0010
0200
0000
0000
0000
0000
,
1300
0000
0001
0100
0000
1000
0100
0001
,
1000
0000
0001
0010
0000
1000
0010
0001
,
1000
0000
0001
0100
0001
0000
1000
0001
1000
0000
0001
0010
0001
0000
1000
0001
,
2000
0000
3020
0000
0130
0001
1000
0000
,
0001
0000
0000
0000
0100
0001
1000
0000
0000
0000
0100
1000
0001
0000
1000
0000
,
0100
0010
0001
0100
0010
0001
0010
0100
,
0001
0000
0000
0000
0010
0100
1000
0000
0000
0000
0010
0100
0001
0000
1000
0000
,
0100
0001
0100
0010
0100
1000
0010
0100
,
0001
0000
0000
0000
1000
0010
0100
0000
0000
0000
0010
1000
0001
0000
1000
0000
,
0100
0010
1000
0010
0100
1000
0001
0100
,
1000
0000
0100
0101
0000
0011
0000
1001
,
0100
0000
0010
0000
0000
0000
0001
0000
1000
0000
0001
1000
0002
0000
0000
0000
,
1003
0100
1000
1000
0001
0100
0001
0001
,
1000
0000
0010
0000
1000
0000
1000
0000
0001
0000
0010
0000
0001
0000
0001
1000
,
0001
0010
0100
0100
1000
0010
0100
0100
,
0110
0000
0000
0000
0000
0000
0010
0000
0000
1000
0000
0000
0001
0000
1000
0000
0001
0000
0020
0000
0000
0000
0000
0000
,
0031
0000
0100
1200
0000
1300
0100
0001
,
0010
0000
0000
0000
1000
0000
1020
0000
0000
0000
0031
0000
0100
0000
0010
0100
,
0010
0000
0100
0201
0000
1300
0100
0001
,
1000
0100
0100
0012
,
1003
0100
1000
0100
0010
0100
0001
0100
,
1000
0010
1000
0010
0100
0010
0001
0010
,
1000
0100
1000
0100
0001
0100
0010
0100
,
1000
0000
0000
0000
1010
0000
0000
0000
0001
0100
0001
0000
1000
0000
0001
0000
,
1000
0100
1000
0100
0010
0100
1000
1000
,
0001
0100
0001
0100
0010
0100
0001
0001
,
1001
0000
0000
0000
0101
0000
0000
0000
1001
0000
0000
1000
0100
0000
1000
0000
,
0001
0000
0000
0100
0000
0000
0010
0000
0000
0000
1000
0000
1001
0000
0000
0000
,
0001
0100
0001
0100
0001
0100
0001
0100
,
0010
1000
0010
1000
0010
1000
0010
1000
,
0100
1000
0100
1000
0100
1000
0100
1000
,
0100
0000
0000
0100
0000
0000
0010
0000
0001
0000
0010
0000
0100
0000
1000
0000
,
0001
0010
0001
0100
0001
0010
0001
0100
,
0010
1000
0100
1000
0010
1000
0100
1000
,
0010
0000
0100
0000
0001
0000
1000
0000
0001
0000
0000
1000
0000
0000
0100
0000
,
0020
0000
0230
0000
,
1300
0001
0001
0100
0020
0000
2030
0000
,
3100
0010
0100
0010
0100
0010
0100
0010
0100
0010
0100
0010
,
0100
0000
0010
0000
0001
0000
2001
0000
0000
0000
0000
0000
3001
0100
0001
0000
,
0100
0000
1002
0000
0203
0320
1030
0200
,
0310
0001
1000
0010
0200
0000
0302
0000
,
0013
0000
0000
0100
0010
0000
0000
0010
0100
0000
0000
0100
0010
0000
0000
0010
,
0200
0000
2300
3010
,
0101
0000
1100
0000
0101
0000
2000
3000
,
0002
0103
1000
0200
0301
0010
2000
3010
,
0001
0000
0000
1000
0000
0000
0100
0000
0000
0001
0000
0000
0100
0000
1000
0000
0010
0000
0100
0000
0001
0000
1000
0000
,
0100
0010
0001
2002
0000
3003
2002
0000
,
3003
2002
0000
3003
2002
0000
3003
0000
,
1100
0000
0000
0101
0000
0000
0011
0000
,
0000
1010
0000
0000
1001
0000
0110
0000
,
1001
0000
0000
0000
0000
0000
0000
0000
0000
0000
0000
0000
0002
2003
3000
0000
0000
0000
0000
0000
0000
0000
0000
0000
,
0001
0000
0000
0000
0100
0000
0000
0000
0010
0000
0000
0000
1000
0000
0000
0001
0000
0000
1000
0000
0000
0001
0000
0000
2000
0000
0000
0000
0000
0000
0000
0000
0000
0000
0000
0000
3200
0000
0000
0000
0000
0000
0000
0000
0000
0000
0000
0000
,
0310
0000
0000
0010
0000
0000
0010
0000
,
0001
0000
0000
0001
0000
0000
0001
0000
,
0100
0000
0000
0100
0000
0000
0100
0000
,
0010
0000
0000
0010
0000
0000
0110
0000
,
1001
1000
0000
0100
1000
0010
0000
0100
,
0001
0010
0000
0100
1000
0001
0000
1000
,
0001
0000
1000
0100
1000
0000
0001
0100
0001
0000
1000
0010
1000
0000
0001
0100
,
0001
0010
0100
0011
,
1000
0000
0001
1000
0001
0000
1000
0000
0001
1000
0001
0000
1000
0001
1000
0000
,
0001
0000
1000
0001
1000
0000
0001
0000
1000
0001
1000
0000
0001
1000
0001
0000
,
0100
0000
0010
0100
0010
0000
0100
0000
0010
0100
0010
0000
0100
0010
0100
0000
,
0010
0000
0100
0010
0100
0000
0010
0000
0100
0010
0100
0000
0010
0100
0010
0000
,
1000
0000
0010
1000
0010
0000
1000
0000
0010
1000
0010
0000
1000
0010
1000
0000
,
0001
0000
0100
0001
0100
0000
0001
0000
0100
0001
0100
0000
0001
0100
0001
0000
,
1000
0000
0100
1000
0100
0000
0010
0000
0001
0010
0001
0000
1000
0001
1000
0000
,
0001
1000
1000
0001
1000
1000
0002
0000
,
1003
0000
0100
0010
0100
0000
0010
0000
0001
0010
0001
0000
0100
0010
0100
0000
,
0010
0000
1000
0010
1000
0000
0001
0000
0020
0000
0030
0000
2200
0000
0000
3300
,
0010
0000
0001
0010
0001
0000
0010
0000
0100
1000
0100
0000
1000
0001
1000
0000
,
0002
0203
0320
2030
,
3001
0000
0100
0010
1000
0000
0001
0000
0100
0010
1000
0000
0010
0100
0001
0000
,
1000
0000
0010
0100
0001
0000
1000
0000
0010
0100
0001
0000
0100
0010
1000
0000
,
1200
0000
0000
0000
0010
0000
0000
0010
,
0000
0000
0020
0300
,
0130
1000
0010
0100
0001
0010
0001
0100
,
0010
1000
0010
0100
0001
0010
0100
0000
,
1100
0100
1000
0010
0100
0001
0010
0100
,
0010
0001
0100
0010
1000
0001
0010
0000
,
0101
0001
0100
0010
1000
0001
0010
0100
,
1000
0100
0010
0100
1000
0010
0100
0001
,
0010
0100
0100
0100
0100
0100
0100
0100
,
0100
1000
0010
0100
0001
0010
0100
0010
0001
1000
0100
0010
,
0002
0000
0023
0000
0230
1300
0011
1100
,
2002
0000
3003
0000
;

//---------------dance-double - t7r----------------
#NOTES:
     dance-double:
     t7r:
     Easy:
     11:
     :
00000000
00000000
00000000
00000000
,
00000000
00000000
00000000
00000000
,
00000000
00000000
00000000
00000000
,
00000000
00000000
00000000
00000000
,
00000000
00000000
00000000
00000000
,
10010000
00000000
00000000
00000000
,
00000000
00000000
00000000
10000000
,
10000000
00000000
00000000
00000000
,
00000000
00000000
01000000
00100000
,
00001000
00000000
00000000
00000000
,
00000000
00000000
00000000
00010000
,
00001000
00000000
00000000
00000000
,
00010000
00000000
00000100
00001000
,
00000001
00000000
00000000
00000001
00000000
00000000
00000100
00000000
,
00000010
00000000
00000000
00000010
00000000
00000000
00001000
00000000
,
00000100
00000000
00000000
00000100
00000000
00000000
00010000
00000000
,
00001000
00000000
00000000
00001000
00000000
00000000
01000000
00000000
,
00010000
00000000
00000000
00010000
00000000
00000000
10000000
00000000
,
02000000
00000000
03010000
00000000
,
00001000
00010000
00001000
00010000
,
00001000
00000000
00000000
00000100
00000000
00000000
00000002
00000000
,
00001003
00000000
00000000
00000100
00000000
00000000
00000010
00000000
,
00000100
00000000
00000000
00001000
00000000
00000000
00000001
00000000
,
00000100
00000000
00000000
00000010
00000000
00000000
00000100
00000000
,
00000001
00000000
00000000
00000010
00000000
00000000
00001000
00000000
,
00010000
00000000
00000000
00001000
00000000
00000000
00010000
00000000
,
00100000
00000000
00000000
01000000
00000000
00000000
00100000
00000000
,
10000000
00000000
00000000
01000000
00000000
00000000
00100000
00000000
,
01000000
00000000
00000000
10000000
00000000
00000000
00010000
00000000
,
10000000
00100000
10000000
00010000
,
10000000
00000000
10000000
00000000
,
01000000
00100000
00001000
00010000
,
00001000
00000000
00001000
00000000
,
00010000
00001000
00000100
00000000
,
00001000
00010000
01000000
00000000
,
10000000
00100000
01000000
00010000
,
10000000
00000000
00000000
02000000
00000000
00000000
03000000
00000000
,
00010000
00000000
00001000
00000000
,
00011000
00000000
00010000
00000000
,
01000000
00000000
10000000
00000000
,
00200000
02300000
03020000
10030000
,
00010000
10000000
01000000
10000000
,
01000000
00100000
00001000
00000000
,
00010000
00001000
00010000
00000100
,
00001000
00000001
00001000
00000000
,
00000001
00000100
00000010
00000100
,
00000001
00000010
00000001
00000000
,
00000010
00000000
00000000
00001000
00000000
00010000
00000000
00001000
,
00000000
00010000
00000000
00000000
00002000
00000000
00000000
00000000
,
00013000
00000000
01000000
00000000
,
10000000
00100000
01000000
00000000
,
00100000
00000000
10000000
00000000
,
01000000
00010000
00001000
00000000
,
00010000
00000000
00001000
00000000
,
00000100
00000010
00000100
00000000
,
00000001
00000000
00000010
00000000
,
00000100
00000100
00010000
00010000
,
00001000
00010000
00011000
00000000
,
00010000
01000000
01000000
00000000
,
10000000
00100000
10100000
00000000
,
10000000
01000000
00010000
00001000
,
00010000
00001000
00011000
00000000
,
00001000
00000100
00000100
00000000
,
00000001
00000010
00000011
00000000
,
00000001
00000000
00001000
00000020
,
00010030
00010000
00001000
00000000
,
00010000
01000000
01010000
00000000
,
01000000
10000000
10000000
00000000
,
00100000
01000000
00010000
10000000
,
01000000
01000000
00010000
00000000
,
00001000
00001000
00010000
00000000
,
00001000
00001000
00000010
00000100
,
00000020
00000000
00000032
00000000
,
00000103
00000010
00000100
00000000
,
00000010
00001000
00000001
00000000
,
00000100
00000000
00000000
00000010
00000000
00000000
00001000
00000000
,
00000100
00020000
00031000
00020000
,
01030000
00000000
00000000
10000000
00200000
00000000
00000000
00000000
,
01300000
01000000
01000000
01000000
,
00200000
20300000
30020000
00000000
,
10030000
10000000
10000000
02000000
,
03010000
00000000
00000000
00011000
00000000
00000000
00001000
00000000
,
00010000
00001000
00000100
00000001
,
00001000
00000000
00000000
00001100
00000000
00000000
00000100
00000000
,
00000000
00010100
00000000
00000000
00010000
00000000
00002000
00000000
,
00013000
00000000
00000000
01010000
00000000
00000000
01000000
00000000
,
00000000
01100000
00000000
00000000
00100000
00000000
00010000
00000000
,
10000000
00000000
00100000
00000000
,
00010000
00010000
00001000
00020000
,
00002000
00000000
00000000
00000000
,
00000000
00000000
00000000
00000000
,
00033000
00000000
00000000
00000000
,
00000000
00000000
00000000
00001000
,
00011000
00000000
00000000
00000000
,
01100000
00000000
00000000
00000000
,
10000000
00000000
00000000
00000000
00000000
00010000
00000000
00010000
,
10000000
01000000
00100000
00100000
,
00001000
00000000
00000000
00010000
00000000
00000000
00001000
00000000
,
00000100
00000000
00000000
00001000
00000000
00000000
00010000
00000000
,
00001000
00000000
00000000
00010000
00000000
00000000
00001000
00000000
,
00010000
00010000
01000000
00010000
,
00001000
00000000
00000000
00010000
00000000
00000000
00001000
00000000
,
00000010
00000000
00000000
00001000
00000000
00000000
00010000
00000000
,
00001000
00000000
00000000
00010000
00000000
00000000
00001000
00000000
,
00010000
00010000
00100000
01000000
,
00010000
00100000
01000000
10000000
,
00010000
00000000
20000000
32000000
,
03010000
00001000
00010000
00001000
,
00000200
00000320
00000230
00000302
,
00001003
00000100
00000010
00000001
,
00001000
00000100
00000010
00000002
,
00000103
00000000
00000000
00000100
00000000
00000000
00001000
00000000
,
00010000
00010000
00010000
00001000
,
00011000
00000000
00000000
00010000
00000000
00000000
01000000
00000000
,
10000000
00000000
00000000
10000000
00000000
00000000
00010000
00000000
,
10010000
00000000
00000000
10000000
00000000
00000000
01000000
00000000
,
00010000
00000000
00000000
00010000
00000000
00000000
00001000
00000000
,
00011000
00000000
00000000
00001000
00000000
00000000
00000100
00000000
,
00000110
00000000
00000000
00000010
00000000
00000000
00001000
00000000
,
00000001
00000010
00000001
00000010
,
00000100
00000100
00010000
00010000
,
00002000
00000000
00023000
00000000
01030000
00000000
00000000
10000000
,
00020000
00000000
00030000
00000000
;

//---------------dance-double - t7r----------------
#NOTES:
     dance-double:
     t7r:
     Medium:
     14:
     :
00000000
00000000
00000000
00000000
,
00000000
00000000
00000000
00000000
,
00000000
00000000
00000000
00000000
,
00000000
00000000
00000000
00000000
,
00000000
00000000
00000000
00000000
,
10010000
00000000
00000000
00000000
,
00000000
00000000
00000000
10000000
,
11000000
00000000
00000000
00000000
,
00000000
00000000
00000000
00000000
01000000
00000000
00010000
00001000
,
00010000
00000000
00000000
00000000
,
00000000
00000000
00000000
00011000
,
00011000
00000000
00000000
00000000
,
00000020
00000000
00000230
00000000
,
00000301
00000001
00000010
00000010
,
00000100
00000100
00010000
00011000
,
00011000
00001000
01000000
01000000
,
00100000
00100000
10000000
00010000
,
10000000
01000000
00000000
00100000
00010000
00100000
00000000
00001000
,
00010000
00001000
00010000
00001000
00010000
00001000
00020000
00000000
,
00031000
00000000
00000010
00000100
00000010
00000000
00000001
00000000
,
00000100
00000000
00001000
00020000
00000000
00000000
00031000
00000000
,
00010000
00000000
01000000
00100000
00000000
01000000
00100000
00000000
,
00010000
00000000
01000000
00100000
00000000
01000000
00100000
00000000
,
10000000
00000000
00100000
00010000
00000000
00100000
00010000
00000000
,
00001000
00010000
00000000
00001000
00010000
00000000
00001000
00000000
,
00010000
00000000
00001000
00000100
00000000
00001000
00000100
00000000
,
00000010
00000000
00001000
00000100
00000000
00001000
00000100
00000000
,
00000010
00000000
00000001
00000100
00000000
00000001
00000100
00000000
,
00000001
00000000
00000010
00000000
00001000
00010000
00001000
00000000
,
00010000
01000000
00000000
00010000
01000000
00000000
10000000
00000000
,
00010000
01000000
00000000
00010000
01000000
00000000
00100000
00000000
,
10000000
01000000
00000000
10000000
01000000
00000000
00010000
00000000
,
00001000
00010000
00001000
00010000
00001000
00000000
00010000
00000000
,
00001000
00000100
00000000
00001000
00000100
00000000
00000001
00000000
,
00001000
00000100
00000000
00001000
00000100
00000000
00000010
00000000
,
00000001
00001000
00000001
00001000
00000001
00001000
00000001
00000000
,
00000100
00000000
00001000
00020000
00000000
00000000
00030000
00000000
,
00011000
00000000
00000000
00000000
,
01100000
00000000
00000000
00000000
,
20000000
32000000
03020000
00032000
,
00003100
00000000
00000020
00000000
00001030
00000001
00001000
00000000
,
00000001
00000000
00000010
00000100
00000000
00001000
00000000
00000001
,
00000000
00000100
00000000
00001000
00010000
00000000
00001000
00000000
,
00010000
00000000
00001000
00100000
00000000
00010000
00000000
10000000
,
00000000
00100000
00000000
01000000
00010000
10000000
00010000
00000000
,
10000000
00000000
01000000
00100000
00000000
00010000
00000000
10000000
,
00000000
00100000
00000000
00010000
00001000
00000000
00010000
00000000
,
00011000
00000000
00001000
00000010
00000000
00000001
00000000
00000100
,
00000000
00001000
00000000
00010000
00001000
00000000
00020000
00000000
,
00031000
00000000
01000000
00000000
00010000
00000000
10000000
01000000
,
10000000
00000000
00010000
00000000
00100000
00000000
00001000
00010000
,
00001000
00000000
00010000
00000000
00000010
00000000
00000100
00000010
,
00000100
00000010
00001000
00001001
,
00000001
00000000
00000010
00000100
00000000
00000000
00001000
00000000
,
00000001
00000000
00000100
00001000
00000000
00000000
00010000
00000000
,
01000000
00000000
00100000
01000000
00000000
00000000
10000000
00000000
,
00010000
00100000
00001000
00011000
,
00020100
00000100
00000100
00030100
,
00012000
00010000
00010000
00013000
,
02001000
00001000
00001000
03001000
,
01010000
00000000
01100000
00000000
10000000
01000000
10000000
00000000
,
10020000
00100000
00100000
00130000
,
00210000
00001000
00001000
00301000
,
00021000
00000010
00000010
00030010
,
00000100
00000000
00000000
00000000
,
00000001
00000010
00000001
00000000
00001000
00000000
00000000
00000000
,
00000001
00000100
00000001
00000000
00001000
00000000
00000000
00000000
,
00000100
00010000
00000100
00000000
00010000
00000000
00000000
00000000
,
00011000
00000000
00011000
00000000
00001000
01000000
00010000
00000000
,
10000000
00100000
10000000
00000000
00010000
00000000
00000000
00000000
,
10000000
01000000
10000000
00000000
00010000
00000000
00000000
00000000
,
00100000
00001000
00010000
00000000
00011000
00000000
00000010
00000000
,
00002001
00000000
00000002
00003003
,
00001000
00000100
00001000
00000000
00000001
00000000
00000100
00000000
,
00001000
00010000
00001000
00000000
00010000
00000000
00010000
00000000
,
01000000
00000000
00100000
01000000
00000000
01000000
10000000
00000000
,
00100000
00020000
00031000
00000020
,
00000130
00001000
00000100
00000000
00020000
00000000
00000000
00000000
,
00031000
00001000
00001000
00001000
,
00020000
00000000
00130000
10000000
,
10010000
10010000
10010000
20000000
,
32000000
00000000
03010000
00002000
00000000
00003100
00000002
00000000
,
00001003
00000000
00000100
00001000
00000100
00000000
00001000
00000000
,
00000001
00000000
00000100
00000010
00000000
00000000
00001000
00000000
,
00000000
00001100
00000000
00000000
00010100
00000000
00020000
00000000
,
00031000
00000000
00000000
00011000
00000000
00000000
01001000
00000000
,
00000000
01100000
00000000
00000000
10010000
00000000
00100000
00000000
,
01100000
00000000
00002000
00000000
,
00013000
00001000
00010000
00001000
00010000
00001000
00020000
00000000
,
00030020
00000000
00000000
00000000
,
00000000
00000000
00000000
00000000
,
00000030
00000000
00000000
00000000
,
00000000
00000000
00000000
00010000
,
00011000
00000000
00000000
00000000
,
00010010
00000000
00000000
00000000
,
00011000
00000000
00000000
00000000
00000000
00100000
00001000
00000000
,
00010000
01000000
10000000
00200000
,
10300000
00000000
01000000
00100000
00000000
01000000
10000000
00000000
,
00010000
00000000
01000000
00010000
00000000
10000000
00010000
00000000
,
10000000
00000000
00100000
00010000
00000000
00001000
00010000
00000000
,
00011000
00011000
00011000
00010000
,
00001000
00000000
00000010
00000100
00000000
00000010
00000001
00000000
,
00000100
00000000
00001000
00000100
00000000
00000010
00001000
00000000
,
00000001
00000000
00000010
00001000
00000000
00010000
00001000
00000000
,
00020000
00230000
20300000
30020000
,
10030000
01000000
10000000
01000000
00000000
10000000
01000000
00000000
,
10000000
01000000
10000000
01000000
00200000
00000000
00302000
00000000
,
00013000
00000010
00010000
00000010
00000000
00001000
00000001
00000000
,
00000200
00002300
00023000
02030000
,
03100000
00010000
00100000
00010000
00000000
00100000
00010000
00000000
,
00100000
00001000
00100000
00001000
00000000
00010000
00001000
00000000
,
00010000
00000000
00000000
00000010
00000000
00000000
00000100
00000000
,
00000100
00000001
00001000
00001000
,
00000001
00000000
00000000
00000000
,
00000000
00000000
00000000
00010000
,
00011000
00000000
00000000
00000000
,
00000000
00000000
00000000
00000000
,
10010000
00000000
00000000
00000000
,
00011000
00000000
00000000
00000000
,
00000010
00000100
00000010
00000100
00000010
00000100
00000010
00000100
,
00000001
00000010
00001000
00010000
,
00200000
00000000
20300000
00000000
30010000
00100000
00001000
00010000
,
00001000
00000000
00000000
00000000
;

//---------------dance-double - t7r----------------
#NOTES:
     dance-double:
     t7r:
     Hard:
     16:
     :
00000000
00000000
00000000
00000000
,
00000000
00000000
00000000
00000000
,
00000000
00000000
00000000
00000000
,
00000000
00000000
00000000
00000000
,
00000000
00000000
00000000
00000000
,
10010000
00000000
00000000
00000000
,
00000000
00000000
00000000
11000000
,
01100000
00000000
00000000
00000000
,
00000000
00000000
00000000
00000000
00100000
00001000
00010000
00000000
,
00011000
00000000
00000000
00000000
,
00000000
00000000
00000000
00001010
,
00000110
00000000
00000000
00000000
,
00000000
00000000
00000002
00002003
,
00003001
00000000
00000010
00000001
00000000
00000001
00000100
00000000
,
00000010
00000000
00001000
00000100
00000000
00000100
00000010
00000000
,
00000001
00000000
00000100
00001000
00000000
00001000
00010000
00000000
,
00001000
00000000
00100000
00010000
10000000
00010000
00200000
00000000
,
00310000
00000000
10000000
00100000
10000000
00010000
10000000
00000000
,
01000000
00000000
00010000
00001000
00010000
00000100
00002000
00000000
,
00003001
00000100
00000001
00000100
00000001
00000100
00000001
00000100
,
00001000
00010000
00001000
00020000
00000000
00000000
00130000
00000000
,
10000000
01000000
10000000
01000000
00000000
01000000
00100000
00000000
,
00010000
01000000
00010000
01000000
00000000
01000000
00002000
00000000
,
00013000
00000100
00010000
00000100
00000000
00000100
00001000
00000000
,
00000010
00001000
00000010
00001000
00000001
00000010
00000100
00001000
,
00000001
00000100
00000001
00000100
00000000
00000100
00000001
00000000
,
00001000
00000100
00001000
00000100
00000000
00000100
00020000
00000000
,
00031000
01000000
00010000
01000000
00000000
01000000
00200000
00000000
,
10300000
01000000
00100000
00001000
00010000
00001000
00000200
00000000
,
00000301
00000010
00000001
00000100
00000000
00000010
00000100
00000000
,
00000001
00000010
00000100
00001000
00000000
00000100
00010000
00001000
,
00100000
00010000
10000000
00010000
00000000
01000000
00010000
10000000
,
01000000
00010000
00001000
01000000
00200000
00000000
00320000
00000000
,
00031000
00010000
00000100
00010000
00001000
00010000
00001000
00000000
,
00010000
00001000
01000000
00001000
00010000
00001000
00010000
00000000
,
00001000
00000100
00000010
00000100
00000010
00000100
00000010
00000100
,
00000001
00000010
00000100
00020000
00000000
00000000
00031000
00000000
,
00011000
00000000
00000000
00000000
,
01001000
00000000
00000000
00000000
,
00010000
00000100
00001000
00000100
00000010
00000001
00000100
00000010
,
00002000
00000000
00003002
00000000
00000103
00001000
00010000
00000000
,
00001000
00000000
01000000
00010000
00000000
01000000
00100000
01000000
,
00000000
00010000
00100000
01000000
10000000
01000000
00100000
00001000
,
00010000
00000000
00001000
00000010
00000000
00000100
00000010
00000100
,
00001000
00000001
00000100
00000001
00001000
00000010
00000100
00000001
,
00001000
00000000
00000100
00010000
00000000
00001000
00010000
00001000
,
00000000
00010000
00100000
01000000
00100000
10000000
00010000
00100000
,
00010000
00000000
10000000
01000000
00000000
00010000
00000000
00001000
,
00000100
00000001
00000000
00000010
00000100
00010000
00002000
00000000
,
00013000
00000000
01000000
10000000
00010000
00000000
01000000
00100000
,
10000000
00000000
01000000
00100000
00001000
00000000
00010000
00000010
,
00001000
00000000
00000001
00000100
00000001
00000000
00000010
00000000
,
00000100
00000000
00000000
00000000
00000000
00000000
00010000
00000000
00000000
00000100
00000000
00000000
00001000
00000000
00000001
00000000
00001000
00000000
00000002
00000000
00000000
00000000
00000000
00000000
,
00000103
00000000
00001000
00010000
00000000
01000000
00100000
01000000
,
10000000
00000000
00100000
01000000
00000000
00100000
00010000
00001000
,
00010000
00000000
00001000
00000010
00000100
00000000
00001000
00000000
,
00000001
00000100
00001000
00011000
,
00010000
01000000
00010000
01000000
00100000
00000000
00010000
00000000
,
00001000
00000010
00001000
00000010
00000100
00000000
00001000
00000000
,
00010000
00100000
00010000
00100000
01000000
00000000
00001000
00000000
,
00020000
00000000
00032000
00000000
00003100
00000001
00001000
00000100
,
00010000
00000000
00001000
00010000
01000000
00000000
00100000
00000000
,
00010000
00000000
10000000
00100000
00010000
00000000
00001000
00000010
,
00000100
00000000
00001000
00000000
00000100
00000000
00000000
00000000
00001000
00000000
00000000
00000001
00000000
00000000
00001000
00000000
,
00000020
00000100
00000130
00001001
,
00000001
00000010
00000001
00000000
00000100
00000001
00000100
00000000
,
00000001
00000010
00000100
00000000
00010000
00001000
00010000
00000000
,
00001000
01000000
00100000
00000000
01000000
00010000
10000000
00000000
,
01000000
00000000
00000000
00100000
00010000
00000000
10000000
00000000
00100000
00000000
01000000
00000000
00010000
00000000
00000000
00000000
,
10000000
01000000
10000000
00000000
01000000
00010000
01000000
00010000
,
00001000
00010000
00001000
00000000
00000100
00000010
00000100
00000010
,
00000100
00000000
00000000
00000001
00001000
00000000
00000001
00000000
00000010
00000000
00000000
00000100
00010000
00000000
00001000
00000000
,
00020000
00000000
00002000
00033000
,
00010000
01000000
00100000
01000000
20000000
00000000
30020000
00000000
,
10030000
00100000
10000000
00100000
00010000
00001000
00010000
00001000
,
00000010
00000100
00000010
00000002
00000000
00000000
00000103
00001000
,
00010000
00000000
01000000
00010000
00001000
00000000
00012000
00000000
,
00003100
00000000
00000010
00000000
00000100
00000000
00000000
00000001
00002000
00000000
00000000
00000000
00000000
00000000
00000000
00000000
,
00003001
00000010
00000000
00000000
00001000
00000010
00000000
00000000
00001000
00010000
00000000
00000000
00001000
00100000
00000000
00000000
,
00020000
00000000
00000000
02030000
00000000
00000000
03200000
00000000
00000000
02300000
00000000
00000000
03020000
00000000
00000000
20030000
00000000
00000000
31000000
00000000
00000000
00000000
10000000
00000000
,
00010000
11000000
01010000
20010000
,
31000000
00000000
20000000
30100000
00000000
00020000
00031000
00000000
,
00000010
00000000
00000000
00000100
00000000
00000000
00001000
00000000
00000000
00000100
00000000
00000000
00000010
00000000
00000000
00000000
00000001
00000000
00001000
00000000
00000000
00000000
00001000
00000000
,
00000001
00000100
00000010
00000100
00000000
00000000
00000101
00000000
,
00000000
00001001
00000000
00000000
00010100
00000000
00020000
00000000
,
00031000
00000000
00000000
00011000
00000000
00000000
01010000
00000000
,
00000000
10010000
00000000
00000000
10000000
00000000
01000000
00000000
,
00010000
00000000
00012000
00000000
,
00013000
01000000
10000000
00000000
00100000
01000000
00020000
00000000
,
20030000
00000000
00000000
00000000
,
00000000
00000000
00000000
00000000
,
30000000
00000000
00000000
00000000
,
00000000
00000000
00000000
00001000
,
00011000
00000000
00000000
00000000
,
00001001
00000000
00000000
00000000
,
00011000
00000000
00001000
00000000
00010000
01000000
00000000
00100000
,
01000000
10000000
00100000
10010000
,
10000000
01000000
10000000
00010000
00000000
10000000
01000000
00100000
,
00010000
01000000
00010000
10000000
00000000
01000000
00010000
00001000
,
00010000
00000100
00010000
00001000
00000000
00010000
00000100
00010000
,
00001000
00000000
00000100
00000001
00000010
00000100
00001000
00000000
,
00000001
00000100
00000001
00001000
00000000
00000001
00000100
00000010
,
00001000
00000100
00001000
00000001
00000000
00000100
00001000
00010000
,
00001000
01000000
00001000
00010000
00000000
00001000
01000000
00001000
,
00020000
02030000
23000000
30200000
,
00310000
00100000
01000000
00100000
00010000
00100000
01000000
00100000
,
00010000
00100000
00000000
10000000
02000000
00000000
03020000
00000000
,
00031000
00000010
00000100
00000010
00001000
00000010
00000100
00000010
,
00002000
00003020
00000032
00002003
,
00003001
00000100
00000001
00000100
00000001
00001000
00000001
00000100
,
00001000
00010000
00001000
01000000
00010000
00100000
02000000
00000000
,
13000000
00100000
01000000
00100000
00000000
10000000
00100000
00010000
,
00001000
00010000
02000000
03000000
,
10010000
00000000
10000000
00100000
00000000
01000000
00100000
00000000
,
10000000
00000000
01000000
00010000
00000000
00001000
00010000
00000000
,
00011000
00000000
00001000
00000100
00000000
00000010
00000100
00000000
,
00000001
00000010
00000000
00000100
00010000
00000000
00001000
00000000
,
00011000
00000000
00010000
01000000
00000000
10000000
00010000
00000000
,
10010000
00000000
10000000
00100000
00000000
00010000
00001000
00000000
,
00010000
00001000
00010000
00001000
00000010
00000100
00000010
00000100
,
00000010
00000001
00001000
00000001
00000000
00000100
00000010
00001000
00000100
00010000
00001000
00010000
,
02000000
00000000
00000000
00000000
23000000
00000000
00000000
00000000
00000000
30100000
01000000
00000000
00010000
00000000
00100000
00000000
,
00101000
00000000
00000000
00000000
;

//---------------dance-double - t7r----------------
#NOTES:
     dance-double:
     t7r:
     Challenge:
     18:
     :
00000000
00000000
00000000
00000000
,
00000000
00000000
00000000
00000000
,
00000000
00000000
00000000
00000000
,
00000000
00000000
00000000
00000000
,
00000000
00000000
00000000
00000000
,
20010000
00000000
00000000
01000000
00000000
00000000
00100000
00000000
,
00100000
00000000
00000000
30010000
00000000
00000000
10010000
00000000
,
10020000
00000000
00000000
00100000
00000000
00000000
10000000
00000000
,
01030000
00000000
00000000
00000000
00001000
00000000
00010000
00000000
00000100
00000000
00000000
00001000
00000010
00000000
00000100
00000000
,
00000002
00000000
00000000
00000010
00000000
00000000
00001000
00000000
,
00001000
00000000
00000000
00000103
00000000
00000000
00001001
00000000
,
00002001
00000000
00000000
00000100
00000000
00000000
00003001
00000000
,
00000100
00000000
00001000
00000000
00010000
01000000
10000000
00100000
,
10000000
01000000
00100000
01000000
00000000
10000000
00010000
01000000
,
00010000
00100000
00001000
00010000
00000000
00001000
00010000
00000010
,
00001000
00000100
00000010
00000100
00000000
00001000
00000010
00000100
,
00000001
00000000
00000010
00000000
00000100
00000000
00000010
00000000
00000000
00000000
00000001
00000000
00001000
00000100
00001000
00000000
,
00000001
00000100
00000001
00000100
00000010
00001000
00000010
00001000
,
00010000
00000000
00000000
00100000
01000000
00000000
00000000
10000000
00010000
00000000
10000000
00100000
20000000
00000000
00000000
00000000
,
31000000
00010000
00010000
00010000
00001000
00000100
00000100
00000100
,
00000010
00000000
00001000
00000000
00000001
00000000
00000020
00000000
00000000
00000000
00000000
00000000
00000031
00002000
00000000
00000000
,
00003001
00000000
00000100
00000001
00000100
00000000
00000001
00000000
00000000
00000000
00001000
00000000
00000100
00000000
00000000
00000000
,
00010000
00000000
00001000
00010000
00001000
00000000
00010000
00000000
00000000
00000000
00001000
00000000
01000000
00000000
00000000
00000000
,
00010000
00000000
00100000
00010000
00100000
00000000
00010000
00000000
00000000
00000000
10000000
00000000
00100000
00000000
00000000
00000000
,
10000000
00000000
01000000
10000000
01000000
00000000
00010000
00000000
00001000
00000000
01000000
00100000
01000000
00000000
00100000
00000000
,
10000000
00000000
01000000
10000000
01000000
00000000
10000000
00000000
00000000
00000000
00010000
00000000
01000000
00000000
00000000
00000000
,
00001000
00000000
00010000
00001000
00010000
00000000
00001000
00000000
00000000
00000000
00010000
00000000
00000100
00000000
00000000
00000000
,
00001000
00000000
00000010
00001000
00000010
00000000
00001000
00000000
00000000
00000000
00000001
00000000
00000010
00000000
00000000
00000000
,
00000001
00000000
00000100
00000001
00000100
00000000
00001000
00000000
00010000
00000000
00000100
00000010
00000100
00000000
00000010
00000000
,
00000001
00000010
00000100
00000010
00000001
00000100
00001000
00010000
,
00001000
00000000
01000000
00000000
00100000
00000000
01000000
00000000
00010000
00000000
00100000
00000000
10000000
00000000
00100000
01000000
,
00100000
00001000
00010000
00001000
00000010
00000100
00000010
00000001
,
00000100
00000000
00001000
00010000
00001000
00000000
00100000
00000000
00010000
00000000
00000000
00000000
10010000
00000000
00000000
00000000
,
10000000
00000000
01000000
00000000
00010000
00000000
00001000
00000000
01000000
00000000
00100000
00000000
00010000
00000000
00001000
00010000
,
00001000
00000000
00000100
00000000
00000001
00000000
00001000
00000000
00000001
00000000
00000010
00000100
00000020
00000000
00000000
00000000
,
00000031
00000100
00000100
00000100
00001000
00010000
00010000
00010000
,
01000000
00100000
01000000
20000000
00000000
00000000
00000000
00000000
,
30100000
00000000
10000000
01000000
00000000
10000000
00100000
01000000
,
00010000
00000000
00001000
00000010
00000000
00000100
00000001
00000010
,
00000100
00000000
00010000
00001000
00010000
00000000
00001000
01000000
00001000
00000000
00010000
00001000
00010000
00000000
00000100
00010000
,
00000200
00000000
00000320
00000000
00000031
00000100
00000010
00000000
,
00001000
00000000
00000000
00000000
00000100
00010000
00001000
00000000
00000000
00000000
00010000
00001000
01000000
00000000
00001000
00000000
,
00010000
00000000
00100000
00000000
10000000
00000000
01000000
00000000
00100000
00000000
01000000
00000000
10000000
00000000
00100000
01000000
,
00010000
00000000
00000000
00000000
01000000
00001000
00010000
00000000
00000000
00000000
00001000
00010000
00000100
00000000
00010000
00000000
,
00001000
00000000
00000010
00000000
00000001
00000000
00000100
00000000
00000010
00000000
00000100
00000000
00001000
00000000
00010000
00001000
,
00010000
00000000
00000000
00000000
00000010
00001000
00000001
00000000
00000000
00000000
00000010
00000100
00010000
00000000
00001000
00000000
,
00000100
00000010
00000100
00000001
00000010
00001000
00010000
00100000
,
10000000
00000000
00010000
00110000
00000000
00101000
00000000
00011000
,
00010000
00000000
00000010
00000000
00000000
00000000
00000100
00000000
00000001
00000000
00001000
00000001
00002000
00000000
00000000
00000000
,
00003001
00000010
00000100
00000100
00000010
00000001
00001000
00001000
,
00000001
00000000
00000100
00000000
00001000
00000000
00001000
00000000
00010000
00000000
01000000
00000000
00100000
00000000
00100000
00010000
,
00100000
00001000
00010000
00010000
00000010
00010000
00001000
00001000
,
00011000
00000000
00000000
00000000
00000000
00000000
00010000
00000000
00000000
00000100
00000000
00000000
00001000
00000000
00000010
00000000
00001000
00000000
00000002
00000000
00000000
00000000
00000000
00000000
,
00000103
00000000
00000000
00000000
00001000
00000000
00012000
00000000
00000000
00000000
00013000
00000000
01000000
00000000
00100000
00010000
,
00100000
00000000
00000000
00000000
00001000
00000000
00021000
00000000
00000000
00000000
00031000
00000000
00000100
00000000
00000010
00001000
,
00000010
00000000
00001000
00002010
00000000
00003001
00000010
00001000
,
00010000
01000000
01000000
10020000
,
10030000
00100000
10000000
00100000
01000000
00010000
01000000
00010000
,
00001000
00000010
00001000
00000010
00000100
00000001
00000100
00000001
,
00000010
00000100
00000010
00000100
00010000
00001000
00010000
00001000
,
00020000
00000000
00000000
00000000
02030000
00000000
00000000
00000000
13000000
00000000
00010000
10000000
00010000
00000000
10000000
00000000
,
00010000
00100000
01000000
00010000
00001000
00000100
00000010
00001000
,
00000001
00000010
00000100
00001000
00000001
00000100
00001000
00001000
,
00010000
00000000
00100000
00000000
01000000
00000000
00010000
00000000
00100000
00000000
00000000
01000000
10000000
00000000
00010000
00000000
,
10000000
00000000
00000000
00100000
00000000
00000000
00010000
00000000
00000000
00000000
00000000
00000000
00011000
00000000
00000000
00000000
,
00001000
00010000
01000000
10000000
00010000
00100000
01000000
01000000
,
00010000
00001000
00000100
00000001
00001000
00000010
00000100
00000100
,
00001000
00010000
00100000
10000000
00010000
01000000
00100000
00100000
,
10000000
00000000
00000000
01000000
00100000
00000000
00001000
00000000
00010000
00000000
00001000
00000000
00010000
00000000
00010000
00000000
,
00001000
00010000
00100000
10000000
00010000
01000000
00100000
00100000
,
00010000
00001000
00000010
00000001
00001000
00000100
00000010
00000010
,
00001000
00000000
00010000
00000000
01000000
00000000
10000000
00000000
00010000
00000000
00000000
01000000
00100000
00000000
01000000
00000000
,
00002000
00000000
00020000
00033000
,
00001000
01000000
01000000
00100000
20000000
00000000
30020000
00000000
,
10030000
01000000
10000000
01000000
00100000
00010000
00100000
00001000
00100000
00001000
00010000
00001000
,
00010000
00000000
00000010
00000000
00001000
00000000
00001002
00000000
00000000
00000000
00000000
00000000
00001003
00000100
00001000
00000000
,
00000100
00000000
00012000
00000000
02003000
03200000
10300000
02000000
,
03100000
00010000
10000000
00100000
02000000
00000000
03002000
00000000
,
00013000
00000100
00000000
00000000
00001000
00000001
00000000
00000000
00000100
00001000
00000000
00000000
00010000
01000000
00000000
00100000
,
00020000
00000000
00000000
00000000
00000000
00000000
20030000
00000000
00000000
30100000
10000000
00010000
,
10000000
00010000
00001000
00000002
,
00001003
00000000
00000001
00001000
00000000
00010000
10000000
00000000
,
00010000
00000000
00000000
10000000
00000000
00000000
01000000
00000000
00000000
00010000
00000000
00000000
00001000
00000000
00010000
00000000
00000100
00000000
00010000
00000000
00001000
00000000
00100000
00000000
,
00010000
10000000
00010000
10000000
00000000
00000000
10100000
00000000
,
00000000
01100000
00000000
00000000
01001000
00000000
00002000
00000000
,
00013000
00000000
00000000
00010100
00000000
00000000
00000110
00000000
,
00000000
00000011
00000000
00000000
00000101
00000000
00000110
00000000
,
00010010
00000000
00000000
00000000
00000000
00000000
00000000
00000000
00000000
00000000
00000000
00000000
00020000
00032000
00003000
00000000
00000000
00000000
00000000
00000000
00000000
00000000
00000000
00000000
,
00010000
00000000
01000000
00000000
10000000
00000000
00010000
00000000
10000000
00100000
10000000
00100000
20000000
00000000
00000000
00000000
,
30010000
00000000
00000000
00000000
,
00000000
00000000
00000000
00000000
,
00000000
00000000
00000000
00000000
,
00000000
00000000
00000000
00001001
,
00001001
00000000
00000000
00000000
,
10010000
00000000
00000000
00000000
,
00001001
00000000
00000000
00000000
00000000
00000000
00000000
00000000
00000000
00000000
00010000
00000000
00000100
00000000
00001000
00000001
,
00001000
00000002
00000103
00002000
,
00013000
00100000
00010000
00010000
00100000
00010000
00010000
00100000
,
00010000
00000000
00100000
00000000
00100000
00000000
00010000
00000000
00100000
00000000
00100000
00000000
00010000
00000000
00001000
00010000
,
00001000
00000000
00000010
00000000
00000010
00000000
00001000
00000000
00000010
00000000
00000010
00000000
00001000
00000000
00010000
00001000
,
00010000
00000000
00000000
00000000
00011000
00000000
00000000
00000000
00001000
00000000
00010000
00001000
00100000
00000000
00001000
00000000
,
00010000
01000000
00010000
00010000
01000000
00010000
00010000
01000000
,
00010000
00000000
01000000
00000000
01000000
00000000
00010000
00000000
01000000
00000000
01000000
00000000
00010000
00000000
00001000
00010000
,
00001000
00000100
00000100
00001000
00000100
00000100
00001000
00010000
,
00002000
00003200
00000302
00000023
,
00000031
00000000
00000100
00000001
00000100
00000000
00000001
00000000
00001000
00000000
00000100
00001000
00000100
00000000
00010000
00000000
,
00001000
00000000
01000000
00010000
01000000
00000000
00010000
00000000
00100000
00000000
01000000
10000000
00020000
00000000
00000000
00000000
,
10030000
00000000
00100000
10000000
00100000
00000000
10000000
00000000
00010000
00000000
00100000
00010000
00100000
00000000
00001000
00000000
,
00020000
00030020
00002030
00003002
,
00001003
00000000
00000100
00000010
00000100
00000000
00000001
00000000
00000100
00000000
00000010
00000100
00000010
00000000
00000100
00000000
,
00010000
00000000
00001000
00010000
00001000
00000000
01000000
00000000
10000000
00000000
01000000
00100000
02000000
00000000
00000000
00000000
,
03001000
00010000
01000000
00100000
00000000
00010000
01000000
00100000
,
10000000
01000000
00010000
00001000
,
00011000
00000000
00000010
00001000
00000000
00000001
00000010
00000001
,
00001000
00000000
00000010
00001000
00000000
00000100
00010000
00000000
,
00011000
00000000
00100000
00010000
00000000
10000000
00100000
01000000
,
00010000
00000000
00001000
00000010
00000100
00000001
00000010
00000100
,
00010000
00000000
00001000
01000000
00000000
00001000
00010000
00000100
,
00001000
00000000
00000001
00000010
00000100
00001000
00000001
00000100
,
00001000
00010000
00010000
00010000
00001000
01000000
01000000
01000000
,
00010000
00100000
01000000
10000000
00100000
01000000
00010000
00100000
00001000
00010000
00001000
00000100
,
00000001
00000010
00000100
00001000
00000002
00000000
00000000
00000000
00000103
00001000
00010000
00000000
00001000
00000000
01000000
00000000
,
02020000
00000000
03030000
00000000
;
