#TITLE:Gashapon Hardbass;
#ARTIST:Numb'n'dub;
#BANNER:Gashapon Hardbass.png;
#BACKGROUND:Gashapon Hardbass-bg.png;
#JACKET:Gashapon Hardbass-jacket.png;
#CDTITLE:./CDTITLES/NONE.PNG;
#MUSIC:Gashapon Hardbass.ogg;
#SAMPLESTART:78.75;
#SAMPLELENGTH:15;
#BPMS:0=160,100=80,104=160,136=80,155=160,219=80,223=160;

//---------------dance-single - t7r----------------
#NOTES:
     dance-single:
     t7r:
     Beginner:
     3:
     :
0000
0000
0000
0000
,
0000
0000
0000
0000
,
0000
0000
0000
0000
,
0000
0000
0000
0000
,
0000
0000
0000
0000
,
1000
0000
0000
0000
,
1000
0000
0000
0000
,
0001
0000
0000
0000
,
0001
0000
0000
0000
,
0100
0000
0100
0000
,
0010
0000
0000
0000
,
1000
0000
1000
0000
,
0001
0000
0000
0000
,
0010
0000
0010
0000
,
0100
0000
0000
0000
,
0010
0000
0010
0000
,
0001
0000
0000
0000
,
1000
0000
0000
0000
,
0001
0000
0000
0000
,
0100
0000
0000
0000
,
0010
0000
0000
0000
,
0001
0000
0000
0000
,
1000
0000
0000
0000
,
0100
0000
0000
0000
,
0010
0000
0000
0000
,
1001
0000
0000
0000
,
0100
0000
0000
0000
,
0100
0000
0000
0000
,
0010
0000
0000
0000
,
0010
0000
0000
0000
,
1000
0000
0000
0000
,
1000
0000
0000
0000
,
0001
0000
0000
0000
,
0001
0000
0000
0000
,
0010
0000
0010
0000
,
0100
0000
0100
0000
,
0010
0010
0010
0000
,
0001
1000
0001
0000
,
0000
0000
0000
0100
,
0000
0000
0000
0100
,
0000
0000
0000
0010
,
0000
0000
0000
0010
,
0000
0000
0000
1000
,
0000
1000
0000
1000
,
0000
0000
0000
0001
,
0000
0001
0000
0001
,
0000
0000
0000
0010
,
0000
0010
0000
0010
,
0010
0010
0000
0100
,
0000
0100
0000
0100
,
0100
0100
0000
1000
,
0000
1000
0000
1000
,
1000
1000
0000
0001
,
0000
0001
0000
0001
,
0001
0001
0000
1001
,
0000
0000
0000
0100
,
0000
0100
0000
0010
,
0000
0010
0000
1000
,
0000
1000
0000
0001
,
0000
0001
0000
0010
,
0000
0100
0000
1000
,
0000
0010
0000
0100
,
0000
0001
0000
1000
,
0000
0000
0000
0001
,
0000
0010
0000
0100
,
0000
0000
0000
0001
,
0000
1000
0000
0010
,
0000
0000
0000
1000
,
0000
0100
0000
0010
,
0000
0000
0000
1000
,
0000
0001
0000
0100
,
0000
0000
0000
1001
;

//---------------dance-single - t7r----------------
#NOTES:
     dance-single:
     t7r:
     Easy:
     6:
     :
0000
0000
0000
0000
,
0000
0000
0000
0000
,
0000
0000
0000
0000
,
0000
0000
0000
0000
,
0000
0000
0000
0000
,
1000
0100
0000
1000
,
0002
0103
0000
0001
,
2000
3100
0000
1000
,
0001
0001
0100
0100
,
0001
0000
0011
0000
,
1000
0000
0001
0001
,
1000
0000
1100
0000
,
1000
0001
0100
0100
,
0010
0000
1001
0000
,
1000
0100
0010
0000
,
0001
0100
0010
0000
,
0100
0100
0100
0100
,
0001
1000
1100
0000
,
1000
0001
0101
0000
,
0001
0010
0100
1000
,
0010
0010
0110
0000
,
1000
0100
0110
0000
,
0001
0100
0110
0000
,
0010
1000
0001
0001
,
0010
0100
2000
0000
,
3000
0000
0000
0000
,
1000
0000
0100
0100
,
0010
0000
0001
0001
,
0100
0000
0010
0010
,
0100
0000
0001
0001
,
1000
0000
0100
0010
,
0001
0000
0100
0010
,
1000
0000
0010
0100
,
0001
1000
1000
0010
,
0100
0000
0010
0000
1000
0001
0010
0000
,
0001
0000
1000
0000
0100
1000
0001
0000
,
1000
0000
0010
0000
0100
0010
1000
0000
,
0100
0000
0000
0000
0010
0000
0000
0000
0001
0000
0100
0000
0010
0200
0000
0000
,
0000
0000
0000
0000
0000
0300
0001
0000
,
0010
0001
0001
1000
,
0100
1100
0000
1000
,
0010
1000
1000
0001
,
0010
0011
0000
0001
,
1000
0110
0000
1000
,
0001
0110
0000
1000
,
1000
0100
0100
0010
,
0010
0001
0000
0100
,
0000
1010
0000
0100
,
0010
1001
0000
0100
,
0000
0011
0000
0100
,
0010
1001
0000
0010
,
0000
0101
0000
0010
,
0100
1001
0000
0010
,
0000
1100
0000
0010
,
0100
0110
0000
2002
,
0000
0000
0000
0000
0000
3003
1000
0000
,
0000
1100
0000
0001
,
0000
0110
0000
0001
,
0000
0101
0000
1000
,
0000
0110
0000
1000
,
0100
1100
0000
0001
,
0010
0011
0000
0001
,
0100
0101
0000
1001
,
0000
0000
0000
1000
,
1000
0100
0000
0010
,
0010
0001
0000
0100
,
0010
1000
0000
0001
,
0100
1000
0100
0002
,
0010
0000
1003
0200
,
0010
0000
1300
0020
,
0001
0000
0130
0010
,
0010
0100
0100
2002
,
0000
0000
0000
0000
,
0000
0000
0000
0000
,
0000
0000
0000
3003
;

//---------------dance-single - t7r----------------
#NOTES:
     dance-single:
     t7r:
     Medium:
     11:
     :
0000
0000
0000
0000
,
0000
0000
0000
0000
,
0000
0000
0000
0000
,
0000
0000
0000
0000
,
0000
0000
0000
0000
,
0001
0100
0010
0100
,
0002
0013
0100
0010
,
0001
0100
0010
1000
,
0100
0100
0010
0010
0001
0001
1000
0001
,
1000
1010
1000
1010
,
1000
0100
0010
0001
0100
0000
0101
0000
,
0001
0010
0100
1000
0010
0000
1010
0000
,
1000
0001
0100
0000
0010
1000
0100
0000
,
0010
0011
0010
0011
,
0001
0100
0010
1000
0100
0000
1100
0000
,
1000
0010
0100
0001
0010
0000
0011
0000
,
0001
0001
0100
0100
0010
1000
0001
0000
,
0100
1010
0100
1010
,
1000
0010
0100
0001
1000
0000
1010
0000
,
0100
0011
0100
0011
,
0001
0100
0010
1000
0001
0000
0110
0000
,
0100
1001
0100
1001
,
1000
0100
0001
0100
0010
0000
0011
0001
,
0100
0010
1000
0000
0100
0010
0001
1000
,
0010
0010
0100
0100
0001
0001
1000
1000
,
2002
0000
0000
0000
0000
0000
0000
3003
,
1000
0000
0000
1000
0000
0000
0100
0000
0100
0000
0000
0010
0000
0000
0010
0000
,
0001
0000
0000
0001
0000
0000
0100
0000
0100
0000
0000
0010
0000
0000
0010
0000
,
1000
0000
0000
1000
0000
0000
0100
0000
0100
0000
0000
0001
0000
0000
0001
0000
,
0100
0000
0000
0100
0000
0000
0010
0000
0001
0000
0000
1000
0001
0000
1000
0000
,
0001
0000
0000
0001
0000
0000
0100
0000
0010
0000
0000
1010
0000
0000
1000
0000
,
0001
0000
0000
0001
0000
0000
0010
0000
0100
0000
0000
1100
0000
0000
1000
0000
,
0001
0000
0000
0100
0000
0000
1000
0000
0100
0000
0000
0110
0000
0000
0010
0000
,
1000
0000
0000
1000
0000
0000
0100
0000
0100
0000
0001
0000
0100
0000
0000
0000
,
1000
0020
0000
0000
0130
0020
0000
0000
2030
0000
3100
0020
0000
0031
2000
0000
,
3001
0200
0000
0000
0310
0200
0000
0302
0000
2003
0000
3020
0000
0130
0002
0000
,
1003
0200
0000
0000
0301
0200
0000
0000
2300
0000
3010
0200
0000
0310
2000
0000
,
3001
0020
0000
0000
1030
0020
0000
0230
0000
0310
0001
0001
1000
0020
0000
0000
,
0200
0000
0000
0000
0000
0330
1001
0000
,
1000
0000
0000
0000
0100
0000
0000
0000
1000
0000
0000
0001
0200
0000
0000
0000
,
0301
0000
0010
0000
0001
1000
0001
0000
,
0100
0000
0000
0000
0010
0000
0000
0000
1000
0000
0000
0100
0020
0000
0000
0000
,
0130
0000
1000
0000
0010
0100
0001
0000
,
1010
0000
0001
0100
0010
0000
1000
0000
,
0011
0000
1000
0100
0010
0000
0001
0100
,
1000
0000
0100
0010
1000
0000
0100
0100
,
0010
0010
0001
0000
1000
0000
0001
0000
,
0110
0000
1000
0000
0110
0000
0001
0010
,
1000
0010
0100
0000
0011
0000
1000
0000
,
0110
0000
0001
0000
0110
0000
1000
0100
,
0001
0100
0010
0000
1001
0000
0001
0000
,
1100
0000
0000
0000
0010
0000
0000
0000
0101
0000
0000
0000
1000
0000
0000
0100
,
0010
0001
0100
0000
1010
0000
0001
0000
,
0110
0000
1000
0000
0011
0001
0100
0100
,
0010
0010
1000
1000
0001
1000
0020
0000
,
0000
0000
0000
0000
0000
0030
1001
0000
,
1100
0000
0000
0000
1001
0000
0000
1000
0100
0000
0000
0000
1001
0000
0000
0000
,
0101
0000
0001
0001
0010
0010
0001
0000
,
1001
0000
0000
0000
0101
0000
0000
0001
0100
0000
0000
0100
0010
0000
1000
0000
,
0100
0000
0010
0010
0001
1000
0001
0100
,
0010
0000
0000
0000
1000
0000
0100
0000
0001
0000
0000
0100
0010
0000
0100
0000
,
1000
0000
0000
0010
0100
0000
0010
0000
0001
0000
0010
0000
0100
0000
0100
0000
,
0010
0010
1000
1000
0001
0001
2000
0000
,
0000
0000
0000
0000
0000
3001
1000
0000
,
0011
0000
0000
0000
1001
0000
0000
0000
0011
0000
0000
0001
1000
0000
0000
0000
,
1010
0000
0000
0000
1001
0000
0000
0000
1010
0000
0000
1000
0001
0000
0000
0000
,
0011
0000
0000
0000
1001
0000
0000
0000
1010
0000
0000
1000
0100
0000
0100
0000
,
0010
0010
0100
0001
0100
1000
0020
0000
,
0100
0000
0000
0000
1030
0001
0020
0000
,
0100
0000
0000
0000
0031
0100
0020
0000
,
0100
0000
0000
0000
1030
0100
0010
0010
,
0100
0100
1000
1000
0010
0100
0220
0000
,
0000
0000
0000
0000
,
0000
0000
0000
0000
,
0000
0000
0000
0330
;

//---------------dance-single - t7r----------------
#NOTES:
     dance-single:
     t7r:
     Hard:
     15:
     :
0000
0000
0000
0000
,
0000
0000
0000
0000
,
0000
0000
0000
0000
,
0000
0000
0000
0000
,
0000
0000
0000
0000
,
1000
0000
0100
0000
0000
0000
0010
0000
0000
0000
0100
0000
0000
0000
1000
0001
,
2000
0000
3001
0000
0000
0000
0100
0000
0000
0000
0010
0000
0000
0100
0001
0100
,
0020
0000
0130
0000
0000
0000
0001
0000
0000
0000
1000
0000
0000
0000
0100
0010
,
0100
0000
0100
0000
0100
0000
0100
0000
0010
0000
0010
0000
0001
1000
0001
1000
,
0001
0100
0000
0001
1000
0000
0001
0000
1000
0000
0010
0000
0100
0000
0000
1000
,
0200
0000
0310
0000
0100
0000
0001
0000
0100
0000
0010
0000
1000
0000
0000
0001
,
1000
0000
0100
0000
0010
0000
0100
0000
0001
0000
0100
0000
0010
0000
0000
0001
,
2000
0000
3010
0000
0100
0000
0000
0000
0001
0000
0010
0000
0100
0010
0100
0010
,
0001
0000
0100
0000
0010
0000
0100
0000
0001
0000
0010
0000
0100
0000
0000
0001
,
0200
0000
0310
0000
0100
0000
1000
0000
0100
0000
0010
0000
0001
1000
0001
1000
,
0001
0000
0100
0000
0010
0000
0100
0000
1000
0000
0100
0000
0010
0000
0000
1000
,
0001
0000
0100
0001
0100
0000
0001
0010
0001
0000
1000
0000
0010
0100
0010
0100
,
0010
1000
0000
0001
1000
0000
0100
0000
0010
0000
0001
0000
0011
0000
0000
0001
,
1000
0000
0100
0000
0010
0000
0100
0000
1000
0000
0010
0000
1010
0000
0000
1000
,
0001
0000
0010
0000
0100
0000
1000
0000
0010
0000
0100
0000
0001
0000
1000
0100
,
1000
0000
0001
0000
0100
0000
0010
0000
1000
0000
0001
0000
1001
0000
0000
0001
,
1000
0000
0010
0000
0110
0000
0000
0000
0001
0000
0010
0000
0110
0000
0100
0010
,
0001
0000
0100
0000
0101
0000
0000
0000
1000
0000
0100
0000
1100
0000
1000
0001
,
0010
0000
0001
0000
0101
0000
0000
0000
0001
0000
1000
0000
1100
0000
1000
0010
,
0100
0000
0100
0000
0010
0000
0010
0000
1000
0000
1000
0000
0001
1000
0001
1000
,
0200
0000
0000
0000
0000
0020
0000
0330
,
1100
0000
0100
0010
0000
0000
0100
0000
0100
0000
0000
1001
0000
0000
1000
0000
,
0001
0000
0100
0010
0000
0000
0100
0000
0100
0000
0000
1001
0000
0000
0001
0000
,
1000
0000
0001
0010
0000
0001
0100
0000
0100
0000
0000
0110
0000
0000
1001
0000
,
0001
0000
1000
0100
0000
0010
0100
0000
0100
0000
0000
1010
0000
0000
0011
0000
,
1000
0000
0100
0010
0000
0100
1000
0001
0100
0000
0000
0010
0100
0000
0010
0000
,
1000
0000
0010
0100
0000
0010
1000
0001
0010
0000
0000
0100
0010
0000
0001
0000
,
1000
0000
0100
0001
0000
0100
0010
0100
0010
0000
0000
0100
1000
0000
0001
0000
,
1000
0000
0000
0010
0100
0000
0001
0010
0001
0000
0100
0000
0001
1000
0001
1000
,
0001
0200
0000
0310
0100
0002
0000
0013
0100
1000
0010
2000
0000
3001
0020
0000
,
0130
0020
0000
0031
0100
0020
0000
2030
0000
3020
0000
0032
0000
0013
0200
0000
,
0301
0020
0000
1030
0010
0200
0000
1300
0010
0100
0001
2000
0000
3001
0200
0000
,
0310
0200
0000
1300
0100
0020
0000
0230
0000
0301
0010
0010
0100
0120
0000
0000
,
0002
0000
0000
0000
0000
0033
1000
0010
,
0100
0000
0010
0000
0001
0000
0010
0000
0100
0000
0001
1000
0002
0000
0013
0000
,
0100
0000
0000
0000
1100
0000
0100
0000
0010
0001
1000
0001
0100
0000
1000
0000
,
0100
0000
0010
0000
0100
0000
0001
0000
1000
0000
0001
0010
0002
0000
1003
0000
,
0100
0000
0010
0000
0100
0000
0001
0000
0100
1000
0001
1000
0010
0000
0000
0000
,
1100
0000
0001
0010
0110
0000
1000
0000
,
0110
0000
0000
0000
1000
0000
0100
0000
0110
0000
0100
1000
0001
0000
0100
0000
,
0010
0000
0100
0000
1000
0000
0100
0000
0010
0000
0100
0010
0100
0000
0100
0000
,
0001
0000
0001
0000
1000
0000
1000
0000
0001
1000
0001
1000
0001
0100
0000
1000
,
0100
0000
0001
0010
0110
0000
1000
0010
,
0100
0000
0010
0000
0001
0000
0010
0000
1010
0000
1000
0100
0010
0000
0100
0000
,
0001
0000
0100
0000
0010
0000
0100
0000
1000
0000
0001
1000
0100
0000
1000
0000
,
1010
0000
0010
0000
0100
0000
0001
0000
0010
0001
1000
0001
0010
0000
0100
0000
,
1100
0000
0000
0000
1001
0000
0001
0000
0101
0000
0000
0001
1000
0000
0010
0000
,
1010
0000
0000
0000
1001
0000
0001
0000
0010
0001
1000
0100
1000
0000
0010
0000
,
0110
0000
0000
0000
0101
0000
0001
0000
1001
0000
1000
0100
0010
0000
0010
0000
,
1000
0000
1000
0000
0001
0000
0001
0000
0100
1000
0100
1000
0020
0000
0000
0000
,
0000
0000
0000
0200
0000
0330
1001
1000
,
0100
0010
0000
0000
1100
0000
0100
0010
0001
0000
0000
1000
0001
0000
0100
0000
,
0010
1000
0000
0001
0100
0000
0100
0000
0010
0000
0010
0000
1010
0000
1000
0000
,
0100
0001
0000
0000
1100
0000
0100
0010
0001
0000
0000
1000
0010
0000
0100
0000
,
0010
0001
0000
0010
0100
0000
0001
1000
0100
0000
1000
0000
1001
0000
0001
0000
,
0100
1000
0000
0000
0101
0000
0100
0010
1000
0000
0000
0001
0010
0000
0100
0000
,
0010
1000
0000
0010
0100
0000
0100
0000
0010
0000
0010
0000
0001
0000
0100
1000
,
0100
0000
0001
0010
0001
0000
0010
1000
0010
0000
0100
0010
0200
0000
0000
0000
,
0000
0000
0000
0000
0000
0000
0000
0000
0000
0000
1300
0001
1000
0000
0000
0100
,
0010
0000
0100
0000
1000
0000
0010
0000
0100
0000
0001
0010
0001
0000
0100
0000
,
0010
0000
0100
0000
1000
0000
0100
0000
0010
0000
0100
0001
1000
0000
0100
0000
,
0010
0000
0100
0000
0001
0000
0100
0000
1000
0000
0010
0100
0010
0000
0010
0000
,
1000
0000
0001
1000
0100
0000
0100
0000
0010
0001
1000
0001
0010
0000
0100
0000
,
0002
0000
0103
0000
0000
0000
0100
0000
0020
0000
0031
1000
0010
0000
0100
0000
,
2000
0000
3100
0000
0000
0000
0100
0000
0010
1000
0000
1000
0100
0000
0001
0000
,
0200
0000
0310
0000
0000
0000
0010
0000
0200
0000
1300
0010
0100
0000
0100
0000
,
0010
0010
1000
1000
0001
0001
2002
0000
,
0000
0000
0000
0000
,
0000
0000
0000
0000
,
0000
0000
0000
3003
;

//---------------dance-single - t7r----------------
#NOTES:
     dance-single:
     t7r:
     Challenge:
     17:
     :
0000
0000
0000
0000
,
0000
0000
0000
0000
,
0000
0000
0000
0000
,
0000
0000
0000
0000
,
0000
0000
0000
0000
,
1000
0000
0200
0000
0310
0000
0200
0000
1300
0000
0200
0000
0310
0000
0100
0100
,
0002
0000
0203
0000
0310
0000
0200
0000
0301
0000
0100
0000
0001
0010
0010
1000
,
0002
0000
0023
0000
0130
0000
0020
0000
0031
0000
0020
0000
0130
0000
0010
0010
,
0100
0000
0100
0000
0110
0000
0110
0000
1001
0000
1001
0000
1000
0100
0100
0001
,
1000
0100
0010
0100
1000
0000
0100
0010
0001
0000
0100
0010
1000
0000
0100
0100
,
0002
0000
0010
0000
1003
0001
0100
0000
0001
1000
0100
1000
0001
0010
0010
1000
,
0001
0100
0010
0000
1000
0100
0010
0000
0001
1000
0010
0000
0100
0010
0100
0100
,
1000
0001
0100
0000
0001
1000
0100
0000
1000
0001
0100
0000
0001
0010
0010
1000
,
0001
0010
0100
0010
0001
0000
0010
0100
1000
0000
0010
0100
0001
0000
0010
0010
,
2000
0000
0100
0000
3001
1000
0010
0000
1000
0001
0010
0001
1000
0100
0100
0001
,
1000
0010
0100
0000
0001
0010
0100
0000
1000
0001
0100
0000
0010
0100
0010
0010
,
0100
0000
0001
0100
0010
0000
0001
0100
0010
0000
0110
0000
1000
0100
0100
0001
,
1000
0100
0010
0100
1000
0000
0010
1000
0001
0000
0100
0001
1000
0000
0100
0010
,
0100
1000
0001
0000
0100
0001
1000
0000
0100
0010
0001
1000
0100
0100
0001
1000
,
0001
0010
0100
0010
0001
0000
0100
0001
1000
0000
0100
1000
0001
0000
0010
0100
,
0010
0001
1000
0000
0010
1000
0001
0000
0010
0001
1000
0001
0010
0010
1000
0001
,
1000
0010
0100
0010
1000
0000
0010
1000
0001
0000
0010
0001
1000
0000
0010
0100
,
0010
1000
0001
0000
0100
0010
1000
0000
0100
0010
0001
1000
0010
0010
0001
1000
,
0001
0100
0010
0100
0001
0000
1000
0100
0010
0000
0100
1000
0001
0000
1000
0001
,
0100
0010
0100
0010
0100
0001
0100
0001
1000
0100
1000
0100
1000
0001
0100
0100
,
2000
0000
0000
0000
0000
0000
0000
3000
,
1001
0000
1000
0100
0000
0010
0001
1000
0001
0000
1000
0100
0000
1000
0001
0000
,
1001
0000
0001
0100
0000
0010
1000
0001
1000
0000
0001
0100
0000
0001
1000
0000
,
1001
0000
1000
0010
0000
0100
0001
1000
0001
0000
1000
0010
0000
1000
0001
0000
,
1001
0000
0001
0010
0000
0100
1000
0001
1000
0000
0001
0010
0000
0001
1000
0001
,
1000
0100
0010
0100
0000
0001
0100
0010
0100
0000
1000
0001
0000
0100
0001
1000
,
0001
0100
0010
0100
0000
1000
0100
0010
0100
0000
0001
1000
0000
0100
1000
0001
,
1000
0010
0100
0010
0000
0001
0010
0100
0010
0000
1000
0001
0000
0010
0001
1000
,
0001
0000
0010
1000
0000
0010
0100
1000
0001
0000
0001
0000
1000
0100
0100
0001
,
1000
0000
0200
0000
0010
0000
1300
0001
0100
0000
0020
0000
0001
0000
0130
0010
1000
0000
0001
0000
0010
0000
0200
0000
0001
0000
0310
0000
0002
0000
0100
0000
,
1003
0000
0020
0000
0100
0000
1030
0001
0010
0000
0200
0000
0001
0000
0320
0000
0001
0000
0230
0000
0010
0000
2300
0000
0010
0000
3001
0000
0200
0000
0010
0000
,
0301
0000
0020
0000
0100
0000
0031
1000
0010
0000
0200
0000
1000
0000
0310
0100
0001
0000
1000
0000
0100
0000
0020
0000
1000
0000
0130
0000
2000
0000
0010
0000
,
3001
0000
0200
0000
0010
0000
0301
1000
0100
0000
0020
0000
1000
0000
0230
0000
1000
0000
0310
0000
0110
0000
1100
0000
1001
0000
2010
0000
0000
0000
0000
0000
,
0002
0000
0000
0000
0000
3003
1000
0200
,
0310
0000
0200
0000
0301
0000
0200
0000
0310
0000
0100
0100
0002
0000
0203
0000
,
0310
0000
0200
0000
1300
0000
0100
0000
0001
0010
0010
1000
0001
0000
0020
0000
,
0130
0000
0020
0000
1030
0000
0020
0000
0130
0000
0010
0010
2000
0000
3200
0000
,
0301
0000
0200
0000
0310
0000
0200
0000
1300
0001
0100
0100
1000
0001
0100
0001
,
1000
0000
0200
0000
0310
0000
0200
0000
0301
0000
0100
0100
0002
0000
0203
0000
,
0310
0000
0200
0000
1300
0000
0200
0000
0301
1000
0010
0010
0002
0000
0023
0000
,
0130
0000
0020
0000
1030
0000
0020
0000
0130
0000
0010
0010
0100
0000
0100
0000
,
0110
0000
0110
0000
0101
0000
0101
0000
1000
0100
0100
0001
1000
0100
0001
0100
,
1000
0000
0001
0100
1000
0000
0100
0001
1000
0000
0100
0001
0100
1000
0001
0000
,
0100
1000
0001
0000
1000
0100
0001
1000
0100
0100
0001
1000
0001
0010
1000
0010
,
0001
0000
1000
0010
0001
0000
0010
1000
0001
0000
0010
1000
0010
0001
1000
0000
,
0010
0001
1000
0000
0001
0010
1000
0001
0010
0010
1000
0001
1000
0010
0001
0010
,
1000
0000
0001
0010
1000
0000
0010
0001
1000
0000
0010
0001
0010
1000
0001
0000
,
0010
1000
0001
0000
1000
0010
0001
1000
0010
0010
0001
1000
0001
0100
1000
0100
,
0001
0000
1000
0100
0001
0000
0100
1000
0001
0000
0100
1000
0100
0010
0100
0010
,
0100
0001
0100
0001
1000
0100
1000
0100
1000
0001
0100
0100
2000
0000
0000
0000
,
0000
0000
0000
0000
0000
0000
3020
0000
0000
0000
0000
0130
0101
0000
0001
0010
,
0100
1000
0000
0001
1000
0000
0001
0010
0100
0010
0000
0100
0100
0000
0001
1000
,
0100
0010
0000
0001
0100
0000
0110
0000
0101
0000
0101
0000
1001
0000
1000
0010
,
0100
0001
0000
1000
0001
0000
1000
0010
0100
0010
0000
0100
0100
0000
1000
0001
,
0100
0010
0000
1000
0001
0000
0100
0100
1000
0000
1100
0000
1010
0000
1000
0100
,
0010
0001
0000
1000
0001
0000
1000
0100
0010
0100
0000
0010
0010
0000
1000
0001
,
0010
0100
0000
1000
0010
0000
0110
0000
1010
0000
1010
0000
1000
0100
1000
0001
,
0100
0100
1000
0001
1000
0100
1000
0001
0010
0010
1000
0001
0100
0010
0100
0010
,
0100
0010
0100
0010
1000
0001
1000
0001
1000
0001
0100
0100
1000
0000
0100
0010
,
1000
0000
0010
0100
1000
0000
0010
0100
1000
0000
0100
0010
1000
0000
0100
0010
,
1000
0000
0010
0100
1000
0000
0010
0100
0001
1000
0100
0100
0001
0000
0100
0010
,
0001
0000
0010
0100
0001
0000
0010
0100
0001
0000
0100
0010
0001
0000
0100
0010
,
0001
0000
0010
0100
0001
0000
0010
0100
1000
0001
0100
0100
1000
0000
0010
0000
,
1001
0000
0100
0000
0000
0000
0100
0000
1001
0000
0010
0100
0100
0000
0010
0000
,
1001
0000
0100
0000
0000
0000
0100
0000
1001
0001
1000
0100
0100
0000
0010
0000
,
1001
0000
0100
0000
0000
0000
0100
0000
1001
0000
0010
0100
0100
0000
0100
0000
,
0010
0010
0110
0110
0101
1100
2002
0000
,
0000
0000
0000
0000
,
0000
0000
0000
0000
,
0000
0000
0000
3003
;

//---------------dance-double - t7r----------------
#NOTES:
     dance-double:
     t7r:
     Easy:
     7:
     :
00000000
00000000
00000000
00000000
,
00000000
00000000
00000000
00000000
,
00000000
00000000
00000000
00000000
,
00000000
00000000
00000000
00000000
,
00000000
00000000
00000000
00000000
,
00100000
00010000
00000000
10000000
,
02000000
03100000
00000000
00001000
,
00010000
00000010
00000000
00000100
,
00000001
00000001
00000010
00000010
,
00000100
00010000
00001000
00000000
,
01000000
00001000
00010000
00000000
,
00001000
00010000
00000100
00000000
,
00010000
00001000
01000000
00000000
,
00010000
01000000
00100000
00000000
,
10000000
01000000
00010000
00000000
,
00001000
00000100
00000010
00000000
,
00000100
00000100
00000001
00001000
,
00000001
00000010
00001001
00000000
,
00000001
00000100
00001100
00000000
,
00001000
00010000
00011000
00000000
,
00010000
01000000
01010000
00000000
,
01000000
10000000
00100000
01000000
,
00010000
00100000
00110000
00000000
,
00001000
00010000
00001000
00000010
,
00000100
00000100
00000010
00000010
,
00000002
00000000
00000000
00000000
00000000
00000000
00000000
00000003
,
00000011
00000000
00000100
00000100
,
00000010
00000000
00001000
00001000
,
00000100
00000000
00010000
00010000
,
00001000
00000000
00010000
00010000
,
01000000
00000000
10000000
10000000
,
00100000
00000000
00010000
00010000
,
00001000
00000000
00000010
00000010
,
00000100
00000000
00000010
00000001
,
00002000
00000000
00003001
00000000
00000100
00001000
00010000
00000000
,
00002000
00000000
00013000
00000000
00001000
00010000
00100000
01000000
,
00020000
00000000
10030000
00000000
01000000
00010000
00001000
00000000
,
00020000
00000000
00000000
00000000
00031000
00000000
00000000
00000010
00000000
00000100
00000000
00000010
00000000
00000002
00000000
00000000
,
00000000
00000000
00000000
00000000
00000000
00000003
00001000
00000000
,
00000001
00000100
00000000
00000001
,
00001000
00000001
00000000
00000010
,
00000100
00010000
00000000
00001000
,
00010000
00001000
00000000
00010000
,
00000000
01010000
00000000
01000000
,
00000000
11000000
00000000
10000000
,
00000000
10100000
00000000
00100000
,
00100000
01000000
00000000
00010000
,
00100000
00001000
00000000
00010000
,
00000010
00001000
00000000
00000010
,
00010000
00001000
00000000
00100000
,
00001000
00010000
00000000
01000000
,
10000000
00100000
00000000
00010000
,
00001000
00000010
00000000
00000100
,
00001000
00000001
00000000
00000100
,
00001000
00010000
00000000
00022000
,
00000000
00000000
00000000
00000000
00000000
00033000
00001000
00000000
,
00000000
00010000
00000000
01000000
,
00000000
10000000
00000000
00100000
,
00000000
00010000
00000000
00001000
,
00000000
00000010
00000000
00001001
,
00000000
00000000
00010000
00011000
,
00000000
00000000
10000000
10010000
,
00000000
00000000
00010000
20020000
,
00000000
00000000
30030000
10000000
,
01000000
00010000
00001000
00000100
,
00000001
00000100
00001000
00010000
,
01000000
10000000
01000000
00010000
,
00010000
00001000
00010000
00011000
,
00000100
00000000
00000100
00011000
,
01000000
00000000
01000000
00011000
,
00000100
00000000
00000100
00010000
,
00000000
00001000
00010000
00022000
,
00000000
00000000
00000000
00000000
,
00000000
00000000
00000000
00000000
,
00000000
00000000
00000000
00033000
;

//---------------dance-double - t7r----------------
#NOTES:
     dance-double:
     t7r:
     Medium:
     11:
     :
00000000
00000000
00000000
00000000
,
00000000
00000000
00000000
00000000
,
00000000
00000000
00000000
00000000
,
00000000
00000000
00000000
00000000
,
00000000
00000000
00000000
00000000
,
00000010
00001000
00000100
00000000
,
00020000
00031000
00010000
00000000
,
01000000
10000000
00100000
00000000
,
01000000
01000000
00010000
00010000
10000000
00000000
00000000
00000000
,
01000000
00010000
00001000
00000100
,
00000010
00000100
00000010
00000000
00001000
00000000
00000001
00000000
,
00000010
00000100
00000010
00000000
00000001
00000000
00001000
00000000
,
00000001
00000000
00000100
00000000
00001000
00010000
00001000
00000000
,
00010000
01000000
10000000
00100000
,
01000000
00100000
01000000
00000000
00100000
00000000
10000000
00000000
,
00010000
00100000
00010000
00000000
00100000
00000000
00001000
00000000
,
00010000
00010000
00001000
00001000
00000100
00000000
00000010
00000000
,
00000100
00000000
00001010
00000000
00001000
00000000
00000001
00000010
,
00000001
00001000
00000001
00000010
,
00000100
00000010
00000001
00000000
00000100
00000000
00001010
00000000
,
00000001
00000100
00001000
00000000
00010000
00000000
00011000
00000000
,
01000000
00000000
00110000
00000000
00010000
00000000
10000000
00100000
,
10000000
00010000
10000000
00100000
,
01000000
00100000
10000000
00000000
01000000
00000000
00010000
00001000
,
00010000
00010000
01000000
00000000
10000000
00100000
01000000
01000000
,
00020000
00000000
00000000
00000000
00000000
00000000
00000000
00030000
,
10000000
00000000
00000000
01000000
00000000
00000000
00100000
00000000
00100000
00000000
00000000
00010000
00000000
00000000
00010000
00000000
,
00001000
00000000
00000000
00000100
00000000
00000000
00000010
00000000
00000010
00000000
00000000
00000001
00000000
00000000
00000001
00000000
,
00000100
00000000
00000000
00000100
00000000
00000000
00000010
00000000
00000010
00000000
00000000
00001000
00000000
00000000
00001000
00000000
,
00000100
00000000
00000000
00000100
00000000
00000000
00010000
00000000
00010000
00000000
00000000
00001000
00010000
00000000
00000000
00000000
,
01000000
00000000
00000000
10000000
00000000
00000000
00100000
00000000
01000000
00000000
00000000
01100000
00000000
00000000
00010000
00000000
,
10000000
00000000
00000000
01000000
00000000
00000000
00010000
00000000
00001000
00000000
00000000
00011000
00000000
00000000
00001000
00000000
,
00000010
00000000
00000000
00000100
00000000
00000000
00000010
00000000
00000001
00000000
00000000
00001001
00000000
00000000
00000001
00000000
,
00000100
00000000
00000000
00001000
00010000
00000000
00010000
00000000
00001000
00000000
00010000
00000000
00100000
00000000
00000000
00000000
,
10000000
02000000
00000000
00000000
03100000
02000000
00000000
00000000
23000000
00000000
30100000
02000000
00000000
03010000
00200000
00000000
,
00301000
00020000
00000000
00000000
00031000
00000200
00000000
00000320
00000000
00002030
00000000
00003002
00000000
00000013
00000200
00000000
,
00000310
00000002
00000000
00000000
00001003
00000002
00000000
00000000
00000203
00000000
00001300
00020000
00000000
00031000
00200000
00000000
,
00310000
20000000
00000000
32000000
00000000
03200000
00000000
00302000
00000000
00023000
00000000
00030010
00000100
00000002
00000000
00000000
,
00002000
00000000
00000000
00000000
00000000
00003003
00000001
00000000
,
00000100
00000000
00000000
00000000
00000001
00000000
00000010
00000000
00000001
00000000
00000000
00001000
00000100
00000000
00000000
00000000
,
00010000
00000000
00000000
00000000
00001000
00000000
00010000
00000000
00001000
00000000
00000000
01000000
00010000
00000000
00000000
00000000
,
00100000
00000000
00000000
00000000
00010000
00000000
10000000
00000000
00010000
00000000
00000000
10000000
00100000
00000000
00000000
00000000
,
01000000
00000000
00100000
10000000
00010000
00000000
10000000
00000000
,
11000000
00000000
01000000
00010000
00001000
00000000
00010000
00000000
,
00011000
00000000
00001000
00000100
00000001
00000000
00000010
00000000
,
00000011
00000000
00000001
00001000
00000010
00000000
00001000
00001000
,
00000100
00000100
00010000
00001000
00010000
00000000
00001000
00000000
,
00011000
00000000
00001000
00000000
01001000
00000000
00001000
00010000
,
01000000
00000000
00100000
00000000
10010000
00000000
10000000
00100000
,
10000000
00000000
01000000
00000000
01100000
00000000
00100000
00001000
,
00010000
00001000
00011000
00010000
,
00011000
00000000
00000000
00000000
00010000
00000000
00000000
00000000
00010010
00000000
00000000
00000000
00010000
00000000
00000000
00001000
,
00000010
00000100
00000010
00000000
00001001
00000000
00000001
00000100
,
00001000
00000000
00010000
01000000
00100000
00000000
00010000
00010000
,
10000000
10000000
00100000
01000000
00001000
00010000
00002000
00000000
,
00000000
00000000
00000000
00000000
00000000
00003000
00011000
00000000
,
01001000
00000000
00011000
00000000
00000000
00000000
00010000
00001000
,
00000100
00000000
00000010
00000010
00000100
00000001
00001000
00000000
,
00001100
00000000
00000000
00000000
00010100
00000000
00000000
00000000
00000000
00000000
00000000
00001000
00010000
00000000
00000000
00000000
,
00011000
00000000
00001000
00001000
00010000
01000000
00100000
00000000
,
01100000
00000000
00000000
00000000
00110000
00000000
00000000
00000000
00010000
00000000
00000000
10000000
00100000
00000000
00000000
00000000
,
00010000
00000000
00000000
00000000
00001000
00000000
00001000
00000000
00010000
00000000
00010000
00000000
00001000
00000000
00000000
00000100
,
00000010
00000000
00000000
00000000
00000100
00000000
00000000
00000001
00001000
00000000
00000000
00000000
00000002
00000000
00000000
00000000
,
00000000
00000000
00000000
00000000
00000000
00001003
00000001
00000000
,
00001001
00000000
00000001
00000100
00000010
00000000
00001000
00000000
,
00001100
00000000
00000100
00010000
00001000
00000000
00010000
00000000
,
00011000
00000000
00001000
01000000
00010000
00000000
10000000
00100000
,
00010000
00000000
00001000
00010000
00001000
00000000
00011000
00000000
,
01000000
00100000
00000000
00100000
01000000
00000000
00011000
00000000
,
00000100
00000010
00000000
00000010
00000100
00010000
00001000
00000000
,
00010000
00000100
00000000
00000100
00001000
00000000
00000001
00000100
,
00001000
00000000
00010000
00100000
10000000
00000000
20020000
00000000
,
00000000
00000000
00000000
00000000
,
00000000
00000000
00000000
00000000
,
00000000
00000000
00000000
30030000
;

//---------------dance-double - t7r----------------
#NOTES:
     dance-double:
     t7r:
     Hard:
     15:
     :
00000000
00000000
00000000
00000000
,
00000000
00000000
00000000
00000000
,
00000000
00000000
00000000
00000000
,
00000000
00000000
00000000
00000000
,
00000000
00000000
00000000
00000000
,
00000001
00000000
00000100
00000000
00000000
00000000
00000010
00000000
00000000
00000000
00001000
00000000
00000000
00000000
00000001
00001000
,
00000002
00000000
00000013
00000000
00000000
00000000
00000100
00000000
00000000
00000000
00010000
00000000
00000000
00001000
00010000
00001000
,
00010000
00000000
01000000
00000000
00000000
00000000
10000000
00000000
00000000
00000000
00100000
00000000
00000000
00000000
01000000
00100000
,
01000000
00000000
01000000
00000000
00010000
00000000
00010000
00000000
10000000
00000000
10000000
00000000
01000000
00000000
00010000
00001000
,
00010000
00000000
00000000
00001000
00010000
00000000
01000000
00000000
10000000
00000000
00000000
00000000
10100000
00000000
00000000
10000000
,
01000000
00000000
00100000
00000000
01000000
00000000
00010000
00000000
01000000
00000000
00100000
00000000
00001000
00000000
00000000
00010000
,
00001000
00000000
00000100
00000000
00000010
00000000
00000100
00000000
00000001
00000000
00000010
00000000
00000100
00000000
00000000
00000010
,
00000001
00000000
00001000
00000000
00000010
00000000
00000000
00000000
00000100
00000000
00000001
00000000
00001000
00000000
00000000
00000100
,
00010000
00000000
00001000
00000000
00010000
00000000
01000000
00000000
00100000
00000000
01000000
00000000
10000000
00000000
00000000
00100000
,
01000000
00000000
00100000
00000000
00010000
00000000
00100000
00000000
01000000
00000000
00100000
00000000
10000000
00000000
00000000
01000000
,
00010000
00000000
00001000
00000000
00000100
00000000
00001000
00000000
00010000
00000000
01000000
00000000
00010000
00000000
00000000
00001000
,
00010000
00000000
00010000
00000000
00001000
00000000
00001000
00000000
00000100
00000000
00000100
00000000
00000010
00000100
00000010
00000100
,
00000001
00000010
00000000
00000001
00001000
00000000
00000001
00000000
00000010
00000000
00000001
00000000
00000101
00000000
00000000
00000001
,
00000100
00000000
00000010
00000000
00001000
00000000
00000100
00000000
00010000
00000000
00001000
00000000
00011000
00000000
00000000
00010000
,
01000000
00000000
00100000
00000000
01000000
00000000
10000000
00000000
00100000
00000000
01000000
00000000
00100000
00000000
00000000
01000000
,
00010000
00000000
10000000
00000000
11000000
00000000
00000000
00000000
10000000
00000000
00010000
00000000
01010000
00000000
00010000
10000000
,
00010000
00000000
10000000
00000000
11000000
00000000
00000000
00000000
01000000
00000000
00100000
00000000
01100000
00000000
00000000
00100000
,
00001000
00000000
00010000
00000000
00011000
00000000
00000000
00000000
00001000
00000000
00000100
00000000
00000110
00000000
00000100
00000010
,
00000100
00000000
00000001
00000000
00000010
00000000
00000100
00000000
00000001
00000000
00000100
00000000
00001000
00000000
00000100
00010000
,
00001000
00000000
00001000
00000000
00010000
00000000
00010000
00000000
00100000
00000000
00100000
00000000
10000000
01000000
10000000
01000000
,
00200000
00000000
00000000
00000000
00000000
02000000
00000000
03300000
,
11000000
00000000
10000000
00010000
00000000
10000000
01000000
00000000
01000000
00000000
00000000
10000000
00000000
00000000
10000000
00000000
,
00100000
00000000
01000000
00001000
00000000
00010000
00001000
00000000
00010000
00000000
00000000
00001000
00000000
00000000
00001000
00000000
,
00000010
00000000
00000100
00000010
00000000
00000001
00001000
00000000
00000010
00000000
00000000
00000100
00000000
00000000
00000100
00000000
,
00000001
00000000
00000010
00001000
00000000
00010000
00001000
00000000
00010000
00000000
00000000
01000000
10000000
00000000
00100000
00000000
,
10000000
00000000
01000000
00100000
00000000
01000000
10000000
01000000
10000000
00000000
00000000
00100000
00000000
00000000
01000000
00000000
,
00010000
00000000
00100000
00001000
00000000
00010000
00001000
00010000
00001000
00000000
00000000
00010000
00000000
00000000
00000100
00000000
,
00001000
00000000
00000010
00000100
00000000
00000001
00001000
00000001
00001000
00000000
00000000
00000001
00000000
00000000
00000010
00000000
,
00001000
00000000
00000000
00010000
01000000
00000000
00100000
00000000
00100000
00000000
00010000
00000000
10000000
00010000
10000000
00010000
,
10000000
00200000
00000000
10300000
01000000
20000000
00000000
30100000
00020000
00000000
00031000
00020000
00000000
00031000
00000020
00000000
,
00000130
00000020
00000000
00000031
00001000
00000002
00000000
00000203
00000000
00002300
00000000
00023000
00000000
00130000
02000000
00000000
,
03010000
00200000
00000000
01300000
10000000
00020000
00000000
10030000
00200000
00000000
00310000
00002000
00000000
00003100
00000020
00000000
,
00001030
00000200
00000000
00000310
00000001
00000200
00000000
00001300
00010000
00100000
00100000
01000000
01000000
01020000
00000000
00000000
,
20000000
00000000
00000000
00000000
00000000
30030000
10000000
01000000
,
00100000
00000000
01000000
00000000
10000000
00000000
00100000
00000000
01000000
00000000
00000000
00100000
10000000
00000000
00010000
00000000
,
00001000
00000000
00000000
00000000
00000001
00000000
00000010
00000000
00000100
00000000
00000000
00000010
00000001
00000000
00000100
00000000
,
00000010
00000000
00000100
00000000
00000001
00000000
00000010
00000000
00000100
00000000
00000000
00000010
00000001
00000000
00001000
00000000
,
00010000
00000000
00000000
00000000
10000000
00000000
00100000
00000000
01000000
00000000
00100000
01000000
00100000
00000000
00000000
00000000
,
10000000
00000000
00010000
00000000
00001000
00000001
00001000
00000000
,
00000001
00000000
00001000
00000000
00010000
10000000
00010000
00000000
,
10000000
00000000
10010000
00000000
10000000
00010000
00001000
00000001
,
00000001
00000000
00000001
00000000
00001000
00000000
00001000
00000000
00010000
10000000
00010000
10000000
00010000
01000000
00000000
00010000
,
10000000
00000000
00000000
00000000
01000000
00000000
00100000
00000000
00110000
00000000
00000000
00010000
10000000
00000000
00100000
00000000
,
00010000
00000000
00100000
00000000
01000000
00000000
00010000
00000000
10010000
00000000
00000000
00010000
10000000
00000000
01000000
00000000
,
01010000
00000000
00000000
00000000
00010000
00000000
00001000
00000000
00011000
00000000
00000000
00010000
00001000
00000000
00000100
00000000
,
00000010
00000000
00000100
00000000
00000001
00000000
00001000
00000000
00001001
00000000
00000000
00000001
00000010
00000000
00000001
00000000
,
00000101
00000000
00000000
00000000
00000100
00000000
00001000
00000000
00011000
00000000
00000000
00010000
00100000
00000000
01000000
00000000
,
01010000
00000000
00000000
00000000
10000000
00000000
01000000
00000000
01010000
00000000
00000000
00010000
00001000
00000000
00010000
00000000
,
00001000
00000000
00000010
00000000
00000100
00000000
00000010
00000000
00000001
00000000
00000100
00000010
00000100
00000000
00000100
00000000
,
00001000
00000000
00001000
00000000
00010000
00000000
00010000
00000000
00001000
00010000
00001000
00010000
00002000
00000000
00000000
00000000
,
00000000
00000000
00000000
00020000
00000000
00033000
00011000
00000000
,
00001001
00000000
00000000
00000000
00011000
00000000
00000000
00000000
10010000
00000000
00000000
10000000
01000000
00000000
10000000
00000000
,
00100000
01000000
00000000
00010000
00100000
00000000
00100000
00000000
00001000
00000000
00001000
00000000
00011000
00000000
00000000
00000000
,
10010000
00000000
00000000
00000000
00011000
00000000
00000000
00000000
00001001
00000000
00000000
00000001
00000100
00000000
00000001
00000000
,
00000010
00000100
00000000
00001000
00000100
00000000
00010000
00001000
00010000
00000000
00001000
00000000
00010000
00000000
01000000
00000000
,
00100000
01000000
00000000
00100000
00010000
00000000
10000000
00000000
10100000
00000000
00000000
00100000
01000000
00000000
00010000
00000000
,
10000000
00100000
00000000
00010000
00001000
00000000
00001000
00000000
00010000
00000000
00010000
00000000
00001000
00000000
00000100
00000001
,
00001000
00000000
00000001
00000010
00000100
00000000
00010000
00001000
00010000
00000000
00001000
01000000
00200000
00000000
00000000
00000000
,
00010000
00000000
00000000
00000000
01000000
00000000
00000000
00000000
10300000
00000000
00010000
10000000
00010000
00000000
00000000
10000000
,
01000000
00000000
00100000
00000000
01000000
00000000
00010000
00000000
00001000
00000000
00010000
00001000
00010000
00000000
00001000
00000000
,
00000100
00000000
00000010
00000000
00000100
00000000
00000001
00000000
00001000
00000000
00000001
00000010
00000001
00000000
00000010
00000000
,
00000100
00000000
00000010
00000000
00001000
00000000
00010000
00000000
00001000
00000000
00010000
00100000
01000000
00000000
01000000
00000000
,
00010000
00000000
10000000
01000000
00100000
00000000
00100000
00000000
00001000
00010000
00001000
00010000
00001000
00000000
00010000
00000000
,
00100000
00000000
02000000
00000000
00000000
00000000
03100000
00000000
10000000
00000000
00000000
01000000
00010000
00000000
00001000
00000000
,
00000010
00000000
00000200
00000000
00000000
00000000
00000310
00000000
00000001
00000100
00000000
00001000
00010000
00000000
00001000
00000000
,
00000100
00000000
00000002
00000000
00000000
00000000
00001003
00000000
00000100
00000000
00000010
00000001
00001000
00000000
00001000
00000000
,
00000010
00000010
00010000
00010000
00100000
00100000
02200000
00000000
,
00000000
00000000
00000000
00000000
,
00000000
00000000
00000000
00000000
,
00000000
00000000
00000000
03300000
;

//---------------dance-double - t7r----------------
#NOTES:
     dance-double:
     t7r:
     Challenge:
     18:
     :
00000000
00000000
00000000
00000000
,
00000000
00000000
00000000
00000000
,
00000000
00000000
00000000
00000000
,
00000000
00000000
00000000
00000000
,
00000000
00000000
00000000
00000000
,
00010000
00000000
00000200
00000000
00000310
00000000
00000200
00000000
00001300
00000000
00000001
00000000
00000100
00000000
00001000
00010000
,
00002000
00000000
02003000
00000000
03100000
00000000
02000000
00000000
03010000
00000000
10000000
00000000
01000000
00100000
00001000
00010000
,
00001000
00000000
00200000
00000000
01300000
00000000
00200000
00000000
00310000
00000000
10000000
00000000
00100000
00000000
00010000
00001000
,
00010000
00000000
00010000
00000000
00000100
00000000
00000100
00000000
00001100
00000000
00001100
00000000
00001000
00000010
00001000
00000001
,
00000010
00000100
00001000
00000100
00000010
00000000
00000001
00001000
00000001
00000000
00000100
00000000
00010000
00000000
01000000
01000000
,
20000000
00000000
01000000
00000000
30010000
00000000
10000000
00010000
01000000
00000000
00010000
00000000
00100000
00001000
00010000
00010000
,
10000000
00000000
00100000
00000000
00010000
00000000
00001000
00000000
00000010
00000000
00000001
00000000
00000100
00000000
00001000
00001000
,
00000002
00000000
00000013
00000000
00001000
00000000
00010000
00000000
00100000
00000000
10000000
00000000
00010000
10000000
01000000
01000000
,
00010000
00000000
10000000
00000000
01000000
00000000
00001000
00000000
00000100
00000000
00001000
00000000
00000001
00000000
00000100
00000100
,
00002000
00000000
00013000
00000000
00100000
00000000
00001000
00000000
00010000
00000000
01000000
00000000
10000000
00100000
00100000
00010000
,
10000000
00000000
01000000
00000000
00010000
00000000
00001000
00000000
00000100
00000000
00000001
00000000
00000010
00000000
00001000
00001000
,
00000001
00000000
00000100
00000010
00001000
00000000
00010000
00100000
01000000
00000000
10000000
00000000
00010000
01000000
00010000
10000000
,
00010000
00100000
01000000
00100000
00010000
00000000
10000000
00000000
00100000
00000000
00010000
00000000
00011000
00000000
00001000
00001000
,
00000001
00000000
00000010
00000100
00001000
00000000
00000001
00000000
00000100
00000000
00001000
00000000
00011000
00000000
00010000
00010000
,
10000000
00000000
00100000
00000000
00010000
00000000
00001000
00000000
01000000
00000000
00001000
00000000
00011000
00000000
00001000
00001000
,
00000001
00000000
00000100
00000000
00001000
00000000
00010000
00000000
00000100
00000000
00010000
00000000
00001000
00010000
00010000
00001000
,
00000010
00000000
00001000
00000100
00010000
00000000
00001000
01000000
00010000
00000000
10000000
00000000
00010000
10000000
01000000
01000000
,
00010000
00000000
10000000
00100000
01000000
00000000
00010000
01000000
00001000
00000000
00010000
00000000
00000100
00001000
00000010
00000010
,
00000001
00000000
00000100
00000010
00001000
00000000
00000100
00010000
00001000
00000000
01000000
00010000
10000000
00000000
01000000
01000000
,
00010000
00000000
00110000
00000000
00100000
00000000
00101000
00000000
00001000
00000000
00011000
00000000
00010000
00000100
00001000
00001000
,
00020000
00000000
00000000
00000000
00000000
00000000
00000000
00030000
,
00011000
00000000
00001000
01000000
00000000
00100000
10000000
00010000
10000000
00000000
01000000
00100000
00000000
00001000
00010000
00000000
,
00011000
00000000
00010000
00000100
00000000
00000010
00000001
00001000
00000001
00000000
00000100
00000010
00000000
00010000
00001000
00000000
,
00011000
00000000
00001000
00100000
00000000
01000000
10000000
00010000
10000000
00000000
00100000
01000000
00000000
00001000
00010000
00000000
,
00011000
00000000
00010000
00000010
00000000
00000100
00000001
00001000
00000001
00000000
00000010
00000100
00000000
00010000
00001000
00010000
,
00001000
01000000
00100000
01000000
00000000
10000000
01000000
00010000
10000000
00000000
01000000
00010000
00000000
00001000
00010000
00001000
,
00010000
00000100
00000010
00000100
00000000
00000001
00000100
00001000
00000001
00000000
00000100
00001000
00000000
00010000
00001000
00010000
,
00001000
00100000
01000000
00100000
00000000
10000000
00100000
00010000
10000000
00000000
00100000
00010000
00000000
00001000
00010000
00001000
,
00010000
00000010
00000100
00000010
00000000
00000001
00000010
00001000
00000001
00000000
00000010
00000000
00001000
00010000
00001000
00010000
,
00001000
00000000
00000200
00000000
00000001
00000000
00000310
00001000
00000001
00000000
00000020
00000000
00001000
00000000
00000130
00010000
00001000
00000000
00010000
00000000
01000000
00000000
20000000
00000000
00100000
00000000
30020000
00000000
02030000
00000000
00000000
00000000
,
03010000
00000000
00200000
00000000
01000000
00000000
00310000
10000000
01000000
00000000
20000000
00000000
30100000
00000000
00020000
00000000
00031000
00000000
00000200
00000000
00000301
00000000
00002000
00000000
00003100
00000000
00020000
00000000
00031000
00000000
00010000
00001000
,
00010000
00000000
02000000
00000000
10000000
00000000
03100000
00010000
10000000
00000000
00200000
00000000
00010000
00000000
01300000
00001000
00010000
00000000
00001000
00000000
00000100
00000000
00000002
00000000
00000010
00000000
00002003
00000000
00003200
00000000
00000000
00000000
,
00001300
00000000
00000020
00000000
00000100
00000000
00001030
00000001
00000100
00000000
00000002
00000000
00000013
00000000
00002000
00000000
00013000
00000000
01000000
00000000
01000000
00000000
00100000
00000000
00001000
00000000
00021000
00000000
00000000
00000000
00000000
00000000
,
00000200
00000000
00000000
00000000
00000000
00030300
00010000
00000200
,
00000310
00000000
00000200
00000000
00000301
00000000
00000100
00000000
00010000
00000000
00001000
00001000
00000002
00000000
00000203
00000000
,
00001300
00000000
00020000
00000000
01030000
00000000
20000000
00000000
30010000
10000000
00100000
00100000
00010000
00000000
20000000
00000000
,
30100000
00000000
02000000
00000000
03100000
00000000
00020000
00000000
00031000
00000000
00010000
00010000
02000000
00000000
03200000
00000000
,
10300000
00000000
02000000
00000000
03010000
00000000
00002000
00000000
00003100
00000001
00000010
00000010
00001000
00000000
00000200
00000000
,
00000310
00000000
00000200
00000000
00000301
00000000
00000100
00000000
00010000
00000000
00001000
00001000
00000002
00000000
00000203
00000000
,
00001300
00000000
00020000
00000000
01030000
00000000
20000000
00000000
30010000
10000000
00100000
00100000
00010000
00000000
20000000
00000000
,
30100000
00000000
02000000
00000000
03100000
00000000
00020000
00000000
00031000
00000000
00010000
00010000
01000000
00000000
01000000
00000000
,
01001000
00000000
01001000
00000000
00011000
00000000
00011000
00000000
00010000
00001000
00001000
00000100
00010000
00001000
00010000
01000000
,
10000000
00000000
01000000
00010000
00001000
00000000
01000000
00010000
10000000
00100000
01000000
00010000
20000000
00000000
30100000
00010000
,
00001000
00000000
00000100
00000001
00001000
00000000
00000100
00000001
00000100
00001000
00000001
00000100
00002000
00000000
00013000
00001000
,
00000010
00000000
00001000
00010000
00001000
00000000
00010000
00100000
10000000
00000000
00100000
00010000
00002000
00000000
00003010
00000001
,
00001000
00000000
00000001
00000010
00001000
00000000
00010000
00001000
00010000
00000100
00001000
00001000
00010000
00000000
00001000
00010000
,
00100000
00000000
10000000
00010000
00100000
00000000
10000000
00100000
00010000
00100000
00001000
00001000
00000020
00000000
00001030
00000001
,
00000010
00000000
00000001
00001000
00000010
00000000
00000001
00000010
00001000
00000010
00010000
00010000
00200000
00000000
00310000
10000000
,
01000000
00000000
00010000
00001000
00010000
00000000
00001000
00000100
00000010
00000000
00000100
00000001
00001000
00000100
00001000
00000100
,
00010000
00001000
00010000
00001000
01000000
00010000
01000000
00010000
10000000
01000000
00100000
00001000
00020000
00000000
00000000
00000000
,
00000000
00000000
00000000
00000000
00000000
00000000
00032000
00000000
00000000
00000000
00000000
00013000
00011000
00000000
00001000
01000000
,
00010000
10000000
00000000
01000000
00100000
00000000
00010000
00100000
00001000
00010000
00000000
00001000
00001000
00000000
00000001
00000100
,
00000010
00001000
00000000
00000001
00000010
00000000
00000100
00000000
00001100
00000000
00001100
00000000
00010100
00000000
00010000
00000100
,
00001000
00000001
00000000
00000100
00000010
00000000
00001000
00000010
00010000
00001000
00000000
00010000
00010000
00000000
10000000
01000000
,
00100000
00010000
00000000
10000000
00100000
00000000
01000000
01000000
10000000
00000000
11000000
00000000
10010000
00000000
10000000
01000000
,
00010000
00001000
00000000
01000000
00100000
00000000
00010000
00001000
00010000
00000100
00000000
00001000
00001000
00000000
00010000
00000100
,
00001000
00000001
00000000
00000010
00001000
00000000
00011000
00000000
01001000
00000000
01010000
00000000
00010000
00100000
01000000
10000000
,
01000000
01000000
00010000
00000000
00001000
00000010
00000100
00000001
00000100
00000100
00001000
00000100
00010000
00001000
00010000
00001000
,
00010000
00001000
00010000
00001000
00010000
00001000
01000000
00010000
10000000
00010000
01000000
01000000
10000000
00000000
01000000
00010000
,
00001000
00000000
00010000
01000000
10000000
00000000
01000000
00010000
00001000
00000000
00010000
00001000
00001000
00000000
00000001
00000100
,
00001000
00000000
00000100
00000001
00001000
00000000
00000001
00000000
00000100
00000001
00001000
00001000
00010000
00000000
00001000
00010000
,
01000000
00000000
00010000
01000000
10000000
00000000
01000000
00010000
00001000
00000000
00000100
00000001
00001000
00000000
00000001
00000010
,
00000100
00000000
00001000
00000000
00010000
00000000
01000000
00100000
10000000
00010000
00100000
00001000
00010000
00000000
00001000
00000000
,
00000200
00000000
00000301
00000000
00000000
00000000
00000010
00000000
00002000
00000000
00013000
00001000
00010000
00000000
01000000
00000000
,
20000000
00000000
30100000
00000000
00000000
00000000
00010000
00000000
00001000
00010000
00000100
00000100
00000001
00000000
00000010
00000000
,
00002000
00000000
00013000
00000000
00000000
00000000
00001000
00000000
00020000
00000000
01030000
00100000
00010000
00000000
00010000
00000000
,
00100000
00100000
00101000
00011000
00010010
00000110
00002002
00000000
,
00000000
00000000
00000000
00000000
,
00000000
00000000
00000000
00000000
,
00000000
00000000
00000000
00003003
;
