#TITLE:Fuego;
#ARTIST:BEMANI Sound Team "Yvya";
#ARTISTTRANSLIT:Yvya;
#BANNER:Fuego.png;
#BACKGROUND:Fuego-bg.png;
#JACKET:Fuego-jacket.png;
#CDTITLE:./CDTITLES/NOSTALGIA.PNG;
#MUSIC:Fuego.ogg;
#SAMPLESTART:1.481;
#SAMPLELENGTH:15;
#BPMS:0=162,204=160,206=156,207=154,208=152,232=158,236=160,240=162,256=156,265=158,268=162;
#BGCHANGES:0=../../../BGAs/tm0027.mp4=1=0=0=1=====;

//---------------dance-single - t7r----------------
#NOTES:
     dance-single:
     :
     Beginner:
     4:
     :
0000
0000
0000
0000
,
0000
0000
0000
0000
,
0000
0000
0000
0000
,
0000
0000
0000
0000
,
0000
0000
0000
0000
,
0000
0000
0000
0000
,
0000
0000
0000
0000
,
0000
0000
0000
0000
,
0000
0000
0000
0000
,
0001
0000
0001
0000
,
0001
0000
0000
0000
,
0100
0000
0100
0000
,
0100
0000
0000
0000
,
0010
0000
0010
0000
,
0010
0000
0000
0000
,
1000
0000
1000
0000
,
1000
0000
0000
0000
,
1001
0000
0000
0000
,
0100
0000
0000
0000
,
0100
0000
0000
0000
,
0010
0000
0000
0000
,
0010
0000
0000
0000
,
1000
0000
0000
0000
,
1000
0000
0000
0000
,
0001
0000
0000
0000
,
0001
0000
0000
0000
,
0100
0000
0000
0000
,
0000
0100
0000
0000
,
0000
0000
0010
0000
,
0000
0000
0000
0010
,
0000
0000
0000
0000
,
1000
0000
0000
0000
,
0000
0001
0000
0000
,
0000
0000
0010
0000
,
0000
0000
0100
0000
,
0000
0000
0000
0001
,
0001
0000
0000
0000
,
1000
0000
0000
0000
,
0010
0000
0000
0000
,
0100
0000
0000
0000
,
0010
0010
0010
0000
,
1000
1000
1000
0000
,
0001
0000
0001
0000
,
0100
0100
0000
0000
,
0001
0000
0000
0000
,
0001
0000
0000
0000
,
0010
0000
0000
0000
,
0010
0000
0000
0000
,
1000
0000
0000
0000
,
1000
0000
0000
0000
,
0100
0000
0100
0000
,
0010
0010
0000
0000
,
1001
0000
0000
0000
,
0000
0000
0000
0000
,
0010
0000
0000
0000
,
0100
0000
0000
0000
,
0001
0000
0000
0000
,
0000
0000
0000
0000
,
1000
0000
0000
0000
,
0100
0000
0000
0000
,
0010
0000
0010
0000
,
0010
0000
0000
0000
,
1000
0000
1000
0000
,
1000
0000
0000
0000
,
0001
0000
0000
0100
,
0000
0000
0010
0000
,
0000
1000
0000
0000
,
0100
0000
0100
0000
,
0100
0000
0000
0000
,
0010
0000
0010
0000
,
0010
0000
0000
0000
,
1000
0000
1000
0000
,
1000
1000
1000
0000
,
0001
0000
0001
0000
,
0001
0001
0001
0000
,
0100
0000
0100
0000
,
0100
0100
0100
0000
,
0010
0000
0000
0000
,
0000
0000
0010
0000
,
1001
0000
0000
0000
;

//---------------dance-single - t7r----------------
#NOTES:
     dance-single:
     :
     Easy:
     8:
     :
0000
0000
0000
0000
,
0000
0000
0000
0000
,
0000
0000
0000
0000
,
0000
0000
0000
0000
,
0000
0000
0000
0000
,
0000
0000
0000
0000
,
0000
0000
0000
0000
,
0000
0000
0000
0000
,
0000
0000
0000
0000
,
0100
0100
0001
0001
,
1000
0010
0200
0300
,
0010
0010
1000
1000
,
0001
0001
0020
0030
,
0001
0100
1000
0100
,
0001
0000
0000
0000
0100
0000
0000
0000
0001
0000
0000
0002
0000
0000
0000
0000
,
1003
0100
0001
0100
,
1000
0000
0000
0000
0100
0000
0000
0000
1000
0000
0000
2000
0000
0000
0000
0000
,
3001
2002
0000
3003
,
0010
0000
0010
0000
,
1000
0000
1000
0000
,
0001
0000
0001
0000
,
2000
0000
0000
3010
,
1000
0000
1000
0000
,
0100
0000
0100
0000
,
0010
0000
0010
0000
,
0001
0000
1000
0001
,
1001
0000
0000
0010
0000
1001
0000
0000
,
0100
0000
0120
0000
0000
1030
0000
0000
,
0001
0000
0010
0000
0001
0000
0000
0110
,
0000
0000
1000
0000
0100
0000
0010
0010
,
0000
0010
0000
0001
1000
0000
0110
0000
,
2001
0000
0000
3100
0000
0000
0010
0000
,
0001
0200
0310
1000
,
0001
0010
0002
1003
,
1000
0000
0100
0000
0001
0000
0100
0100
,
0000
0100
0000
0000
0010
0000
1001
0000
,
0210
0000
0301
0000
,
0020
0000
0130
0000
,
2000
0000
3010
0000
,
0200
0000
0301
0000
,
0010
0000
0000
0000
0010
0000
0000
0000
0001
0000
0000
0001
0000
0000
0000
0000
,
1000
0000
0000
0000
1000
0000
0000
0000
0010
0000
0000
0010
0000
0000
0000
0000
,
0100
0000
0000
0000
0100
0000
0000
0000
0001
0000
0000
1000
0000
0000
0000
0000
,
1001
2002
0000
3003
,
1000
0100
0001
0100
,
1000
0100
0010
0001
,
1000
0100
0001
0100
,
1000
0010
0100
0110
,
0001
0100
1000
0100
,
0001
0010
0100
1000
,
0001
0010
1000
0010
,
0001
2002
0000
3003
,
0020
0000
0000
0000
,
0030
0000
0000
0000
,
2000
0000
0000
0000
,
3001
1000
0010
0100
,
0002
0000
0000
0003
,
0000
0000
1000
0001
,
0020
0000
0000
0130
0000
0000
0110
0000
,
0001
0100
0010
1000
,
0002
0000
1003
0100
,
0001
0100
0010
0001
,
2000
0000
0000
3020
0000
0000
0032
0000
,
0000
0013
0100
0001
,
1000
0100
1100
0001
,
0100
0101
1000
0010
,
1010
0001
0010
0011
,
0001
1000
0010
0010
,
1000
0001
0020
0031
,
1000
0100
0001
0010
,
2002
0000
0000
3003
,
0020
0000
0000
0000
,
1000
1030
2000
0000
,
3002
0000
0000
0000
,
0010
0013
0200
0000
,
0310
0001
0100
1000
,
0100
0000
0000
0000
0001
0000
0000
0000
0100
0000
0000
0110
0000
0000
0000
0000
,
1001
0000
0000
0000
0000
1100
0000
0000
0000
0000
1001
0000
0000
0000
0000
0101
,
0000
0000
0000
0000
1001
0000
0000
0000
0010
0000
0000
0200
0000
0000
0000
0000
,
0301
0000
1000
0000
0001
0000
1000
0000
0000
0000
0000
0000
;

//---------------dance-single - t7r----------------
#NOTES:
     dance-single:
     :
     Medium:
     14:
     :
0000
0000
0000
0000
,
0000
0000
0000
0000
,
0000
0000
0000
0000
,
0000
0000
0000
0000
,
0000
0000
0000
0000
,
0000
0000
0000
0000
,
0000
0000
0000
0000
,
0000
0000
0000
0000
,
0000
0000
0000
0000
,
0010
0000
0000
1000
0100
0000
0000
0000
0010
0000
0000
0001
0100
0000
0000
0000
,
0002
0000
0000
0023
0000
0000
1030
0000
0020
0000
0000
0000
0000
0000
0000
0000
,
0031
0000
0000
0100
0010
0000
0000
0000
1000
0000
0000
0100
0010
0000
0000
0000
,
0001
0000
1001
0000
0000
0110
0000
0000
1001
0000
0000
0001
0100
0000
0001
0000
,
1000
0100
0001
0100
1000
0100
0010
1000
,
0010
0000
0001
0000
0100
0000
0010
0000
0100
0000
0000
2001
0000
0000
0000
0000
,
3001
0100
1000
0100
0001
0100
0010
0001
,
0010
0000
1000
0000
0100
0000
0010
0000
0100
0000
0000
0012
0000
0000
0000
0000
,
1003
0000
0000
0000
0001
0000
0000
0000
1000
0000
0000
0000
0001
0000
0000
0000
0000
0000
0000
0000
0000
0000
0000
0000
0100
0000
0000
0000
0000
0000
0000
0000
0000
0100
0000
0000
0010
0000
0000
0000
0000
0000
0000
0000
0000
0000
0000
0000
,
1000
0000
0000
1010
0000
0000
0001
0000
1000
0000
0200
0000
0000
0000
1300
0000
,
0001
0000
0000
0011
0000
0000
1000
0000
0010
0000
0000
0010
0100
0000
0001
0000
,
1000
0000
0000
1010
0000
0000
0001
0000
0010
0000
0000
0200
0000
0000
0310
0000
,
0001
0100
1000
0010
,
1001
0000
0000
1001
0000
0000
0100
0000
0001
0000
0020
0000
0000
0000
0031
0000
,
0100
0000
0000
0100
0010
0000
1000
0000
0100
0000
0000
0002
0000
0000
0103
0000
,
0010
0000
0000
0011
0000
0000
0001
0000
0100
0000
0000
2000
0000
0000
3100
0000
,
0110
0000
0000
0110
0000
0000
0001
0000
2000
0000
0000
0000
3002
0000
0000
0000
,
1003
0100
0001
1000
0100
0010
0100
0001
,
1000
0001
0020
0000
0031
0100
0010
1000
,
0001
0000
0000
0000
0010
0000
0100
0000
0000
0000
1000
0000
0002
0000
0000
0000
0000
0000
0103
0000
0000
1000
0000
0000
,
0100
0001
0100
0010
0100
0001
0010
0010
,
0000
1001
0000
0100
0010
1000
0001
0000
,
2010
0000
0000
3002
0000
0000
0013
1000
,
0010
0000
0000
0100
0000
0000
2000
0000
0000
0000
0000
0000
3001
0000
0100
0000
0001
0000
1000
0000
0000
0000
0100
0000
,
1000
0000
0000
0000
0100
0000
0010
0000
0000
0001
0000
0000
2000
0000
0000
0000
0000
0000
3010
0000
0000
0001
0000
0000
,
0010
0100
0010
1000
0010
0100
0001
0001
,
0000
0000
0000
0110
0000
0000
0000
0000
0000
1000
0000
0000
0001
0000
1000
0000
0100
0000
0010
0000
0000
0000
0000
0000
,
1100
0000
0000
0100
0001
0000
0000
0000
1100
0000
0000
0000
0000
0000
0000
0000
,
0101
0000
0000
0100
1000
0000
0000
0000
0100
0000
0000
0110
0000
0000
0010
0000
,
2000
0000
0000
3200
0000
0000
0310
0000
2000
0000
0000
3020
0000
0000
0031
0000
,
2000
0000
0000
0000
0000
0000
0000
0000
3001
0000
0000
0100
0010
0000
0000
0000
,
1000
0000
0100
1000
0100
0000
1000
0100
1000
0001
1000
0001
0000
0000
1000
0000
,
0001
0000
0100
0001
0100
0000
0001
0100
0001
0010
0001
0010
0000
0001
0000
0001
,
1000
0000
0010
0100
0000
0010
0000
1000
0000
1000
0000
0001
0010
0000
0100
0000
,
0010
0000
2001
0000
3010
1000
0001
0000
,
1000
0000
0100
0000
0010
0000
0000
0100
1000
0000
0001
0000
0100
0001
0000
1000
,
0001
0000
0100
0000
0010
0000
0000
0100
0001
0000
1000
0000
0001
0010
0000
0100
,
0010
0000
0001
0000
0100
0000
0000
0010
1000
0000
0010
0000
0100
0001
0000
1000
,
0100
0000
0010
0000
0001
0100
0000
1000
0100
0000
0010
0000
1000
0000
1000
0000
,
0001
0000
0100
0000
1000
0000
0000
0001
0010
0000
1000
0000
0001
0010
0000
0001
,
2000
3200
0302
2003
,
3010
0001
0100
1000
0100
0001
1000
0010
,
1000
0000
0000
0000
0001
0000
0000
0000
1000
0000
0000
0000
0001
0000
0000
0000
0000
0000
0000
0000
0000
0000
0000
0000
0100
0000
0000
0000
0000
0000
0000
0000
0000
0110
0000
0000
0000
0000
0000
0000
0000
0000
0001
0000
0000
0000
0000
0000
,
2000
0000
0000
0000
,
3000
0000
0000
0000
,
0200
0000
0000
0000
,
0310
0001
1000
0001
0000
0000
0100
0000
0010
0000
0110
0000
,
0102
0000
0000
0023
0000
0000
2030
0000
,
0000
0000
0000
3020
0000
0000
0000
0000
0000
0000
0000
0000
0031
0000
0100
0000
0001
0000
1000
0000
0000
0000
0000
0000
,
1200
0000
0000
0000
0301
0000
0200
0000
0000
0000
0310
0000
0000
0110
0000
0000
,
1001
0001
0100
0000
0010
1000
0001
0000
,
2000
0000
0000
3001
0100
1000
0100
0010
,
0001
0010
0100
0001
0010
0100
1000
0100
,
0020
0000
0000
2030
0000
0000
3020
0000
0000
0032
0000
0000
2003
0000
0000
0000
,
3001
0000
0100
0000
0110
0000
0000
0000
1010
0000
0000
1000
0000
1000
0000
1000
,
0001
0000
0000
0001
0010
0000
0000
0010
0001
0000
0100
0000
0110
0000
0000
0010
,
1000
0000
0000
1000
0100
0000
0010
0000
0110
0000
0000
0010
0001
0000
0000
0001
,
1000
0000
0000
0010
0000
0000
1000
0000
0000
0000
1000
0000
0001
0000
0100
0000
0001
0000
1000
0000
0100
0000
1000
0000
,
0001
0000
0100
0000
1000
0000
0100
0010
0100
0000
0000
0010
0000
0000
0010
0000
,
1000
0000
0000
1000
0100
0000
0020
0000
0000
0000
0031
0000
1000
0000
0000
0000
,
0001
0000
1000
0010
1000
0000
0001
0010
0001
0000
1000
0100
1000
0000
0001
1000
,
0002
0000
0000
0103
,
0110
0000
0000
0010
1000
0000
0100
0000
0010
0000
0000
0010
0100
0000
1000
0000
,
0002
0000
0000
0203
0000
0000
1300
0000
0200
0000
0000
0000
0000
0000
0000
0000
,
0310
0000
0000
0010
1000
0000
0001
0000
0010
0000
0000
0010
0001
0000
1000
0000
,
0100
0000
0110
0000
0000
1001
0000
0000
0220
0000
0000
0000
0330
0000
0000
0000
,
0010
0000
1000
0001
1000
0000
0000
0000
0010
0000
1000
0001
1000
0000
0000
0000
,
0010
0000
1000
0100
1000
0000
0100
0000
0010
0000
0001
0200
0000
0000
0000
0000
,
0301
0000
0000
0000
0000
1100
0000
0000
0000
0000
0101
0000
0000
0000
0000
0110
,
0000
0000
0000
0000
1001
0000
0000
0000
0010
0000
0100
0020
0000
0000
0000
0000
,
0130
0000
1001
0000
0001
0010
0100
1000
0000
0000
0000
0000
;

//---------------dance-single - t7r----------------
#NOTES:
     dance-single:
     :
     Hard:
     16:
     :
0000
0000
0000
0000
,
0000
0000
0000
0000
,
0000
0000
0000
0000
,
0000
0000
0000
0000
,
0000
0000
0000
0000
,
0000
0000
0000
0000
,
0000
0000
0000
0000
,
0000
0000
0000
0000
,
0000
0000
0000
0000
,
0010
0000
0100
0001
0100
0001
0100
0000
0010
0000
1000
0100
1000
0100
1000
0000
,
0002
0000
0000
0023
0000
0000
1030
0000
0020
0000
0000
0000
0000
0000
0000
0000
,
0031
0000
0100
0001
0100
0001
0100
0000
0010
0000
1000
0001
1000
0001
1000
0000
,
0001
0000
1001
0000
0000
0110
0000
0000
1010
0000
0000
1000
0100
0000
1000
0001
,
1000
0000
0100
0001
0100
0000
1000
0000
0001
0000
0100
1000
0100
0000
0001
0000
,
1000
0000
0010
0100
0010
0000
0100
0000
0001
0000
0010
0200
0000
0000
0000
0000
,
1300
0000
0010
0001
0010
0000
1000
0000
0001
0000
0010
1000
0010
0000
0001
0000
,
1000
0000
0010
0100
0010
0000
0100
0000
0001
0000
1000
0200
0000
0000
0310
0000
,
0001
0000
0000
0000
1000
0000
0000
0000
0001
0000
0000
0000
1000
0000
0000
0000
0000
0000
0000
0000
0000
0000
0000
0000
0010
0000
0000
0000
0000
0000
0000
0000
0000
0010
0000
0000
0100
0000
0000
0000
0000
0000
0000
0000
0000
0000
0000
0000
,
1010
0000
0000
1010
0000
0000
1000
0100
1000
0000
0001
0100
0000
0100
0001
0000
,
0010
0000
0001
0000
0100
0001
0000
0100
0010
0000
0100
1000
0000
0100
0010
0000
,
0110
0000
0000
0110
0000
0000
1000
0010
1000
0000
0001
0010
0000
0010
0001
0000
,
1000
0100
0001
0010
,
1001
0000
0000
1001
0000
0000
0001
0100
0001
0000
1000
0100
0000
0100
0010
0000
,
0001
0000
1000
0000
0010
0001
0000
0010
0100
0000
0010
1000
0000
0001
1000
0000
,
1100
0000
0000
1100
0000
0000
1000
0010
1000
0000
0001
0000
0010
0001
0100
0000
,
0110
0000
0000
0110
0000
0000
1000
0001
0100
0000
0001
1000
0001
1000
0001
0000
,
1000
0000
0100
0000
0010
0000
1000
0010
1000
0000
0010
0000
0001
0000
0100
0000
,
0010
0000
0100
0000
0002
0000
0000
0000
1003
0100
0010
0000
0001
0000
0100
0000
,
0010
0000
0000
0000
0100
0000
0000
0000
0010
0000
0000
0000
1000
0000
0000
0000
0100
0000
0000
0000
0010
0000
0000
0000
0002
0000
0000
0000
0000
0000
0000
0000
0000
0000
0000
0000
1003
0000
0000
0010
0000
0000
0001
0000
0000
0000
0000
0000
,
0010
0000
1000
0001
1000
0000
0001
0000
0010
0000
0100
0000
0010
0000
0011
0000
,
0000
0000
1001
0000
0000
0000
1000
0000
0010
0000
0100
0000
0110
0000
0010
0100
,
0002
0000
0000
0000
0000
0000
0023
0000
0000
0000
1030
0000
0001
0100
1000
0000
,
0001
0000
0000
0100
0000
0000
0010
0000
0000
0100
0000
0000
0002
0000
0000
0000
0000
0000
0000
0000
0000
0000
0000
0000
1003
0000
0000
0000
0100
0000
0000
0000
0001
0000
0000
0000
1000
0000
0000
0000
0010
0000
0000
0000
0100
0000
0000
0000
,
0001
0000
0000
0000
0100
0000
0000
0000
0010
0000
0000
0000
0001
0000
0000
0100
0000
0000
0010
0000
0000
1000
0000
0000
0020
0000
0000
0000
0000
0000
0000
0000
0000
0000
0000
0000
0130
0000
0000
0001
0000
0000
0100
0000
0000
0000
0000
0000
,
1000
0100
1000
0000
0110
0000
0000
0000
1000
0100
0010
0001
1000
0000
1001
0000
,
0001
0000
0000
0000
0000
0000
0110
0000
0000
0000
0000
0000
0000
0000
0000
0000
0000
0000
0001
0000
0000
0010
0000
0000
0001
0000
0000
0000
0100
0000
0000
0000
1000
0000
0000
0000
0100
0000
0000
0000
0000
0000
0000
0000
0000
0000
0000
0000
,
0110
0000
0000
0100
1000
0000
0000
0000
0011
0000
0000
0010
0000
0000
0000
0000
,
0110
0000
0000
0100
0001
0000
0000
0000
1010
0000
0000
1000
0000
0000
0001
0100
,
0010
0000
0000
0010
0100
0000
0001
0000
2000
0000
0000
3200
0000
0000
0310
0000
,
0001
0000
0000
0001
1000
0000
0000
0000
0010
0000
0100
0001
1000
0000
0001
0000
,
1000
0100
1000
0100
1000
0100
1000
0100
1000
0010
1000
0010
0000
0000
1000
0000
,
0001
0010
0001
0010
0001
0010
0001
0010
0001
0100
0001
0100
0000
0010
0000
0010
,
0100
0001
0100
0001
0000
0100
0000
0010
0000
0010
0000
1000
0001
0010
0100
1000
,
0010
0100
0000
0000
0110
0000
0000
0000
0001
0000
1000
0001
0100
0000
0001
0000
,
1000
0000
0100
0000
1100
0000
0000
1000
0100
0000
1000
0000
0001
0100
0000
0000
,
0001
0000
0010
0000
0011
0000
0000
0001
0010
0000
0001
0000
1000
0010
0000
0000
,
0100
0000
0001
0000
0101
0000
0000
0001
0100
0000
0010
0000
1000
0100
0000
0100
,
0010
0000
0100
0000
1000
0100
0000
0001
0100
0000
1000
0000
0010
0000
0100
0000
,
0001
0000
0100
1000
0100
0000
0010
0000
0100
0000
0001
0000
0010
0001
0000
0001
,
1000
0000
0000
1000
0100
0000
0000
0100
0001
0000
0000
0001
0100
0000
0000
0100
,
1000
0000
0010
0001
1000
0000
0001
0000
0010
0100
0010
0100
0010
0000
1000
0000
,
0001
0000
0000
0000
0010
0000
0000
0000
0001
0000
0000
0000
1000
0000
0000
0000
0000
0000
0000
0000
0000
0000
0000
0000
1001
0000
0000
0000
0000
0000
0000
0000
0000
1010
0000
0000
0000
0000
0000
0000
0000
0000
0101
0000
0000
0000
0000
0000
,
0020
0000
0000
0000
,
0030
0000
0000
0000
,
0002
0000
0000
0000
,
1003
0010
0100
1000
0001
0010
0100
0000
1010
0000
0101
0000
,
1100
0000
0000
0000
0000
0000
0011
0000
0000
0000
1000
0001
0100
0000
0000
0000
,
0000
0000
0000
0110
0000
0000
0000
0000
0000
0000
0000
0000
0001
0000
0010
0000
0100
0000
0001
0000
1000
0000
0010
0000
,
0100
0000
1000
0001
0100
0001
1000
0000
0000
0000
0010
0000
0000
0110
0000
0001
,
1000
0000
0001
0100
1000
0000
0100
0000
0010
0000
1000
0010
0100
0001
1000
0000
,
0002
0000
0000
0000
0000
0000
1003
0100
0000
0100
0010
0000
0001
0100
0000
0100
,
0010
0000
1000
0010
0000
0010
0001
0000
0010
1000
0000
1000
0001
0000
0010
0000
,
0002
0000
0000
0203
0000
0000
2300
0000
0000
3200
0000
0000
0320
0000
0000
0000
,
1030
0000
0001
0000
1001
0000
0001
0000
1000
0000
0001
0010
0000
0110
0000
0010
,
0002
0000
0000
0000
0103
0001
0100
0001
0100
0000
0000
0000
2001
0000
0000
0000
,
3100
1000
0100
1000
0100
0000
0000
0000
0021
0000
0000
0000
0031
1000
0001
1000
,
0001
0000
0000
0001
0000
0000
0010
0000
0001
0000
0100
0000
1000
0000
0100
0000
0001
0000
1000
0000
0100
0000
0010
0000
,
0001
0000
0010
0001
0010
0000
1000
0000
0010
0000
0100
1000
0000
1000
0001
0000
,
1000
0000
0001
0100
0000
0100
0010
0000
0001
0010
1000
0001
2000
0000
0000
0000
,
3100
0000
0001
0100
1000
0000
1000
0100
0001
0000
0001
0100
0010
0000
0010
0000
,
2001
0000
0000
3010
,
1000
0000
0010
1000
0010
1000
0010
0000
0001
0000
0010
0100
0010
0100
0010
0000
,
2000
0000
0000
3200
0000
0000
0301
0000
0200
0000
0000
0000
0000
0000
0000
0000
,
0310
0000
0001
0100
0001
0100
0010
0000
1000
0000
0100
0010
0100
0010
0001
0000
,
1000
0000
1010
0000
0000
0101
0000
0000
1001
0000
1000
0100
0000
0001
0100
0000
,
1000
0000
0100
1000
0100
1000
0010
1000
0010
0000
0100
0001
0100
0001
0010
0001
,
0010
0000
0001
1000
0001
1000
0100
1000
0010
0100
0001
0020
0000
0000
0000
0000
,
0031
0000
0000
0000
1000
0010
0000
0000
0000
0000
0110
0000
0000
0000
0000
1001
,
0000
0000
0000
0000
0011
0000
0000
0000
1001
0000
0001
0100
0000
1000
0100
0000
,
0001
0010
0100
0001
1000
0010
0100
0100
0000
0000
0000
0000
;

//---------------dance-single - t7r----------------
#NOTES:
     dance-single:
     :
     Challenge:
     18:
     :
0000
0000
0000
0000
,
0000
0000
0000
0000
,
0000
0000
0000
0000
,
0000
0000
0000
0000
,
0000
0000
0000
0000
,
1001
0000
0001
0100
0001
0010
0100
1000
0100
0010
0001
1000
0001
0100
0010
1000
,
0001
0000
1000
0001
1000
0100
0010
0001
1000
0001
1000
0010
0100
0001
1000
0100
,
1000
0000
0001
0100
0010
1000
0001
0010
0100
1000
0100
0010
0001
0100
0010
1000
,
0001
0000
0000
0000
0000
0000
0100
0000
0000
0000
0000
0000
0001
0000
0000
0010
0000
0000
0100
0000
0000
1000
0000
0000
0001
0000
0000
0000
0000
0000
1000
0000
0001
0000
1000
0000
0100
0000
0000
0010
0000
0000
0001
0000
0000
1000
0000
0000
,
0001
0000
0100
0010
0100
0010
0100
0010
1000
0000
0100
0010
0100
0010
0100
0010
,
0002
0000
0000
0103
0020
0000
1000
0000
0230
0000
0301
1000
0100
1000
0001
0010
,
0001
0000
1000
0100
1000
0100
1000
0010
1000
0000
0001
0100
0001
0100
0001
0010
,
0001
0000
1000
0010
0000
0100
0010
0000
0110
0000
0010
1000
0001
0000
1000
0100
,
1000
0000
0010
0100
1000
0100
0010
0100
0001
0000
0010
0001
0010
0100
0010
0001
,
1000
0000
0001
0100
0010
0100
1000
0100
0010
0000
0100
0002
0000
0000
1003
0100
,
1000
0000
0100
0010
1000
0010
0100
0010
0001
0000
0100
0001
0100
0010
0100
0001
,
1000
0000
0001
0010
0100
0010
1000
0010
0100
0000
0010
0002
0000
1003
0010
0100
,
0001
0000
0000
0000
0001
0000
0000
0000
1000
0000
0000
0000
1001
0000
0000
0000
0000
0000
0000
0000
0000
0000
0000
0000
0001
0000
0000
0100
0000
0000
0001
0000
0000
1000
0000
0000
0100
0000
0000
0010
0000
0000
0001
0000
0000
1000
0000
0000
,
1001
0000
1000
1100
0000
1000
0100
1000
0010
0000
1000
0001
0000
0010
0001
0000
,
1000
0000
0001
1000
0100
1000
0001
0010
0200
0000
0000
1300
0010
0100
0001
0000
,
1001
0000
0001
0101
0000
0001
1000
0001
0010
0000
0001
0100
0010
0000
1010
0000
,
1000
0000
0000
0100
0000
0000
0010
0000
0000
0100
0000
0000
1000
0000
0000
0100
0000
0000
0010
0000
0001
0000
1000
0000
0001
0000
0000
0100
0000
0000
0010
0000
0000
1000
0000
0000
0001
0000
0000
0010
0000
0000
0001
0000
0000
0000
0000
0000
,
1001
0000
0001
0011
0000
0001
0010
0001
0100
0000
0001
1000
0000
0100
1000
0000
,
0001
0000
1000
0001
0010
0001
1000
0100
0010
0001
0100
0010
1000
0001
0010
0001
,
1001
0000
1000
1010
0000
1000
0001
1000
0100
0000
1000
0010
0100
0001
1000
0100
,
0110
0000
0000
0000
0000
0000
0000
0000
0000
0110
0000
0000
0000
0000
0000
0000
0000
0000
0001
0000
0100
0000
0010
0000
1000
0000
0000
0000
0000
0000
0100
0000
0010
0000
0001
0000
1000
0000
0000
0010
0000
0000
0100
0000
0000
0001
0000
0000
,
1000
0000
0010
0000
0100
0000
0010
0100
1000
0100
0010
0000
1000
0100
0010
0100
,
1000
0100
0010
0001
0200
0000
1000
0000
0310
0100
0001
1000
0001
0010
0100
1000
,
0100
0000
0000
0000
0010
0000
0000
0000
0001
0000
0000
0000
0100
0000
0000
0000
0010
0000
0000
0000
1000
0000
0000
0000
0020
0000
0000
0000
0000
0000
0000
0000
0000
0000
0000
0000
0130
0000
0000
0001
0000
0000
1000
0000
0000
0001
0000
0000
,
0010
0001
1000
0001
0100
0001
1000
0001
0010
0100
1000
0010
0110
0000
0101
0000
,
0000
0000
0110
0000
0000
0000
1010
0000
1001
0000
0100
0000
1001
0000
0001
0010
,
0001
0000
0100
0000
0010
0000
0100
0010
0001
0010
0100
0000
0001
0010
0100
0010
,
0001
0000
0000
0010
0000
0000
0100
0000
0000
1000
0000
0000
0020
0000
0000
0000
0000
0000
0000
0000
0000
0000
0000
0000
0130
0000
0000
0000
0001
0000
0010
0000
0001
0000
0000
0000
1000
0000
0000
0000
0010
0000
0100
0000
0010
0000
0000
0000
,
0100
0010
0100
0010
1000
0100
1000
0001
0020
0000
0000
0000
0130
1000
0001
1000
,
0010
1000
0001
1000
0100
1000
0001
1000
0010
0100
0001
0010
0110
0000
1100
0000
,
0100
0000
0000
0110
0000
0000
0000
0000
0000
0001
0100
0001
1000
0000
1000
0000
0001
0000
1001
0000
0000
0001
0010
0100
,
1000
0000
0000
0220
0000
0000
0000
0000
0000
0000
0000
0000
0000
0000
0000
0000
,
0000
0000
0000
0000
0000
0000
0000
0000
0330
0000
0000
0000
0000
0000
1000
0100
,
0010
0000
1000
0010
0000
0001
1000
0000
0100
0000
0001
0100
0000
1000
0010
0000
,
0001
0010
0001
0010
0001
0010
0001
0010
0001
0010
0001
0010
0001
0010
0100
0000
,
0001
0010
0100
1000
0001
0010
0100
1000
0001
0100
1000
0100
0000
0000
0001
0010
,
0001
0100
0010
1000
0001
0100
0010
1000
0001
0010
1000
0010
0000
0001
0000
1000
,
0001
0000
1000
0100
0000
0001
0000
0010
0000
1000
0000
0001
0000
0100
0010
1000
,
1001
1001
0000
0001
1000
2001
0000
0000
3010
0100
0001
1000
0100
0010
0100
1000
,
0001
0000
0100
0010
0200
1000
0000
0310
0100
0000
0001
0010
0001
2000
0000
3001
,
1000
0000
0100
0010
0200
0001
0000
0310
0100
0000
1000
0010
1000
0002
0000
1003
,
0001
0000
0010
0100
0020
1000
0000
0130
0010
0000
0001
0100
0001
2000
0000
3001
,
1000
0000
1100
0000
1000
1010
0000
0001
0101
0000
0001
1000
0001
0010
0001
0100
,
1000
0000
0100
0010
0100
1000
0100
0010
0100
0000
0001
0010
0100
0010
1000
0010
,
0200
1000
0000
0000
0320
0100
0000
0000
0032
0100
0000
0000
2003
0010
0000
0000
,
3001
0000
0100
0000
0001
0010
0001
0010
1000
0010
1000
0010
0100
0010
0100
0010
,
0001
0000
0000
0000
0000
0000
0000
0000
1001
0000
0000
0000
0000
0000
0000
0000
1001
0000
0000
0000
0000
0000
0000
0000
1001
0000
0000
0000
0000
0000
0000
0000
0000
0000
0000
0000
0000
0000
0000
0000
0000
0000
0001
0000
0000
0100
0000
0000
0010
0000
0000
0000
0000
0000
0000
0000
0000
0000
0000
0000
0000
0000
0000
0000
0000
0000
0110
0000
0000
0000
0000
0000
0000
0000
0000
0000
0000
0000
0000
0000
0000
0000
0000
0000
1010
0000
0000
0000
0000
0000
0000
0000
0000
0000
0000
0000
,
2002
0000
0000
0000
,
0000
0000
0000
0000
0000
0000
0000
0000
3003
0000
0000
0000
0000
0000
1000
0001
,
2000
0000
0000
0000
0000
0000
0000
0000
3010
0100
0010
0100
1000
0100
1000
0100
,
0010
0100
0001
0010
1000
0010
0110
0000
0011
0000
1001
0000
,
0201
0000
0000
0000
0000
0000
1000
0000
0000
0320
0000
0000
0000
0000
0000
0000
1030
0100
0020
0000
0000
0000
0000
0000
,
0030
0000
0000
0012
0000
0000
0000
0000
0000
0000
0000
0000
1003
0000
0010
0000
0100
0000
0001
0000
0010
0000
0100
0000
,
0120
0000
0031
1000
0010
1000
0001
0000
0100
0000
0110
0000
0001
0011
0000
1000
,
1010
0000
0000
0000
0000
0000
0001
0000
0000
1000
0000
0000
0001
0000
0000
0010
0000
0000
0100
0000
0000
1000
0000
0000
0100
0000
1000
0000
0001
0000
1000
0000
0000
0001
0000
0000
1000
0000
0010
0000
1000
0000
0001
0000
0000
1000
0000
0000
,
0100
0001
0000
0100
1000
0000
0001
0100
0000
1000
0100
0000
0010
1000
0000
0001
,
0100
0000
0001
0010
0000
1000
0010
0000
0100
0010
0000
0100
1000
0000
1001
0000
,
0002
0000
0000
0000
0103
0010
1000
0100
0010
0001
1000
0010
0100
0001
0010
0001
,
1000
0001
0100
0000
0110
0000
0100
0000
1001
0000
1000
0100
0000
1100
0000
1000
,
0002
0000
0000
0000
0103
0010
0000
0100
1000
0100
0010
0100
0001
0000
0010
0100
,
1000
0100
0010
0100
0001
0100
1000
0001
1000
0010
0100
0001
1000
0010
0100
0001
,
1000
0000
0000
1010
0000
0000
1000
0000
0001
0000
0100
0000
0010
0000
1000
0000
0001
0000
1000
0100
1000
0000
0001
0000
,
0010
0000
0100
0010
0000
1000
0010
0100
0010
0000
1000
0010
0000
0100
0010
0001
,
0100
0000
1000
0100
0000
0010
0100
0010
0001
0000
0010
1000
0000
0001
1000
0001
,
0010
0100
1000
0100
0010
0100
0001
0100
0010
0100
1000
0010
0100
0001
1000
0000
,
0210
0000
0000
0000
0000
0000
0000
0000
0000
0000
0000
0000
0000
0000
0000
0000
0000
0000
0000
0000
0000
0000
0000
0000
0000
0000
0000
0000
0000
0000
0301
0000
1000
0000
0001
0000
0010
0000
0000
0001
0000
0000
1000
0000
0000
0100
0000
0000
,
1000
0000
0100
0001
0100
0001
0100
0010
0001
0000
0100
1000
0100
1000
0100
0010
,
2000
0000
0000
3100
0020
0000
0001
0000
0230
0000
1300
0001
0100
0001
1000
0010
,
1000
0000
0001
0100
0001
0100
1000
0100
0010
0000
1000
0100
1000
0100
0001
0100
,
0010
0000
0011
0000
0001
1001
0000
1000
1010
0000
0000
0010
1000
0001
0100
0010
,
1000
0000
0100
0010
0100
0001
0100
1000
0010
0000
0001
0010
0100
0010
1000
0001
,
0010
0000
1000
0010
0100
0010
0001
1000
0001
0000
0100
0120
0000
0000
1030
0001
,
0101
0000
0000
0000
1000
1100
0000
0000
0010
0000
1001
0000
0001
0000
0000
1100
,
0000
0001
1000
0001
0010
0000
0000
0001
1000
0001
0100
0010
0100
0010
1000
0100
,
1100
0100
0110
0010
0011
1001
1010
1001
0000
0000
0000
0000
;

//---------------dance-double - t7r----------------
#NOTES:
     dance-double:
     :
     Easy:
     8:
     :
00000000
00000000
00000000
00000000
,
00000000
00000000
00000000
00000000
,
00000000
00000000
00000000
00000000
,
00000000
00000000
00000000
00000000
,
00000000
00000000
00000000
00000000
,
00000000
00000000
00000000
00000000
,
00000000
00000000
00000000
00000000
,
00000000
00000000
00000000
00000000
,
00000000
00000000
00000000
00000000
,
10000000
10000000
01000000
01000000
,
00010000
00001000
00000200
00000000
,
00000301
00000001
00000010
00000010
,
00000100
00000100
00010000
00001000
,
00010000
01000000
00010000
00001000
,
00000100
00000000
00000000
00000000
00001000
00000000
00000000
00000000
00010000
00000000
00000000
00002000
00000000
00000000
00000000
00000000
,
00013000
00001000
00000010
00001000
,
00010000
00100000
00010000
00001000
,
00010000
00011000
00000000
00000000
,
00001000
00000000
00001000
00000000
,
00010000
00000000
00010000
00000000
,
01000000
00000000
01000000
00000000
,
20000000
00000000
30100000
00000000
,
10000000
00000000
10000000
00000000
,
01000000
00000000
01000000
00000000
,
00010000
00000000
00010000
00000000
,
00001000
00000000
00000100
00000010
,
00000110
00000000
00000000
00000000
00000000
00000001
00000000
00000000
,
00000000
00000000
00000020
00000000
00000000
00000130
00000000
00000000
,
00010000
00001000
00021000
00031000
,
01000000
00000000
00010000
00000000
10000000
00000000
01000000
01000000
,
00000000
01000000
00000000
00100000
00001000
00000000
00010000
00000000
,
00012000
00000000
00000000
00003100
00000000
00000000
00000010
00000000
,
00000100
00000002
00000013
00000100
,
00010000
00001000
00012000
00013000
,
00100000
00000000
01000000
00000000
00010000
00000000
10000000
10000000
,
00000000
01000000
00000000
00010000
00001000
00000000
00010000
00000000
,
00022000
00000000
00000000
00000000
,
00033000
00000000
00000000
00000000
,
00001000
00010000
00001000
00000010
,
00000002
00000000
00000000
00000003
,
00000100
00000000
00000000
00000000
00000100
00000000
00000000
00000000
00000010
00000000
00000000
00000010
00000000
00000000
00000000
00000000
,
00001000
00000000
00000000
00000000
00001000
00000000
00000000
00000000
00000100
00000000
00000000
00000100
00000000
00000000
00000000
00000000
,
00010000
00000000
00000000
00000000
00010000
00000000
00000000
00001000
00000000
00000000
00000000
00000000
00010000
00000000
00000000
00000000
,
01000000
22000000
00000000
33000000
,
10000000
10000000
00100000
00100000
,
01000000
00010000
00100000
00001000
,
00010000
00010000
00000010
00000010
,
00000100
00000001
00001000
00001001
,
00000001
00000001
00000010
00000010
,
00000200
00020300
00032000
00023000
,
00031000
00001000
00010000
01000000
,
10000000
02200000
00000000
03300000
,
20020000
00000000
00000000
00000000
,
30030000
00000000
00000000
00000000
,
20000000
00000000
00000000
30000000
,
01000000
00010000
00001000
00000100
,
00000020
00000000
00000000
00000230
00000000
00000000
00000302
00000000
,
00000000
00000000
00000000
00000000
,
00000023
00000000
00001030
00020000
00000000
00000000
00000000
00000000
,
00000000
00031000
00010000
00011000
,
00002000
00000000
00013000
01000000
,
10000000
00100000
01000000
00100000
,
20000000
00000000
00000000
30020000
00000000
00000000
00230000
00000000
,
00000000
00301000
00010000
00011000
,
00010000
00001000
00000010
00001000
,
00010000
00100000
00010000
00001000
,
00000100
00001000
00010000
01000000
,
00020000
00000000
00031000
00000100
,
00000001
00000010
00000100
00010000
,
00001000
00010000
00001000
00011000
,
00200000
00000000
00000000
00300000
,
02200000
00000000
00000000
00000000
,
00000000
00000000
00000000
00000000
,
03300000
00000000
00000000
00000000
,
00000000
00000000
00000000
00000000
,
00001000
00010000
00001000
00000000
00010000
00001000
00010000
00000000
,
00001000
00000000
01000000
00000000
00010000
00000000
00000000
00000000
10000000
00000000
00000000
00200000
00000000
00000000
00000000
00000000
,
10300000
00000000
00000000
00000000
00000000
01100000
00000000
00000000
00000000
00000000
00001000
00000000
00000000
00000000
00000000
00011000
,
00000000
00000000
00000000
00000000
00000110
00000000
00000000
00000000
00000100
00000000
00000000
00002001
00000000
00000000
00000000
00000000
,
00003100
00000000
00000100
00000000
00010000
00000000
00011000
00000000
00000000
00000000
00000000
00000000
;

//---------------dance-double - t7r----------------
#NOTES:
     dance-double:
     :
     Medium:
     13:
     :
00000000
00000000
00000000
00000000
,
00000000
00000000
00000000
00000000
,
00000000
00000000
00000000
00000000
,
00000000
00000000
00000000
00000000
,
00000000
00000000
00000000
00000000
,
00000000
00000000
00000000
00000000
,
00000000
00000000
00000000
00000000
,
00000000
00000000
00000000
00000000
,
00000000
00000000
00000000
00000000
,
00001000
00000000
00000000
00010000
00001000
00000000
01000000
00000000
00010000
00000000
00000000
10000000
00010000
00000000
10000000
00000000
,
02000000
00000000
00000000
03020000
00000000
00000000
00031000
00000000
00000200
00000000
00000000
00000000
00000000
00000000
00000000
00000000
,
00000310
00000000
00000000
00000100
00000001
00000000
00000010
00000000
00000100
00000000
00000000
00010000
00000100
00000000
00010000
00000000
,
00001000
00000000
00001000
00000000
00000000
00011000
00000000
00000000
01001000
00000000
00000000
01000000
00100000
00000000
10000000
00000000
,
00010000
00100000
01000000
10000000
00010000
00100000
01000000
10000000
,
00100000
00000000
01000000
00000000
00001000
00000000
00010000
00000000
00000100
00000000
00001000
00000020
00000000
00000000
00000000
00000000
,
00000130
00000001
00000010
00000100
00001000
00000100
00010000
00001000
,
01000000
00000000
00010000
00000000
00100000
00000000
00010000
00000000
10000000
00000000
00100000
02000000
00000000
00000000
00000000
00000000
,
03010000
00000000
00000000
00000000
10000000
00000000
00000000
00000000
00010000
00000000
00000000
00000000
10000000
00000000
00000000
00000000
00000000
00000000
00000000
00000000
00000000
00000000
00000000
00000000
01000000
00000000
00000000
00000000
00000000
00000000
00000000
00000000
00000000
01000000
00000000
00000000
00100000
00000000
00000000
00000000
00000000
00000000
00000000
00000000
00000000
00000000
00000000
00000000
,
00011000
00000000
00000000
00011000
00000000
00000000
00001000
00000000
00000100
00000000
00000010
00000000
00000000
00000000
00000100
00000000
,
00000001
00000000
00000000
00000001
00001000
00000000
00000001
00000000
00000010
00000000
00000000
00000100
00010000
00000000
00001000
00000000
,
00011000
00000000
00000000
00011000
00000000
00000000
00000000
00010000
01000000
00000000
00000000
00100000
01000000
00000000
10000000
00000000
,
00100000
00010000
00001000
00010000
,
00011000
00000000
00000000
00011000
00000000
00000000
00010000
00000000
00100000
00000000
01000000
00000000
00000000
00000000
00100000
00000000
,
10000000
00000000
00000000
10000000
00010000
00000000
10000000
00000000
01000000
00000000
00000000
00100000
00001000
00000000
00010000
00000000
,
00011000
00000000
00000000
00011000
00000000
00000000
00000000
00001000
00000010
00000000
00000000
00000100
00000010
00000000
00000001
00000000
,
00000100
00000000
00000000
00000110
00000000
00000000
00010000
00000000
00002000
00000000
00000000
00000000
00023000
00000000
00000000
00000000
,
00031000
00000000
00010000
00100000
01000000
00010000
00100000
01000000
,
10000000
01000000
00020000
00000000
00031000
00000010
00000100
00000010
,
00000001
00000000
00000000
00000000
00000100
00000000
00000010
00000000
00000000
00000000
00001000
00000000
00000200
00000000
00000000
00000000
00000000
00000000
00010300
00000000
00000000
00001000
00000000
00000000
,
00010000
01000000
10000000
00100000
01000000
00001000
00010000
00010000
,
00000000
00011000
00000000
00001000
00000100
00000001
00001000
00000000
,
00000002
00000000
00000000
00000023
00000000
00001030
00010000
00010000
,
00001000
00000000
00000000
01000000
00000000
00000000
00200000
00000000
00000000
00000000
00000000
00000000
10300000
00000000
00000000
00000000
01000000
00000000
00010000
00000000
00000000
00000000
00001000
00000000
,
00010000
00000000
00000000
00000000
00001000
00000000
00000100
00000000
00000000
00000010
00000000
00000000
00000200
00000000
00000000
00000000
00000000
00000000
00000301
00000000
00000000
00000010
00000000
00000000
,
00000001
00000010
00000100
00001000
00000100
00001000
00000100
00000100
,
00010000
00000000
00000000
00011000
00000000
00000000
00000000
00000000
00000000
00001000
00000000
00000000
00010000
00000000
00001000
00000000
00010000
00000000
00001000
00000000
00000000
00000000
00000000
00000000
,
01010000
00000000
00000000
01000000
00100000
00000000
00000000
00000000
10010000
00000000
00000000
10000000
00000000
00000000
00000000
00000000
,
11000000
00000000
00000000
01000000
00100000
00000000
00000000
00000000
00101000
00000000
00000000
00001000
00000000
00000000
00010000
00000000
,
00002000
00000000
00000000
00003200
00000000
00000000
00000310
00000000
00000200
00000000
00000000
00000302
00000000
00000000
00000013
00000000
,
00002000
00000000
00000000
00000000
00000000
00000000
00000000
00000000
00013000
00000000
00000000
00001000
00010000
00000000
00001000
00000000
,
01000000
00000000
00010000
00000000
01000000
00000000
10000000
00000000
01000000
00000000
00000000
01000000
00000000
00000000
00100000
00000000
,
10000000
00000000
01000000
00000000
00010000
00000000
00001000
00000000
00000100
00000000
00000000
00000100
00000000
00000000
00000001
00000000
,
00000010
00000000
00000000
00001000
00000000
00000010
00000000
00000001
00000000
00001000
00000000
00000000
00000001
00000000
00000100
00000000
,
00001000
00022000
00000000
00033000
,
00010000
00000000
01000000
00000000
10000000
00000000
00000000
00100000
01000000
00000000
00100000
00000000
10000000
00000000
00000000
00000000
,
00100000
00000000
01000000
00000000
00010000
00000000
00000000
00100000
00001000
00000000
00010000
00000000
00001000
00000000
00000000
00000000
,
00010000
00000000
00001000
00000000
00000100
00000000
00000000
00000001
00000010
00000000
00000100
00000000
00000010
00000000
00000001
00000000
,
00000100
00001000
00010000
00100000
,
10000000
00000000
00010000
00000000
01000000
00000000
00000000
00010000
00100000
00000000
00001000
00000000
00010000
00000000
00001000
00000000
,
00000020
00000032
00000203
00000320
,
00001030
00000000
00000100
00000000
00010000
00000000
00000000
00001000
00010000
00000000
00001000
00000000
01000000
00000000
00100000
00000000
,
10000000
00000000
00000000
00000000
00010000
00000000
00000000
00000000
10000000
00000000
00000000
00000000
00010000
00000000
00000000
00000000
00000000
00000000
00000000
00000000
00000000
00000000
00000000
00000000
10000000
00000000
00000000
00000000
00000000
00000000
00000000
00000000
00000000
00100000
00000000
00000000
00000000
00000000
00000000
00000000
00000000
00000000
00010000
00000000
00000000
00000000
00000000
00000000
,
00002000
00000000
00000000
00003000
,
00000000
00000000
00000000
00000000
,
00000200
00000000
00000000
00000000
,
00000301
00000010
00000001
00001000
00000000
00000000
00000010
00000000
00010000
00000000
00001000
00000000
,
00012000
00000000
00000000
02003000
00000000
00000000
03200000
00000000
,
00000000
00000000
00000000
20300000
00000000
00000000
00000000
00000000
00000000
00000000
00000000
00000000
31000000
00000000
10000000
00000000
00010000
00000000
10000000
00000000
00000000
00000000
00000000
00000000
,
10200000
00000000
00000000
00000000
10300000
00000000
00020000
00000000
00000000
00000000
00100000
00000000
00000000
00130000
00000000
00000000
,
00001000
00010000
00001000
00000010
00000001
00000100
00000010
00001000
,
00000002
00000000
00000000
00000013
00000100
00000010
00000001
00000100
,
00000010
00001000
00000100
00010000
00001000
01000000
00010000
00100000
,
00020000
00000000
00000000
20030000
00000000
00000000
30200000
00000000
00000000
00320000
00000000
00000000
00032000
00000000
00000000
00000000
,
00013000
00000000
00001000
00000000
00011000
00000000
00000000
00000000
00001000
00000000
00000010
00000100
00000000
00000010
00000000
00000001
,
00001000
00000000
00000001
00000100
00001000
00000000
00011000
00000000
,
00010000
01000000
10000000
00000000
10010000
00000000
10000000
00100000
,
00010000
00000000
00000000
00011000
00000000
00000000
00001000
00000000
00000010
00000001
00001000
00000001
,
00002000
00000000
00000000
00000000
00003001
00000100
00000010
00001000
,
00000100
00010000
00001000
00010000
01000000
10000000
00200000
00000000
,
10300000
00010000
00001000
00000001
,
00000220
00000000
00000000
00000330
,
00022000
00000000
00000000
00000000
,
00000000
00000000
00000000
00000000
,
00033000
00000000
00000000
00000000
,
00001000
00000000
00001000
00000000
00000000
00011000
00000000
00010000
01000000
00000000
10000000
00000000
00010000
00000000
01000000
00000000
,
00100000
10000000
01000000
10000000
00100000
10000000
01000000
10000000
,
00100000
00000000
00010000
00000000
00001000
00000000
00010000
00000000
00001000
00000000
00010000
00000020
00000000
00000000
00000000
00000000
,
00000130
00000000
00000000
00000000
00000000
00000110
00000000
00000000
00000000
00000000
00000101
00000000
00000000
00000000
00000000
00001001
,
00000000
00000000
00000000
00000000
00010100
00000000
00000000
00000000
00010000
00000000
00001000
00020000
00000000
00000000
00000000
00000000
,
00031000
00000000
00010000
00000000
01000000
00100000
00001000
00010000
00000000
00000000
00000000
00000000
;

//---------------dance-double - t7r----------------
#NOTES:
     dance-double:
     :
     Hard:
     17:
     :
00000000
00000000
00000000
00000000
,
00000000
00000000
00000000
00000000
,
00000000
00000000
00000000
00000000
,
00000000
00000000
00000000
00000000
,
00000000
00000000
00000000
00000000
,
00000000
00000000
00000000
00000000
,
00000000
00000000
00000000
00000000
,
00000000
00000000
00000000
00000000
,
00000000
00000000
00000000
00000000
,
00000100
00000000
00010000
00001000
00010000
00001000
00010000
00000000
00001000
00000000
01000000
00010000
01000000
00010000
01000000
00000000
,
00020000
00000000
00000000
00230000
00000000
00000000
01300000
00000000
20000000
00000000
00000000
00000000
00000000
00000000
00000000
00000000
,
30100000
00000000
01000000
00010000
01000000
00010000
01000000
00000000
00010000
00000000
00100000
00001000
00100000
00001000
00100000
00000000
,
00001000
00000000
00010000
00001000
00000000
00011000
00000000
00000000
00000010
00000000
00000100
00000001
00000000
00001000
00000001
00000000
,
00000010
00000000
00000100
00000010
00000001
00001000
00000010
00000000
00000100
00000000
00000010
00001000
00000001
00001000
00000100
00000000
,
00010000
00000000
00001000
01000000
00010000
00100000
00010000
00000000
10000000
00000000
00100000
02000000
00000000
00000000
00000000
00000000
,
03100000
00000000
10000000
01000000
00100000
00001000
00010000
00000000
00001000
00000000
00010000
00000010
00000100
00000001
00001000
00000000
,
00000100
00000000
00010000
00001000
01000000
00010000
10000000
00000000
01000000
00000000
00100000
00002000
00000000
00000000
00000000
00000000
,
00013000
00000000
00000000
00000000
00001000
00000000
00000000
00000000
00010000
00000000
00000000
00000000
00001000
00000000
00000000
00000000
00000000
00000000
00000000
00000000
00000000
00000000
00000000
00000000
00000100
00000000
00000000
00000000
00000000
00000000
00000000
00000000
00000000
00000100
00000000
00000000
00000010
00000000
00000000
00000100
00000000
00000000
00000001
00000000
00000000
00000000
00000000
00000000
,
00001001
00000000
00000000
00001100
00000000
00000000
00001000
00000001
00001000
00000000
00000000
00001001
00000000
00000000
00000001
00000000
,
00000010
00000000
00000000
00000110
00000000
00000000
00000010
00000001
00001000
00000000
00000100
00010000
00000000
00001000
00100000
00000000
,
00010000
00000000
00000000
10010000
00000000
00000000
10000000
00100000
01000000
00000000
00100000
10000000
00000000
00010000
10000000
00000000
,
01000000
00010000
00001000
00000100
,
00000110
00000000
00000000
00000110
00000000
00000000
00000001
00000100
00000010
00000000
00000100
00000001
00000000
00001000
00000100
00000000
,
00001000
00000000
00000000
00001100
00000000
00000000
00000100
00010000
00001000
00000000
00010000
00100000
00000000
10000000
00010000
00000000
,
10010000
00000000
00000000
10010000
00000000
00000000
00000000
10000000
01000000
00100000
00000000
01000000
10000000
00100000
01000000
00000000
,
01100000
00000000
00000000
01100000
00000000
00000000
10000000
00010000
01000000
00000000
00010000
00100000
00001000
00000000
00010000
00000010
,
00001000
00000000
00000010
00000000
00000100
00000000
00000010
00000100
00000010
00000000
00000001
00000000
00000010
00000000
00001000
00000000
,
00000100
00000000
00000000
00010000
00000000
00000000
00001000
00000000
00000000
00000000
00000000
00000000
00021000
00000000
00000000
00000000
00000000
00000000
00000000
00000000
00000000
00000000
00000000
00000000
00031000
00000000
00000000
00000000
00010000
00000000
00000000
00000000
00100000
00000000
00000000
00000000
10000000
00000000
00000000
00000000
01000000
00000000
00000000
00000000
00100000
00000000
00000000
00000000
,
01000000
00000000
00000000
00000000
10000000
00000000
00000000
00000000
00100000
00000000
00000000
00000000
01000000
00000000
00000000
00000000
00010000
00000000
00000000
00000000
00100000
00000000
00000000
00000000
00002000
00000000
00000000
00000000
00000000
00000000
00000000
00000000
00000000
00000000
00000000
00000000
00013000
00000000
00000000
00000000
00000000
00000000
00001000
00000000
00000000
00000010
00000000
00000000
,
00001000
00000000
00010000
00100000
00010000
00000000
00001000
00010000
00000100
00000000
00010000
00001000
01000000
00000000
01010000
00000000
,
00000000
01200000
00000000
10300000
01000000
00010000
00011000
00010000
,
00010020
00000000
00000000
00000000
00000130
00000000
00002001
00000000
00000000
00000000
00003001
00000000
00001000
00000100
00001000
00000100
,
00000010
00000000
00000000
00000001
00000000
00000000
00001000
00000000
00000000
00000001
00000000
00000000
00000200
00000000
00000000
00000000
00000000
00000000
00000000
00000000
00000000
00000000
00000000
00000000
00001300
00000000
00000000
00000000
00010000
00000000
00000000
00000000
01000000
00000000
00000000
00000000
00100000
00000000
00000000
00000000
01000000
00000000
00000000
00000000
10000000
00000000
00000000
00000000
,
00100000
00000000
00000000
00000000
01000000
00000000
00000000
00000000
00010000
00000000
00000000
00000000
00100000
00000000
00000000
01000000
00000000
00000000
10000000
00000000
00000000
00010000
00000000
00000000
00200000
00000000
00000000
00000000
00000000
00000000
00000000
00000000
00000000
00000000
00000000
00000000
00301000
00000000
00000000
00010000
00000000
00000000
00001000
00000000
00000000
00000000
00000000
00000000
,
00010000
00000100
00010000
00000000
00001000
01000000
00001000
00000000
00010000
00000010
00010000
00000000
00001000
00000000
00101000
00000000
,
00100000
00000000
00000000
00000000
00000000
00000000
00120000
00000000
00000000
00000000
00000000
00000000
00000000
00000000
00000000
00000000
00000000
00000000
10030000
00000000
00000000
00010000
00000000
00000000
10000000
00000000
00000000
00000000
00100000
00000000
00000000
00000000
00010000
00000000
00000000
00000000
00001000
00000000
00000000
00000000
00000000
00000000
00000000
00000000
00000000
00000000
00000000
00000000
,
00011000
00000000
00000000
00000100
00000010
00000000
00000000
00000000
00011000
00000000
00000000
00001000
00000000
00000000
00000000
00000000
,
00011000
00000000
00000000
01000000
00100000
00000000
00000000
00000000
00011000
00000000
00000000
00010000
00000000
00000000
00001000
00000100
,
00000010
00000000
00000000
00000100
00000001
00000000
00000010
00000000
00000200
00000000
00000000
00010300
00001000
00000000
00010000
00000000
,
02000000
00000000
00000000
00010000
00000000
00000000
00100000
00000000
13000000
00000000
00000000
00010000
10000000
00010000
01000000
00000000
,
00100000
10000000
00100000
10000000
00010000
01000000
00010000
01000000
00010000
00100000
00001000
00010000
00000000
00000000
00001000
00010000
,
00001000
01000000
00001000
01000000
00001000
00010000
00001000
00010000
00001000
00000100
00000001
00001000
00000000
00000100
00000010
00000001
,
00000100
00000010
00001000
00000001
00000000
00000010
00000000
00001000
00000000
00010000
00000000
00100000
00000000
10000000
00010000
01000000
,
00010000
10000000
00000000
00000000
10020000
00000000
00000000
00000000
10030000
01000000
00100000
01000000
10000000
00100000
01000000
00000000
,
00100000
00000000
10000000
00000000
01000000
00100000
00000000
01000000
10000000
00000000
00100000
00000000
01000000
00010000
00000000
00000000
,
00100000
00000000
00001000
00000000
00010000
00000010
00000000
00010000
00001000
00000000
00010000
00000000
00001000
00000100
00000000
00000000
,
00000010
00000000
00000100
00000000
00000001
00000010
00000000
00000100
00000010
00000000
00000001
00000000
00001000
00000100
00000000
00000000
,
00010000
00000000
00001000
00000000
00000010
00000001
00000000
00000100
00001000
00000000
00010000
00000000
00001000
00010000
00001000
00000000
,
00010000
00000000
01000000
00100000
01000000
00000000
10000000
00000000
00100000
01000000
00000000
00010000
10000000
00000000
00100000
00000000
,
00020000
00001000
00030200
00001000
00020300
00001000
02030000
00000000
,
13000000
00000000
00100000
00000000
01000000
00010000
10000000
00000000
01000000
00000000
00010000
00000000
00001000
00010000
00000010
00001000
,
00000001
00000000
00000000
00000000
00001000
00000000
00000000
00000000
00000001
00000000
00000000
00000000
00001000
00000000
00000000
00000000
00000000
00000000
00000000
00000000
00000000
00000000
00000000
00000000
00000110
00000000
00000000
00000000
00000000
00000000
00000000
00000000
00000000
00001010
00000000
00000000
00000000
00000000
00000000
00000000
00000000
00000000
00001100
00000000
00000000
00000000
00000000
00000000
,
00020200
00000000
00000000
00000000
,
00030300
00000000
00000000
00000000
,
00022000
00000000
00000000
00033000
,
00010000
00000100
00010000
00001000
01000000
00001000
00011000
00000000
00101000
00000000
00011000
00000000
,
00011000
00000000
00000000
00000000
00000000
00000000
01100000
00000000
00000000
00000000
10000000
00010000
01000000
00000000
00000000
00000000
,
00000000
00000000
00000000
01100000
00000000
00000000
00000000
00000000
00000000
00000000
00000000
00000000
10000000
00000000
01000000
00000000
00010000
00000000
00001000
00000000
00000100
00000000
00000010
00000000
,
00000200
00000000
00000000
00000000
00000301
00000010
00000200
00000000
00000000
00000000
00000001
00000000
00000000
00000010
00000000
00000000
,
00001300
00000000
00000010
00000100
00000001
00001000
00000100
00010000
00001000
01000000
00010000
00100000
01000000
10000000
00100000
01000000
,
00020000
00000000
00000000
00000000
00000000
00000000
10030000
01000000
00000000
01000000
00010000
00000000
00001000
00000010
00000000
00000010
,
00000001
00000000
00000100
00000010
00000000
00000010
00001000
00000000
00000100
00010000
00000000
00010000
00001000
00000000
00010000
00100000
,
02000000
00000000
00000000
03020000
00000000
00000000
20030000
00000000
00000000
30200000
00000000
00000000
00320000
00000000
00000000
00000000
,
00031000
00000000
00010000
00000000
00011000
00000000
00001000
00000010
00000100
00000000
00000010
00000001
00000000
00001000
00000000
00000001
,
00000100
00000000
00001000
00010000
00001000
00000000
00010000
00000100
00010000
00000000
00001000
00000000
00011000
00000000
00001000
00010000
,
00001000
00000000
01000000
00010000
01000000
00000000
00001000
00000000
00011000
00000000
00010000
00001000
00010000
00000000
00000010
00001000
,
00000010
00000000
00000000
00000000
00000000
00000000
00010000
00000000
00000000
00000000
00000000
00000000
00011000
00000000
00000000
00000000
00000000
00000000
00000000
00000000
00000000
00001000
00000000
00000000
01000000
00000000
00000000
00000000
00100000
00000000
00000000
00000000
10000000
00000000
00000000
00000000
00010000
00000000
00000000
00000000
00100000
00000000
00000000
00000000
01000000
00000000
00000000
00000000
,
20000000
00000000
00000000
00000000
00000000
00000000
00000000
00000000
30100000
10000000
00010000
01000000
00010000
00100000
00001000
00010000
,
00000010
00001000
00000001
00000010
00000100
00000010
00000001
00000100
00000010
00001000
00000100
00010000
00002000
00000000
00000000
00000000
,
01003000
00000000
00000000
01000000
00000100
00000000
00000000
00000100
00010000
00000000
00001000
00010000
00000100
00001000
00000001
00000100
,
00000020
00000000
00000000
00001030
,
00000001
00000000
00000100
00000010
00000100
00000010
00000100
00000000
00000001
00000000
00000010
00000100
00000010
00000100
00000010
00000000
,
00000002
00000000
00000000
00000203
00000000
00000000
00001300
00000000
00020000
00000000
00000000
00000000
00000000
00000000
00000000
00000000
,
00031000
00000000
01000000
00010000
01000000
00010000
01000000
00000000
00010000
00000000
00100000
00010000
00100000
00010000
00100000
00000000
,
00010000
00000000
10010000
00000000
00000000
10100000
00000000
00000000
01100000
00000000
00100000
10000000
00010000
00100000
00001000
00010000
,
00001000
00000000
00000100
00000010
00000100
00000001
00001000
00000100
00000010
00000000
00000001
00000100
00000010
00001000
00000001
00000010
,
00000100
00000000
00010000
00000100
00010000
00001000
01000000
00010000
10000000
00000000
00100000
02000000
00000000
00000000
00000000
00000000
,
03100000
00000000
00000000
00000000
00000000
01100000
00000000
00000000
00000000
00000000
00011000
00000000
00000000
00000000
00000000
00000110
,
00000000
00000000
00000000
00000000
00001001
00000000
00000000
00000000
00000101
00000000
00000001
00000020
00000000
00000000
00000000
00000000
,
00001030
00010000
00001000
00010000
01000000
00100000
00010000
00010000
00000000
00000000
00000000
00000000
;

//---------------dance-double - t7r----------------
#NOTES:
     dance-double:
     :
     Challenge:
     18:
     :
00000000
00000000
00000000
00000000
,
00000000
00000000
00000000
00000000
,
00000000
00000000
00000000
00000000
,
00000000
00000000
00000000
00000000
,
00000000
00000000
00000000
00000000
,
00000100
00000000
00010000
00001000
01000000
00001000
00010000
00001000
00010000
00000100
00000010
00000001
00001000
00000010
00000100
00000001
,
00001000
00000000
00000001
00000010
00000100
00000010
00000001
00000100
00000010
00001000
00000100
00010000
00001000
01000000
00010000
10000000
,
00100000
00000000
10000000
01000000
00100000
01000000
10000000
00100000
01000000
00000000
00100000
10000000
00010000
00100000
00001000
00010000
,
00000010
00000000
00000000
00000000
00000000
00000000
00001000
00000000
00000000
00000010
00000000
00000000
00000000
00000000
00000000
00000100
00000000
00000000
00000001
00000000
00000000
00001000
00000000
00000000
00000200
00000000
00000000
00000000
00000000
00000000
00010300
00000000
00001000
00000000
00010000
00000000
00001000
00000000
00000000
00000000
00000000
00000000
00010000
00000000
00000000
00100000
00000000
00000000
,
10000000
00000000
01000000
00100000
01000000
00100000
01000000
00100000
00010000
00000000
01000000
00100000
01000000
00100000
01000000
00100000
,
10000000
00000000
01000000
00020000
00000000
00031000
00000200
00000000
00000310
00000000
00000100
00000001
00000100
00000001
00000100
00000000
,
00000001
00000000
00000010
00000100
00000010
00000100
00000010
00000001
00001000
00000000
00000100
00000010
00000100
00000010
00000001
00000100
,
00001000
00000000
00010000
00100000
00000000
10000000
00010000
00000000
10010000
00000000
10000000
01000000
00100000
00000000
01000000
10000000
,
00010000
00000000
10000000
00100000
10000000
01000000
00100000
00010000
10000000
00000000
00100000
01000000
00010000
00100000
00001000
00010000
,
00001000
00000000
01000000
00010000
10000000
01000000
00010000
00001000
00000100
00000000
00000010
00000200
00000000
00000301
00001000
00000001
,
00000010
00000000
00000001
00000010
00000001
00000100
00000010
00001000
00000001
00000000
00000010
00000100
00001000
00000010
00010000
00001000
,
00010000
00000000
00000100
00001000
00000001
00000100
00001000
00010000
01000000
00000000
00100000
02000000
00000000
13000000
00010000
10000000
,
00010000
00000000
00000000
00000000
00010000
00000000
00000000
00000000
10000000
00000000
00000000
00000000
10010000
00000000
00000000
00000000
00000000
00000000
00000000
00000000
00000000
00000000
00000000
00000000
10000000
00000000
00000000
00100000
00000000
00000000
01000000
00000000
00000000
00010000
00000000
00000000
00100000
00000000
00000000
00001000
00000000
00000000
00100000
00000000
00000000
00001000
00000000
00000000
,
00011000
00000000
00001000
00011000
00000000
00010000
00001000
00000100
00000010
00000000
00000100
00000001
00000000
00001000
00000001
00000000
,
00000010
00000000
00000001
00001000
00000001
00000100
00000010
00001000
00000001
00000000
00000010
00001000
00000000
00010000
00001000
00000000
,
00011000
00000000
00001000
00011000
00000000
00001000
01000000
00010000
10000000
00000000
00100000
01000000
00000000
00100000
10000000
00010000
,
10000000
00000000
00000000
01000000
00000000
00000000
00100000
00000000
00000000
00010000
00000000
00000000
10000000
00000000
00000000
00100000
00000000
00000000
01000000
00000000
00010000
00000000
00100000
00000000
00010000
00000000
00000000
01000000
00000000
00000000
00001000
00000000
00000000
00010000
00000000
00000000
00001000
00000000
00000000
00010000
00000000
00000000
00000100
00000000
00000000
00001000
00000000
00000000
,
00001001
00000000
00000001
00000101
00000000
00000001
00000010
00000001
00000100
00000000
00001000
00010000
00000000
00001000
00100000
00000000
,
00010000
00000000
10000000
00100000
01000000
00010000
10000000
01000000
00010000
00000000
00001000
00000010
00000000
00000100
00000010
00000001
,
00001001
00000000
00001000
00001010
00000000
00000010
00000100
00000001
00001000
00000000
00000100
00010000
00001000
00010000
01000000
10000000
,
10100000
00000000
00000000
00000000
00000000
00000000
00000000
00000000
00000000
10100000
00000000
00000000
00000000
00000000
00000000
00000000
00000000
00000000
10000000
00000000
01000000
00000000
00100000
00000000
00010000
00000000
00000000
00000000
00000000
00000000
01000000
00000000
00001000
00000000
00010000
00000000
00001000
00000000
00000000
00010000
00000000
00000000
00000100
00000000
00000000
00001000
00000000
00000000
,
00000001
00000000
00000100
00000000
00000001
00000000
00000010
00000001
00001000
00000001
00000010
00000000
00000001
00000000
00000100
00001000
,
00010000
00001000
01000000
00010000
00200000
00000000
00000000
00000000
10300000
00100000
01000000
00100000
00010000
10000000
00100000
01000000
,
00010000
00000000
00000000
00000000
00100000
00000000
00000000
00000000
00001000
00000000
00000000
00000000
00010000
00000000
00000000
00000000
00001000
00000000
00000000
00000000
00000010
00000000
00000000
00000000
00000002
00000000
00000000
00000000
00000000
00000000
00000000
00000000
00000000
00000000
00000000
00000000
00000103
00000000
00000000
00000001
00000000
00000000
00001000
00000000
00000000
00000001
00000000
00000000
,
00000010
00000100
00001000
00000100
00010000
00000100
00010000
00001000
00010000
01000000
10000000
00010000
10010000
00000000
01010000
00000000
,
00000000
00000000
00011000
00000000
00000000
00000000
00000100
00000000
00000110
00000000
00000100
00000000
00001001
00000000
00000001
00000100
,
00000010
00000000
00000100
00000000
00000001
00000000
00000100
00001000
00000100
00000010
00001000
00000000
00000001
00000000
00000010
00001000
,
00010000
00000000
00000000
00001000
00000000
00000000
00100000
00000000
00000000
00010000
00000000
00000000
02000000
00000000
00000000
00000000
00000000
00000000
00000000
00000000
00000000
00000000
00000000
00000000
13000000
00000000
00000000
00000000
01000000
00000000
00000000
00000000
00100000
00000000
00000000
00000000
10000000
00000000
00000000
00000000
01000000
00000000
00000000
00000000
00010000
00000000
00000000
00000000
,
00001000
00010000
00001000
00010000
00000010
00001000
00000001
00001000
00000020
00000000
00000000
00000000
00001030
00000100
00000010
00000001
,
00001000
00000100
00010000
00001000
00011000
00000000
00010000
00000000
01000000
10000000
00010000
10000000
10100000
00000000
01100000
00000000
,
01000000
00000000
00000000
01010000
00000000
00000000
00000000
00000000
00000000
00010000
00100000
00001000
00010000
00000000
00001000
00000000
00010000
00000000
00011000
00000000
00000000
00001000
00010000
00000100
,
00001000
00000000
00000000
00002002
00000000
00000000
00000000
00000000
00000000
00000000
00000000
00000000
00000000
00000000
00000000
00000000
,
00000000
00000000
00000000
00000000
00000000
00000000
00000000
00000000
00003003
00000000
00000000
00000000
00000000
00000000
00000001
00000100
,
00000010
00000000
00001000
00000100
00000000
00010000
00001000
00000000
00010000
00000000
00100000
10000000
00000000
00010000
10000000
00000000
,
00100000
00010000
00100000
00010000
00100000
00010000
00100000
00010000
00100000
00010000
00100000
00010000
00100000
00010000
00100000
00000000
,
10000000
01000000
00100000
00010000
10000000
01000000
00100000
00010000
10000000
01000000
00010000
00001000
00000000
00000000
00010000
00000010
,
00001000
00000100
00000010
00000001
00001000
00000100
00000010
00000001
00000100
00001000
00010000
01000000
00000000
00100000
00000000
00010000
,
10000000
00000000
00100000
00010000
00000000
00001000
00000000
00000010
00000000
00000001
00000000
00001000
00000000
00000001
00000100
00001000
,
00011000
00011000
00000000
00001000
00010000
00012000
00000000
00000000
00013000
00001000
00010000
00001000
01000000
00100000
10000000
00010000
,
10000000
00000000
01000000
00100000
02000000
00010000
00000000
03100000
01000000
00000000
10000000
00100000
01000000
00010000
00000000
00100000
,
00001000
00000000
00010000
00000100
00002000
00000010
00000000
00003001
00001000
00000000
00000001
00000010
00000100
00000020
00000000
00000031
,
00001000
00000000
00000001
00000100
00000020
00000100
00000000
00001030
00000001
00000000
00000010
00001000
00000010
00000100
00000000
00010000
,
00001000
00000000
00010000
00100000
00000000
10000000
00010000
10000000
00100000
00000000
01000000
00010000
10000000
01000000
00100000
00010000
,
10000000
00000000
01000000
00100000
01000000
00100000
01000000
00010000
00001000
00000000
00000100
00000010
00000100
00000010
00000100
00000001
,
00002000
00000010
00000000
00000000
00003002
00000010
00000000
00000000
00001003
00000100
00000010
00000001
00001000
00000000
00000100
00000000
,
00010000
00000000
01000000
10000000
01000000
00100000
01000000
00010000
01000000
00100000
00001000
00010000
00001000
00000100
00000010
00000100
,
00000001
00000000
00000000
00000000
00000000
00000000
00000000
00000000
00001001
00000000
00000000
00000000
00000000
00000000
00000000
00000000
00001001
00000000
00000000
00000000
00000000
00000000
00000000
00000000
00001001
00000000
00000000
00000000
00000000
00000000
00000000
00000000
00000000
00000000
00000000
00000000
00000000
00000000
00000000
00000000
00000000
00000000
00000001
00000000
00000000
00000100
00000000
00000000
00000010
00000000
00000000
00000000
00000000
00000000
00000000
00000000
00000000
00000000
00000000
00000000
00000000
00000000
00000000
00000000
00000000
00000000
00011000
00000000
00000000
00000000
00000000
00000000
00000000
00000000
00000000
00000000
00000000
00000000
00000000
00000000
00000000
00000000
00000000
00000000
01100000
00000000
00000000
00000000
00000000
00000000
00000000
00000000
00000000
00000000
00000000
00000000
,
20020000
00000000
00000000
00000000
,
00000000
00000000
00000000
00000000
00000000
00000000
00000000
00000000
30030000
00000000
00000000
00000000
00000000
00000000
10000000
00100000
,
01000000
00000000
00000000
00000000
00000000
00000000
00000000
00000000
00010000
00100000
00010000
00100000
01000000
10000000
01000000
10000000
,
00100000
00010000
00001000
00000010
00000100
00000010
00000011
00000000
00000101
00000000
00001001
00000000
,
00001200
00000000
00000000
00000000
00000000
00000000
00001000
00000000
00000000
00020300
00000000
00000000
00000000
00000000
00000000
00000000
00031000
01000000
00100000
00000000
00000000
00000000
00000000
00000000
,
00000000
00000000
00000000
01100000
00000000
00000000
00000000
00000000
00000000
00000000
00000000
00000000
10000000
00000000
00100000
00000000
10000000
00000000
01000000
00000000
00010000
00000000
00001000
00000000
,
00000010
00000000
00000100
00001000
00000001
00001000
00000010
00000000
00000100
00000000
00000110
00000000
00000001
00000011
00000000
00001000
,
00001100
00000000
00000100
00010000
00001000
00010000
00001000
01000000
00010000
00100000
01000000
10000000
00010000
00100000
00001000
00010000
,
00000010
00000100
00000000
00000001
00000100
00000000
00000001
00000010
00000000
00001000
00010000
00000000
00100000
10000000
00000000
00100000
,
01000000
00000000
00100000
10000000
00000000
00010000
00100000
00000000
00101000
00000000
00001000
00010000
00000010
00000000
00001010
00000000
,
00000110
00000000
00000100
00000001
00001000
00000000
00000001
00000010
00000100
00000010
00000001
00000100
00000010
00001000
00000100
00010000
,
00001000
01000000
00010000
00000000
10010000
00000000
10000000
00000000
00100000
01000000
00100000
00010000
00000000
00100000
00000000
10000000
,
00020000
00000000
00000000
00000000
10030000
01000000
00000000
10000000
00100000
00010000
00001000
00010000
00001000
00000000
00000010
00000100
,
00000010
00000001
00000010
00001000
00000010
00000100
00000010
00000001
00001000
00000010
00000100
00000001
00001000
00000100
00010000
00001000
,
00010000
00000000
00000000
01000000
00000000
00000000
10000000
00000000
00100000
00000000
01000000
00000000
10000000
00000000
00010000
00000000
00100000
00000000
01000000
00000000
00010000
00000000
00100000
00000000
,
00001000
00000000
00010000
00001000
00000000
00000100
00000010
00000100
00000001
00000000
00000010
00000100
00001000
00000100
00000010
00000000
,
00000001
00000000
00001000
00000100
00000000
00010000
00001000
00010000
01000000
10000000
00100000
01000000
00010000
10000000
00100000
00000000
,
10000000
00100000
01000000
00010000
00001000
00000010
00000100
00000001
00000010
00000100
00001000
00010000
00100000
01000000
10000000
00000000
,
02200000
00000000
00000000
03300000
,
00011000
00000000
00010000
01000000
00010000
01000000
00010000
00001000
00010000
00000000
00001000
00000100
00001000
00000100
00001000
00010000
,
00001000
00000000
00010000
00100000
01000000
00000000
00010000
00000000
00100000
00000000
00010000
10000000
00100000
01000000
00010000
00000000
,
10000000
00000000
01000000
00010000
01000000
00010000
01000000
00100000
00001000
00000000
00010000
00001000
00010000
00001000
00000100
00000010
,
00001000
00000000
00001001
00000000
00000001
00000011
00000000
00001000
00001100
00000000
00000100
00010000
00001000
00010000
01000000
10000000
,
00100000
00000000
01000000
00010000
01000000
10000000
01000000
00100000
01000000
00000000
00100000
10000000
01000000
00010000
00001000
00000010
,
00000100
00000000
00000010
00000001
00000100
00001000
00010000
00100000
01000000
00000000
00100000
20100000
00000000
00000000
30010000
10000000
,
11000000
00000000
00000000
00000000
00100000
00110000
00000000
00000000
00001000
00000000
00011000
00000000
00010000
00000000
00000000
00000110
,
00000000
00000001
00001000
00000001
00000010
00000000
00000000
00000100
00010000
00001000
00010000
00001000
01000000
00100000
10000000
01000000
,
11000000
01000000
01010000
00010000
00011000
00001000
00001100
00000110
00000000
00000000
00000000
00000000
;
