#TITLE:DISPARATE;
#ARTIST:BEMANI Sound Team "Captain Sonic";
#ARTISTTRANSLIT:Captain Sonic;
#BANNER:DISPARATE.png;
#BACKGROUND:DISPARATE-bg.png;
#JACKET:DISPARATE-jacket.png;
#CDTITLE:./CDTITLES/BEATMANIA IIDX.PNG;
#MUSIC:DISPARATE.ogg;
#SAMPLESTART:49.2;
#SAMPLELENGTH:15;
#DISPLAYBPM:200;
#BPMS:0=200;

//---------------dance-single - t7r----------------
#NOTES:
     dance-single:
     t7r:
     Beginner:
     4:
     :
0000
0000
0000
0000
,
0000
0000
0000
0000
,
0000
0000
0000
0000
,
0000
0000
0000
0000
,
0000
0000
0000
0000
,
0000
0000
0000
0000
,
0000
0000
0000
0000
,
0000
0000
0000
0000
,
0000
0000
0010
0000
,
1000
0000
0000
0000
,
1000
0000
0000
0000
,
0000
0000
0001
0000
,
0000
0000
0001
0000
,
0001
0000
0000
0000
,
0100
0000
0000
0000
,
0010
0000
0010
0000
,
0010
0000
0000
0000
,
1000
0000
0000
0000
,
0000
1000
1000
0000
,
1000
0000
0000
0000
,
0000
0001
0001
0000
,
0001
0000
0000
0000
,
0000
0100
0100
0000
,
0100
0000
0000
0000
,
0100
0000
0000
0000
,
0010
0000
0010
0000
,
0010
0000
0000
0000
,
1000
0000
1000
0000
,
1000
0000
0000
0000
,
0001
0000
0001
0000
,
0001
0000
0000
0000
,
0010
0000
0000
0000
,
0010
0000
0000
0000
,
0001
0000
0000
0000
,
0000
0000
0000
0000
,
1000
0000
0000
0000
,
0000
0000
0000
0000
,
0010
0000
0010
0000
,
0010
0000
0000
0000
,
0010
0000
0000
0000
,
0010
0000
0000
0000
,
0000
0000
0100
0000
,
0000
0000
0100
0000
,
0000
0000
0010
0000
,
0000
0000
0010
0000
,
0000
0000
1000
0000
,
0000
0000
1000
0000
,
0000
0000
0001
0000
,
0000
0000
0001
0000
,
0000
0000
0010
0000
,
0000
0000
0010
0000
,
0000
0000
0100
0000
,
0000
0000
0100
0000
,
0000
0000
1000
0000
,
0000
0000
1000
0000
,
1000
0000
0000
0000
,
0001
0000
0000
0000
,
0100
0000
0100
0000
,
0100
0000
0000
0000
,
0010
0000
0010
0000
,
0010
0000
0000
0000
,
1000
0000
1000
0000
,
1000
0000
0000
0000
,
0001
0000
0001
0000
,
0001
0000
0000
0000
,
0010
0000
0000
0000
,
0100
0000
0000
0000
,
1000
0000
0000
0000
,
0001
0000
0000
0000
,
0100
0000
0100
0000
,
0010
0000
0010
0000
,
1000
0000
1000
0000
,
1000
1000
1000
0000
,
0000
0001
0000
0001
,
0000
0001
0000
0000
,
0000
1000
0000
1000
,
0000
1000
0000
0000
,
0000
0010
0000
0010
,
0000
0010
0000
0000
,
0000
0100
0000
0100
,
0000
0100
0000
0000
,
0010
0000
0010
0000
,
0010
0000
0000
0000
,
1000
0000
1000
0000
,
1000
0000
0000
0000
,
0001
0000
0001
0000
,
0001
0000
0000
0000
,
0100
0000
0010
0000
,
0100
0100
0100
0000
;

//---------------dance-single - t7r----------------
#NOTES:
     dance-single:
     t7r:
     Easy:
     10:
     :
0000
0000
0000
0000
,
0000
0000
0000
0000
,
0000
0000
0000
0000
,
0000
0000
0000
0000
,
0000
0000
0000
0000
,
0000
0000
0000
0000
,
0000
0000
0000
0000
,
0000
0000
0000
0000
,
0000
0000
0010
0010
,
1001
0000
1000
0000
,
0001
0100
0001
0000
,
0100
0000
1001
0000
,
0001
0010
0100
0000
,
1000
0010
0100
0010
,
1000
0100
0010
0001
,
1000
1000
0001
0001
,
0100
0010
0100
0000
0001
0000
1000
0000
,
0002
0013
0000
0011
,
1000
0100
0000
1001
,
2000
3010
0000
1010
,
0001
0100
0000
1001
,
0002
0013
0000
1001
,
1000
0100
1100
0010
,
1000
0100
0001
0100
,
1000
0010
0001
0010
,
1000
0100
0001
0100
,
1000
0001
0100
0100
,
0001
0010
1000
0010
,
0001
0100
0010
0010
,
1000
0100
1100
0000
,
0001
0100
0101
0000
,
0001
0100
1000
0100
,
0001
0010
0200
0000
,
0310
0000
0000
0000
,
0000
0000
0000
0000
,
0001
0000
0000
0000
,
0000
0000
0000
0000
,
0100
0000
0100
0000
,
0010
0000
1001
0000
,
1000
1000
0100
0100
,
1000
0001
1000
0000
0001
0000
0001
0000
,
0100
0000
0000
0000
1001
0000
0000
0010
,
0100
0100
1001
0000
,
0010
0000
0000
0000
1001
0000
0000
0100
,
0010
0010
1001
0000
,
0001
0000
0000
0000
0110
0000
0000
1000
,
0001
0001
0110
0000
,
1000
0000
0000
0000
0110
0000
0000
0001
,
1000
1000
0110
0000
,
0001
0000
0000
0000
0011
0000
0000
0001
,
0100
0100
1001
0000
,
1000
0000
0000
0000
0110
0000
0000
1000
,
0100
0100
1001
0000
,
0001
0000
0000
0000
1010
0000
0000
0100
,
0001
0001
0110
0000
,
0010
1000
0001
0100
,
0010
0001
1000
0100
,
0010
0000
0010
1000
,
0100
0100
0010
0001
,
0100
0000
0100
0001
,
0010
0010
0100
1000
,
0001
0000
0001
0010
,
1000
1000
0010
0001
,
1000
0000
1000
0010
,
0001
0001
0010
2000
,
3001
0000
0100
0000
0010
0100
0000
0000
,
0001
0000
0110
0110
,
1000
0000
0100
0000
0010
0100
0000
0000
,
1000
0000
0110
2000
,
3001
0000
0010
0000
,
1000
0000
0100
0000
,
1000
1000
0001
0001
,
0100
0010
0100
0000
0010
0000
1000
1000
,
0001
0000
0010
0000
0100
0100
0000
0000
,
1001
0000
0000
1000
0000
0000
1001
0000
,
1000
0000
0010
0000
0100
0100
0000
0000
,
1010
0000
0000
0001
0000
0000
1001
0000
,
0011
0000
0100
0000
0001
0001
0000
0010
,
0010
0000
0000
0110
0000
0000
1100
0000
,
1001
0000
0010
0000
1000
1000
0000
0100
,
0100
0000
0000
0010
0000
0000
1001
0000
,
0001
0010
0100
0001
,
0100
1000
0010
0001
,
1000
0100
0010
1000
,
0001
0010
1000
0001
,
0100
0000
1000
0000
0010
0010
0000
0100
,
0100
0000
0000
0001
0000
0000
1001
0000
,
0001
1001
1000
1010
,
0010
0100
0010
0100
0002
0000
2000
0000
,
3003
0000
0000
0000
;

//---------------dance-single - t7r----------------
#NOTES:
     dance-single:
     t7r:
     Medium:
     13:
     :
0000
0000
0000
0000
,
0000
0000
0000
0000
,
0000
0000
0000
0000
,
0000
0000
0000
0000
,
0000
0000
0000
0000
,
0000
0000
0000
0000
,
0000
0000
0000
0000
,
0000
0000
0000
0000
,
0000
0000
0000
0000
1000
0000
0001
0001
,
0100
0000
0010
0000
1000
0100
0000
0100
,
0010
0000
0001
0100
0000
0001
0010
0001
,
0100
0000
0010
0000
1001
0000
0000
1000
,
0010
0000
0100
0010
0000
1000
0100
0010
,
0001
1000
0110
1000
,
0001
1000
0110
0001
,
1000
0100
1000
0000
0001
0100
0001
0000
,
1000
0010
0100
0001
1000
0000
0110
0000
,
2000
0000
3100
0010
0000
0100
1000
0000
,
0001
0100
0001
1001
,
0002
0000
0103
1000
0000
0100
0001
0000
,
1000
0100
1000
1001
,
2000
0000
3010
0001
0000
0010
1000
0000
,
0001
0010
0001
0011
,
0001
0100
0010
0000
0100
0000
1001
0000
,
1000
0100
0010
0000
0001
0000
0110
0000
,
0001
0100
0000
0001
1000
0100
0000
1000
,
0001
0000
0100
0000
0010
0000
0000
0020
0000
0000
1030
0000
0001
0000
0000
0000
,
1000
0100
0000
1000
0001
0100
0000
0001
,
1000
0000
0100
0000
0010
0000
0000
0020
0000
0000
0031
0000
1000
0000
0000
0000
,
0001
0100
0000
0001
0010
0100
0000
1000
,
0010
0000
0100
0000
0001
0000
0000
0002
0000
0000
1003
0000
0100
0000
0010
0000
,
0001
0000
0101
0000
1000
0000
1100
1000
,
0001
0100
0010
1000
0002
0000
2003
0000
,
3010
0000
0000
0000
,
0000
0000
0000
0000
,
1000
0000
0000
0000
,
0000
0000
0000
0000
,
0010
0000
0100
0000
,
0010
0000
1001
0000
,
1000
1000
0100
0100
,
1000
0001
1000
0001
0100
0000
0010
0000
,
2000
0000
0000
3000
0110
0000
0000
0001
,
0100
0000
0010
0000
1001
0000
0001
0010
,
0200
0000
0000
0300
1001
0000
0000
1000
,
0100
0000
0010
0000
1001
0000
0001
0100
,
0020
0000
0000
0030
1001
0000
0000
1000
,
0010
0000
0100
0000
1001
0000
0001
1000
,
0002
0000
0000
0003
0110
0000
1000
0001
,
0100
0000
0001
0010
0000
0001
0100
0010
,
0100
0100
0100
0000
1001
0000
0000
1000
,
0100
0000
0110
0000
1001
0000
0001
0100
,
0010
0200
0000
0300
1001
0000
0000
0001
,
0100
0000
0110
0000
1010
0000
0001
0010
,
0200
0000
0000
0300
0011
0000
0000
1000
,
0100
0000
1100
0000
1010
0000
0001
1000
,
0100
0001
0100
0000
1000
0010
0000
0010
,
0100
0000
0010
1000
0000
1000
0001
0100
,
0010
1000
0100
0000
0100
1000
0001
1000
,
0100
0000
1100
0000
0101
0000
1000
0001
,
0010
0001
0100
0000
0100
0001
0010
0100
,
0110
0000
0101
0000
1001
0000
1000
1000
,
0001
0010
0100
0000
0100
1000
0001
0010
,
1000
0010
0001
0000
1010
0000
0010
0010
,
1000
0100
0010
0000
0010
0001
1000
0010
,
0100
0110
1001
0020
,
1030
0100
0010
0000
0001
0100
0000
1000
,
0100
0000
0010
1000
0000
0100
1000
0001
,
1000
0100
0010
0000
0001
0010
0000
1000
,
0010
0000
0001
0100
0000
0010
1000
0001
,
1000
0010
0001
0100
,
0001
0010
1000
0100
,
1000
0001
1000
0001
0100
0010
0100
0010
,
1000
0100
0010
0001
1000
0001
0010
0010
,
2001
0000
3001
0100
0001
0100
1000
0100
,
1000
0100
0001
0100
0010
0000
0110
0000
,
1002
0000
1003
0100
1000
0100
0001
0100
,
0001
0100
0010
0000
0110
0000
1001
0000
,
2010
0000
3001
0100
0001
0100
0010
0001
,
0010
0001
0010
1000
0010
1000
0001
0000
,
0012
0000
1003
0100
1000
0100
0010
1000
,
0010
1000
0010
0100
1000
0000
1001
0000
,
0001
0100
1000
0000
1000
0100
0010
0000
,
0110
0000
0100
0001
0010
0100
1000
0001
,
1000
0100
0001
0000
0001
0100
0010
0000
,
0110
0000
1000
0100
0010
0001
1000
0001
,
0100
0010
0001
0000
1000
0100
0010
1000
,
0001
0000
0010
0001
1000
0010
0100
1000
,
0001
0000
0010
0000
1000
0000
0000
0000
1000
0000
0100
0000
0001
0000
0100
0010
,
0100
1000
0001
0100
0020
0000
0200
0000
,
0330
0000
0000
0000
;

//---------------dance-single - t7r----------------
#NOTES:
     dance-single:
     t7r:
     Hard:
     16:
     :
0000
0000
0000
0000
,
0000
0000
0000
0000
,
0000
0000
0000
0000
,
0000
0000
0000
0000
,
0000
0000
0000
0000
,
0000
0000
0000
0000
,
0000
0000
0000
0000
,
0000
0000
0000
0000
,
0000
0000
0000
0000
0010
0100
0001
0001
,
1000
0100
0010
0000
0001
0100
0000
1000
,
0100
0000
0010
1000
0000
0001
0010
0100
,
1000
0000
0010
0000
1001
0000
0000
1000
,
0100
0000
0001
0100
0000
1000
0010
0100
,
0001
0010
1001
0100
,
1000
0001
0110
0001
,
1000
1000
0100
0001
0100
1000
0001
0001
,
0100
0010
0100
0000
0001
1000
0001
0000
0010
0000
0001
0000
1000
0000
0100
0000
,
1000
0000
0000
0000
1010
0000
0020
0000
0000
0130
0000
0100
0001
0100
0000
0000
,
0001
0000
0010
0000
0001
0000
1000
0010
0000
1000
0001
0000
1000
0000
0100
0000
,
0010
0000
0000
0000
0011
0000
0002
0000
0000
0103
0000
0100
0010
0100
0000
0000
,
0010
0000
0010
0000
1000
0000
0001
0010
0000
0001
1000
0000
0100
0000
0010
0000
,
0001
0000
0000
0000
0011
0000
0020
0000
0000
0130
0000
0100
1000
0100
0000
0000
,
1000
0000
0010
0000
1000
0000
0001
0100
0000
0001
1000
0000
0001
0000
0100
0000
,
1000
0100
0010
1000
0001
0010
0100
0001
,
0100
0000
0100
0000
0010
0000
0001
0100
0010
1000
0000
0000
0001
0010
0000
0000
,
0001
0100
1000
0100
0001
0010
1000
0010
,
0001
0000
0100
0000
1000
0000
0100
0001
0000
1000
0100
0000
0010
0001
0000
0001
,
1000
0010
0001
0010
1000
0100
0001
0100
,
1000
0000
0010
0000
0100
0000
0001
0010
0000
0010
0100
0000
1000
0010
0000
1000
,
0001
0100
0010
0001
0010
1000
0100
0001
,
0100
0000
1000
0000
0010
0000
0100
0001
0000
0000
1000
0000
0100
0010
0000
1000
,
0010
0000
0001
0000
1001
0000
0000
0000
1000
0000
0010
0000
1010
0000
0010
0100
,
0010
1000
0001
0100
0020
0000
0230
0000
,
0301
0000
0000
0000
,
0010
0000
0000
0000
,
1000
0000
0000
0000
,
0100
0000
0000
0000
,
0010
0000
0100
0000
,
0010
0000
1001
0000
,
1000
1000
0100
0100
,
0010
0010
0010
0010
0001
1000
1000
1000
,
0010
0000
0100
0010
0100
0000
0010
0000
1001
0000
0000
0000
1000
0000
0100
0000
,
0001
0000
0100
0000
0011
0000
0001
0100
,
1000
0200
0000
0310
1001
0000
0001
0010
,
1000
0000
0010
0000
1001
0000
1000
0010
,
0100
0000
1000
0100
1000
0000
0100
0001
1000
0000
0000
0000
0001
0000
0010
0000
,
1000
0000
0010
0000
1001
0000
1000
0001
,
0020
0100
0000
1030
0110
0010
0000
0001
,
0100
0000
1000
0100
0001
0010
0100
1000
,
0010
0000
0001
0010
0100
0000
0010
0000
1001
0000
0000
0000
1000
0000
0100
0000
,
0001
1000
0001
0000
0110
0000
0001
0100
,
2000
0000
3200
0300
1010
0000
1000
0010
,
0001
1000
0001
0000
0110
0000
0001
0010
,
0001
0100
0001
0100
0001
0100
0001
0000
1001
0000
0000
0000
1000
0000
0100
0000
,
0001
1000
0001
0000
0110
0001
1000
0010
,
0100
1000
0001
0010
0110
0010
0000
1000
,
0100
0010
1000
0001
0101
0100
1000
0010
,
0100
0001
0010
0000
0010
1000
0010
0001
,
1000
0000
0100
0000
0001
0000
0100
0000
0110
0000
0000
0000
1000
0001
1000
0000
,
0010
1000
0100
0000
0100
0001
0100
1000
,
0100
0000
0010
0000
0010
0000
0010
0000
0110
0000
0000
0000
0001
1000
0001
0000
,
1000
0100
0010
0000
0010
1000
0001
0100
,
0010
0000
0001
0000
1000
0000
0100
0000
0110
0000
0000
0000
1000
0100
0010
0000
,
0001
0100
0010
0000
0010
0001
1000
0100
,
0110
0000
0000
0000
0110
0000
0000
0000
1001
0000
0000
0000
1000
0001
1000
0001
,
1000
0100
0010
1000
0010
0001
0100
1000
,
0100
0000
0010
0000
1000
0000
0001
0000
1000
0000
0100
0000
0010
0001
0010
0001
,
1000
0010
0001
1000
0100
0010
1000
0100
,
0001
1000
0010
0100
1000
0001
0100
0100
,
0202
0303
0000
0000
0020
0030
0000
0000
2000
3000
0000
0000
0200
0300
0000
0000
,
2200
3300
0000
0000
0020
0030
0000
0000
0002
0003
0000
0000
0200
0300
0000
0000
,
0010
0000
0100
0001
1000
0000
0100
1000
0001
0000
1000
0100
0010
0000
0001
0000
,
0100
0000
0100
0000
0100
0000
0100
0000
0010
1000
0001
1000
0010
0000
0010
0000
,
1002
0000
1003
0100
0001
0001
0100
1000
,
1000
0000
1000
0000
0100
0000
0010
0000
0001
0100
0001
1000
0010
0000
0100
0000
,
2001
0000
3001
0100
1000
1000
0100
0001
,
0001
0000
0001
0000
0100
0000
0010
0000
1000
0100
1000
0001
0010
0000
0100
0000
,
0210
0000
1300
0010
0010
0010
0001
0010
,
0010
0000
0010
0000
0100
0000
0001
0000
0010
0100
1000
0001
0100
0000
0010
0000
,
0210
0000
0301
0010
0010
0010
1000
0010
,
0010
0000
0010
0000
0100
0000
1000
0000
0010
0100
0001
1000
0010
0000
0001
0000
,
1000
0100
0001
1000
0100
0001
1000
0010
,
0001
0000
1000
0000
0010
0000
0001
0010
0100
0000
0010
1000
0001
0000
1000
0001
,
0010
1000
0001
0100
0010
0001
1000
0010
,
0100
0000
1000
0000
0001
0000
0010
0100
0001
0000
1000
0001
0010
0000
1000
0000
,
0001
0100
1000
0001
0100
1000
0001
0010
,
0100
0000
1000
0000
0001
0000
0010
1000
0001
0000
0010
0100
1000
0000
0001
0000
,
1001
0000
0000
0000
0011
0000
0000
0000
0110
0000
0000
0000
1010
0000
0001
0100
,
1000
1000
0100
0010
2000
0000
0002
0000
,
3003
0000
0000
0000
;

//---------------dance-single - t7r----------------
#NOTES:
     dance-single:
     t7r:
     Challenge:
     18:
     :
0000
0000
0000
0000
,
0000
0000
0000
0000
,
0000
0000
0000
0000
,
0000
0000
0000
0000
,
0000
0000
0000
0000
,
0000
0000
0000
0000
,
0000
0000
0000
0000
,
0000
0000
0000
0000
,
0000
0000
0000
0000
1000
0001
0100
0100
,
1000
0100
0010
0100
0001
0100
0010
0100
,
1000
0100
0010
0100
0001
0010
0100
0010
,
1000
0000
0010
0000
1001
1000
0100
0010
,
0100
0001
0100
0010
0100
1000
0010
0100
,
1000
0100
0010
0100
0001
0100
0010
0100
,
1000
0100
0010
0100
0001
0010
0100
0010
,
0001
0100
0101
0001
1001
1000
1100
0100
,
1000
0010
1000
0010
0100
0001
0100
0001
1000
0000
0100
0000
0010
0000
0001
0000
,
1000
0000
0100
0000
0010
0000
0200
0000
0301
0100
0000
1000
0001
0100
0010
0100
,
0001
0000
0100
0000
0010
0000
0100
1000
0000
0100
0000
0100
0010
0100
1000
0100
,
0001
0000
0100
0000
0010
0000
0200
0000
1300
0100
0000
0001
1000
0100
0010
0100
,
1000
0000
0100
0000
0010
0000
0100
0001
0000
0100
0000
0100
0010
0100
0001
0100
,
1000
0000
0010
0000
0100
0000
0020
0000
0031
0010
0000
1000
0001
0010
0100
0010
,
0001
0000
0010
0000
0100
0000
0010
1000
0000
0010
0000
0010
0100
0010
1000
0010
,
0001
0000
0100
0000
0010
0000
0100
0000
1000
0000
0100
0000
0010
0100
0000
0100
,
0010
0000
0010
0000
1000
0000
0001
0010
0000
0001
0100
0001
1000
0100
0010
0100
,
1000
0000
0010
0100
0010
0000
1000
0000
0001
0000
0010
0100
0010
0000
0001
0000
,
1000
0000
0010
0100
0010
0000
0001
0010
0000
0010
0100
0010
1000
0001
0100
0001
,
1000
0000
0100
0010
0100
0000
1000
0000
0001
0000
0100
0010
0100
0000
0001
0000
,
1000
0000
0100
0010
0100
0000
0001
0100
0000
0100
0010
0100
1000
0001
0100
0001
,
1000
0000
0100
0010
1000
0000
0010
0000
0100
0000
0010
0001
1000
0000
0001
0000
,
0100
0000
0010
0001
0010
0000
0100
0010
0000
0010
0100
0010
1000
0001
0100
0001
,
0010
0000
0001
0000
0101
0000
0001
0000
1000
0000
0010
0000
1010
0000
1000
0010
,
0100
1000
0100
0001
0200
0000
0320
0000
,
1030
0200
0010
0000
1300
0100
0000
0200
,
0010
0000
1300
0100
0000
0100
0010
0001
,
1000
0020
0100
0000
1030
0010
0000
0020
,
0100
0000
1030
0010
0000
0010
0100
0001
,
1000
0200
0001
0000
1300
0100
0000
0200
,
0001
0000
1300
0100
0000
0100
0001
0100
,
0110
0110
0011
0011
,
0001
0001
0100
0100
0010
0010
1000
1000
,
0001
0010
0100
1000
0001
0010
0100
1000
0001
0000
0100
0000
0010
0000
0001
0000
,
0011
0010
0110
0000
0101
0001
0010
0100
,
2000
0010
0000
3001
1001
1000
0100
0010
,
1010
0010
0110
0100
1100
0100
0010
0001
,
1000
0100
0010
0001
1000
0100
0010
0001
1000
0000
0010
0000
0100
0000
1000
0000
,
1100
0100
0110
0000
1010
1000
0100
0010
,
0002
0100
0000
1003
1001
0001
0010
0100
,
0101
0100
0110
0010
0011
0010
0100
1000
,
0001
0100
0010
0001
1000
0100
0010
1000
0001
0000
0010
0000
0011
0000
0001
0000
,
1001
0001
0101
0001
1001
0001
1000
0001
,
2000
0100
0000
3010
1010
1000
1001
1000
,
1100
0000
1000
0000
1100
0000
1000
0000
1001
0000
1000
0000
0001
0000
1000
0001
,
1000
0100
0010
1000
0001
0100
0010
0001
1000
0000
0010
0000
0010
0000
0010
0000
,
0110
0010
0110
0100
0101
0001
1000
0100
,
1100
0100
0010
0100
0101
0001
0100
1000
,
1010
0010
0100
0010
0011
0001
0010
1000
,
1010
0010
0110
0000
0102
0010
1003
0000
,
0102
0000
0010
0000
1003
0000
0000
0000
0102
0000
0010
0000
1003
0100
0010
0000
,
0011
0010
0110
0000
2100
0010
0001
3001
,
2100
0000
0010
0000
0001
0000
3001
0000
2100
0000
0010
0000
3001
1000
0100
0000
,
0110
0010
0011
0000
0102
0010
1003
0000
,
0102
0000
0010
0000
1003
0000
0000
0000
0102
0000
0010
0000
1003
0001
1000
0000
,
1010
0010
0110
0000
2010
0001
0100
3100
,
2010
0000
0001
0000
0100
0000
3100
0000
2010
0000
0010
0000
3001
0010
1000
0010
,
0001
0100
0010
0001
0011
0010
1010
1000
,
1100
0000
0100
0000
0101
0000
0001
0000
0101
0000
0100
0000
0010
0001
1000
0001
,
1000
0010
0100
1000
1100
0100
0110
0100
,
0101
0000
0001
0000
0011
0000
0010
0000
1010
0000
0010
0000
0001
0100
0010
1000
,
0002
0100
1000
0013
0002
0100
1000
0013
,
0002
0010
1000
0103
0002
0010
1000
0103
,
0010
0000
0001
0010
0100
0000
0001
0010
0100
0000
0010
0100
1000
0000
0010
0000
,
0100
0000
0000
0000
0000
0000
0000
0000
0100
0000
0000
0000
0000
0000
0000
0000
0100
0000
0000
0000
0000
0000
0000
0000
0100
0000
0000
0000
0000
0000
0000
0000
0001
0000
0000
0000
1000
0000
0000
0000
0001
0000
0000
0000
1000
0000
0000
0000
0200
0300
0000
0000
0000
0000
0000
0000
0200
0300
0000
0000
0000
0000
0000
0000
,
0001
0100
0010
1000
0001
0000
0100
0000
0100
0000
1100
0000
0110
0000
0100
0000
,
1100
0000
0100
0000
0110
0000
0100
0000
0010
0100
0001
0010
0100
0000
0010
0000
,
0001
0010
0100
1000
0001
0000
1000
0000
0100
0000
0101
0000
0110
0000
0100
0000
,
0101
0000
0100
0000
0110
0000
0100
0000
1000
0010
0100
0001
0010
0100
1000
0001
,
1000
0100
0010
0001
0010
0000
0010
0000
0010
0000
0110
0000
1010
0000
0010
0000
,
0110
0000
0010
0000
1010
0000
0010
0000
0011
0000
0010
0001
1000
0000
0010
1000
,
0001
0010
0100
1000
0010
0000
0010
0000
0010
0000
0011
0000
0110
0000
0010
0000
,
0011
0000
0010
0000
0110
0000
0010
1000
0001
0000
0010
0001
1000
0000
0100
0000
,
1000
0010
1000
0010
1000
0000
0001
0010
0001
0010
0001
0000
1000
0100
1000
0100
,
1000
0000
0001
0100
0001
0100
0001
0000
1000
0010
0100
0001
0010
0100
1000
0001
,
1000
0001
0010
0001
1000
0000
0001
1000
0010
1000
0001
0000
1000
0100
1000
0001
,
1000
0000
0001
0100
0001
1000
0001
0000
1000
0010
0100
0001
0010
0100
1000
0001
,
0100
0010
0100
0001
0100
0000
0010
0100
0010
1000
0010
0000
1000
0100
0010
0100
,
1000
0000
0001
0010
0100
0010
0001
0000
1000
0010
0100
0001
0010
0100
1000
0001
,
1000
0000
0100
0000
1100
0000
1000
0000
0001
0000
0100
0000
0101
0000
0001
1000
,
0100
0100
0110
0010
1002
0000
0103
1010
,
0001
0000
0000
0000
;

//---------------dance-double - t7r----------------
#NOTES:
     dance-double:
     t7r:
     Easy:
     10:
     :
00000000
00000000
00000000
00000000
,
00000000
00000000
00000000
00000000
,
00000000
00000000
00000000
00000000
,
00000000
00000000
00000000
00000000
,
00000000
00000000
00000000
00000000
,
00000000
00000000
00000000
00000000
,
00000000
00000000
00000000
00000000
,
00000000
00000000
00000000
00000000
,
00000000
00000000
00000000
00000000
,
10000000
01000000
11000000
00000000
,
10000000
00000000
00000000
00100000
00000000
00000000
00010000
00000000
,
00001000
00000000
00011000
00000000
,
00001000
00000000
00000000
00000100
00000000
00000000
00000010
00000000
,
00001000
00000001
00000011
00000000
,
00000001
00001000
00001100
00000000
,
00000100
00000100
00010000
00010000
,
00001000
00010000
00001000
00000000
00022000
00000000
00033000
00000000
,
00020000
01030000
00000000
11000000
,
10000000
00100000
10000000
00010000
,
20000000
30100000
00000000
10100000
,
00100000
00010000
00001000
00000000
,
00020000
00031000
00000000
00011000
,
00010000
00001000
00000010
00000000
,
00000100
00000100
00000010
00000001
,
00000100
00000100
00001000
00010000
,
00001000
01000000
00010000
10000000
,
00010000
00100000
01000000
10000000
,
01000000
00100000
00001000
00010000
,
00001000
00000100
00000001
00001000
,
00000001
00000010
00000100
00000010
,
00000001
00001000
00000100
00010000
,
00001000
00010000
01000000
10000000
,
00100000
00100000
02000000
03200000
,
10300000
00000000
00000000
00000000
,
00000000
00000000
00000000
00000000
,
01000000
00000000
00000000
00000000
,
00000000
00000000
00000000
00000000
,
00010000
00000000
00001000
00000000
,
00010000
00000000
00011000
00000000
,
00000010
00000010
00000100
00000100
,
00000001
00001000
00000001
00000000
00001000
00000000
00001000
00000000
,
00000100
00000000
00000000
00000000
00011000
00000000
00000000
01000000
,
00010000
00000000
10010000
00000000
,
01000000
00000000
00000000
00000000
00011000
00000000
00000000
00010000
,
00000100
00000000
00001001
00000000
,
00000010
00000000
00000000
00000000
00011000
00000000
00000000
00001000
,
00100000
00000000
10010000
00000000
,
01000000
00000000
00000000
00000000
10010000
00000000
00000000
10000000
,
00100000
00000000
00011000
00000000
,
00001000
00000100
00001000
00000000
00011000
00000000
00000000
00010000
,
01000000
00000000
00010000
00000000
00011000
00000000
00000000
00010000
,
00100000
00000000
00000000
00000000
10010000
00000000
00000000
10000000
,
01000000
10000000
00010000
00000000
10010000
00000000
00000000
10000000
,
01000000
00010000
00001000
00000000
00011000
00000000
00000000
00001000
,
00000010
00000000
00001000
00000000
00011000
00000000
00000000
00010000
,
00100000
00000000
10000000
00000000
10010000
00000000
00000000
10000000
,
01000000
00010000
00011000
00000000
,
00001000
00000100
00000001
00000001
,
00000010
00000010
00000001
00000010
,
00001000
00000000
00010000
00000000
01000000
00100000
01000000
00000000
,
10000000
10000000
10100000
00010000
,
10000000
00100000
00010000
00010000
,
00001000
00001000
00011000
00001000
,
00000010
00000000
00000001
00000000
00000100
00000010
00000100
00000000
,
00000010
00000010
00010000
00021000
,
00031000
00010000
01000000
10000000
,
00100000
01000000
00001000
00010000
,
00001000
00000100
00000001
00000010
,
00000100
00010000
00001000
00010000
,
01000000
00000000
10000000
00000000
,
00100000
00000000
00010000
00000000
,
00001000
00001000
00010000
00010000
,
00001000
00001000
00001000
00000000
00022000
00000000
00033000
00000000
,
00001000
00000000
00000100
00000000
00000000
00000001
00000001
00000000
,
00000010
00000100
00010000
00001000
,
00011000
00000000
00010000
00000000
00000000
01000000
01000000
00000000
,
10000000
00100000
01000000
00010000
,
10010000
00000000
10000000
00000000
00000000
00100000
00100000
00000000
,
00010000
00001000
00000010
00000100
,
00000110
00000000
00000001
00000000
00000000
00000100
00000100
00000000
,
00000010
00001000
00000100
00010000
,
00001000
00000000
00010000
00000000
01000000
10000000
00000000
00000000
,
00100000
00000000
01000000
00010000
00000000
00000000
00100000
00000000
,
00001000
00000000
00010000
00000000
00001000
00000100
00000000
00000000
,
00000001
00000000
00000010
00000100
00000000
00000000
00001000
00000000
,
00000001
00000000
00000100
00000000
00001000
00010000
00000000
00000000
,
01000000
00000000
10000000
00100000
00000000
00000000
10000000
00000000
,
00010000
00100000
00101000
00001000
,
00010000
00000010
00000100
00000000
00000002
00000000
00002000
00000000
,
00003003
00000000
00000000
00000000
;

//---------------dance-double - t7r----------------
#NOTES:
     dance-double:
     t7r:
     Medium:
     13:
     :
00000000
00000000
00000000
00000000
,
00000000
00000000
00000000
00000000
,
00000000
00000000
00000000
00000000
,
00000000
00000000
00000000
00000000
,
00000000
00000000
00000000
00000000
,
00000000
00000000
00000000
00000000
,
00000000
00000000
00000000
00000000
,
00000000
00000000
00000000
00000000
,
00000000
00000000
00000000
00000000
00000000
00000000
10000000
10000000
,
01000000
00000000
00100000
00000000
00001000
00010000
00000000
00001000
,
00000100
00000000
00000010
00000100
00000000
00000001
00001000
00000001
,
00000100
00000000
00000010
00000000
00001001
00000000
00000000
00000001
,
00000010
00000000
00000100
00010000
00000000
00001000
00010000
00001000
,
01000000
00100000
10100000
10000000
,
01000000
00100000
00101000
00001000
,
00010000
00000100
00010000
00000000
00001000
01000000
00001000
00000000
,
00010000
00001000
00010000
00001000
00010000
00000000
00011000
00000000
,
00002000
00000000
00003100
00000010
00000000
00000100
00000001
00000000
,
00000010
00000100
00000010
00000011
,
00000002
00000000
00001003
00000100
00000000
00010000
00001000
00000000
,
00010000
00000000
01000000
00000000
10000000
00100000
01000000
00010000
,
20000000
00000000
30100000
00010000
00000000
00100000
01000000
00000000
,
00100000
10000000
01000000
11000000
,
10000000
01000000
00010000
00001000
,
00010000
00000100
00010000
00000000
00001000
01000000
00001000
00000000
,
00010000
00001000
00000000
00000100
00000001
00001000
00000000
00000100
,
00010000
00000000
00000000
00000000
00001000
00000000
00000000
00002000
00000000
00000000
00013000
00000000
01000000
00000000
00000000
00000000
,
10000000
00100000
00000000
01000000
00010000
10000000
00000000
01000000
,
00010000
00000000
00001000
00000000
00010000
00000000
00000000
00020000
00000000
00000000
00031000
00000000
00000100
00000000
00000000
00000000
,
00000001
00000010
00000000
00001000
00010000
00001000
00000000
00010000
,
00100000
00000000
00000000
00000000
01000000
00000000
00000000
02000000
00000000
00000000
03010000
00000000
10000000
00000000
00000000
00000000
,
01000000
00000000
00100000
00000000
00110000
00000000
00001000
00010000
,
00001000
00000010
00000100
00000000
00000020
00000000
00000032
00000000
,
00001003
00000000
00000000
00000000
,
00000000
00000000
00000000
00000000
,
00000001
00000000
00000000
00000000
,
00000000
00000000
00000000
00000000
,
00000100
00000000
00001000
00000000
,
00010000
00000000
00011000
00000000
,
00010000
00010000
01000000
01000000
,
10000000
00010000
10000000
00010000
01000000
00000000
00100000
00000000
,
20000000
00000000
00000000
31000000
00010000
00000000
00001000
00010000
,
00001000
00010000
00011000
00001000
,
00000200
00000000
00000000
00000310
00001000
00000000
00000001
00000010
,
00000001
00001000
00001001
00000001
,
00000200
00000000
00000000
00001300
00010000
00000000
00001000
00010000
,
00001000
00000000
00010000
00000000
00011000
00000000
00010000
01000000
,
20000000
00000000
00000000
30100000
01000000
00000000
00100000
10000000
,
00010000
10000000
10010000
10000000
,
01000000
00010000
00001000
00010000
00001000
00000000
00000100
00000010
,
00000100
00000000
00000001
00000000
00001001
00000000
00000001
00000010
,
00002000
00000000
00000000
00013000
00001000
00000000
00010000
01000000
,
00100000
00000000
01000000
00000000
11000000
00000000
10000000
00010000
,
10000000
00100000
00010000
00001000
00010000
00000000
00001000
00000010
,
00000100
00000000
00010000
00000000
00011000
00000000
00001000
00000100
,
00000002
00000000
00000000
00000013
00000001
00000000
00001000
00010000
,
10000000
00000000
10010000
00000000
,
10000000
01000000
00100000
00000000
11000000
00000000
11000000
00000000
,
10010000
00000000
10010000
00000000
00010000
01000000
00001000
00000000
,
00010000
00000100
00000010
00000000
00000100
00001000
00000001
00001000
,
00001001
00000000
00000101
00000000
00001001
00000000
00000001
00000100
,
00001000
00010000
00001000
00000000
00011000
00000000
00100000
00000000
,
10010000
00000000
10010000
00000000
01100000
00000000
10000000
00010000
,
10000000
01000000
00100000
00000000
01000000
00010000
01000000
00010000
,
00001000
00010000
00001000
00000100
00000010
00000100
00000002
00000000
,
00001003
00000010
00000100
00000000
00000001
00000010
00000000
00000100
,
00001000
00000000
00010000
00100000
00000000
01000000
10000000
00010000
,
10000000
00100000
01000000
00000000
00100000
10000000
00000000
01000000
,
00010000
00000000
00001000
00000100
00000000
00000001
00001000
00000001
,
00000010
00001000
00010000
00100000
,
10000000
01000000
00010000
00001000
,
00000100
00000010
00000100
00000010
00001000
00000100
00001000
00000100
,
00010000
00001000
00010000
00001000
00010000
01000000
10000000
10000000
,
00200000
00000000
10300000
01000000
10000000
01000000
00010000
00001000
,
00010000
00001000
00000100
00000001
00001000
00000000
00001001
00000000
,
00000021
00000000
00000031
00000100
00000001
00000100
00001000
00010000
,
00001000
00010000
01000000
10000000
00010000
00000000
01100000
00000000
,
10020000
00000000
10030000
00100000
10000000
00100000
00010000
00001000
,
00010000
00001000
00000010
00000100
00000010
00000000
00000110
00000000
,
00002001
00000000
00003001
00000010
00000001
00000010
00001000
00010000
,
00001000
00010000
00100000
10000000
01000000
00000000
01100000
00000000
,
10000000
01000000
00100000
01000000
00010000
00001000
00000000
00000100
,
00000010
00000000
00001000
00000100
00000000
00010000
00001000
00010000
,
01000000
10000000
00100000
00000000
00010000
00001000
00000000
00000010
,
00000100
00000000
00010000
00001000
00000100
00000010
00001000
00000001
,
00000010
00001000
00010000
00000000
01000000
00100000
00000000
00001000
,
00010000
00000000
00001000
01000000
00000000
00010000
00100000
00010000
,
10000000
00000000
01100000
00000000
00001000
00000000
00011000
00010000
,
00001000
00000100
00000001
00000010
00000200
00000000
00020000
00000000
,
00030300
00000000
00000000
00000000
;

//---------------dance-double - t7r----------------
#NOTES:
     dance-double:
     t7r:
     Hard:
     16:
     :
00000000
00000000
00000000
00000000
,
00000000
00000000
00000000
00000000
,
00000000
00000000
00000000
00000000
,
00000000
00000000
00000000
00000000
,
00000000
00000000
00000000
00000000
,
00000000
00000000
00000000
00000000
,
00000000
00000000
00000000
00000000
,
00000000
00000000
00000000
00000000
,
00000000
00000000
00000000
00000000
10000000
00010000
00100000
00100000
,
00010000
00000000
01000000
00000000
00100000
10000000
00000000
01000000
,
00100000
00000000
00001000
00010000
00000000
00001000
00000100
00000001
,
00001000
00000000
00000010
00000000
00001001
00000000
00000000
00000001
,
00000100
00000000
00000010
00001000
00000000
00000001
00000010
00000100
,
00010000
00000100
00010100
00010000
,
00001000
01000000
01001000
00001000
,
00010000
00010000
01000000
01000000
10000000
10000000
00010000
00010000
,
10000000
00100000
10000000
00000000
00010000
00100000
00010000
00000000
10000000
00000000
01000000
00000000
00010000
00000000
00001000
00000000
,
00020000
00000000
00000000
00000000
00031000
00000000
00000200
00000000
00000000
00000310
00000000
00000000
00000100
00000001
00000000
00000000
,
00000010
00000000
00000100
00000000
00000010
00000000
00000001
00001000
00000000
00000001
00000100
00000000
00000010
00000000
00001000
00000000
,
00000200
00000000
00000000
00000000
00010300
00000000
00002000
00000000
00000000
00013000
00000000
00000000
01000000
00100000
00000000
00000000
,
01000000
00000000
01000000
00000000
10000000
00000000
00010000
01000000
00000000
00100000
10000000
00000000
00010000
00000000
10000000
00000000
,
00200000
00000000
00000000
00000000
00310000
00000000
00002000
00000000
00000000
00013000
00000000
00000000
00001000
00000100
00000000
00000000
,
00000010
00000000
00000100
00000000
00000001
00000000
00000010
00000100
00000000
00000010
00000001
00000000
00000100
00000000
00000010
00000000
,
00001000
00000100
00000010
00000001
00000100
00000010
00001000
00000100
,
00010000
00000000
00010000
00000000
00001000
00000000
00010000
00100000
01000000
00100000
00000000
10000000
00010000
00000000
00000000
00000000
,
10000000
01000000
00100000
01000000
10000000
01000000
00010000
00001000
,
00000100
00000000
00000010
00000000
00000100
00000000
00000001
00000010
00000000
00000001
00001000
00000000
00000001
00000100
00000000
00000100
,
00000001
00000100
00000010
00000100
00000001
00000100
00001000
00010000
,
01000000
00000000
00100000
00000000
01000000
00000000
10000000
00100000
00000000
10000000
00010000
00000000
10000000
01000000
00000000
01000000
,
10000000
00100000
01000000
00100000
10000000
00100000
00010000
00001000
,
00000010
00000000
00000100
00000000
00000010
00000000
00000001
00000100
00000000
00000001
00001000
00000000
00000001
00000010
00000000
00000010
,
00000001
00000000
00000100
00000000
00000110
00000000
00000000
00000000
00000010
00000000
00010000
00000000
00011000
00000000
00001000
00010000
,
00001000
00010000
01000000
00100000
00020000
00000000
20030000
00000000
,
30100000
00000000
00000000
00000000
,
00010000
00000000
00000000
00000000
,
00001000
00000000
00000000
00000000
,
00000100
00000000
00000000
00000000
,
00000010
00000000
00000010
00000000
,
00001000
00000000
00001001
00000000
,
00000001
00000001
00000010
00000010
,
00001000
00001000
00010000
00010000
00100000
00100000
10000000
10000000
,
00100000
00000000
01000000
00100000
01000000
00000000
00000000
00000000
10010000
00000000
00000000
00000000
10000000
00000000
01000000
00000000
,
00100000
01000000
10000000
00000000
10010000
00000000
10000000
00100000
,
00020000
00000000
00031000
00000000
00011000
00000000
00001000
00010000
,
00100000
01000000
00001000
00000000
00011000
00000000
00001000
00000010
,
00000001
00000000
00001000
00000001
00001000
00000000
00000000
00000000
00001001
00000000
00000000
00000000
00000001
00000000
00000100
00000000
,
00000010
00000100
00000001
00000000
00001001
00000000
00000001
00000010
,
00002000
00010000
00000000
00003000
00011000
00000000
00001000
00010000
,
01000000
00000000
10000000
00100000
01000000
00100000
00010000
00100000
,
10000000
00000000
01000000
00100000
01000000
00000000
00000000
00000000
10010000
00000000
00000000
00000000
10000000
00000000
00010000
00000000
,
00001000
00000000
00000001
00000000
00001001
00000000
00000001
00000100
,
00000020
00000000
00000130
00000000
00001001
00000000
00000001
00001000
,
00010000
00000000
10000000
00000000
10010000
00000000
10000000
01000000
,
10000000
00100000
10000000
00100000
10000000
00100000
10000000
00000000
10010000
00000000
00000000
00000000
10000000
00000000
00010000
00000000
,
00001000
00000000
00000001
00000000
00001001
00000000
00000001
00000100
,
00000001
00001000
00000000
00000000
10100000
00000000
10000000
01000000
,
10000000
00000000
00000011
00000000
,
00000001
00000100
00000010
00000000
00000010
00000001
00000010
00001000
,
00000010
00000000
00000000
00000000
00000110
00000000
00000000
00000000
00001001
00000000
00000000
00000000
00000001
00000100
00000001
00000000
,
00001000
00000100
00010000
00000000
00010000
00001000
00020000
00000000
,
00130000
01000000
01000000
01000000
01100000
00000000
00010000
00010000
,
10000000
01000000
00010000
00000000
00010000
01000000
00100000
00000000
,
00100000
00000000
00001000
00000000
00010000
00000000
00000000
00000000
00011000
00000000
00000000
00000000
00001000
00000100
00001000
00000100
,
00000010
00001000
00000001
00000000
00000010
00000100
00010000
00000000
,
00010100
00000000
00000000
00000000
00010100
00000000
00000000
00000000
00011000
00000000
00000000
00000000
00010000
01000000
00010000
01000000
,
00100000
00010000
01000000
00100000
10000000
01000000
00100000
00010000
,
00001000
00000000
00000010
00000000
00000100
00000000
00000001
00000000
00000010
00000000
00000100
00000000
00010000
00001000
00010000
00000000
,
00001000
00000100
00000010
00001000
00000001
00000010
00000100
00001000
,
00010000
01000000
00100000
10000000
01000000
00010000
00001000
00001000
,
00010000
01000000
10000000
00000000
00001000
00010000
00000100
00000000
,
00010000
00001000
00000010
00000000
00000001
00000100
00000010
00000000
,
00000001
00000000
00000010
00001000
00000001
00000000
00000010
00000100
00010000
00000000
00000100
00010000
00001000
00000000
01000000
00000000
,
00010000
00000000
00010000
00000000
00010000
00000000
00010000
00000000
10000000
00100000
10000000
00100000
01000000
00000000
01000000
00000000
,
10020000
00000000
10030000
01000000
00010000
00010000
01000000
10000000
,
10000000
00000000
10000000
00000000
00100000
00000000
00010000
00000000
00001000
00010000
00001000
00000000
00010000
00000000
00001000
00000000
,
00021000
00000000
00031000
00000100
00000001
00000001
00000010
00000100
,
00000100
00000000
00000100
00000000
00010000
00000000
00001000
00000000
00100000
00010000
00100000
00000000
00010000
00000000
01000000
00000000
,
01200000
00000000
10300000
01000000
01000000
01000000
00010000
00001000
,
00001000
00000000
00001000
00000000
00000100
00000000
00000001
00000010
00000100
00000010
00000001
00000000
00000100
00000000
00000010
00000000
,
00001002
00000000
00000103
00001000
00001000
00001000
00010000
01000000
,
01000000
00000000
01000000
00000000
00100000
00000000
00010000
00000000
10000000
00100000
01000000
00010000
10000000
00000000
01000000
00000000
,
00010000
00001000
00000010
00000100
00001000
00000010
00000100
00001000
,
00010000
00000000
00100000
00000000
01000000
00000000
00010000
00100000
00001000
00000000
00010000
00000000
00001000
01000000
00000000
00000000
,
00001000
00010000
00100000
01000000
00010000
00100000
01000000
00010000
,
00001000
00000000
00000010
00000000
00000100
00000000
00001000
00000010
00010000
00000000
00001000
00000000
00010000
00000100
00000000
00000100
,
00010000
00001000
00000100
00000010
00001000
00000100
00000010
00001000
,
00010000
00000000
01000000
00000000
00100000
00000000
00010000
01000000
00001000
00000000
00010000
00000000
00001000
00100000
00000000
00000000
,
00011000
00000000
00000000
00000000
00010100
00000000
00000000
00000000
00011000
00000000
00000000
00000000
00101000
00000000
00001000
00010000
,
01000000
01000000
10000000
00100000
00020000
00000000
00002000
00000000
,
00033000
00000000
00000000
00000000
;

//---------------dance-double - t7r----------------
#NOTES:
     dance-double:
     t7r:
     Challenge:
     18:
     :
00000000
00000000
00000000
00000000
,
00000000
00000000
00000000
00000000
,
00000000
00000000
00000000
00000000
,
00000000
00000000
00000000
00000000
,
00000000
00000000
00000000
00000000
,
00000000
00000000
00000000
00000000
,
00000000
00000000
00000000
00000000
,
00000000
00000000
00000000
00000000
,
00000000
00000000
00000000
00000000
00010000
00000100
00001000
00001000
,
00000001
00000100
00000010
00000100
00001000
00000100
00000010
00000100
,
00000001
00000010
00001000
00010000
00100000
01000000
00100000
10000000
,
01000000
00000000
00100000
00000000
00011000
00010000
01000000
00100000
,
01000000
10000000
00100000
01000000
00010000
00100000
00001000
00010000
,
00001000
00000100
00000010
00000100
00000001
00000010
00000100
00000010
,
00001000
00000010
00000100
00010000
00001000
00010000
01000000
10000000
,
00100000
01000000
01010000
00010000
00100000
00001000
00011000
00010000
,
00000010
00001000
00000010
00001000
00000001
00000100
00000001
00000100
00000001
00000000
00001000
00000000
00000100
00000000
00010000
00000000
,
00001000
00000000
00010000
00000000
01000000
00000000
00200000
00000000
01300000
10000000
00000000
00100000
01000000
00010000
10000000
00010000
,
01000000
00000000
00100000
00000000
10000000
00000000
01000000
00100000
00000000
01000000
00000000
01000000
00010000
01000000
00100000
01000000
,
10000000
00000000
00100000
00000000
01000000
00000000
00200000
00000000
00310000
00100000
00000000
10000000
01000000
00100000
00001000
00010000
,
00001000
00000000
00000100
00000000
00000010
00000000
00000100
00000001
00000000
00000010
00000000
00000010
00000100
00000010
00001000
00000010
,
00000100
00000000
00000010
00000000
00000001
00000000
00002000
00000000
00003010
00000100
00000000
00000010
00001000
00000010
00000100
00000010
,
00000001
00000000
00000010
00000000
00001000
00000000
00000100
00010000
00000000
00010000
00001000
00010000
00000100
00010000
00001000
00010000
,
01000000
00000000
00100000
00000000
01000000
00000000
10000000
00000000
00100000
00000000
00010000
00000000
00001000
00010000
00000000
00010000
,
00000100
00000000
00000100
00000000
00001000
00000000
00000001
00000010
00000000
00000001
00000100
00000001
00001000
00000100
00000010
00000100
,
00010000
00000000
00001000
01000000
00001000
00000000
00010000
00000000
00001000
00000000
00010000
00000100
00010000
00000000
00001000
00000000
,
00010000
00000000
01000000
00100000
01000000
00000000
00100000
00010000
00000000
00010000
10000000
00010000
00100000
00001000
00010000
00000000
,
00001000
00000000
00010000
00000100
00010000
00000000
00001000
00000000
00010000
00000000
00001000
01000000
00001000
00000000
00010000
00000000
,
00001000
00000000
00000100
00000010
00000100
00000000
00000010
00001000
00000000
00001000
00000001
00001000
00000010
00010000
00001000
00000000
,
00010000
00000000
00001000
00100000
00001000
00000000
00010000
00000000
00001000
00000000
00010000
00000010
00010000
00000000
00001000
00000000
,
00010000
00000000
00100000
01000000
00100000
00000000
01000000
00010000
00000000
00010000
10000000
00010000
01000000
00001000
00010000
00000000
,
00001000
00000000
00000010
00000000
00000011
00000000
00000001
00000000
00000100
00000000
00001000
00000000
00011000
00000000
00010000
00100000
,
01000000
00010000
00100000
00001000
00020000
00000000
00032000
00000000
,
00013000
02000000
00100000
00000000
03010000
01000000
00000000
01000000
,
00100000
00000000
00010000
01000000
00000000
01000000
00001000
00010000
,
00001000
00000200
00000010
00000000
00001300
00000100
00000000
00000100
,
00000010
00000000
00001000
00000100
00000000
00000100
00000010
00000001
,
00001000
00000020
00000001
00000000
00001030
00000100
00000000
00000200
,
00001000
00000000
00010300
01000000
00000000
01000000
10000000
00100000
,
00010000
00010000
00001000
00011000
,
00010000
00010000
00001000
00001000
00000100
00000100
00000001
00000001
,
00000010
00000000
00001000
00010000
00001000
00000000
00000000
00000000
10100000
00000000
00000000
00000000
10000000
00000000
01000000
00000000
,
00010000
00000000
00001000
00000000
00000011
00000000
00000001
00000100
,
00002000
00010000
00003000
00000000
10100000
00000000
10000000
01000000
,
00010000
00000000
00001000
00000000
00000011
00000000
00000001
00000100
,
00001000
00000000
00010000
00100000
10000000
00000000
01000000
00000000
11000000
00000000
00000000
00000000
10000000
00000000
00100000
00000000
,
00010000
00000000
00001000
00000000
00000101
00000000
00000001
00000010
,
00001000
00010000
00100000
10000000
11000000
00000000
10000000
00100000
,
00010000
00001000
00000010
00000001
00000101
00000001
00001000
00000100
,
00010000
00001000
00010000
00001000
00010000
00000000
00100000
00000000
10100000
00000000
10000000
00000000
01000000
00000000
00100000
00000000
,
00010000
00001000
00000010
00000100
00000101
00000001
00000010
00001000
,
00020000
00001000
01030000
10000000
11000000
01000000
00010000
00001000
,
00000100
00000010
00001000
00000001
00000011
00000001
00000010
00001000
,
00010000
00100000
10000000
01000000
00100000
00010000
10000000
00000000
10100000
00000000
10000000
00000000
01000000
00000000
00100000
00000000
,
00001000
00010000
00000010
00000100
00000101
00000001
00000010
00000100
,
00020000
00000100
00031000
00010000
00011000
00001000
00010000
00100000
,
10000000
00010000
00001000
00000000
00000001
00001000
00010000
00000000
,
10000000
01000000
11000000
00000000
20100000
00010000
31000000
00000000
,
20100000
00000000
00010000
00000000
31000000
00000000
00000000
00000000
10000000
00000000
01000000
00000000
00010000
00001000
00010000
00000000
,
00021000
00000100
00031000
00000000
00001000
00000100
00000001
00000001
,
00000010
00000000
00001000
00000000
00010000
00000000
00010000
00000000
00100000
00000000
01000000
00000000
00001000
00010000
00001000
00000000
,
00011000
00000000
00010100
00000000
00012000
00100000
00013000
00000000
,
00021000
00000000
00000010
00000000
00031000
00000000
00000000
00000000
00012000
00000000
00100000
00000000
00013000
00001000
00010000
00000000
,
00011000
00001000
01001000
00000000
00021000
00000100
00001000
00031000
,
00012000
00000000
01000000
00000000
00010000
00000000
00013000
00000000
00021000
00000000
00000100
00000000
00031000
00010000
00001000
00010000
,
00001000
00000100
00000010
00001000
00001100
00000100
00010100
00010000
,
00011000
00000000
00001000
00000000
01001000
00000000
01000000
00000000
01100000
00000000
00100000
00000000
10000000
00010000
10000000
00010000
,
10000000
01000000
00100000
00010000
01010000
01000000
01001000
00001000
,
00011000
00000000
00010000
00000000
00010100
00000000
00000100
00000000
00001100
00000000
00001000
00000000
00000001
00000010
00000100
00001000
,
00000001
00001000
00020000
00000000
10030000
00010000
00002000
00000000
,
00003001
00001000
00020000
00000000
10030000
00010000
00002000
00000000
,
00003010
00000000
00000001
00000010
00000100
00000000
00000001
00000010
00000100
00000000
00001000
00000100
00010000
00000000
00001000
00000000
,
00010000
00000000
00010000
00000000
00010000
00000000
00010000
00000000
01000000
10000000
00100000
01000000
00020000
00000000
00032000
00000000
,
00003001
00000100
00000010
00001000
00000001
00000000
00000010
00000000
00000010
00000000
00000110
00000000
00000011
00000000
00000010
00000000
,
00000010
00000000
00000110
00000000
00000011
00000000
00000010
00000000
00000001
00000100
00000010
00001000
00000100
00000000
00010000
00000000
,
00001000
01000000
00010000
10000000
00100000
00000000
00100000
00000000
00100000
00000000
01100000
00000000
10100000
00000000
00100000
00000000
,
01100000
00000000
00100000
00000000
10100000
00000000
00100000
10000000
00010000
00000000
00100000
00001000
00010000
00000000
00001000
00000000
,
00010000
00000100
00000010
00000001
00001000
00000000
00000010
00000000
00000010
00000000
00000110
00000000
00000011
00000000
00000010
00000000
,
00000110
00000000
00000010
00000000
00000011
00000000
00000010
00001000
00000100
00000000
00010000
00000100
00001000
00000000
00000001
00000000
,
00001000
00000100
00010000
00001000
00010000
00000000
00010000
00000000
00010000
00000000
01010000
00000000
00011000
00000000
00010000
00000000
,
01010000
00000000
00010000
00000000
00011000
00000000
00001000
00010000
01000000
00000000
00100000
00010000
10000000
00000000
00100000
00000000
,
10000000
01000000
10000000
01000000
10000000
00000000
00010000
00100000
00010000
00100000
00010000
00000000
00100000
00001000
00100000
00001000
,
00100000
00000000
00001000
00010000
00001000
00010000
00001000
00000000
00010000
00000010
00000100
00000001
00001000
00000000
00000001
00000000
,
00000100
00000001
00000100
00000001
00000100
00000000
00000010
00001000
00000010
00001000
00000010
00000000
00010000
00000100
00010000
00000100
,
00010000
00000000
00001000
00010000
00001000
00010000
00001000
00000000
01000000
00010000
10000000
00100000
01000000
00000000
00010000
00000000
,
10000000
01000000
00100000
00010000
10000000
00000000
00100000
01000000
00001000
00010000
00000100
00000000
00010000
00000010
00000100
00000001
,
00001000
00000000
00000001
00000010
00000100
00010000
00001000
00000000
00010000
00000100
00001000
00000001
00000100
00000000
00001000
00000000
,
00010000
00000000
00100000
01000000
00010000
00000000
00100000
01000000
00010000
00000000
00001000
00000000
00011000
00000000
00001000
00000100
,
00000001
00000001
00001001
00000100
00021000
00000000
00031000
00010000
,
01000000
00000000
00000000
00000000
;
