#TITLE:Crna Jutra (Balkan S&M);
#ARTIST:Milica Pavlović;
#ARTISTTRANSLIT:Milica Pavlovic;
#BANNER:Crna Jutra (Balkan S&M).png;
#BACKGROUND:Crna Jutra (Balkan S&M)-bg.png;
#JACKET:Crna Jutra (Balkan S&M)-jacket.png;
#CDTITLE:./CDTITLES/NONE.PNG;
#MUSIC:Crna Jutra (Balkan S&M).ogg;
#SAMPLESTART:90.526;
#SAMPLELENGTH:15;
#BPMS:0=114;

//---------------dance-single - t7r----------------
#NOTES:
     dance-single:
     t7r:
     Beginner:
     1:
     :
0000
0000
0000
0000
,
0000
0000
0000
0000
,
0000
0000
0000
0000
,
0000
0000
0000
0000
,
0000
0000
0000
0000
,
1000
0000
0000
0000
,
1000
0000
0000
0000
,
0001
0000
0000
0000
,
0001
0000
0000
0000
,
0100
0000
0000
0000
,
0100
0000
0000
0000
,
0010
0000
0000
0000
,
0010
0000
0000
0000
,
1000
0000
1000
0000
,
1000
0000
0000
0000
,
0001
0000
0001
0000
,
0001
0000
0000
0000
,
0000
0010
0000
0000
,
0000
0010
0000
0000
,
0000
0100
0000
0000
,
0000
0100
0000
0000
,
0000
0001
0000
0000
,
0000
0001
0000
0000
,
1000
0000
0000
0000
,
1000
0000
0000
0000
,
0010
0000
0000
0000
,
0000
0000
0000
0000
,
1000
0000
0000
0000
,
0000
0000
0000
0000
,
0001
0000
0000
0000
,
0100
0000
0000
0000
,
1000
0000
0000
0000
,
0010
0000
0000
0000
,
0000
0000
0000
0000
,
0100
0000
0100
0000
,
0100
0000
0000
0000
,
0010
0000
0010
0000
,
0010
0000
0000
0000
,
1000
0000
1000
0000
,
1000
0000
0000
0000
,
0001
0000
0001
0000
,
0001
0000
0000
0000
,
0010
0000
0000
0000
,
0001
0000
0001
0000
,
0001
0000
0000
0000
,
1000
0000
1000
0000
,
1000
0000
0000
0000
,
0010
0000
0010
0000
,
0010
0000
0000
0000
,
0100
0000
0100
0000
,
0100
0000
0000
0000
,
0001
0000
0000
0000
,
0000
0000
0000
0000
,
1000
0000
0000
0000
,
0010
0000
0000
0000
;

//---------------dance-single - t7r----------------
#NOTES:
     dance-single:
     t7r:
     Easy:
     5:
     :
0000
0000
0000
0000
,
0000
0000
0000
0000
,
0000
0000
0000
0000
,
0000
0000
0000
0000
,
0000
0000
0000
0000
,
0001
0001
0001
0000
,
1000
1000
1000
0000
,
0010
0010
0010
0010
,
0010
0010
0010
0000
,
1000
0000
0000
0000
,
1000
0000
0000
0000
,
0001
0000
0000
0000
,
0001
0000
0001
0000
,
0100
0010
0100
0000
,
0010
0100
0010
0000
,
1000
0001
1000
0000
,
0002
0000
0000
0003
,
1000
0000
1000
0000
,
1000
0100
1000
0000
,
0001
0000
0001
0000
,
0001
0100
0001
0000
,
0010
0000
0010
0000
,
0010
0001
1000
0000
,
0010
0000
0000
0100
,
0100
0000
0010
0010
,
0020
0000
0000
0000
,
2030
0000
3002
0000
,
0023
0000
0000
0000
,
0032
0000
2003
0000
,
3010
0100
0010
0000
,
1000
0001
1000
0000
,
0100
0100
0010
0010
,
0001
1000
0001
1000
,
2002
0000
0000
3003
,
1000
0100
0010
0001
,
1000
0100
0010
0010
,
0001
0100
0010
1000
,
0001
1000
0002
0000
,
1003
0100
0001
0000
,
1000
0100
0010
0000
,
0001
0100
1000
0000
,
0001
0100
0010
0000
,
0220
0000
0000
0330
,
0001
0010
0100
1000
,
0001
1000
0020
0030
,
1000
0100
0010
0001
,
1000
0001
0200
0300
,
0001
0010
2000
3000
,
0001
0100
2000
3000
,
0020
0100
0000
0001
,
0000
1030
0100
0010
,
0002
0000
0000
0000
,
0203
0000
0000
0000
,
0310
0000
0000
0000
0000
0000
0000
0000
0000
0000
0000
0000
0000
0000
0000
2000
,
0000
0000
0000
0000
,
3000
0000
0000
0000
;

//---------------dance-single - t7r----------------
#NOTES:
     dance-single:
     t7r:
     Medium:
     7:
     :
0000
0000
0000
0000
,
0000
0000
0000
0000
,
0000
0000
0000
0000
,
0000
0000
0000
0000
,
0000
0000
0000
0000
,
0010
0000
0100
0000
0001
0001
0001
0000
,
0010
0000
0100
0000
1000
1000
1000
0000
,
0010
0100
0010
0100
0000
0001
0001
0001
,
1000
1000
1000
1000
0001
1000
0001
0000
,
1000
0100
0100
0010
,
0001
0000
0100
0000
0100
0000
0010
1000
,
0001
0010
0010
0100
,
1000
0000
0010
0000
0010
0100
0001
0000
,
1000
0100
2000
0000
0010
0000
3010
1000
,
0001
0010
0002
0000
0100
0000
0103
0010
,
1000
0001
0200
0000
0010
0000
0310
1000
,
0002
0000
1000
1003
,
0010
0000
1000
0100
1000
0000
0001
0100
,
0001
0000
1000
0100
1000
1000
1000
0000
,
0010
0000
1000
0010
1000
0000
0001
0010
,
0001
0000
1000
0010
0100
0100
0100
0000
,
0001
0000
0010
0100
1000
0000
0010
0100
,
0001
0000
0010
0100
1000
1000
1000
0000
,
0002
1000
0103
0010
,
1000
0001
0001
0000
1000
0100
0010
0000
,
0002
0000
0000
0000
,
0203
0000
0320
0000
,
2030
0000
0000
0000
,
3200
0000
0320
0000
,
0031
0010
1000
0110
,
1000
0010
0001
0110
,
0001
0100
1000
0110
,
1000
0100
0010
0000
0001
0100
0010
0000
,
0200
0000
0000
0000
,
0310
0000
0010
0000
1000
0001
0001
1000
,
0100
0000
0010
0000
0001
1000
1000
0010
,
0100
0000
0001
0000
1000
0100
0100
0010
,
0001
0100
0100
0000
1000
0100
0100
0000
,
0001
0000
0000
0010
0000
0000
0001
0000
1000
0000
0000
0000
0110
0000
0000
0000
,
1000
0000
0000
0100
0000
0000
0001
0000
0100
0000
0000
0000
0010
0000
0010
0000
,
0001
0000
0000
0100
0000
0000
0010
0000
0001
0000
0000
0000
0110
0000
0000
0000
,
1000
0000
0000
0100
0000
0000
0010
0000
1000
0000
0010
0000
0001
0000
0000
0000
,
1002
0000
0000
0000
1000
1000
1003
0000
,
0001
0000
0000
0100
0000
0000
0010
0000
1000
0000
0000
0100
0000
0000
1000
0000
,
0001
0100
0010
0000
0100
0001
1000
1000
,
0100
0000
0000
0010
0000
0000
0001
0000
1000
0000
0000
0010
0000
0000
0100
0000
,
0001
0000
0000
1000
0000
0000
0001
0000
0010
0000
0010
0000
0100
0000
0010
0000
,
0002
0000
0100
0000
1003
0100
0001
0000
,
0200
0000
1300
0010
0001
0010
1000
0000
,
0001
0000
0000
0000
0100
0000
0101
0000
0000
0000
0000
1000
0000
0000
1100
0000
,
0000
0001
0010
0010
0001
0100
1000
0000
,
0120
0000
0000
0000
0000
0000
0000
1030
,
0002
0000
0000
0000
,
0023
0000
0000
0000
0000
0000
0000
0000
0000
0000
0000
0000
0000
0000
0000
0200
,
0000
0000
0000
0000
,
0330
0000
0000
0000
;

//---------------dance-single - t7r----------------
#NOTES:
     dance-single:
     t7r:
     Hard:
     11:
     :
0000
0000
0000
0000
,
0000
0000
0000
0000
,
0000
0000
0000
0000
,
0000
0000
0000
0000
,
0000
0000
0000
0000
,
0010
0000
0000
1000
0100
0000
1000
0000
0010
0000
0010
0000
0010
0000
0000
0000
,
0100
0000
0000
0001
0010
0000
0100
0000
0010
0000
0010
0000
0010
0000
0000
0000
,
0001
1000
0100
0110
1000
0001
0100
0110
,
0001
0000
0010
0000
1000
0000
0010
0000
0001
1000
0001
0000
1000
0000
0000
0000
,
0001
0000
0000
0000
0100
0000
0000
0000
0100
0000
0000
0010
1000
0000
0010
0000
,
1000
0000
0000
0000
0100
0000
0000
0000
0100
0000
0000
0010
0001
0000
0010
0000
,
0001
0100
0000
0000
0001
0000
0000
0000
0001
0000
0000
1000
0100
0000
1000
0000
,
0010
0000
0000
0000
0100
0000
0000
0000
0110
0000
0000
1000
0001
0000
0010
0000
,
0001
0000
0100
0000
1000
0000
0000
0000
0100
0000
0000
0010
1000
0000
0001
0000
,
1000
0000
0100
0000
0001
0000
0000
0000
0100
0000
0000
0010
0001
0000
1000
0000
,
0010
0000
0100
0000
0001
0000
0000
0000
0010
0000
0000
0001
1000
0000
0010
0000
,
0200
0000
0010
0310
,
1001
0000
1000
0100
0101
0000
0001
0100
,
1100
0000
1000
0010
0100
0100
0001
1000
,
0010
0000
0001
0010
1010
0000
1000
0010
,
0011
0000
0010
0100
0001
0001
0010
0010
,
0001
0000
0000
0100
1000
0000
0100
0000
1100
0000
0000
1000
0100
0000
0001
0000
,
0101
0000
0000
0001
0010
0000
1000
0000
0010
0000
0010
0000
0100
0000
0100
0000
,
0020
0000
0001
0000
0130
0010
0001
0001
,
0100
1000
0100
0001
0100
0010
0100
0100
,
0002
0000
0010
1003
,
0200
0000
1000
0310
,
0002
0000
0100
1003
,
0020
0000
0100
0031
,
0010
0000
0000
0100
0001
0000
0100
0000
1000
0000
0100
0000
0010
0000
0000
0000
,
0100
0000
0000
0010
1000
0000
0010
0000
0001
0000
0010
0000
0100
0000
0000
0000
,
0001
0000
0000
0010
0100
0000
1000
0000
0010
0000
0000
0100
0001
0000
1000
0000
,
0001
0000
0001
0000
1000
0000
1000
0000
0010
0100
0010
0000
0110
0000
0000
0000
,
0020
0000
0000
0000
,
1030
0100
0001
0100
1000
0100
0010
1010
,
0001
0100
1000
0100
0001
0010
0100
0101
,
1000
0010
0001
0010
1000
0010
0100
1100
,
0001
0010
0010
1000
0001
0100
0110
0000
,
0001
0000
0000
0100
0000
1000
0100
0000
0001
0000
0010
0000
0100
1000
0000
0001
,
1000
0000
0000
0100
0000
0001
0100
0000
0010
0000
0001
0000
1000
0000
1000
0000
,
0010
0000
0000
0001
0000
0010
0100
0000
0010
0000
1000
0000
0101
0000
0000
0000
,
0010
0000
0000
0001
0000
0010
1000
0000
0010
0000
0001
0000
0100
0000
0110
0000
,
0002
0000
0000
0000
0000
0000
0000
0000
1003
0000
1000
0000
1000
0001
1000
0000
,
0001
0000
0000
0100
0010
0000
1000
0000
1100
0000
0100
0001
0000
0000
0100
0000
,
0010
0000
0001
0000
1000
0000
0010
0000
0100
0000
0110
0000
0001
1000
0001
0000
,
1000
0000
0000
0100
0010
0000
0001
0000
0101
0000
0100
1000
0000
0000
0100
0000
,
0010
0000
1000
0000
0001
0000
0010
0000
0100
0000
0110
0000
1000
0001
1000
0000
,
0010
0000
0000
0001
0010
0000
1000
0000
0010
0000
0100
0001
0000
0000
0100
0000
,
0010
0000
0000
1000
0100
0000
0001
0000
0100
0000
0010
0000
0001
1000
0001
0000
,
0100
0000
0000
1000
0100
0000
1001
0000
0010
0000
0000
0001
0100
0000
1001
0000
,
0010
0000
1000
0001
1000
0000
0100
0000
0100
0000
0001
0100
1000
0100
0010
0000
,
1002
0000
0000
0100
0000
0000
0100
0000
0000
0100
0000
0000
0103
0000
0010
0000
,
2000
0000
0000
0000
,
3200
0000
0000
0010
0000
0000
0010
0000
0000
0010
0000
0000
0310
0000
0000
0002
,
0000
0000
0000
0000
,
0003
0000
0000
0000
;

//---------------dance-single - t7r----------------
#NOTES:
     dance-single:
     t7r:
     Challenge:
     16:
     :
0000
0000
0000
0000
,
0000
0000
0000
0000
,
0000
0000
0000
0000
,
0000
0000
0000
0000
,
0000
0000
0000
0000
,
0010
0000
1000
0100
0010
0000
0100
0000
1000
0000
1001
0000
0101
0000
0001
0010
,
0100
0000
0010
0001
1000
0000
0010
0000
0100
0000
0110
0000
0101
0000
0001
1000
,
0010
1000
0100
0000
0010
0001
0100
0000
0010
1000
0001
0000
0010
0001
1000
0000
,
0001
0000
0010
0000
0001
0000
0010
0000
0100
0000
1000
0000
0100
0000
1000
0000
0001
1000
0001
1000
0001
1000
0001
1000
0001
1000
0001
1000
0001
1000
0001
1000
,
0010
0000
0000
0000
0100
0000
0000
0000
0100
0000
0000
0001
0010
0000
0001
0000
,
1000
0000
0100
0000
0100
0000
0000
0000
1000
0000
0000
0010
1000
0000
0001
0000
,
0010
0001
0000
0000
0100
0000
0000
0000
1000
0000
0000
0100
0010
0000
0100
0000
,
0001
0000
0000
0000
1001
0000
0000
0000
0110
0000
0000
1000
0001
0000
1000
0000
,
0001
0000
0100
0000
0110
0000
0000
0000
0101
0000
0000
0001
0100
0000
1000
0100
,
0010
0000
1000
0000
1010
0000
0000
0000
0011
0000
0000
1000
0100
0000
0001
0100
,
0010
0000
0001
0000
0011
0000
0000
0000
1010
0000
0000
0010
0100
0000
0001
1000
,
0010
0000
1000
0000
0002
0000
0000
0000
0013
0000
0001
0100
0000
1000
0100
0010
,
1000
0000
0001
0010
1000
0010
0001
0000
0011
0000
0001
0100
1000
0100
0001
0000
,
0101
0000
0000
0000
0001
0000
0010
0000
1000
0000
0010
0000
0001
0000
0000
0000
0011
0000
0000
0000
0101
0000
0000
0000
0001
0010
0100
1000
0001
0000
0000
0000
,
1001
0000
1000
0100
0001
0100
1000
0000
1100
0000
1000
0010
0001
0010
1000
0000
,
1010
0000
0000
0000
1000
0000
0100
0000
0001
0000
0100
0000
1000
0000
0000
0000
1100
0000
0000
0000
0110
0000
0000
0000
1000
0010
0100
0001
1000
0000
0000
0000
,
0110
0000
0001
1000
0010
0000
0011
0000
0110
0000
1000
0001
0010
0000
1010
0000
,
0110
0000
0000
0000
0010
0000
0001
0000
1000
0000
0000
0000
1010
0000
0000
0000
0110
0000
0000
0000
0101
0000
0001
0000
1000
0100
0010
0001
1000
0000
0000
0000
,
0010
0000
1000
0100
0001
0000
0110
0000
1001
0000
0001
0100
1000
0000
0110
0000
,
1010
0000
0000
0000
1001
0000
0000
0000
1001
0000
0000
0000
0101
0000
0000
0000
1100
0000
0000
0000
1001
0000
0000
0000
0001
0010
0100
1000
0001
1000
0010
0100
,
0002
0000
0000
0000
,
2003
0000
3020
0230
,
0320
0000
0000
0000
,
2030
0000
3200
0302
,
0103
0000
0000
0001
0100
0000
1000
0000
0100
0000
0010
0000
0011
0000
0000
0001
,
0100
0000
0000
1000
0100
0000
0010
0000
1000
0000
0001
0000
0010
0001
0000
1000
,
0001
0000
0010
1000
0010
0000
1000
0000
0010
0000
0001
0100
0001
0000
0100
0000
,
1000
0000
0100
0000
0001
0000
0100
0000
0010
0000
1000
0000
0010
0000
0001
0000
0010
0100
0010
0100
0010
0100
0010
0100
0001
1000
0001
1000
0001
1000
0001
1000
,
0002
0000
0000
0000
0010
0000
0000
0000
1003
0000
1000
0001
1000
0001
1000
0001
,
1000
0000
0100
0001
0100
0000
0101
0000
1100
0000
0101
0000
0100
0010
0001
0000
,
1001
0000
0100
1000
0100
0000
1100
0000
0101
0000
1100
0000
0001
0010
0100
0000
,
1010
0000
0010
0001
0010
0000
1010
0000
0011
0000
1010
0000
0001
0010
0100
0000
,
0010
0000
0001
0100
0010
0000
0001
0000
0010
0000
1000
0100
0001
0100
0010
0001
,
1000
0000
0000
0000
0000
0000
1200
0000
0000
0000
0301
0000
0100
0000
0000
0000
0010
0000
0000
0000
0011
0000
0000
0000
1000
0001
1000
0000
0001
0000
0100
0000
,
0010
0000
0000
0000
0000
0000
0021
0000
0000
0000
1030
0000
0010
0000
0000
0000
0110
0000
0000
0000
0100
0000
0001
0000
0010
0001
1000
0010
1000
0000
0001
0000
,
1000
0000
0000
0000
0000
0000
1020
0000
0000
0000
0031
0000
0010
0000
0000
0000
0100
0000
0000
0000
0101
0000
0000
0000
1000
0001
1000
0000
0001
0000
0010
0000
,
0100
0000
0000
0000
0000
0000
0201
0000
0000
0000
1300
0000
0100
0000
0000
0000
0110
0000
0000
0000
0010
0000
0001
0000
1000
0010
0100
0001
1000
0000
0000
0000
,
0020
0000
0000
0000
0000
0000
0000
0000
0130
0100
0100
0000
0110
0000
0001
1000
,
0001
0000
0100
1000
0000
0001
0010
0100
0001
0000
0010
1000
0000
0001
0100
0010
,
0001
0000
0000
0000
0100
0000
1000
0000
0100
0000
0000
0000
0001
0000
0000
0000
0010
0000
0000
0000
1000
0000
0010
0000
0001
1000
0001
1000
0001
0000
0000
0000
,
1000
0000
0100
0001
0000
1000
0010
0100
1000
0000
0010
0001
0000
1000
0100
0010
,
1000
0000
0000
0000
0100
0000
0001
0000
0100
0000
0000
0000
1000
0000
0000
0000
0010
0000
0000
0000
0001
0000
0010
0000
1000
0001
1000
0001
1000
0000
0010
0000
,
0110
0000
0100
0001
0100
0010
1000
0100
0010
0000
0001
0100
0010
0000
0001
0010
,
1000
0000
0000
0000
0100
0000
1000
0000
0100
0000
0010
0000
0001
0000
0100
0000
0010
0000
0000
0000
1010
0000
0000
0000
0001
0010
1000
0010
0001
0000
0000
0000
,
1000
0000
0100
0001
1000
0000
0110
0000
0001
0000
0100
1000
0001
0000
0110
0000
,
1010
0000
0000
0000
0101
0000
0001
0000
1000
0000
0000
0000
1100
0000
0000
0000
0011
0000
0000
0000
1001
0000
0000
0000
0001
0100
1000
0100
0001
0000
0010
0000
,
0002
0000
0000
0100
0000
0000
1000
0000
0000
0100
0000
0000
0013
0000
0001
0000
,
2000
0000
0000
0000
,
3200
0000
0000
0001
0000
0000
0010
0000
0000
1000
0000
0000
0310
0000
0000
2002
,
0000
0000
0000
0000
,
3003
0000
0000
0000
;

//---------------dance-double - t7r----------------
#NOTES:
     dance-double:
     t7r:
     Easy:
     5:
     :
00000000
00000000
00000000
00000000
,
00000000
00000000
00000000
00000000
,
00000000
00000000
00000000
00000000
,
00000000
00000000
00000000
00000000
,
00000000
00000000
00000000
00000000
,
01000000
00000000
01000000
00000000
,
00010000
00000000
00010000
00000000
,
10000000
00000000
01000000
00000000
,
00010000
00000000
00001000
00000000
,
00011000
00000000
00000000
00000000
,
00000100
00000000
00001000
00000000
,
00000001
00000000
00000000
00000000
,
00000100
00000000
00001000
00000000
,
00010000
00000000
00010000
00000000
,
00100000
00000000
00100000
00000000
,
01000000
00000000
01000000
00000000
,
00020000
00000000
00000000
00030000
,
10000000
00000000
10000000
00000000
,
10000000
01000000
10000000
00000000
,
01000000
00000000
01000000
00000000
,
01000000
00000000
00010000
00001000
,
00010000
00000000
00001000
00000000
,
00001000
00000000
00000100
00000010
,
00000100
00000000
00000001
00000000
,
00000010
00000000
00000100
00000000
,
00012000
00000000
00000000
00000000
,
00203000
00000000
00000000
00000000
,
00320000
00000000
00000000
00000000
,
20030000
00000000
00000000
00000000
,
30100000
00000000
00100000
00000000
,
00010000
00000000
00010000
00000000
,
00001000
00001000
00010000
00010000
,
00001000
00000000
00000010
00000000
,
00000110
00000000
00000000
00000000
,
00000001
00000100
00000010
00000010
,
00001000
00000100
00010000
00010000
,
00001000
00010000
00100000
00100000
,
01000000
00010000
10000000
10000000
,
01000000
00000000
00100000
00000000
,
00001000
00000000
00010000
00011000
,
00001000
00000000
00000010
00000000
,
00000001
00000000
00001000
00001001
,
00000001
00000000
00000000
00000000
,
00001000
00000100
00000010
00000001
,
00000100
00000010
00002000
00003000
,
00000100
00010000
00001000
01000000
,
00010000
10000000
00200000
00300000
,
10000000
01000000
00100000
00000000
,
00010000
00001000
00000010
00000000
,
00000100
00000000
00000001
00000000
,
00001000
00001001
00000001
00000000
,
00000020
00000000
00000000
00000000
,
00000230
00000000
00000000
00000000
,
00010300
00000000
00000000
00000000
00000000
00000000
00000000
00000000
00000000
00000000
00000000
00000000
00000000
00000000
00000000
00002000
,
00000000
00000000
00000000
00000000
,
00003000
00000000
00000000
00000000
;

//---------------dance-double - t7r----------------
#NOTES:
     dance-double:
     t7r:
     Medium:
     7:
     :
00000000
00000000
00000000
00000000
,
00000000
00000000
00000000
00000000
,
00000000
00000000
00000000
00000000
,
00000000
00000000
00000000
00000000
,
00000000
00000000
00000000
00000000
,
00100000
00000000
00010000
00000000
10000000
10000000
10000000
00000000
,
00010000
00000000
01000000
00000000
00001000
00001000
00001000
00000000
,
00010000
00000000
00000100
00000100
00000000
00000010
00000001
00000001
,
00000100
00000000
00001000
00000000
00010000
00001000
00010000
00000000
,
00001000
01000000
01000000
00100000
,
10000000
01000000
00100000
00100000
,
00001000
00010000
00000010
00000010
,
00001000
00000001
00000100
00000100
,
00000001
00000010
00000002
00000000
00000100
00000000
00000103
00000000
,
00000001
00001000
00000100
00000000
00010000
00000000
00001000
00000000
,
01000000
00010000
02000000
00000000
00100000
00000000
03100000
00000000
,
20000000
00000000
00010000
30010000
,
10000000
00000000
00000000
01000000
01000000
00000000
00000000
00010000
,
00010000
00000000
00000000
00000000
00001000
00010000
00001000
00000000
,
00000000
00000000
00000000
00000100
00000100
00000000
00000000
00000001
,
00000001
00000000
00000010
00000000
00000001
00001000
00000001
00000000
,
00000000
00000000
00000100
00000100
00000100
00000000
00001000
00001000
,
00001000
00000000
00010000
00010000
00010000
00000000
00001000
00000000
,
00010000
00000000
00000000
01000000
01000000
00000000
01000000
00000000
,
00000000
10000000
00010000
10000000
,
00200000
00000000
00300000
00000000
,
00020000
00000000
00000000
00030000
,
00002000
00000000
00000000
00003000
,
00000020
00000000
00000000
00000030
,
00000001
00000100
00000001
00001001
,
00001000
00000100
00010000
00011000
,
00001000
01000000
00010000
10010000
,
10000000
00000000
01000000
00000000
00010000
00001000
00010000
00000000
,
00022000
00000000
00000000
00033000
,
00000000
00001000
00010000
00000000
00000100
00001000
00000100
00000000
,
00000000
00010000
00001000
00000000
01000000
00010000
01000000
00000000
,
00000000
00001000
00010000
00000000
00001000
00000100
00000001
00000000
,
00000000
00001000
00000000
00000100
00010000
00001000
00010000
00000000
,
01000000
00000000
00000000
00100000
00000000
00000000
00010000
00000000
10000000
00000000
00000000
00000000
01100000
00000000
00000000
00000000
,
00000000
00000000
10000000
00000000
01000000
00000000
00100000
00100000
,
00001000
00000000
00000000
00010000
00000000
00000000
00001000
00000000
00000010
00000000
00000000
00000000
00000110
00000000
00000000
00000000
,
00000000
00000000
00000000
00000001
00000000
00000000
00000100
00000000
00001000
00000000
00000000
00000000
00010000
00000000
00010000
00000000
,
00002000
00000000
00000000
00000000
00010000
00010000
00013000
00000000
,
00001000
00000000
01000000
00010000
10000000
00000000
00200000
00000000
,
10300000
00000000
01000000
00100000
00010000
00010000
00010000
00000000
,
10000000
00000000
00100000
00010000
00100000
00000000
00010000
00000000
,
00001000
00000000
00010000
00000010
00001000
00001000
00001000
00000000
,
00000001
00000000
00000100
00000001
00001000
00000000
00000200
00000000
,
00000310
00000000
00000001
00000100
00001000
00000000
00010000
00000000
,
00200000
00000000
00000000
00000000
00010000
00000000
00010000
00000000
00000000
00000000
00000000
01000000
00000000
00000000
01300000
00000000
,
00000000
00100000
10000000
00010000
00100000
00001000
00010000
00000000
,
00021000
00000000
00000000
00000000
00000000
00000000
00000000
00030010
,
00002000
00000000
00000000
00000000
,
00003001
00000000
00000000
00000000
00000000
00000000
00000100
00000000
00000000
00000000
00000000
00000000
00001000
00000000
00000000
00020000
,
00000000
00000000
00000000
00000000
,
00030000
00000000
00000000
00000000
;

//---------------dance-double - t7r----------------
#NOTES:
     dance-double:
     t7r:
     Hard:
     11:
     :
00000000
00000000
00000000
00000000
,
00000000
00000000
00000000
00000000
,
00000000
00000000
00000000
00000000
,
00000000
00000000
00000000
00000000
,
00000000
00000000
00000000
00000000
,
10000000
00000000
00000000
01000000
00100000
00000000
00010000
00000000
10000000
00000000
10000000
00000000
10000000
00000000
00000000
00000000
,
00100000
00000000
00000000
01000000
00001000
00000000
00010000
00000000
00001000
00000000
00001000
00000000
00001000
00000000
00000000
00000000
,
00000100
00000001
00000010
00001000
00010000
01000000
10000000
00100000
,
00010000
00001000
00000100
00000001
00000010
00000010
00000010
00000000
,
00001001
00000000
00000000
00000000
00000001
00000000
00000000
00000000
00000100
00000000
00000000
00000001
00001000
00000000
00000100
00000000
,
00010000
00000000
00001000
00000000
00010000
00000000
00000000
00000000
00001000
00000000
00000000
00010000
00001000
00000000
00010000
00000000
,
01000000
00000000
00000000
00000000
01000000
00000000
00000000
00000000
00100000
00000000
00000000
00010000
10000000
00000000
00010000
00000000
,
10000000
00000000
00000000
00000000
00100000
00000000
00000000
00000000
00100000
00000000
00000000
10000000
00100000
00000000
10000000
00000000
,
01000000
00000000
10000000
00000000
00010000
00000000
00000000
00000000
01000000
00000000
00000000
00010000
10000000
00000000
00010000
00000000
,
00100000
00000000
00001000
00000000
00010000
00000000
00000000
00000000
00001000
00000000
00000000
00010000
00000010
00000000
00000100
00000000
,
00000001
00000000
00001000
00000000
00000100
00000000
00000000
00000000
00001000
00000000
00000000
00000001
00000010
00000000
00000001
00000000
,
00000200
00000000
00000000
00000000
00000000
00000000
00000000
00000000
00001300
00000000
00010000
00001000
00000000
00001000
00000000
00000000
,
00011000
00000000
00010000
01000000
10000000
00000000
00010000
01000000
,
10000000
00000000
00010000
00100000
10000000
10000000
10000000
00000000
,
11000000
00000000
01000000
00010000
00001000
00000000
00000100
00000001
,
00000010
00000000
00000100
00001000
00000010
00000010
00000010
00000000
,
00011000
00000000
00001000
00000100
00000001
00000000
00001000
00000100
,
00000001
00000000
00001000
00000010
00000001
00000001
00000001
00000000
,
00000200
00000000
00001300
00000000
00010000
00001000
00010000
00000000
,
02000000
00000000
03100000
00010000
10000000
10000000
00100000
01000000
,
00020000
00000000
00000000
00000000
,
20030000
00000000
32000000
00000000
,
03020000
00000000
00000000
00000000
,
00032000
00000000
00003200
00000000
,
00000310
00000000
00000000
00001000
00000001
00000000
00000100
00000000
00000001
00000000
00000010
00000000
00000001
00000000
00000000
00000000
,
00001000
00000000
00000000
00000100
00010000
00000000
00001000
00000000
01000000
00000000
00010000
00000000
10000000
00000000
00000000
00000000
,
00100000
00000000
00000000
01000000
00010000
00000000
00100000
00000000
00001000
00000000
00000000
00010000
00000100
00000000
00001000
00000000
,
00000010
00000000
00000010
00000000
00000100
00000000
00000100
00000000
00000001
00001000
00000001
00000000
00000200
00000000
00002300
00000000
,
00023000
00000000
00000000
00030000
,
00001000
00010000
00010000
01000000
10000000
00100000
01000000
00010000
,
00000000
10000000
10000000
00100000
01000000
00010000
10000000
01000000
,
00010000
00001000
00001000
00000010
00000100
00000010
00000001
00001000
,
00000000
00000001
00000100
00000100
00001000
00010000
00011000
00000000
,
00200000
00000000
00000000
00310000
00000000
10000000
01000000
00000000
00100000
00000000
00010000
00000000
00001000
00000000
00000000
00000000
,
00000010
00000000
00000000
00000100
00000000
00000001
00000100
00000000
00000001
00000000
00000010
00000000
00000100
00000000
00000100
00000000
,
00001000
00000000
00000000
00000001
00000000
00000100
00000010
00000000
00001000
00000000
00000100
00000000
00010000
00000000
00000000
00000000
,
00001000
00000000
00000000
00010000
00000000
01000000
10000000
00000000
00100000
00000000
01000000
00000000
00001000
00000000
00001000
00000000
,
00020000
00000000
00000000
00000000
00000000
00000000
00000000
00000000
00031000
00000000
00001000
00000000
00001000
00010000
00001000
00000000
,
00010000
00000000
00000000
01000000
00100000
00000000
01000000
00000000
10000000
00000000
00100000
01000000
00000000
00000000
00100000
00000000
,
10000000
00010000
00100000
00001000
00010000
00010000
00000010
00000100
,
00000001
00000000
00000000
00000010
00000100
00000000
00000010
00000000
00000001
00000000
00000100
00000001
00000000
00000000
00001000
00000000
,
00000001
00000100
00001000
00010000
01000000
01000000
00100000
00010000
,
10000000
00000000
00000000
00100000
01000000
00000000
00010000
00000000
10000000
00000000
00000000
00010000
00100000
00000000
00001000
00000000
,
00010000
00000000
00000000
00000010
00001000
00000000
00000001
00000000
00000010
00000000
00000100
00000000
00000100
00000000
00000010
00000000
,
00000001
00000000
00000000
00000100
00001000
00000000
00010000
00000000
00001000
00000000
00000000
00010000
01000000
00000000
10000000
00000000
,
00010000
10000000
10000000
00100000
00100000
00010000
00001000
00010000
,
00021000
00000000
00000000
00001000
00000000
00000000
00001000
00000000
00000000
00001000
00000000
00000000
00031000
00000000
00010000
00000000
,
00000020
00000000
00000000
00000000
,
00000130
00000000
00000000
00000001
00000000
00000000
00000010
00000000
00000000
00001000
00000000
00000000
00010000
00000000
00000000
00002000
,
00000000
00000000
00000000
00000000
,
00003000
00000000
00000000
00000000
;

//---------------dance-double - t7r----------------
#NOTES:
     dance-double:
     t7r:
     Challenge:
     15:
     :
00000000
00000000
00000000
00000000
,
00000000
00000000
00000000
00000000
,
00000000
00000000
00000000
00000000
,
00000000
00000000
00000000
00000000
,
00000000
00000000
00000000
00000000
,
10000000
00000000
01000000
00100000
00010000
00000000
10000000
00000000
00010000
00000000
01000000
00000000
01010000
00000000
00010000
00000000
,
00100000
00000000
00001000
00010000
00000010
00000000
00001000
00000000
00000001
00000000
00000100
00000000
00000101
00000000
00000001
00000000
,
00001000
00000000
00000001
00000100
00000010
00000000
00001000
00000000
00010000
00000000
00100000
01000000
10000000
00000000
00010000
00000000
,
10000000
01000000
10000000
01000000
00100000
00010000
00100000
00010000
00001000
00000010
00000100
00000001
00001000
00000100
00000010
00000001
,
00001000
00000000
00000000
00000000
00001000
00000000
00000000
00000000
00000001
00000000
00000000
00000100
00000010
00000000
00001000
00000000
,
00000001
00000000
00000010
00000000
00000010
00000000
00000000
00000000
00000100
00000000
00000000
00010000
00001000
00000000
00010000
00000000
,
01000000
10000000
00000000
00000000
00100000
00000000
00000000
00000000
01000000
00000000
00000000
00010000
01000000
00000000
00100000
00000000
,
10000000
00000000
00000000
00000000
00010000
00000000
00000000
00000000
10000000
00000000
00000000
01000000
00010000
00000000
00001000
00000000
,
01000000
00000000
00100000
00000000
00010000
00000000
00000000
00000000
00001000
00000000
00000000
00010000
00001000
00000000
00000010
00000000
,
00000100
00000000
00001000
00000000
00010000
00000000
00000000
00000000
01000000
00000000
00000000
00100000
10000000
00000000
00010000
00000000
,
10000000
00000000
00100000
00000000
00010000
00000000
00000000
00000000
00001000
00000000
00000000
00010000
00001000
00000000
00000010
00000000
,
00000002
00000000
00000203
00000000
00002300
00010000
00000000
00000000
01003000
00000000
00100000
10000000
00000000
00100000
01000000
00010000
,
10000000
00000000
01000000
00010000
01000000
00100000
00010000
00000000
00110000
00000000
10000000
00100000
01000000
00010000
10000000
00000000
,
10010000
00000000
10000000
00100000
00010000
00001000
00010000
00000000
00011000
00000000
00010010
00000000
00000010
00001000
00000001
00000010
,
00000001
00000000
00000100
00001000
00000100
00000010
00001000
00000000
00001010
00000000
00000001
00000010
00000100
00001000
00000001
00000000
,
00001001
00000000
00000001
00000010
00001000
00010000
00001000
00000000
00011000
00000000
00101000
00000000
00100000
00010000
10000000
00100000
,
01000000
00000000
10000000
01000000
00100000
01000000
00010000
00000000
10010000
00000000
10000000
01000000
00010000
00001000
00010000
00000000
,
00011000
00000000
00001000
00000100
00000010
00000100
00000001
00000000
00001001
00000000
00000001
00000010
00000100
00001000
00000001
00000000
,
00000010
00000000
00001000
00010000
00001000
00000000
00010000
00000000
00100000
00000000
10000000
01000000
00100000
00000000
00010000
00000000
,
00001000
00000000
00000010
00001000
00000001
00000000
00000011
00000000
00001001
00000000
00000101
00000000
00000001
00000100
00001000
00010000
,
00002000
00000000
00000000
00000000
,
02003000
00000000
03020000
20030000
,
32000000
00000000
00000000
00000000
,
03200000
00000000
00302000
00023000
,
00031000
00000000
00000000
00000010
00000100
00000000
00000010
00000000
00000001
00000000
00001000
00000000
00001001
00000000
00000000
00000001
,
00000100
00000000
00000000
00001000
00010000
00000000
00001000
00000000
00100000
00000000
00010000
00000000
10010000
00000000
10000000
00000000
,
01000000
00000000
00010000
00001000
00010000
00000000
00010000
00000000
00001000
00000000
00000100
00000001
00000100
00000000
00000100
00000000
,
00000001
00000010
00000001
00000010
00000100
00001000
00000100
00001000
00010000
01000000
00100000
10000000
00010000
00100000
01000000
10000000
,
00200000
00000000
00000000
00000000
00000000
00000000
00000000
00000000
00000000
00000000
00000000
00000000
00000000
00000000
00000000
00000000
00310000
00000000
00001000
00000000
00010000
00000000
00001000
00000000
00010000
00001000
00010000
00000000
00001000
00000000
00001000
00000000
,
00010000
00000000
01000000
00100000
01000000
00000000
10000000
00000000
00010000
00000000
01000000
00000000
10000000
01000000
00100000
01000000
,
00010000
00000000
00100000
00001000
00100000
00000000
00001000
00000000
00010000
00000000
00001000
00000000
00000010
00000100
00001000
00000001
,
00000100
00000000
00001000
00000100
00000010
00000000
00000100
00000000
00000001
00000000
00000010
00000000
00001000
00010000
00001000
01000000
,
00010000
00000000
00100000
00010000
10000000
00000000
10100000
00000000
01100000
00000000
00100000
10000000
01000000
00010000
00001000
00010000
,
00001000
00000000
00000000
00000000
00000000
00000000
00010000
00000000
01000000
00000000
00100000
00000000
00001000
00000000
00010000
00000000
00001000
00000000
00000000
00000000
00000100
00000000
00000010
00000000
00001000
00000001
00001000
00000000
00000001
00000000
00000010
00000000
,
00000100
00000000
00000000
00000000
00000000
00000000
00000010
00000000
00000001
00000000
00000100
00000000
00000010
00000000
00000000
00000000
00001000
00000000
00000000
00000000
00000001
00000000
00000010
00000000
00001000
00010000
00001000
00000000
00011000
00000000
00000000
00000000
,
00010000
00000000
00000000
00000000
00000000
00000000
00001000
00000000
00000100
00000000
00000010
00000000
00010000
00000000
00001000
00000000
00010000
00000000
00000000
00000000
01000000
00000000
00100000
00000000
00010000
10000000
00010000
00000000
10000000
00000000
00100000
00000000
,
01000000
00000000
00000000
00000000
00000000
00000000
00100000
00000000
10000000
00000000
01000000
00000000
00100000
00000000
00000000
00000000
00010000
00000000
00000000
00000000
10000000
00000000
00100000
00000000
00010000
00001000
00010000
00000000
00011000
00000000
00000000
00000000
,
02000000
00000000
00000000
00000000
00000000
00000000
00000000
00000000
03100000
00100000
00100000
00000000
10010000
00000000
10000000
10000000
,
01000000
00000000
10000000
00100000
00000000
01000000
00010000
10000000
01000000
00000000
00100000
00001000
00000000
00010000
00001000
00010000
,
00000100
00000000
00000000
00000000
00001000
00000000
00000010
00000000
00000000
00000000
00000100
00000000
00000001
00000000
00001000
00000000
00000001
00000000
00000000
00000000
00000110
00000000
00000000
00000000
00000001
00001000
00000001
00001000
00000001
00000000
00000000
00000000
,
00000010
00000000
00000001
00000100
00000000
00000010
00001000
00000001
00000010
00000000
00000100
00010000
00000000
00001000
00010000
00001000
,
00100000
00000000
00000000
00000000
00010000
00000000
01000000
00000000
00000000
00000000
00100000
00000000
10000000
00000000
00010000
00000000
10000000
00000000
00000000
00000000
01100000
00000000
00000000
00000000
10000000
00010000
10000000
00010000
10000000
00000000
00000000
00000000
,
01000000
00100000
00001000
00010000
01000000
10000000
00100000
01000000
00010000
00100000
00001000
00010000
00001000
00000010
00000100
00000010
,
00000001
00000000
00000100
00000000
00000010
00000000
00010000
00000000
00001000
00000000
00000100
00000000
00000010
00000000
00001000
00000000
00000001
00000000
00000010
00000000
00001000
00000000
00010000
00000000
00001000
00010000
00001000
00010000
00001000
00000000
00000000
00000000
,
00010000
00000000
01000000
10000000
10100000
00000000
01100000
00000000
01001000
00000000
00001000
00010000
00010010
00000000
00000110
00000000
,
00001001
00000000
00000000
00000000
00000001
00000000
00000010
00000000
00000100
00000000
00000000
00000000
00001000
00000000
00000000
00000000
00010000
00000000
00000000
00000000
00100000
00000000
00010000
00000000
10000000
00100000
01000000
00010000
10000000
00000000
01000000
00000000
,
00020000
00000000
00000000
01000000
00000000
00000000
00000100
00000000
00000000
01000000
00000000
00000000
00031000
00000000
00010000
00000000
,
00000020
00000000
00000000
00000000
00000000
00000000
00000000
00000130
,
00000001
00000000
00000000
00001000
00000000
00000000
00010000
00000000
00000000
10000000
00000000
00000000
00100000
00000000
00000000
00020000
,
00000000
00000000
00000000
00000000
,
00030000
00000000
00000000
00000000
;
