#TITLE:Crackpot Evangelist;
#ARTIST:BEMANI Sound Team "ZAQUVA";
#ARTISTTRANSLIT:ZAQUVA;
#BANNER:Crackpot Evangelist.png;
#BACKGROUND:Crackpot Evangelist-bg.png;
#JACKET:Crackpot Evangelist-jacket.png;
#CDTITLE:./CDTITLES/JUBEAT.PNG;
#MUSIC:Crackpot Evangelist.ogg;
#SAMPLESTART:68.4;
#SAMPLELENGTH:15;
#DISPLAYBPM:100:200;
#BPMS:0=100,19.5=200,51=400,52=200,56=400,56.5=200,64=400,64.5=200,72=400,72.5=200,92=400,94=200,115=400,117=200,124=400,125=200,148=100,162=200,195=400,196=200,259=100,259.25=300,260=200,291=400,292=200,324=100,327.5=200;
#STOPS:19.5=0.15,51=0.15,56=0.075,64=0.075,72=0.075,92=0.15,93=0.15,115=0.15,116=0.15,124=0.15,162=0.15,162.5=0.15,163=0.15,163.5=0.15,195=0.15,291=0.15,327.5=0.15;

//---------------dance-single - t7r----------------
#NOTES:
     dance-single:
     t7r:
     Beginner:
     6:
     :
0000
0000
0000
0000
,
0000
0000
0000
0000
,
0000
0000
0000
0000
,
1000
0000
0000
0000
,
0001
0000
0000
0000
,
0100
0000
0000
0000
,
0100
0000
0000
0000
,
0010
0000
0000
0000
,
0010
0000
0000
0000
,
1000
0000
1000
0000
,
0001
0000
0001
0000
,
0020
0000
0000
0000
,
0230
0000
0000
0310
,
0010
0000
0010
0000
,
0001
0000
0001
0000
,
1000
0000
1000
0000
,
0010
0000
0010
0000
,
0100
0000
0100
0000
,
0001
0000
0001
0000
,
1000
0000
1000
0000
,
0100
0100
0100
0000
,
1000
0000
0001
0000
,
1000
1000
1000
0000
,
0010
0000
0100
0000
,
0010
0010
0010
0000
,
0100
0000
0001
0000
,
1000
1000
1000
0000
,
0100
0000
0010
0000
,
0100
0100
0100
0000
,
0000
0000
0000
0000
,
0010
0000
0000
0000
,
0100
0000
0000
0000
,
0010
0000
0000
0000
,
0001
0000
1000
0000
,
0010
0000
0100
0000
,
0001
1000
0001
0000
,
2000
3002
2003
3000
,
0010
0000
0100
0000
,
0001
0000
1000
0000
,
0100
0000
0010
0000
,
0001
0000
0000
0000
1000
1000
1000
1000
,
1000
0000
0000
0000
,
0001
0000
0000
0000
,
0100
0000
0000
0000
,
0010
0000
0000
0000
,
1000
0000
0001
0000
,
0010
0000
0100
0000
,
0010
0000
0001
0000
,
1000
0000
0000
0000
,
0001
0000
0000
0000
,
0100
0000
0000
0000
,
1000
0000
0000
0000
,
0100
0000
0100
0000
,
0010
0000
0000
0000
,
1000
0000
0000
0000
,
0100
0000
0001
0000
,
0100
0000
0100
0000
,
0010
0000
0010
0000
,
0001
0000
0001
0000
,
1000
0000
0010
0000
,
1000
1000
1000
0000
,
0001
0000
0010
0000
,
0001
0000
1000
0000
,
0010
0000
0100
0000
,
0001
0001
0001
0000
,
1000
0000
0000
0000
,
0100
0000
0000
0000
,
0010
0000
0000
0000
,
0001
0000
0000
0000
,
0100
0000
0000
0000
,
0010
0000
0000
0000
,
1000
0000
0000
0000
,
0001
0000
0010
0000
,
0001
0000
0001
0000
,
1000
1000
1000
0000
,
0010
0000
0100
0000
,
0010
0010
0010
0000
,
1000
0000
0100
0000
,
0010
0010
0010
0000
,
0001
0000
0100
0000
,
0010
0010
0010
0000
,
2000
0000
0000
3000
,
1100
0000
0011
0000
,
1100
0000
0011
0000
,
0101
0000
1010
0000
,
1001
0000
0000
0000
;

//---------------dance-single - t7r----------------
#NOTES:
     dance-single:
     t7r:
     Easy:
     13:
     :
0000
0000
0000
0000
,
0000
0000
0000
0000
,
0000
0000
0000
0000
,
2000
0000
3002
0000
,
0203
0000
0000
0000
0310
1000
0001
0010
,
0001
0000
1000
0000
0001
0010
0001
0000
,
1000
0000
0100
0000
0010
0001
1000
0000
,
0001
0000
0100
0000
0010
1000
0010
0000
,
1000
0000
0100
0000
0010
0001
1000
0000
,
0001
0000
0100
0100
0010
0000
1000
0000
,
0001
0000
0010
0010
0100
0000
1000
0000
,
0001
1000
0001
1000
0100
0010
0100
0010
,
0002
0100
1000
0013
,
0002
0000
0203
0000
0310
0100
2000
0000
,
3100
0000
0010
0000
0100
0001
2000
0000
,
3002
0000
0023
0000
0130
0010
2000
0000
,
3010
0000
0100
0010
0001
1000
0002
0000
,
2003
0000
3020
0000
0130
0010
0002
0000
,
0013
0000
0200
0000
0301
1000
0020
0000
,
2030
0000
3200
0000
0310
0100
0002
0000
,
0103
0010
0001
0000
0100
0010
1000
0000
,
0001
0100
0001
0100
0010
1000
0010
1000
,
0001
0010
0100
0000
1000
0010
0100
0000
,
1001
0000
0110
0000
1000
0100
1000
0000
,
0001
1000
0010
0100
0001
1000
0100
0000
,
0010
0100
0010
0100
1000
0001
1000
0010
,
0100
0001
0100
0001
1000
0010
0100
0000
,
0010
1000
0010
1000
0001
1000
0001
1000
,
0001
1000
0100
0010
0001
0100
0010
0000
,
0110
0000
0001
0100
1000
0100
0001
0000
,
0100
1000
0100
0001
0100
0010
0100
0000
,
0110
0000
1000
0100
0001
0100
1000
0000
,
0100
0010
0100
0001
0100
1000
0002
0000
,
1003
0010
0100
0100
0001
0010
0100
0100
,
1000
0010
1000
1000
0001
0010
0001
0000
,
1000
0100
0001
0100
1000
0001
0100
1000
,
0200
0010
0010
0000
0001
0000
0301
0000
,
1000
0000
0001
0010
0001
0000
0100
0010
,
0100
0000
0010
1000
0001
0000
0010
0001
,
1000
0000
0100
0010
0001
0000
1000
0010
,
0001
0000
0010
0100
0001
0010
1000
0100
,
0001
0000
0100
0000
0010
1000
0001
1000
,
0001
0000
0010
0000
0100
0010
0001
1000
,
0001
0000
1000
0000
0100
0010
0100
1000
,
0010
0000
0100
0000
0010
1000
0001
0100
,
0001
0010
0001
0001
1000
0010
1000
1000
,
0001
1000
0100
0010
0001
1000
0000
0010
,
0100
0010
1000
1000
0100
0010
0001
0001
,
0100
0010
1000
0000
0010
0000
1001
0000
,
1000
0100
1000
0100
0010
0001
1000
0000
,
0001
0100
0001
0100
0010
1000
0001
0000
,
1000
0010
1000
0010
0100
0001
1000
0000
,
0001
0010
1000
0010
0002
0000
0103
0000
,
0001
0100
0001
0100
0010
1000
0001
0000
,
1000
0100
1000
0100
0010
0100
1000
0000
,
0001
1000
0001
1000
0010
0100
0001
0000
,
1000
0010
0001
0010
2000
0000
3100
0000
,
1000
0000
1100
0000
,
0001
0000
0010
0001
,
1001
0000
0101
0000
,
0001
1000
2020
3030
,
1000
0000
0010
0000
0100
0010
1000
0000
,
0001
0000
0010
0000
0100
0010
0001
0000
,
1000
0000
0001
0000
0100
0010
1000
0000
,
0001
0100
1000
0100
0002
0000
0003
0000
,
1000
0000
0000
0100
0000
0000
1000
0000
0001
0000
0000
0100
0000
0000
0000
0000
,
0001
0000
0000
0010
0000
0000
0001
0000
1000
0000
0000
0010
0000
0000
0000
0000
,
1000
0000
0000
0100
0000
0000
1000
0000
0001
0000
0000
0010
0000
0000
0000
0000
,
0001
1000
0010
0001
0020
0000
0130
0000
,
0001
0000
0000
0010
0000
0000
0001
0000
1000
0000
0000
0010
0000
0000
0000
0000
,
1000
0000
0000
0100
0000
0000
1000
0000
0001
0000
0000
0100
0000
0000
0000
0000
,
0001
0000
0000
0010
0000
0000
0001
0000
1000
0000
0000
0100
0000
0000
0000
0000
,
1000
0001
0100
1000
0200
0000
0310
0000
,
1000
0100
1100
0000
,
1000
0001
0011
0000
,
0001
1000
0010
0100
,
0001
1000
0220
0330
,
0001
0000
0000
0010
0000
0000
0001
0000
1000
0000
0000
0000
0100
0000
0000
0000
,
1000
0000
0000
0010
0000
0000
1000
0000
0001
0000
0000
0000
0010
0000
0000
0000
,
0001
0000
0000
0100
0000
0000
0010
0000
0100
0000
0000
0000
0001
0000
0000
0000
,
1000
0000
0000
1000
0000
0000
0100
0000
0010
0000
0001
0000
1000
0000
0000
0000
,
0020
0000
0000
0000
0030
0000
0000
1001
,
1000
0100
1000
0100
0100
1000
0100
1000
,
0001
0100
0100
0100
0001
0100
0001
0100
,
0010
1001
0110
1001
,
1100
0000
0000
0000
;

//---------------dance-single - t7r----------------
#NOTES:
     dance-single:
     t7r:
     Medium:
     15:
     :
0000
0000
0000
0000
,
0000
0000
0000
0000
,
0000
0000
0000
0000
,
2000
0000
3002
0000
,
0203
0000
0000
0000
0000
0000
0000
0000
0000
0000
0000
0000
0000
0000
0000
0000
0310
0000
0000
1000
0000
0000
0001
0000
0100
0000
0001
0000
1000
0000
0000
0000
,
0001
0010
0100
0010
0001
1000
0100
1000
,
0001
0100
0010
0100
0001
1000
0010
1000
,
0002
0000
0000
0000
0010
0000
0000
0000
1003
0000
0100
0000
0010
0000
0000
0100
,
1000
0001
0100
0010
0100
0001
1000
0001
,
1000
1000
0100
0100
0010
0010
0001
1000
,
0001
0001
0100
0100
0010
0010
1000
0001
,
1000
0010
0001
0010
1000
0100
0001
0100
,
0020
0000
0000
0000
1000
0000
0000
0000
0130
0000
1000
0001
1000
0000
0000
0000
,
0002
0000
0000
0000
0103
0010
0100
0000
0010
0000
0100
0000
0200
0000
0000
0000
,
1300
0000
0100
0010
0100
0000
0010
0000
0100
0000
0100
0000
0002
0000
0000
0000
,
2003
0000
0000
0000
3100
0000
0010
0100
0010
0000
0010
0000
0200
0000
0000
0000
,
0301
0000
0000
0000
0000
0000
0100
0000
0000
0010
0000
0000
0100
0000
0000
0000
0000
0000
0000
0000
0100
0000
0000
0000
0010
0000
0000
0000
0001
0000
0000
0000
1000
0000
0000
0000
0002
0000
0000
0000
0000
0000
0000
0000
0000
0000
0000
0000
,
0023
0000
0000
0000
1030
0000
0010
0100
0010
0000
0010
0000
0002
0000
0000
0000
,
1003
0000
0001
0010
0001
0000
1000
0000
0010
0000
0001
0000
0020
0000
0000
0000
,
1030
0000
0001
0000
0001
0000
1000
0100
1000
0000
1000
0000
0001
0000
0001
0000
,
0100
0000
1000
0000
0100
0000
0010
0000
0100
0001
0000
0000
1001
0000
0000
0000
,
1000
0000
0100
1000
0100
0000
0000
0000
1000
0000
0001
0100
0000
0001
0100
0000
,
0001
0000
1000
0000
0001
0100
0001
0000
1000
0000
0100
0000
1000
0001
1000
0000
,
0100
0000
0000
0000
0110
0000
0000
0000
1000
0000
0010
1000
0010
0000
0100
0000
,
0001
0000
0010
0001
0010
0000
0100
0000
1000
0000
0010
1000
0010
0000
1000
0000
,
0001
1000
0100
0010
0001
1000
0001
0100
,
0010
0000
1000
0000
0001
0010
0001
0000
1000
0000
0010
0100
0010
0000
1000
0000
,
0001
0000
0000
1000
0100
0000
0000
0100
1000
0100
0000
1000
0001
0000
0100
0000
,
0010
0000
0100
0000
1000
0000
0100
0010
0100
0000
0001
0000
1000
0000
0000
0000
,
1001
0000
1000
0010
0010
1000
1000
0010
,
0010
0000
0100
0000
0001
0000
0010
0100
0000
0000
1000
0001
0000
0100
0001
0000
,
1000
0000
0001
0010
0010
0001
0001
0010
,
0010
0000
0100
0000
1000
0000
0010
0000
0100
0000
0001
1000
0200
0000
0000
0000
,
1300
0010
0001
0010
1000
0010
0001
0010
,
1000
0000
0100
0000
0001
0000
0100
0010
0100
0000
1000
0000
0001
0000
0000
0000
,
0100
0000
0010
0100
0010
0000
0000
0000
1000
0000
0001
1000
0001
0000
0000
0000
,
0200
1000
1000
0000
0010
0000
0301
0000
,
1000
0000
0000
0000
0100
0000
0000
0000
1000
0000
0001
0000
0000
0000
0010
0000
0001
0000
0000
0000
1000
0000
0000
0000
0001
0000
0000
0100
0000
0000
0001
0000
,
1000
0000
0010
0000
0100
0010
0000
1000
0001
0010
0100
0000
1000
0001
0100
0010
,
1000
0010
0100
0000
0001
0010
0100
0010
0001
0000
0010
0000
1000
0000
0010
0100
,
1000
0000
0010
0000
0100
0001
0010
0000
0001
0000
0100
0000
1000
0000
0010
0000
,
0001
0000
0000
0100
0000
0000
0001
0000
1000
0000
0100
0000
0010
0000
0100
0000
,
1000
0000
0000
0001
0000
0000
0100
0000
0010
0000
1000
0000
0001
0000
0010
0000
,
0001
0000
0000
1000
0000
0000
0010
0000
1000
0000
0001
0000
0010
0000
0001
0000
,
1000
0000
0000
0100
0000
0000
0010
0000
0100
0000
1000
0000
0010
0000
0100
0000
,
0001
0001
0010
0010
0100
0100
1000
0001
,
1000
0000
1000
0000
0010
0000
0010
0000
0100
0000
0000
0001
1000
0000
0100
0000
,
1000
0000
0001
0010
0001
0000
1000
0000
0001
0000
0100
0001
0100
0000
0010
0000
,
0100
0000
0000
0001
1000
0000
0001
0000
0100
0000
0000
0000
1010
0000
0000
0000
,
1000
0000
0100
1000
0000
0000
0001
0000
1000
0100
0000
1000
0000
0000
0000
0000
,
0001
0000
0100
0001
0000
0000
1000
0000
0001
0010
0000
0001
0000
0000
0000
0000
,
1000
0000
0100
0010
0000
0000
0100
0000
1000
0001
0000
0100
0000
0000
0000
0000
,
0001
0010
0000
0001
0010
0000
0001
1000
0001
0000
0100
0000
0001
0000
0000
0000
,
1000
0000
0100
0010
0000
0000
0001
0000
0100
0010
0000
1000
0000
0000
0000
0000
,
0001
0000
0010
0100
0000
0000
1000
0000
0001
0010
0000
0001
0000
0000
0000
0000
,
1000
0000
0010
0100
0000
0000
0010
0000
1000
0001
0000
0010
0000
0000
0000
0000
,
0001
0000
0001
0000
0100
0000
0001
1000
0001
0000
0000
0000
0020
0000
0000
0000
,
0031
0000
0100
0000
0001
0000
1000
0000
0100
0000
1000
0000
,
0001
0000
0010
0000
0100
0000
1000
0000
0010
0000
0001
0000
,
0010
0000
0100
0000
0001
0000
0010
0000
0100
0000
1000
0000
,
0001
0100
0000
0001
0100
0000
0001
0000
1000
0000
0000
0000
0110
0000
0000
0000
,
1000
0000
0100
0010
0000
0000
0100
0000
1000
0001
0000
0100
0000
0000
0000
0000
,
0001
0000
0010
0100
0000
0000
0010
0000
0001
1000
0000
0010
0000
0000
0000
0000
,
0100
0000
0010
1000
0000
0000
0001
0000
1000
0100
0000
0010
0000
0000
0000
0000
,
0100
1000
0000
0000
0001
0000
0000
0000
0100
0010
0100
0000
0020
0000
0000
0000
,
1030
0000
0100
0010
0000
0100
1000
0000
0100
0010
0000
0100
0000
0000
1000
0000
,
0001
0000
0100
0010
0000
0100
0001
0000
0100
0010
0000
1000
0000
0000
0001
0000
,
1000
0000
0010
0100
0000
0010
1000
0000
0010
0100
0000
0010
0000
0000
1000
0000
,
0001
0010
1000
0010
0001
0100
0020
0000
,
1030
0000
0100
0010
0000
1000
0010
0000
0100
1000
0000
0001
0000
0000
0100
0000
,
0001
0000
0100
0010
0000
0001
0010
0000
0100
0001
0000
1000
0000
0000
0001
0000
,
1000
0000
0010
0100
0000
1000
0100
0000
0010
0100
0000
0001
0000
0000
1000
0000
,
0001
0010
1000
0010
0100
1000
0001
0000
,
1000
0000
0010
0000
1000
0100
1000
0000
0001
0000
0010
0001
,
0010
0000
0001
0000
0100
0000
0010
0000
0000
1000
0000
0000
,
0001
0000
0010
0000
0001
0100
0001
0000
1000
0000
0010
1000
,
0010
0000
0100
0000
0001
0000
2000
0000
0000
3100
0000
0000
,
1000
0000
0010
1000
0000
0010
0100
0000
0010
0001
0000
0010
0000
0000
0100
0000
,
0001
0000
0010
1000
0000
0010
0100
0000
0010
0001
0000
1000
0000
0000
0001
0000
,
1000
0000
0100
0010
0000
0100
0001
0000
0100
1000
0000
0001
0000
0000
0100
0000
,
0001
0000
0100
0001
0000
1000
0001
0000
0010
0000
0001
0000
1000
0001
1000
0000
,
0020
0000
0000
0000
0001
0000
0000
0000
0130
0010
0100
0000
0010
0000
1001
0000
,
1000
0100
1000
0000
0001
1000
0000
0001
0100
0000
0001
0000
1000
0000
0000
0000
,
0001
0000
1000
0000
0001
0100
0000
0001
1000
0000
0001
0000
1000
0100
0000
1000
,
0001
0000
1000
0100
1000
0000
0000
0000
0001
0000
0100
0001
0100
0000
0100
0000
,
1001
0000
0000
0000
;

//---------------dance-single - t7r----------------
#NOTES:
     dance-single:
     t7r:
     Hard:
     18:
     :
0000
0000
0000
0000
,
0000
0000
0000
0000
,
0000
0000
0000
0000
,
2000
0000
3002
0000
,
0203
0000
0000
0000
0000
0000
0000
0000
0000
0000
0000
0000
0000
0000
0000
0000
0310
1000
0000
0001
1000
0000
0010
0100
0010
1000
0010
0000
2000
0000
0000
0000
,
3001
0010
0100
0010
0001
0100
0010
1000
,
0001
0010
0100
0010
0001
0100
0010
1000
,
0200
0000
0000
0000
0301
0000
0100
0000
0010
0000
0100
0000
2000
0000
0000
3001
,
0100
0000
1000
0000
0100
0000
0010
0000
0100
0000
0001
0000
1000
0000
0001
1000
,
0001
0001
0010
0010
0100
0100
1000
0001
,
1000
0000
1000
0000
0010
0000
0100
0001
0100
0000
0001
0000
1000
0000
0001
1000
,
0001
0010
0001
0010
0001
0010
0100
0000
1000
0010
1000
0010
1000
0010
0100
0000
,
0010
0000
1000
0001
0010
0000
0001
1000
0100
0000
1000
0001
1000
0000
0000
0000
,
2001
0000
0000
0000
3100
0010
0100
0000
0001
0000
0001
0000
0002
0000
0000
0000
,
0103
0000
0010
0100
0010
0000
0100
1000
0100
0000
0100
0000
2000
0000
0000
0000
,
3002
0000
0000
0000
0103
0000
0100
0010
0100
0000
0100
0000
2000
0000
0000
0000
,
3100
0000
0000
0000
0000
0000
0010
0000
0000
0100
0000
0000
0010
0000
0000
0000
0000
0000
1000
0000
0000
0001
0000
0000
0010
0000
0000
0000
0001
0000
0000
0000
1000
0000
0000
0000
0020
0000
0000
0000
0000
0000
0000
0000
0000
0000
0000
0000
,
0032
0000
0000
0000
0013
0000
1000
0010
1000
0000
1000
0000
0002
0000
0000
0000
,
0013
0000
1000
0010
1000
0000
0010
0001
0010
0000
0001
0000
2000
0000
0000
0000
,
3001
0000
0100
0000
0100
0000
1000
0100
1000
0000
0100
0000
0100
0000
0010
1000
,
0001
0010
0100
0000
1000
0000
0001
0000
0100
0010
1000
0000
1002
0000
0000
0000
,
1003
0000
0100
0010
0100
0000
0010
0001
0000
1000
0001
0000
0100
0001
0000
1000
,
0001
0000
0010
0000
0001
1000
0100
0000
0010
0000
0100
0000
1000
0001
0100
0001
,
1000
0000
0000
0000
1001
0000
0000
0000
0001
0000
0010
0100
0000
0010
0001
1000
,
0001
0000
0100
0001
1000
0000
0001
0000
1000
0000
0100
0010
0001
1000
0010
0000
,
0100
0000
0010
1000
0010
0000
1000
0001
1000
0000
0100
0000
1000
0001
0000
0001
,
0100
0000
0001
0000
1000
0001
0010
0000
0001
0000
1000
0010
0100
0010
1000
0000
,
0001
0000
0100
0001
0000
0100
0010
0000
1000
0010
0000
1000
0001
0000
1000
0000
,
0100
0000
0001
0000
0100
0000
1000
0010
0100
0010
1000
0000
1001
0000
0000
0000
,
0110
0000
0000
0000
0001
0000
0100
0010
0100
0000
0001
1000
0010
0000
1000
0001
,
1000
0100
0010
0000
0100
0000
0001
0100
0001
0000
0100
0010
0000
0100
1000
0000
,
0010
0000
0000
0000
0100
0000
0010
0100
0010
0000
0100
1000
0100
0000
0010
0100
,
0001
1000
0001
0000
1000
0000
0010
1000
0001
0010
0001
1000
0020
0000
0000
0000
,
0130
0000
0001
0100
0000
0100
0010
0000
1000
0000
0100
0010
0000
0010
0001
0000
,
1000
0000
0010
0000
0100
0000
0010
1000
0001
1000
0010
0000
2000
0000
0000
0000
,
3001
0010
0100
1000
0001
0000
1000
0100
0010
0001
0100
0010
1000
0001
0010
0001
,
0200
0000
1000
0000
1000
0000
0000
0000
0020
0030
0000
0000
0002
0303
0000
0000
,
1000
0000
0000
0000
0010
0000
0000
0000
1000
0000
0100
0000
1000
0000
0001
0000
0010
0000
0010
0000
0001
0000
0000
0000
0100
0000
0000
0001
0100
0000
0010
0000
,
0100
0000
0010
0000
1000
0001
0010
0001
1000
0100
0100
0010
0001
1000
0001
0100
,
0001
0000
0010
0000
0001
1000
0010
0001
0010
0000
1000
0001
0010
1000
0010
0001
,
1000
0100
0010
0100
0001
0100
0010
0100
1000
0000
0010
0000
0001
0000
0100
0000
,
1000
0000
0100
0010
0000
0100
1000
0000
0001
0100
0001
0000
1000
0000
1000
0000
,
0001
0000
0010
0001
0000
1000
0001
0000
1000
0100
1000
0000
0001
0000
0001
0000
,
1000
0000
0010
1000
0000
0010
0100
0000
0010
1000
0010
0000
1000
0000
0001
1000
,
0001
0000
0100
0010
0000
0100
0001
0000
0010
0000
0001
1000
0010
0000
1000
0001
,
1000
1000
0100
0100
0001
0001
1000
0010
,
0001
0000
1000
0000
0010
0000
0001
0000
0010
0000
1000
0001
0000
0010
1000
0010
,
0001
0100
0001
0100
0001
0100
0010
0000
1000
0100
1000
0100
1000
0100
0010
0000
,
0100
1000
0001
0000
0100
0000
0010
0000
1000
0001
0010
0000
1001
0000
0000
0000
,
1000
0000
0100
0010
0000
0100
0001
0000
0100
0010
0000
0100
0000
1000
0001
0100
,
0001
0000
0100
0010
0000
0100
1000
0000
0100
0010
0000
1000
0000
0001
0010
0001
,
1000
0000
0100
0010
0000
0100
0001
0000
0100
0010
0000
0100
0000
1000
0001
0010
,
0001
1000
0000
0010
1000
0000
0001
0010
0001
1000
0000
1000
0100
1000
0001
0000
,
1000
0000
0010
0100
0000
0010
0001
0000
0010
0100
0000
0010
0000
1000
0001
0010
,
0001
0000
0010
0100
0000
0010
1000
0000
0010
0001
0000
1000
0000
0010
1000
0001
,
1000
0000
0010
0100
0000
0010
0001
0000
0010
0100
0000
0010
0000
1000
0001
0010
,
0001
1000
0001
1000
0001
1000
0001
1000
0010
0100
0010
0100
0002
1000
0000
0103
,
0001
0000
0010
0000
0001
0100
0010
0000
0001
0000
1000
0100
,
0010
0000
1000
0000
0100
0001
1000
0010
0001
0000
0010
0100
,
1000
0000
0010
0000
1000
0100
0010
0000
1000
0000
0001
0100
,
0010
0001
0000
0001
1000
0000
0010
1000
0001
1000
0001
1000
0020
0100
0000
1030
,
0010
0000
0100
0010
0000
0001
0010
0000
0100
0010
0000
1000
0000
0100
0001
0100
,
0010
0000
0100
0010
0000
1000
0010
0000
0100
0010
0000
0001
0000
0100
1000
0100
,
0010
0000
0100
0010
0000
0001
0010
0000
1000
0010
0000
1000
0000
0100
0010
0100
,
1000
0100
0010
0001
1000
0010
0100
0001
0010
0100
1000
0001
0020
0000
0000
0000
,
0031
0000
0100
0010
0000
0001
0010
0000
0100
0001
0000
0010
0000
0000
0100
0010
,
0100
0000
1000
0010
0000
0100
1000
0000
0100
0010
0000
1000
0100
0010
0100
0000
,
1000
0000
0001
0010
0000
0100
0001
0000
0100
0010
0000
0100
1000
0000
0001
0100
,
0001
0010
0000
0001
1000
0000
0010
0100
0001
1000
0100
0010
0002
0100
0000
1003
,
0001
0000
0100
1000
0000
0001
1000
0000
0100
0001
0000
0010
0000
0000
0100
0010
,
0100
0000
1000
0100
0000
0001
1000
0000
0010
0100
0000
1000
0010
0100
0010
0000
,
0100
0000
1000
0100
0000
0001
0010
0000
1000
0010
0000
0100
0010
0000
0001
0100
,
0001
1000
0010
1000
0001
0010
0001
1000
0100
1000
0001
1000
0010
0000
0000
0000
,
1000
0000
1100
0000
0100
1000
0001
0000
0101
0000
0001
1000
,
0010
0000
1010
0000
1000
0100
0010
1000
0001
0000
0100
1000
,
0001
0000
0101
0000
0001
1000
0010
0000
1010
0000
1000
0001
,
0010
0000
0000
0000
0001
0000
0000
0000
0100
0000
0000
0000
1000
0000
0000
0000
0001
0000
0000
0000
0010
0000
0000
0000
2000
0000
0000
0000
0000
0000
0000
0000
0000
0000
0000
0000
3010
0000
0000
0100
0000
0000
0001
0000
0000
1000
0000
0000
,
0010
0000
0001
0010
0000
1000
0100
0000
0001
0100
0000
0010
0000
0100
0001
0100
,
0010
0000
1000
0010
0000
0001
0100
0000
1000
0100
0000
0010
0000
0100
1000
0100
,
0010
0100
0010
0100
0010
0100
0010
0100
0001
1000
0001
1000
0001
1000
0001
1000
,
0002
0100
0000
1003
0020
0100
0000
1030
0001
1000
0100
0010
0001
0100
0010
1000
,
0200
0000
0000
0000
0001
0000
0000
0000
0010
0000
0000
0000
1000
0000
0000
0010
0310
0000
0010
0000
0010
0000
0000
0000
0100
0000
0010
0000
1001
0000
0000
0000
,
1000
0100
1000
0000
0001
0100
0000
1000
0100
0000
0010
0000
0100
0001
1000
0000
,
0100
0000
0001
0000
0100
0010
0000
0100
1000
0000
0100
0001
0100
1000
0100
0010
,
0002
0100
0000
1003
0002
0100
0000
1003
0020
0100
0000
1030
0001
0100
0001
0000
,
1001
0000
0000
0000
;

//---------------dance-single - t7r----------------
#NOTES:
     dance-single:
     t7r:
     Challenge:
     19:
     :
0000
0000
0000
0000
,
0000
0000
0000
0000
,
0000
0000
0000
0000
,
1000
0001
0100
0100
0010
1000
0001
0010
0001
1000
0100
0100
0010
0001
1000
0010
,
0100
0000
0010
0000
1000
0000
1000
0000
0001
0000
0100
0000
0010
0000
1000
0000
0100
1000
0000
0001
1000
0000
0001
1000
0100
0010
0100
0000
1001
0000
0000
0000
,
1000
0000
0010
1000
0010
0000
1000
0000
0001
0000
0010
0000
0100
0000
1000
0001
,
1000
0000
0100
0010
0100
0000
0010
0000
0001
0000
1000
0000
0010
0000
0100
0010
,
0200
0000
1000
0000
0310
0000
0100
0000
0001
0000
1000
0000
0100
0010
0000
0010
,
0001
0000
1000
0000
0100
0000
1000
0000
0001
0000
0010
0000
0001
0000
1000
0001
,
1000
0000
0100
1000
0100
0000
0010
0100
0010
0000
0001
1000
0001
0000
0100
0001
,
1000
0000
0010
1000
0010
0000
0100
0010
0100
0000
0001
1000
0001
0000
0010
0001
,
1000
0100
1000
0100
1000
0100
1000
0100
0010
0001
0010
0001
0010
0001
0010
0001
,
0100
1000
0100
0010
0100
0001
0100
0000
0001
1000
0001
1000
0001
0000
0000
0000
,
2000
0000
0100
0000
3001
0010
0100
0000
0001
0000
0001
0000
0200
0000
0010
0000
,
1300
0000
0001
0100
0001
0000
0100
0010
0100
0000
0100
0000
1000
0200
0000
0000
,
0302
0000
0100
0000
1003
0000
0010
0100
1000
0000
1000
0000
0200
0000
0010
0000
,
0301
0000
0000
0000
0000
0000
1000
0000
0000
0100
0000
0000
1000
0000
0000
0000
0000
0000
0100
0000
0000
0010
0000
0000
0100
0000
0000
0000
0001
0000
0000
0000
0100
0000
0000
0000
1000
0000
0000
0002
0000
0000
0000
0000
0000
0000
0000
0000
,
2003
0000
0010
0000
3001
0000
0100
0010
0001
0000
0001
0000
0020
0000
0100
0000
,
1030
0000
0001
0010
0001
0000
0010
0100
0010
0000
0010
0000
1000
0020
0000
0000
,
0130
0000
0001
0000
0002
0000
0103
0010
0100
0000
0100
0000
2000
0000
3001
1000
,
0100
0001
0100
1000
0100
0000
0010
0100
1000
0010
0100
0000
0010
1000
0010
1000
,
0001
0000
0010
0100
1000
0000
0001
0010
0100
1000
0100
0000
1000
0100
0000
1000
,
0001
0000
0000
0000
0100
0000
1000
0000
0100
0000
0010
0000
0100
0000
0000
0000
0100
0000
0000
0000
0001
0000
1000
0000
0100
1000
0100
0000
1000
0000
0001
0000
,
1000
0000
0000
0000
1001
0000
0000
0000
1000
0000
0010
0100
0001
1000
0001
0010
,
0001
0000
0000
0000
1000
0000
0001
0000
0010
0000
0001
0000
1000
0000
0100
0000
0010
0000
0000
0000
0100
0000
0000
0000
1000
0001
1000
0000
0001
0000
1000
0000
,
0010
0000
1000
0100
0010
0000
0100
1000
0010
0100
0010
0000
1000
0001
0000
0010
,
0001
0000
0000
0000
0100
0000
0000
0000
0001
0000
0010
0000
0100
0000
1000
0000
0001
0000
0000
0000
0100
0000
0000
0000
0001
1000
0001
0000
1000
0000
0100
0000
,
1000
0000
0001
0000
0100
1000
0100
0010
0100
0001
0000
0001
1000
0000
0100
0000
,
0001
0000
0100
0000
0010
0000
0100
1000
0010
0100
0010
0000
1001
0000
0000
0000
,
1100
0000
0000
0000
1001
0000
0001
0010
1000
0000
0010
0001
1000
0000
0010
0001
,
0010
1000
0001
0000
0010
0000
1000
0010
0100
0000
1000
0010
0000
0100
1000
0000
,
0100
0000
0000
0000
0001
0000
1000
0010
0001
0000
0010
1000
0001
0000
0010
1000
,
0010
0000
0100
0000
0010
0000
0000
0000
0001
0000
0000
0000
1000
0000
0010
0000
0001
0000
0010
0000
1000
0000
0001
0000
1000
0100
1000
0000
0001
0000
1000
0000
,
0001
0000
0010
0100
0010
1000
0010
0000
0100
0000
0010
0001
1000
0010
0100
0000
,
1000
0000
0100
0000
0010
0000
0100
0001
1000
0001
0010
0000
0002
0000
0000
0000
,
1003
0000
0100
0000
0010
0000
0001
0000
1000
0000
0001
0000
0100
0000
0010
0000
1000
0000
0001
0000
0010
0000
0001
0000
1000
0001
1000
0000
0001
0000
0010
0000
,
0200
0000
0001
0000
0001
0000
0000
0000
0020
0030
0000
0000
2000
3300
0000
0000
,
0001
1000
0010
0001
0010
1000
0001
0010
1000
0001
1000
0010
0001
0100
1000
0001
,
0010
0000
1000
0000
0001
0000
0010
0000
1000
0000
0010
0000
0001
0000
1000
0000
0001
0000
0010
0000
0100
0000
0001
0000
1000
0000
0010
0000
0100
0000
1000
0001
,
1000
0000
0010
0000
0001
0000
0010
0000
1000
0000
0001
0000
0010
0000
1000
0000
0001
0000
1000
0000
0010
0000
0001
0000
1000
0000
0010
0001
0010
0000
1000
0000
,
0001
0010
0100
0001
1000
0010
0100
1000
0001
0000
0100
0000
1000
0000
0010
0000
,
0001
0000
0010
0100
1000
0000
0001
0010
0001
0000
0010
0100
1000
0000
0010
1000
,
0010
0000
0100
0001
0000
1000
0010
1000
0001
0000
1000
0010
0100
0000
0010
1000
,
0001
0000
0100
0010
1000
0000
0001
0100
0001
0000
0100
0010
1000
0000
0100
1000
,
0100
0000
0010
0001
0000
1000
0100
1000
0001
0000
1000
0100
0010
0000
0100
1000
,
0001
0000
0100
0001
0100
0000
0010
0100
0010
0000
1000
0010
1000
0000
0001
1000
,
0001
0000
1000
0100
1000
0000
0100
0010
0100
0000
0010
0001
0010
0000
0001
0000
,
1000
0100
1000
0100
0001
0100
0001
0100
1000
0010
1000
0010
0001
0010
0001
0010
,
0100
0010
0100
0000
0010
0000
0000
0000
1000
0000
0000
0000
0100
0010
0100
0000
0010
0000
0001
0000
1000
0000
0000
0000
1001
0000
0000
0000
0000
0000
0000
0000
,
1000
0100
1000
0100
0010
0001
0010
0001
1000
0100
0010
0100
1000
0000
0001
1000
,
0001
0100
0001
0100
0010
1000
0010
1000
0001
0010
1000
0010
0001
0000
1000
0001
,
1000
0100
1000
0100
0010
0100
0010
0100
0010
0001
1000
0001
0010
0000
0001
1000
,
0001
0000
0100
0000
1000
0000
0100
0000
0001
0000
0100
0000
1000
0000
0100
0000
0010
0000
0100
0000
0010
0000
0100
0000
0001
1000
0001
0000
1000
0000
0001
0000
,
1000
0100
1000
0100
0010
0100
0010
0100
0010
0001
1000
0001
0100
0000
0001
1000
,
0001
0100
0001
0100
0010
0100
0010
0100
0001
0010
1000
0010
0001
0000
1000
0001
,
1000
0010
1000
0010
0100
0010
0100
0010
0100
0001
1000
0001
0010
0000
0001
1000
,
0100
0000
0001
0000
0100
0000
1000
0000
0100
0000
0001
0000
0100
0000
1000
0000
0100
0000
0010
0000
0100
0000
0010
0000
0100
1000
0100
0000
0000
0000
1000
0000
,
0001
0100
0010
0001
1000
0100
0010
1000
0001
0010
0100
0001
,
1000
0010
0100
1000
0001
0100
0010
1000
0001
0010
0001
1000
,
0001
0010
0100
0001
1000
0010
0100
1000
0001
0100
0010
0001
,
1000
0000
0100
0000
0010
0000
0100
0000
0001
0000
0000
0000
1000
0000
0100
0000
0010
0000
0100
0000
0001
0000
0000
0000
0100
0010
0100
0000
0010
0000
0001
0000
,
1000
0010
1000
0010
0100
0010
0100
0010
1000
0001
0100
0001
1000
0000
0001
1000
,
0001
0100
0001
0100
0010
0100
0010
0100
0001
0010
1000
0010
0001
0000
1000
0001
,
1000
0010
1000
0010
0100
0010
0100
0010
0001
0010
0100
0010
1000
0000
0001
1000
,
0002
0000
0100
0000
0000
0000
2003
0000
0100
0000
0000
0000
3001
0000
0100
0000
0001
0000
1000
0000
0100
0000
0010
0000
0001
1000
0010
0000
0000
0000
0000
0000
,
1000
0000
1000
1000
0000
1000
1000
0000
1000
1000
0000
1000
1000
0000
0100
1000
,
0001
0000
0001
0001
0000
0001
0001
0000
0001
0001
0000
0001
1000
0001
1000
0000
,
0010
0000
0010
0010
0000
0010
0010
0000
0010
0010
0000
0010
0010
0000
0100
0001
,
1000
0000
0100
0000
0001
0000
0100
0000
1000
0000
0010
0000
0001
0000
0010
0000
1000
0000
0100
0000
0010
0000
0001
0000
1000
0100
1000
0000
0001
0000
1000
0000
,
0001
0000
0100
0100
0000
1000
1000
0000
0010
0010
0000
0001
0001
0000
1000
0001
,
1000
0000
0100
0100
0000
0001
0001
0000
0010
0010
0000
1000
0001
0100
0001
0000
,
1000
0000
0010
0010
0000
0001
0001
0000
0100
0100
0000
1000
1000
0000
0001
1000
,
0001
0100
1000
0100
0001
0010
1000
0010
0001
0100
0010
1000
0001
0000
0000
0000
,
1010
0000
1010
0000
1000
0100
0110
0000
0110
0000
0010
0001
,
1001
0000
1001
0000
0001
0100
1000
0001
0010
1000
0001
0010
,
0011
0000
0000
0000
0011
0000
0000
0000
0001
0000
1000
0000
1010
0000
0000
0010
1000
0001
1000
0000
0001
0000
1000
0000
,
0100
0000
0000
0000
0001
0000
0000
0000
1000
0000
0000
0000
0010
0000
0000
0000
0001
0000
0000
0000
0100
0000
0000
0000
0210
0000
0000
0000
0000
0000
0000
0000
0000
0000
0000
0000
0301
0000
0000
0010
0000
0000
0100
0000
0000
1000
0000
0000
,
0001
0100
0001
0100
0010
0100
0010
0100
0010
1000
0001
1000
0010
0000
1000
0001
,
1000
0100
1000
0100
0010
0100
0010
0100
0010
1000
0010
0001
1000
0010
0100
0001
,
1000
0001
1000
0001
0100
0010
0100
0010
0100
0001
0010
0100
1000
0010
0100
0001
,
1000
0100
1000
0000
0000
0000
1000
0100
1000
0000
0000
0000
0001
0000
0100
0000
0001
0000
0010
0000
0100
0000
1000
0000
0001
0000
1000
0000
0001
0000
1000
0001
,
1000
0000
0000
0000
0100
0000
0000
0000
0001
0000
0000
0000
0010
0000
0000
1000
1000
0000
1000
0000
1000
0000
0000
0000
0100
0000
0010
0000
1001
0000
0000
0000
,
0001
0000
0100
0000
1000
0000
0000
0000
0100
0000
0001
0000
0000
0000
0100
0000
1000
0000
0100
0000
0010
0000
0100
0010
0100
0000
0010
0000
1000
0000
0000
0000
,
0001
0000
0000
0000
1000
0000
0100
0000
0001
0000
0100
1000
0100
0000
1000
0000
0001
0000
0000
0000
1000
0000
0100
0000
0001
0000
0100
0000
1000
0000
0001
0000
,
0100
0000
1000
0000
0100
0000
0001
0000
1000
0000
0100
0000
0010
0000
0010
0000
0001
0000
0100
0000
0010
0000
0010
0000
1000
0001
1000
0000
0001
1000
0001
0000
,
1001
0000
0000
0000
;

//---------------dance-double - t7r----------------
#NOTES:
     dance-double:
     t7r:
     Easy:
     12:
     :
00000000
00000000
00000000
00000000
,
00000000
00000000
00000000
00000000
,
00000000
00000000
00000000
00000000
,
20000000
00000000
30020000
00000000
,
02030000
00000000
00000000
00000000
03100000
10000000
00010000
00000000
,
10000000
00000000
01000000
00000000
,
00010000
00001000
00010000
00000000
,
00000100
00000000
00001000
00000000
,
00000001
00000100
00000001
00000000
,
00000010
00000000
00001000
00000000
,
00010000
00001000
00010000
00100000
,
01000000
00100000
01000000
00100000
10000000
00010000
10000000
00010000
,
00200000
00010000
00301000
00011000
,
00020000
00000000
00032000
00000000
00003100
00000010
00000200
00000000
,
00001300
00000000
00010000
00000000
00001000
00010000
00002000
00000000
,
00023000
00000000
02030000
00000000
03100000
01000000
00200000
00000000
,
00301000
00000000
00010000
00000000
00001000
00010000
00000020
00000000
,
00002030
00000000
00003002
00000000
00000013
00000100
00002000
00000000
,
00003001
00000000
00000200
00000000
00001300
00010000
00002000
00000000
,
00013000
00000000
01000000
00000000
10000000
00010000
10000000
00000000
,
00100000
01000000
00100000
00000000
00010000
00000000
00001000
00000000
,
00010000
00000000
00000100
00000000
00001000
00000001
00001000
00000000
,
00000001
00000000
00000100
00000000
00001000
00010000
00001000
00000000
,
01000000
00000000
01000000
00000000
00100000
10000000
00100000
00000000
,
10000000
00010000
10000000
00000000
00010000
00100000
00010000
00000000
,
00100000
00000000
00001000
00010000
00001000
00000000
00010000
00000000
,
00000010
00000000
00001000
00000010
00001000
00000000
00000001
00000000
,
00000010
00000100
00001000
00000000
00000001
00000000
00000100
00000000
,
00001000
00010000
00001000
00000000
01000000
00000000
01100000
00000000
,
10010000
00000000
10000000
01000000
00010000
00000000
01000000
00000000
,
00010000
00000000
00001000
00010000
00001000
00000000
00000100
00000000
,
00000001
00000000
00001000
00000001
00001000
00000000
00000001
00000000
,
00000100
00000000
00001000
00010000
00001000
00000000
00020000
00000000
,
00031000
00000000
00010000
00000000
01000000
00100000
01000000
00000000
,
00100000
00000000
00001000
00000000
00010000
00001000
00010000
00000000
,
00001000
00000000
00000100
00000000
00000010
00001000
00000010
00000000
,
00020000
00001000
00001000
00000000
00000100
00000000
00030100
00000000
,
00010000
00000000
00001000
00000000
01000000
00010000
10000000
00000000
,
01000000
00000000
00100000
00000000
00001000
00010000
00001000
00000000
,
00010000
00000000
00000010
00000000
00001000
00000001
00000010
00000000
,
00001000
00000000
00010000
00000000
00100000
10000000
01000000
00010000
,
00001000
00000000
00001000
00000000
00010000
00000100
00010000
00000000
,
00001000
00000000
00001000
00000000
01000000
00010000
01000000
00000000
,
00001000
00000000
00001000
00000000
00010000
00001000
00010000
00000000
,
00001000
00000000
00001000
00000000
00010000
00000010
00001000
00000000
,
00000001
00000010
00000100
00000000
00001000
00000001
00000100
00000000
,
00001000
00010000
00001000
00000000
00010000
00100000
00000000
01000000
,
00100000
10000000
00010000
00010000
00100000
00001000
00010000
00010000
,
00001000
00000000
00000010
00000000
00000001
00000100
00001000
00000000
,
00010000
00000000
00001000
00010000
00001000
01000000
00010000
00000000
,
10000000
00000000
01000000
10000000
01000000
00100000
00010000
00000000
,
00100000
00000000
00001000
00010000
00000010
00001000
00000001
00000000
,
00000100
00000000
00001000
00010000
00001000
00000000
01000000
00000000
,
00010000
00000000
10000000
00100000
01000000
00010000
10000000
00000000
,
01000000
00000000
00010000
00001000
00010000
00000010
00001000
00000000
,
00000010
00000000
00000100
00000001
00001000
00000001
00000010
00000000
,
00000100
00001000
00000100
00010000
00002000
00000000
01003000
00000000
,
00001000
00000000
00011000
00000000
,
00001000
00000000
01000000
00100000
,
10100000
00000000
10000000
00000000
,
01000000
00010000
00001000
00011000
,
00010000
00000000
00000100
00000000
00001000
00000001
00001000
00000000
,
00000001
00000000
00000100
00000000
00000001
00001000
00000001
00000000
,
00000010
00000000
00001000
00000000
00010000
00001000
00010000
00000000
,
00001000
00000000
00010000
00000000
00100000
10000000
02000000
00000000
,
03100000
00000000
00000000
00010000
00000000
00000000
00100000
00000000
00001000
00000000
00000000
00000000
00000000
00000000
00000000
00000000
,
00010000
00000000
00000000
00000010
00000000
00000000
00001000
00000000
00000001
00000000
00000000
00000000
00000000
00000000
00000000
00000000
,
00000100
00000000
00000000
00001000
00000000
00000000
00010000
00000000
00001000
00000000
00000000
00000000
00000000
00000000
00000000
00000000
,
00010000
00000000
00000000
01000000
00000000
00000000
10000000
00000000
00100000
00000000
00000000
00000000
01100000
00000000
00000000
00000000
,
10000000
00000000
00000000
01000000
00000000
00000000
00100000
00000000
00010000
00000000
00000000
00000000
00000000
00000000
00000000
00000000
,
00001000
00000000
00000000
00000010
00000000
00000000
00000100
00000000
00000001
00000000
00000000
00000000
00000000
00000000
00000000
00000000
,
00000010
00000000
00000000
00000100
00000000
00000000
00010000
00000000
00001000
00000000
00000000
00000000
00000000
00000000
00000000
00000000
,
00010000
00000000
00000000
00100000
00000000
00000000
10000000
00000000
01000000
00000000
00000000
00000000
00010000
00000000
00000000
00000000
,
00001000
00010000
00011000
00000000
,
00001000
00100000
00110000
00000000
,
00010000
10000000
00100000
00010000
,
00001000
00000010
00000220
00000330
,
00000001
00000000
00000000
00000100
00000000
00000000
00000010
00000000
00001000
00000000
00000000
00000000
00000001
00000000
00000000
00000000
,
00000010
00000000
00000000
00000100
00000000
00000000
00010000
00000000
00001000
00000000
00000000
00000000
00010000
00000000
00000000
00000000
,
00001000
00000000
00000000
01000000
00000000
00000000
00010000
00000000
10000000
00000000
00000000
00000000
00100000
00000000
00000000
00000000
,
00010000
00000000
00000000
00001000
00000000
00000000
00010000
00000000
00010000
00000000
00000100
00000000
00001000
00000000
00000000
00000000
,
00000002
00000000
00000000
00000000
00000000
00000000
00000003
00001100
,
00000100
00010000
00001000
00000000
00010000
00000000
00001000
01000000
,
00010000
00000000
00100000
00000000
00001000
00010000
00001000
00000000
,
00000010
00000001
00000100
00000000
00001000
00000000
00010000
00100000
,
10000000
00000000
00000000
00000000
;

//---------------dance-double - t7r----------------
#NOTES:
     dance-double:
     t7r:
     Medium:
     15:
     :
00000000
00000000
00000000
00000000
,
00000000
00000000
00000000
00000000
,
00000000
00000000
00000000
00000000
,
00020000
00000000
00032000
00000000
,
02003000
00000000
00000000
00000000
00000000
00000000
00000000
00000000
00000000
00000000
00000000
00000000
00000000
00000000
00000000
00000000
03100000
00000000
00000000
10000000
00000000
00000000
00010000
00000000
00100000
00000000
00000000
00000000
00001000
00000000
00000000
00000000
,
00010000
00000000
00000100
00000000
00001000
00000001
00001000
00000000
,
00000001
00000000
00000100
00000000
00000010
00001000
00000001
00000000
,
00000010
00000000
00001000
00000000
00010000
00001000
00010000
00000000
,
00001000
00000000
00100000
00000000
00010000
10000000
00100000
00000000
,
10000000
10000000
01000000
01000000
00100000
00001000
00010000
00000000
,
00001000
00001000
00010000
00010000
00000100
00001000
00000001
00000000
,
00000100
00001000
00010000
00000000
01000000
10000000
00010000
00000000
,
00200000
00010000
00301000
00011000
,
00020000
00000000
00000000
00000000
00030100
00001000
00000100
00000000
00001000
00000000
00001000
00000000
00000002
00000000
00000000
00000000
,
00000103
00000000
00000000
00000000
00001000
00000000
00010000
00001000
00010000
00000000
00001000
00000000
00020000
00000000
00000000
00000000
,
00032000
00000000
00000000
00000000
01003000
00000000
00010000
01000000
00010000
00000000
00010000
00000000
20000000
00000000
00000000
00000000
,
31000000
00000000
00000000
00010000
00000000
00000000
00001000
00010000
00001000
00020000
00000000
00000000
,
00032000
00000000
00000000
00000000
00003010
00000000
00000100
00000010
00000100
00000000
00000010
00000000
00000020
00000000
00000000
00000000
,
00000031
00000000
00000000
00000000
00000100
00000000
00001000
00010000
00001000
00000000
00010000
00000000
00002000
00000000
00000000
00000000
,
00013000
00000000
00100000
00000000
00100000
00000000
10000000
00010000
10000000
00000000
01000000
00000000
01000000
00000000
00010000
00000000
,
00001000
00000000
01000000
00000000
00010000
00000000
00100000
00000000
00001000
00010000
00001000
00000000
00020000
00000000
00000000
00000000
,
00031000
00000100
00000010
00001000
00000100
00000010
00001000
00010000
,
01000000
00100000
00010000
10000000
01000000
00010000
00001000
01000000
,
00010000
00000000
10010000
00000000
10000000
00100000
00010000
00001000
,
00100000
01000000
00010000
00001000
00000100
00000010
00000100
00000001
,
00001000
00000100
00000100
00010000
00001000
01000000
01000000
00001000
,
00010000
00000000
00001000
00000000
00000010
00000000
00000100
00000000
00001000
00000000
00000001
00001000
00000001
00000000
00000000
00000000
,
00000100
00000000
00000000
00001000
00010000
00000000
00000000
00001000
00010000
00001000
00000000
00010000
00001000
00000000
00010000
00000000
,
01000000
00000000
00100000
00000000
00010000
00000000
10000000
00100000
10000000
00000000
00010000
00000000
10000000
00000000
00000000
00000000
,
10010000
00000000
10000000
00100000
00010000
00001000
00000100
00000001
,
00000010
00000000
00000100
00000000
00010000
00000000
00001000
00010000
00001000
00000000
01000000
00010000
00000000
10000000
00010000
00000000
,
10000000
00000000
01000000
00010000
00001000
00000010
00000001
00000100
,
00001000
00010000
00001000
00000000
01000000
00000000
00000000
00000000
00010000
10000000
00010000
00000000
20000000
00000000
00000000
00000000
,
31000000
00100000
00001000
00010000
00000100
00001000
00000001
00000100
,
00001000
00000000
00010000
00000000
00001000
00000000
01000000
00000000
00010000
10000000
00010000
00000000
10000000
00000000
00000000
00000000
,
00100000
00000000
00010000
00001000
00010000
00000000
00000000
00000000
00001000
00000000
00000010
00000100
00000010
00000000
00000000
00000000
,
00000002
00000100
00000100
00000000
00001000
00000000
00001003
00000000
,
00000001
00000000
00000000
00000000
00000100
00000000
00000000
00000000
00001000
00000000
00010000
00000000
00000000
00000000
00001000
00000000
01000000
00000000
00000000
00000000
00010000
00000000
00000000
00000000
10000000
00000000
00000000
00100000
00000000
00000000
10000000
00000000
,
00010000
00000000
10000000
00000000
01000000
00010000
00000000
00001000
00010000
00000100
00001000
00000000
00000001
00000100
00000001
00000000
,
00001000
00000000
00000010
00000000
00010000
00001000
00000000
00010000
00100000
00000000
01000000
00000000
00010000
00000000
00100000
01000000
,
10000000
00000000
01000000
00000000
00100000
00001000
00010000
00000000
00001000
00000000
00000100
00000000
00000001
00000000
00000010
00000000
,
00000100
00000000
00000000
00010000
00000000
00000000
00001000
00000000
01000000
00000000
00010000
00000000
10000000
00000000
00000000
00000000
,
01000000
00000000
00000000
00100000
00000000
00000000
01000000
00000000
10000000
00000000
00010000
00000000
00100000
00000000
00000000
00000000
,
00001000
00000000
00000000
00010000
00000000
00000000
00000100
00000000
00001000
00000000
00000001
00000000
00000010
00000000
00000000
00000000
,
00000001
00000000
00000000
00000100
00000000
00000000
00000010
00000000
00001000
00000000
00000001
00000000
00000010
00000000
00000000
00000000
,
00001000
00001000
00010000
00010000
00000100
00001000
00000001
00000000
,
00000100
00000100
00001000
00001000
00010000
01000000
00100000
00000000
,
00010000
10000000
00100000
00010000
00001000
01000000
00010000
00001000
,
00000100
00000000
00000000
00000010
00000001
00000000
00000000
00000000
00000100
00000000
00000000
00000000
00001010
00000000
00000000
00000000
,
00000001
00000000
00000010
00000001
00000000
00000000
00001000
00000000
00000100
00001000
00000000
00000001
00000000
00000000
00000000
00000000
,
00000100
00000000
00001000
00010000
00000000
00000000
00000100
00000000
00010000
00001000
00000000
00100000
00000000
00000000
00000000
00000000
,
00010000
00000000
01000000
00010000
00000000
00000000
10000000
00000000
00010000
00100000
00000000
00010000
00000000
00000000
00000000
00000000
,
10000000
01000000
00010000
00001000
00010000
00000000
00011000
00000000
,
00001000
00000000
01000000
00010000
00000000
00000000
10000000
00000000
00010000
00100000
00000000
00001000
00000000
00000000
00000000
00000000
,
00010000
00000000
00000100
00001000
00000000
00000000
00000001
00000000
00000100
00000010
00000000
00001000
00000000
00000000
00000000
00000000
,
00000001
00000000
00000010
00000100
00000000
00000000
00001000
00000000
00000001
00000100
00000000
00001000
00000000
00000000
00000000
00000000
,
00010000
00001000
00010000
01000000
10000000
00000000
00200000
00000000
,
10300000
00000000
01000000
00000000
00100000
00000000
00001000
00000000
00010000
00000000
00000100
00000000
,
00001000
00000000
00000001
00000000
00000100
00000000
00000010
00000000
00001000
00000000
00000001
00000000
,
00000010
00000000
00001000
00000000
00010000
00000000
00000100
00000000
00010000
00000000
00001000
00000000
,
01000000
00100000
00000000
01000000
00100000
00000000
10000000
00000000
00010000
00000000
00000000
00000000
10010000
00000000
00000000
00000000
,
10000000
00000000
01000000
00100000
00000000
00000000
00010000
00000000
10000000
00100000
00000000
00010000
00000000
00000000
00000000
00000000
,
00001000
00000000
00010000
00000100
00000000
00000000
00001000
00000000
00000001
00000010
00000000
00000001
00000000
00000000
00000000
00000000
,
00000100
00000000
00001000
00010000
00000000
00000100
00000000
00010000
00001000
00000000
01000000
00000000
00000000
00000000
00000000
00000000
,
00010000
00100000
01000000
10000000
00010000
00100000
00002000
00000000
,
00013000
00000000
00001000
00000100
00000000
00000010
00000100
00000000
00000001
00001000
00000000
00000001
00000000
00000000
00000000
00000000
,
00000010
00000000
00000100
00001000
00000000
00000100
00010000
00000000
00001000
00010000
00000000
00100000
00000000
00000000
00000000
00000000
,
01000000
00000000
00010000
10000000
00000000
00010000
00100000
00000000
01000000
10000000
00000000
00010000
00000000
00000000
00000000
00000000
,
00100000
00001000
00010000
00001000
00000010
00000000
00000110
00000000
,
00000001
00000000
00000100
00001000
00000000
00010000
00001000
00000000
01000000
00010000
00000000
10000000
00000000
00000000
00000000
00000000
,
01000000
00000000
00010000
00001000
00000000
00000100
00000010
00000000
00000100
00000001
00000000
00001000
00000000
00000000
00000000
00000000
,
00000001
00000000
00000010
00001000
00000000
00010000
00001000
00000000
00010000
00100000
00000000
01000000
00000000
00000000
00000000
00000000
,
00010000
10000000
00100000
00010000
00001000
00000000
00011000
00000000
,
00001000
00000000
00000010
00000000
00000100
00001000
00000100
00000000
00001000
00000000
00000001
00000100
,
00000001
00000000
00000100
00000000
00001000
00000000
00010000
00000000
00000000
00001000
00000000
00000000
,
00010000
00000000
00100000
00000000
01000000
00100000
01000000
00000000
00100000
00000000
10000000
00000000
,
00010000
00000000
00100000
00001000
00020000
00000000
00030100
00000000
,
00010000
00000000
00001000
00010000
00000000
00100000
01000000
00000000
00010000
10000000
00000000
01000000
00000000
00000000
00000000
00000000
,
00010000
00000000
00001000
00010000
00000000
00001000
00000010
00000000
00000100
00000010
00000000
00000001
00000000
00000000
00000000
00000000
,
00000100
00001000
00010000
01000000
10000000
00010000
00100000
00000000
,
00001000
00000000
01000000
00010000
00000000
00100000
00001000
00000000
00010000
00000000
00001000
00000000
00000010
00000000
00000001
00000000
,
00000200
00000000
00000000
00000000
00001000
00000000
00000000
00000000
00000310
00000100
00000010
00000000
00010000
00000000
00011000
00000000
,
00010000
01000000
10000000
00010000
01000000
10000000
01000000
00010000
,
00100000
00001000
00010000
00001000
00000100
00000001
00001000
00000100
,
00000001
00000000
00000000
00000100
00001000
00000000
00000000
00000100
00010000
00000000
00001000
00010000
00001000
00000000
01000000
00000000
,
00010000
00000000
00000000
00000000
;

//---------------dance-double - t7r----------------
#NOTES:
     dance-double:
     t7r:
     Hard:
     18:
     :
00000000
00000000
00000000
00000000
,
00000000
00000000
00000000
00000000
,
00000000
00000000
00000000
00000000
,
00020000
00000000
00032000
00000000
,
02003000
00000000
00000000
00000000
00000000
00000000
00000000
00000000
00000000
00000000
00000000
00000000
00000000
00000000
00000000
00000000
03100000
10000000
00000000
00100000
10000000
00000000
00010000
10000000
01000000
10000000
00010000
00000000
00100000
00000000
00000000
00000000
,
00001000
00010000
00001000
00000010
00000100
00001000
00000010
00000100
,
00001000
00010000
00100000
01000000
00010000
00100000
01000000
00010000
,
00002000
00000000
00000000
00000000
00003100
00000000
00000001
00000000
00001000
00000000
00000100
00000000
00000020
00000000
00000000
00000031
,
00001000
00000001
00000100
00001000
00010000
00100000
10000000
00010000
,
10000000
10000000
01000000
01000000
00100000
00100000
00010000
00010000
,
00001000
00001000
00000100
00000100
00000010
00000010
00000001
00000001
,
00000100
00000000
00001000
00010000
00001000
00010000
00001000
00000000
00010000
00000100
00010000
00000100
00010000
00001000
00010000
00000000
,
00001000
00000000
01000000
00010000
10000000
00000000
01000000
00100000
00010000
00000000
00100000
00001000
00010000
00000000
00000000
00000000
,
00012000
00000000
00000000
00000000
00003100
00000010
00000100
00000000
00000001
00000000
00000001
00000000
00000020
00000000
00000000
00000000
,
00001030
00000000
00010000
00001000
00010000
00000000
01000000
00100000
01000000
00000000
00100000
00000000
00002000
00000000
00000000
00000000
,
00023000
00000000
00000000
00000000
01030000
00000000
01000000
00100000
01000000
00000000
01000000
00000000
20000000
00000000
00000000
00000000
,
30100000
00000000
00000000
00000000
00000000
00000000
00010000
00000000
00000000
00001000
00000000
00000000
00010000
00000000
00000000
00000000
00000000
00000000
00001000
00000000
00000000
00010000
00000000
00000000
00001000
00000000
00000000
00000000
00000010
00000000
00000000
00000000
00000100
00000000
00000000
00000000
00020000
00000000
00000000
00000000
00000000
00000000
00000000
00000000
00000000
00000000
00000000
00000000
,
00032000
00000000
00000000
00000000
00003010
00000000
00000001
00001000
00000001
00000000
00000001
00000000
00000020
00000000
00000000
00000000
,
00001030
00000000
00010000
00001000
00010000
00000000
00001000
00010000
00001000
00000000
00010000
00000000
00200000
00000000
00000000
00000000
,
10300000
00000000
01000000
00000000
01000000
00000000
00100000
00010000
00100000
00000000
00010000
00000000
00010000
00000000
10000000
00000000
,
00100000
00000000
00010000
00000000
00001000
00000000
00010000
00000000
01000000
00010000
00000000
00001000
00020000
00000000
00000000
00000000
,
00031000
00000000
00010000
00001000
00010000
00000000
00000100
00010000
00000000
00001000
00010000
00000000
01000000
10000000
00000000
00010000
,
10000000
00000000
00100000
00000000
10000000
00000000
01000000
00100000
00010000
00000000
00001000
00000100
00001000
00000001
00000100
00000010
,
00001000
00000000
00000000
00000000
00010100
00000000
00000000
00000000
00010000
00000000
00001000
00010000
00000000
00001000
00100000
00010000
,
10000000
00000000
00010000
01000000
00010000
00000000
10000000
00000000
01000000
00000000
00010000
00001000
00010000
00000000
00001000
00000000
,
00000100
00000000
00000010
00001000
00000010
00000000
00001000
00000001
00001000
00000000
00000100
00000000
00010000
00001000
00000000
00001000
,
00010000
00000000
00000100
00000000
00010000
00001000
00100000
00000000
00001000
00000000
01000000
00010000
10000000
00010000
00100000
00000000
,
00010000
00000000
10000000
01000000
00000000
00010000
00001000
00000000
00000100
00000010
00000000
00000100
00000001
00000000
00001000
00000000
,
00000100
00000000
00010000
00000000
00001000
00000000
00010000
01000000
00100000
00000000
00010000
00000000
10010000
00000000
00000000
00000000
,
11000000
00000000
00000000
00000000
10000000
00000000
00100000
01000000
00100000
00000000
00010000
00001000
00010000
00000000
00001000
00000010
,
00000100
00000010
00000001
00000000
00001000
00000000
00000001
00000100
00000001
00000000
00000100
00000010
00000000
00000100
00001000
00000000
,
00000100
00000000
00000000
00000000
00000001
00000000
00000010
00000100
00000010
00000000
00001000
00010000
00001000
00000000
00010000
00100000
,
01000000
00100000
10000000
00000000
00010000
00000000
10000000
01000000
10000000
01000000
00010000
00001000
00020000
00000000
00000000
00000000
,
00031000
00000000
00000100
00000010
00000000
00000010
00001000
00000000
00000100
00000000
00010000
00001000
00000000
00001000
01000000
00000000
,
00010000
00000000
10000000
00000000
01000000
00000000
00010000
00001000
00010000
00000100
00001000
00000000
00000002
00000000
00000000
00000000
,
00001003
00000100
00000010
00000001
00000100
00000000
00001000
00000000
00010000
00100000
01000000
00100000
10000000
01000000
10000000
00010000
,
00200000
00000000
01000000
00000000
01000000
00000000
00000000
00000000
00020000
00030000
00000000
00000000
00002000
00303000
00000000
00000000
,
00010000
00000000
00000000
00000000
00001000
00000000
00000000
00000000
00000100
00000000
00000010
00000000
00000100
00000000
00000001
00000000
00001000
00000000
00001000
00000000
00000100
00000000
00000000
00000000
00010000
00000000
00000000
00001000
00010000
00000000
01000000
00000000
,
00100000
00000000
00010000
00000000
10000000
00100000
01000000
00100000
00010000
00001000
00001000
00010000
00001000
00000010
00000100
00000010
,
00000001
00000100
00001000
00010000
00000100
00000010
00001000
00010000
00100000
10000000
01000000
00010000
00001000
00100000
00010000
00001000
,
00000100
00010000
00001000
00000100
00000010
00001000
00000100
00010000
00001000
00000000
00010000
00000000
00000100
00000000
00011000
00000000
,
00101000
00000000
00001000
00100000
00000000
00010000
10000000
00000000
01000000
00000000
00010000
00000000
00001000
00000000
01000000
00000000
,
00010000
00000000
00100000
00001000
00000000
00010000
00001000
00000000
00010000
00000000
00000010
00001000
00000010
00000000
00001000
00000000
,
00000100
00000000
00010000
00000100
00000000
00001000
00000001
00000000
00000010
00000000
00001000
00000000
00010000
00000000
00000010
00000000
,
00001000
00000000
00000100
00010000
00000000
00001000
00010000
00000000
00001000
00000000
01000000
00010000
01000000
00000000
00010000
10000000
,
00010000
00010000
00100000
00100000
00001000
00001000
00010000
00010000
,
00001000
00000000
00000010
00000000
00000001
00000000
00000100
00000000
00001000
00000000
00010000
00100000
01000000
00000000
00100000
00000000
,
10000000
01000000
10000000
01000000
00100000
00010000
00100000
00001000
00010000
00000010
00001000
00000010
00000100
00000001
00001000
00000100
,
00010000
00001000
00010000
00000000
00001000
00000000
00010000
01000000
10000000
00100000
01000000
00000000
10010000
00000000
00000000
00000000
,
10000000
00000000
01000000
00100000
00000000
01000000
00010000
00000000
00001000
00000100
00000000
00000010
00000000
00000100
00000001
00001000
,
00000001
00000000
00000100
00000010
00000000
00000100
00001000
00000000
00010000
00100000
00000000
10000000
00000000
01000000
10000000
00010000
,
10000000
00000000
00100000
01000000
00000000
00100000
00010000
00000000
00001000
00000010
00000000
00000100
00000000
00000010
00000001
00001000
,
00000001
00000010
00000000
00000100
00001000
00000000
00000001
00000100
00001000
00010000
00000000
00001000
01000000
00010000
10000000
00000000
,
01000000
00000000
10000000
00100000
00000000
00010000
00001000
00000000
00000100
00000010
00000000
00000100
00000000
00000001
00001000
00000001
,
00000010
00000000
00000001
00000100
00000000
00001000
00010000
00000000
00100000
10000000
00000000
00010000
00000000
10000000
00100000
10000000
,
01000000
00000000
00010000
00001000
00000000
00000010
00000100
00000000
00010000
00001000
00000000
01000000
00000000
00010000
10000000
00010000
,
10000000
00100000
10000000
00100000
01000000
00010000
01000000
00010000
00100000
00001000
00010000
00000000
00002000
01000000
00000000
00013000
,
00001000
00000000
00010000
00000000
00100000
10000000
01000000
00000000
00100000
00000000
00001000
00010000
,
00001000
00000000
00000010
00000000
00000100
00001000
00000001
00000100
00001000
00000000
00010000
00000100
,
00001000
00000000
00000001
00000000
00000010
00001000
00010000
00000000
00001000
00000000
01000000
00100000
,
10000000
00010000
00000000
00010000
01000000
00000000
00010000
10000000
01000000
00100000
00010000
00000000
02000000
00001000
00000000
03010000
,
01000000
00000000
00001000
00010000
00000000
00001000
00000010
00000000
00000100
00001000
00000000
00000001
00000000
00000100
00001000
00010000
,
00001000
00000000
00010000
01000000
00000000
00100000
01000000
00000000
00100000
00010000
00000000
10000000
00000000
00100000
00010000
00001000
,
00010000
00000000
00001000
00000010
00000000
00000100
00001000
00000000
00000001
00000100
00000000
00001000
00000000
00010000
00001000
00010000
,
00001000
00000100
00000000
00000001
00000010
00000000
00001000
01000000
00010000
10000000
00100000
01000000
00020000
00000000
00000000
00000000
,
10030000
00000000
01000000
00100000
00000000
10000000
00100000
00000000
01000000
00010000
00000000
00010000
00000000
00000000
00001000
00000100
,
00000001
00000000
00000100
00000010
00000000
00000001
00000010
00000000
00000100
00001000
00000000
00100000
00010000
10000000
00010000
00000000
,
10000000
00000000
00100000
01000000
00000000
10000000
01000000
00000000
00100000
00010000
00000000
00010000
00000000
00000000
00001000
00000010
,
00000001
00000010
00000000
00001000
00010000
00000000
00100000
10000000
01000000
00100000
00010000
00100000
00002000
00010000
00000000
01003000
,
00001000
00000000
00010000
01000000
00000000
00100000
00010000
00000000
00001000
00000100
00000000
00000100
00000000
00000000
00010000
00001000
,
00010000
00000000
00001000
00000100
00000000
00000010
00001000
00000000
00010000
00100000
00000000
01000000
00010000
00001000
00010000
00000000
,
00001000
00000000
00010000
00100000
00000000
01000000
00010000
00000000
00001000
00000010
00000000
00000010
00000000
00000000
00010000
00001000
,
00010000
00000100
00001000
00000100
00010000
00001000
01000000
00010000
01000000
00001000
00010000
00000100
00001000
00000000
00000000
00000000
,
00000001
00000000
00000011
00000000
00000010
00001000
00010000
00000000
00011000
00000000
00001000
00010000
,
00100000
00000000
10100000
00000000
10000000
01000000
00010000
00001000
00000010
00000000
00000100
00010000
,
00001000
00000000
00011000
00000000
00010000
01000000
00100000
00000000
00110000
00000000
10000000
00100000
,
00010000
00000000
00000000
00000000
00001000
00000000
00000000
00000000
00000100
00000000
00000000
00000000
00000001
00000000
00000000
00000000
00000010
00000000
00000000
00000000
00001000
00000000
00000000
00000000
00020000
00000000
00000000
00000000
00000000
00000000
00000000
00000000
00000000
00000000
00000000
00000000
00031000
00000000
00000000
01000000
00000000
00000000
00010000
00000000
00000000
10000000
00000000
00000000
,
00010000
00000000
10000000
01000000
00000000
00010000
00001000
00000000
01000000
00100000
00000000
00010000
00000000
00001000
00000100
00000010
,
00001000
00000000
00000001
00000010
00000000
00001000
00010000
00000000
00000100
00010000
00000000
00001000
00000000
00010000
01000000
00100000
,
00010000
10000000
00010000
10000000
00010000
10000000
00010000
10000000
00010000
10000000
00000000
00100000
00000000
00010000
00001000
00010000
,
00002000
00000010
00000000
00013000
00002000
00000010
00000000
00013000
00001000
00000010
00000100
00000010
00000100
00000010
00000100
00010000
,
00002000
00000000
00000000
00000000
00000000
00000000
00003000
00000000
00021000
00000000
00000000
00000000
00000000
00030100
00001001
00000000
,
00000001
00000100
00000001
00000000
00000100
00001000
00000000
00010000
00001000
00000000
00010000
00000000
01000000
10000000
00010000
00000000
,
10000000
00000000
01000000
00000000
00010000
00001000
00000000
00010000
00000100
00000000
00001000
00000001
00001000
00000100
00001000
00000001
,
00000200
00001000
00000000
00000310
00020000
00001000
00000000
00030100
00001000
00000000
00000100
00010000
00001000
01000000
00010000
00000000
,
10010000
00000000
00000000
00000000
;

//---------------dance-double - t7r----------------
#NOTES:
     dance-double:
     t7r:
     Challenge:
     19:
     :
00000000
00000000
00000000
00000000
,
00000000
00000000
00000000
00000000
,
00000000
00000000
00000000
00000000
,
00010000
00000100
00001000
00001000
00000001
00000100
00000010
00001000
00000001
00000010
00001000
00001000
00010000
00001000
01000000
00010000
,
10000000
00000000
00100000
00000000
01000000
00000000
01000000
00000000
00010000
00000000
10000000
00000000
01000000
00000000
00010000
00000000
00001000
00010000
00000000
00000100
00001000
00000000
00000001
00001000
00000010
00000100
00000010
00000000
00001001
00000000
00000000
00000000
,
00000001
00000000
00000010
00000001
00000010
00000000
00000001
00000000
00001000
00000000
00000100
00000000
00000010
00000000
00000001
00001000
,
00000100
00000000
00010000
00000000
00001000
00000000
01000000
00000000
00010000
00000000
10000000
00000000
00100000
00000000
01000000
00100000
,
20000000
00000000
00000000
00000000
31000000
00000000
00010000
00000000
00001000
00000000
00000100
00000000
00000010
00000000
00000100
00000001
,
00001000
00000001
00000010
00000100
00010000
00001000
00000010
00000001
,
00000100
00000000
00000100
00000000
00001000
00010000
00001000
00000000
01000000
00000000
01000000
00000000
00010000
10000000
00010000
10000000
,
01000000
00000000
01000000
00000000
00010000
00001000
00010000
00000000
00000100
00000000
00000100
00000000
00001000
00000001
00001000
00000001
,
00000100
00000010
00000100
00000010
00010000
00001000
00010000
00001000
01000000
00100000
01000000
00100000
10000000
00010000
10000000
00010000
,
10000000
01000000
00010000
00001000
00000010
00000001
00001000
00000001
00000100
00001000
00010000
00001000
00010000
00000000
00000000
00000000
,
00012000
00000000
00000100
00000000
00013000
00001000
01000000
00000000
00010000
00000000
00010000
00000000
00200000
00000000
10000000
00000000
,
01300000
00000000
00100000
00010000
00100000
00000000
00001000
00010000
00000010
00000000
00000010
00000000
00010000
00000200
00000000
00000000
,
00020300
00000000
01000000
00000000
00031000
00000000
00010000
00000100
00001000
00000000
00001000
00000000
00000020
00000000
00000001
00000000
,
00000130
00000000
00000000
00000000
00000000
00000000
00000010
00000000
00000000
00001000
00000000
00000000
00000010
00000000
00000000
00000000
00000000
00000000
00001000
00000000
00000000
00010000
00000000
00000000
00100000
00000000
00000000
00000000
10000000
00000000
00000000
00000000
01000000
00000000
00000000
00000000
00010000
00000000
00000000
00000200
00000000
00000000
00000000
00000000
00000000
00000000
00000000
00000000
,
00020300
00000000
00100000
00000000
00031000
00000000
00010000
00000010
00001000
00000000
00001000
00000000
00000020
00000000
00000001
00000000
,
00000130
00000000
00000010
00001000
00000010
00000000
00010000
00001000
00100000
00000000
00100000
00000000
00001000
02000000
00000000
00000000
,
03100000
00000000
10000000
00000000
10000000
00000000
01000000
00100000
00010000
00000000
00010000
00000000
20000000
00000000
30100000
00010000
,
00001000
00000100
00000010
00000100
00000001
00000000
00000010
00000000
00000100
00010000
00001000
00000000
00010000
00000100
00001000
00000001
,
00000100
00000000
00001000
00010000
00000100
00000000
00001000
00000100
00010000
00001000
00010000
00000000
00001000
00010000
00000000
01000000
,
10000000
00000000
00010000
00000000
10000000
00100000
01000000
00000000
01000000
00000000
00100000
10000000
01000000
00010000
00001000
00000100
,
00000001
00000000
00000000
00000000
00001001
00000000
00000000
00000000
00000001
00000000
00000010
00000100
00001000
00000001
00001000
00000100
,
00010000
00000000
00001000
01000000
00010000
10000000
00010000
00100000
00010000
00000000
10000000
00000000
01000000
00010000
00001000
00000010
,
00000100
00000000
00001000
00000001
00000100
00000000
00001000
00010000
00001000
00100000
00010000
00000000
10000000
00010000
00000000
10000000
,
01000000
00000000
00100000
00000000
00010000
10000000
00100000
00000000
00010000
00000000
00001000
00010000
00001000
00000100
00000001
00000010
,
00000100
00000000
00010000
00000000
00001000
00010000
01000000
00100000
01000000
10000000
00000000
10000000
00010000
00000000
10000000
00000000
,
00100000
00000000
00010000
00000000
00001000
00000000
00100000
00001000
00010000
00001000
00000010
00000000
00001001
00000000
00000000
00000000
,
00000101
00000000
00000000
00000000
00000001
00000000
00000100
00001000
00010000
00000000
00000100
00001000
00000001
00000000
00000100
00001000
,
00010000
00000100
00001000
00000000
00000001
00000000
00000010
00001000
00010000
00000000
00000100
00010000
00000000
00001000
00010000
00000000
,
01000000
00000000
00000000
00000000
10000000
00000000
00100000
00010000
00001000
00000000
00100000
00001000
00010000
00000000
00001000
00010000
,
00100000
10000000
00010000
00000000
10000000
00000000
01000000
00010000
00001000
00010000
00001000
00010000
00001000
00000010
00000001
00000100
,
00001000
00000000
00000100
00000001
00001000
00000010
00010000
00000000
00001000
00000000
00000010
00000100
00010000
00001000
00010000
00000000
,
00001000
00000000
00000100
00000000
00000001
00000000
00000010
00001000
00010000
01000000
10000000
00000000
00200000
00000000
00000000
00000000
,
10300000
00000000
01000000
00000000
00100000
00000000
00010000
00000000
00001000
00000000
00000100
00000000
00000010
00000000
00000001
00000000
00000100
00000000
00000010
00000000
00001000
00000000
00010000
00000000
01000000
00100000
01000000
00000000
00100000
00000000
10000000
00000000
,
02000000
00000000
00010000
00000000
00010000
00000000
00000000
00000000
00200000
00300000
00000000
00000000
20000000
33000000
00000000
00000000
,
00010000
10000000
00100000
00010000
00001000
00000010
00000001
00001000
00000001
00000010
00001000
00010000
00100000
10000000
00010000
00100000
,
00001000
00000000
00010000
00000000
00001000
00000000
00000010
00000000
00000001
00000000
00001000
00000000
00000001
00000000
00000010
00000000
00001000
00000000
00010000
00000000
01000000
00000000
00100000
00000000
00001000
00000000
00010000
00000000
00000100
00000000
00001000
00000001
,
00001000
00000000
00000001
00000000
00000010
00000000
00001000
00000000
00010000
00000000
00100000
00000000
10000000
00000000
00010000
00000000
10000000
00000000
00100000
00000000
00010000
00000000
00001000
00000000
00000010
00000000
00000001
00001000
00000001
00000000
00000010
00000000
,
00001000
00010000
00100000
01000000
00010000
00100000
00001000
00010000
00001000
00000000
00000100
00000000
00000001
00000000
00000010
00000000
,
00000001
00000000
00000100
00000010
00001000
00000000
00000001
00000010
00000001
00000000
00000010
00000100
00001000
00000000
00000001
00000000
,
00000100
00000000
00001000
00010000
00000000
00001000
01000000
00010000
10000000
00000000
01000000
00100000
00010000
00000000
10000000
00000000
,
00100000
00000000
10000000
00100000
01000000
00000000
00100000
10000000
00010000
00000000
00100000
00001000
00010000
00000000
00001000
00010000
,
00001000
00000000
00000010
00000100
00000000
00000010
00000001
00001000
00000001
00000000
00000100
00001000
00010000
00000000
00001000
00010000
,
00001000
00000000
00001000
00000000
00000100
00000010
00000100
00000000
00000001
00000000
00000001
00000000
00000010
00001000
00000010
00000000
,
00001000
00000000
00001000
00000000
00010000
00001000
00010000
00000000
01000000
00000000
01000000
00000000
10000000
00100000
10000000
00000000
,
00100000
00010000
00001000
01000000
00100000
00010000
00001000
00000000
00100000
01000000
00010000
00001000
00000010
00000100
00001000
00000001
,
00000100
00001000
00010000
00000000
00001000
00000000
00010000
00100000
10000000
01000000
00010000
00000000
00011000
00000000
00000000
00000000
,
00001000
00010000
00001000
01000000
00000000
00010000
10000000
00010000
01000000
00010000
10000000
01000000
00000000
00010000
00001000
01000000
,
00010000
00100000
00001000
00010000
00000000
00000010
00001000
00000001
00001000
00000100
00000010
00000001
00000000
00001000
00000010
00001000
,
00000001
00000100
00000010
00000100
00000000
00000001
00001000
00000100
00000010
00000100
00010000
00001000
00000000
00010000
00100000
01000000
,
00010000
00100000
00001000
00010000
00000010
00001000
00000001
00000010
00000001
00001000
00000001
00001000
00000001
00000100
00001000
00010000
,
00001000
00010000
00001000
00100000
00000000
00010000
10000000
00010000
00100000
00010000
10000000
00100000
00000000
00010000
00001000
00100000
,
00010000
01000000
00001000
00010000
00000000
00000100
00001000
00000001
00001000
00000010
00000100
00000001
00000000
00001000
00000100
00001000
,
00000001
00000010
00000100
00000010
00000000
00000001
00001000
00000010
00000100
00000010
00010000
00001000
00000000
00010000
01000000
00100000
,
00010000
00000000
01000000
00000000
00010000
00000000
01000000
00000000
00010000
00000000
00001000
00000000
00000100
00000000
00001000
00000000
00000100
00000000
00000001
00000000
00001000
00000000
00000100
00000000
00010000
00001000
00010000
00000000
00000000
00000000
00001000
00000000
,
00010000
01000000
00100000
00010000
00001000
00000100
00010000
01000000
00100000
00010000
00001000
00000100
,
00010000
01000000
00100000
00010000
00001000
00000100
00010000
00100000
01000000
00010000
00001000
00000010
,
00010000
01000000
00100000
00010000
00001000
00000100
00010000
01000000
00100000
00010000
00001000
00000010
,
00001000
00000001
00000100
00000001
00001000
00000000
00000001
00001000
00000100
00010000
00001000
00000000
00010000
01000000
10000000
00010000
,
10000000
00100000
10000000
00010000
00000000
10000000
01000000
00100000
00010000
10000000
00100000
01000000
00000000
00010000
00100000
00001000
,
00010000
00000100
00001000
00000001
00000000
00000100
00000001
00001000
00000001
00000010
00001000
00010000
00000000
00000100
00001000
00000001
,
00000100
00000010
00001000
00000001
00000000
00001000
00000100
00010000
00001000
00010000
00100000
01000000
00000000
00010000
10000000
00100000
,
00020000
00000000
00000100
00000000
00000000
00000000
00032000
00000000
01000000
00000000
00000000
00000000
00013000
00000000
00000010
00000000
00001000
00000000
00000001
00000000
00000100
00000000
00001000
00000000
00010000
00000010
00002000
00000000
00000000
00000000
00000000
00000000
,
00003001
00000000
00000001
00000001
00000000
00000001
00000001
00000000
00000100
00000100
00000000
00000100
00000100
00000000
00001000
00010000
,
00001000
00000000
00001000
00001000
00000000
00001000
00001000
00000000
00010000
00010000
00000000
00100000
10000000
00010000
10000000
00000000
,
00010000
00000000
10000000
10000000
00000000
01000000
01000000
00000000
00010000
00010000
00000000
00001000
00001000
00000000
00010000
00001000
,
00010000
00001000
00000010
00000100
00010000
00001000
00000010
00000100
00001000
00000001
00000100
00001000
00010000
00100000
10000000
00010000
,
10000000
00000000
00100000
00100000
00000000
00010000
00010000
00000000
00001000
00001000
00000000
00000100
00000100
00000000
00000001
00000010
,
00000001
00000000
00000010
00000010
00000000
00001000
00001000
00000000
00010000
00010000
00000000
00001000
01000000
00010000
10000000
00000000
,
00010000
00000000
01000000
01000000
00000000
00001000
00001000
00000000
00010000
00010000
00000000
00000100
00000100
00000000
00010000
00001000
,
00000100
00000001
00000010
00000100
00001000
00010000
00100000
01000000
10000000
00010000
00100000
00001000
00010000
00000000
00000000
00000000
,
00001000
00000100
00000010
00001000
00010000
01000000
00001000
00000100
00000010
00001000
00010000
01000000
,
00001000
00000100
00000010
00001000
00010000
01000000
00001000
00000010
00000100
00001000
00010000
00100000
,
00001000
00000000
00000100
00000000
00000010
00000000
00001000
00000000
00010000
00000000
01000000
00000000
00001000
00000000
00000000
00010000
00000100
00010000
00001000
00000000
00000100
00000000
00000001
00000000
,
00000010
00000000
00000000
00000000
00001000
00000000
00000000
00000000
00011000
00000000
00000000
00000000
00010000
00000000
00000000
00000000
01000000
00000000
00000000
00000000
10000000
00000000
00000000
00000000
10020000
00000000
00000000
00000000
00000000
00000000
00000000
00000000
00000000
00000000
00000000
00000000
10030000
00000000
00000000
00100000
00000000
00000000
01000000
00000000
00000000
00010000
00000000
00000000
,
10000000
00010000
01000000
00010000
00000000
10000000
01000000
00100000
00001000
00010000
00000000
00001000
00000000
00010000
00000100
00001000
,
00000001
00000100
00000001
00001000
00000000
00000001
00000010
00000100
00010000
00001000
00000000
00100000
00000000
00010000
10000000
00100000
,
01000000
00010000
10000000
01000000
00100000
00010000
00001000
00000100
00000010
00000001
00000100
00000010
00001000
00010000
01000000
00100000
,
10000000
01000000
10000000
00000000
00000000
00000000
00010000
01000000
00010000
00000000
00000000
00000000
01000000
00000000
00001000
00000000
00010000
00000000
00001000
00000000
00000100
00000000
00000001
00000000
00000010
00000000
00000100
00000000
00010000
00000000
00001000
00010000
,
00002000
00000000
00000000
00000000
00000100
00000000
00000000
00000000
01000000
00000000
00000000
00000000
00013000
00000000
00000000
00001000
00001000
00000000
00001000
00000000
00001000
00000000
00000000
00000000
01000000
00000000
00100000
00000000
10010000
00000000
00000000
00000000
,
10000000
01000000
00010000
00000000
00001000
00000100
00000000
00000001
00000100
00001000
00000100
00000001
00000010
00001000
00010000
00000000
,
01000000
00000000
00100000
00010000
10000000
00100000
00000000
00010000
00001000
00000000
00000010
00000001
00000100
00001000
00010000
00001000
,
00010000
00000000
00001000
00000000
00000100
00000000
00001000
00000000
00000100
00000000
00001000
00000000
00010000
00000000
00010000
00000000
01000000
00000000
00010000
00000000
00001000
00000000
00001000
00000000
00010000
00001000
00010000
00000000
00001000
00010000
00001000
00000000
,
00011000
00000000
00000000
00000000
;
