#TITLE:Clockwork;
#ARTIST:Northlane;
#BANNER:Clockwork.png;
#BACKGROUND:Clockwork-bg.png;
#JACKET:Clockwork-jacket.png;
#CDTITLE:./CDTITLES/NONE.PNG;
#MUSIC:Clockwork.ogg;
#SAMPLESTART:71.029;
#SAMPLELENGTH:15;
#BPMS:0=136;

//---------------dance-single - t7r----------------
#NOTES:
     dance-single:
     t7r:
     Beginner:
     2:
     :
0000
0000
0000
0000
,
0000
0000
0000
0000
,
0000
0000
0000
0000
,
0000
0000
0000
0000
,
0000
0000
0000
0000
,
0010
0000
0000
0000
,
1000
0000
0000
0000
,
0001
0000
0000
0000
,
0010
0000
0000
0000
,
0001
0000
0001
0000
,
0001
0000
0000
0000
,
1000
0000
1000
0000
,
1000
0000
0000
0000
,
0010
0000
0010
0000
,
0010
0000
0000
0000
,
0100
0000
0100
0000
,
0100
0000
0000
0000
,
0000
0001
0000
0000
,
0001
0000
0001
0000
,
0000
1000
0000
0000
,
1000
0000
1000
0000
,
0000
0010
0000
0010
,
0000
0010
0000
0000
,
0000
0100
0000
0100
,
0000
0100
0000
0000
,
0010
0000
0000
0000
,
1000
0000
0000
0000
,
0001
0000
0000
0000
,
0100
0000
0000
0000
,
0001
0000
0001
0000
,
1000
0000
1000
0000
,
0100
0000
0100
0000
,
0010
0000
0010
0000
,
0001
0000
0000
0000
,
0000
0000
0000
0000
,
0000
0000
0000
0000
,
0000
0000
0000
0000
,
1000
0000
0000
0000
,
0010
0000
0000
0000
,
0100
0000
0000
0000
,
0000
0001
0000
0001
,
0000
1000
0000
1000
,
1000
0000
1000
0000
,
0000
0010
0000
0010
,
0010
0000
0010
0000
,
0000
0100
0000
0100
,
0100
0000
0100
0000
,
0000
0001
0000
0001
,
0001
0000
0001
0000
,
1000
0000
0000
0000
,
0000
0000
0000
0000
,
0001
0000
0000
0000
,
0000
0000
0000
0000
,
0100
0000
0100
0000
,
0100
0000
0000
0000
,
0010
0000
0010
0000
,
0010
0000
0000
0000
,
1000
0000
1000
0000
,
0100
0000
0100
0000
,
0010
0000
0010
0000
,
0001
0000
0001
0000
,
0100
0000
0100
0000
,
0010
0000
0010
0000
,
1000
0000
0001
0000
,
1000
1000
1000
0000
;

//---------------dance-single - t7r----------------
#NOTES:
     dance-single:
     t7r:
     Easy:
     6:
     :
0000
0000
0000
0000
,
0000
0000
0000
0000
,
0000
0000
0000
0000
,
0000
0000
0000
0000
,
0000
0000
0000
0000
,
0001
0020
0031
1000
,
0010
0000
2000
3001
,
1000
0020
1030
0001
,
1000
0000
0001
0020
,
0031
0101
0001
1000
,
0100
1100
1000
0001
,
1000
0010
0100
0001
,
0020
0000
0032
0000
,
1003
1010
0010
0100
,
0001
0011
0010
0100
,
1000
0001
0100
0010
,
2000
0000
3002
0000
,
1003
0000
0100
0000
,
0010
0000
0001
0000
,
0100
0000
0010
0000
,
1000
1000
1000
0000
,
0001
0010
0011
0000
,
1000
0010
1010
0000
,
0001
0100
0101
0000
,
1000
0100
1100
0000
,
1000
0200
0000
0320
,
0000
0000
0031
0001
,
0001
0200
0000
0320
,
0000
0000
1030
1000
,
1000
0100
0020
0031
,
0001
0100
0020
1030
,
1000
0010
0200
0301
,
0001
1000
0110
0220
,
0330
0000
0000
0000
,
0000
0000
0000
0000
,
0000
0000
0000
0000
,
0000
0000
0000
0000
,
1000
0200
0300
0200
,
0300
0000
0010
0000
,
0001
0000
0100
0000
,
0010
0010
0010
0000
,
1001
1000
0100
1000
,
0001
0100
0001
0001
,
1000
0010
1000
0010
,
0100
0100
0001
0001
,
0010
0100
1000
0100
,
0010
0001
1000
1000
,
0010
0100
0001
1000
,
0010
0100
0110
0000
,
0000
0000
0000
0000
,
0000
0001
0000
1001
,
0000
0000
0000
0000
,
0000
1000
0000
1001
,
1000
0100
1000
1010
,
0001
0100
0001
0011
,
0001
1000
0010
0110
,
0010
0010
1000
0001
,
1000
0100
0001
0001
,
0100
0100
0010
0010
,
0001
0100
1000
1000
,
0100
0100
0010
0010
,
1000
0100
1100
1000
,
0001
0100
0101
0001
,
1000
0010
1010
1000
,
0001
0000
0001
0000
1000
1000
0001
0002
,
0000
0000
0000
0000
,
0000
0000
0000
0000
,
0003
0000
0000
0000
;

//---------------dance-single - t7r----------------
#NOTES:
     dance-single:
     t7r:
     Medium:
     10:
     :
0000
0000
0000
0000
,
0000
0000
0000
0000
,
0000
0000
0000
0000
,
0000
0000
0000
0000
,
0000
0000
0000
0000
,
0001
0020
0031
2000
,
3100
0000
0000
0000
0000
0000
0000
0000
1000
0000
0000
0020
0000
0000
0000
0000
,
1030
0200
1300
0002
,
1003
0000
0000
0000
0000
0000
0000
0000
0001
0000
0000
0200
0000
0000
0000
0000
,
0300
0001
0010
0001
1000
0001
0010
0001
,
1000
0001
0200
0000
0310
0000
2000
0000
,
3200
0000
0001
0000
0010
0000
1300
0020
,
0000
0000
0130
0002
0000
2003
0000
0000
,
3001
1000
0010
1000
0001
1000
0010
1000
,
0001
1000
0200
0000
0310
0000
0002
0000
,
0203
1000
0010
0301
,
0010
0000
0100
0000
1000
0000
0000
0000
0010
0000
0000
0200
0000
0000
0301
0000
,
0000
0000
1000
0000
0100
0000
1000
0000
0000
1000
0000
0000
1000
0000
0000
0001
,
0000
0000
1000
0000
0010
0000
1000
0000
0000
1000
0000
0000
1000
0000
0000
0001
,
0000
0000
0010
0000
0001
0000
0010
0000
0000
0010
0000
0000
0010
0000
0000
0001
,
0000
0000
0100
0000
0010
0000
0100
0000
0000
0100
0000
0000
0100
0000
0000
0000
,
0001
1000
0100
1000
0020
0000
1030
0000
,
0001
0000
0010
0000
0100
0000
1000
0000
0000
0010
0000
0000
1000
0000
0000
0100
,
0000
0000
1000
0000
0010
0000
0100
0000
0000
0001
0000
0000
0010
0000
0000
0001
,
0000
1000
0001
0200
0000
0310
2000
0000
,
3001
0010
0200
0000
1300
0010
0200
0000
,
0301
0000
0000
0000
0000
0000
0000
0000
2000
0000
0000
3020
0000
0000
1030
0000
,
0001
1000
0200
0000
1300
0001
0200
0000
,
0310
0000
0000
0000
0000
0000
0000
0000
2000
0000
0000
3002
0000
0000
0013
0000
,
0001
0100
0010
0100
0001
0000
1000
0000
,
0001
0010
0100
0010
0002
0000
0100
0000
,
1003
0010
0100
0020
0000
1030
0100
0010
,
0001
0000
1000
0000
0010
0000
0010
0000
0000
0110
0000
0000
0220
0000
0000
0000
,
0330
0000
0000
0000
,
0000
0000
0000
0000
,
0000
0000
0000
0000
,
0000
0000
0000
0000
,
1000
0200
0310
0002
,
0103
0000
0000
0000
0000
0000
0000
0000
0001
0000
0000
0020
0000
0000
0030
0000
,
1001
0000
0000
1000
0000
0000
0100
0000
0000
0010
0000
0000
1001
0000
0000
0000
,
0001
0001
0001
0001
1000
0001
1000
0010
,
0100
0020
0001
0100
,
1030
0000
0000
0000
0001
0000
0010
0000
0100
0000
0000
2000
0000
0000
3010
0000
,
1000
0100
1000
0001
1000
0010
1000
0001
,
1000
0010
0200
0000
0302
0000
0013
0000
,
0001
0000
1000
0001
0010
0001
1000
0001
,
0100
0020
0001
0100
,
1030
0001
0010
0001
1000
0001
0100
0001
,
2000
0000
3100
0000
0010
0001
1000
0000
,
0000
0000
0000
0000
,
0010
0000
0100
0000
0001
0000
0000
0000
0020
0000
0000
0230
0000
0000
1300
0000
,
0000
0000
0000
0000
,
0001
0000
0100
0000
0010
0000
0000
0000
2000
0000
0000
3200
0000
0000
0310
0000
,
0002
0100
1000
0010
,
1003
0000
0100
0000
0010
0000
0000
0000
0002
0000
0000
2003
0000
0000
3010
0000
,
0100
2001
0100
0001
,
3010
0100
0001
0000
0010
0100
1000
0000
,
0001
0000
1000
0100
0001
0100
1000
0100
,
0001
0100
1000
0100
0001
0100
1000
0000
,
1001
0000
0001
0100
1000
0100
0001
0100
,
1000
0100
0001
0100
1000
0100
0001
0000
,
1000
1000
0001
0010
1000
0010
0001
0010
,
1000
0010
0001
0010
1000
0010
0001
0000
,
1001
0001
1000
0010
0001
0010
1000
0010
,
0001
0001
0010
0010
1000
1000
0001
0001
,
0020
0000
0000
0000
,
0000
0000
0000
0000
,
0030
0000
0000
0000
;

//---------------dance-single - t7r----------------
#NOTES:
     dance-single:
     t7r:
     Hard:
     13:
     :
0000
0000
0000
0000
,
0000
0000
0000
0000
,
0000
0000
0000
0000
,
0000
0000
0000
0000
,
0000
0000
0000
0000
,
0001
0020
0031
2000
,
3010
0000
0000
0000
0000
0000
0000
0000
2000
0000
0000
3200
0000
0000
0000
0000
,
1300
0020
1030
0002
,
0103
0000
0000
0000
0000
0000
0000
0000
0002
0000
0000
2003
0000
0000
0000
0000
,
3100
0000
0000
0000
1001
0000
0000
1000
0100
0000
0010
0000
0012
0000
0000
0000
,
0103
0000
0010
0000
1000
0000
0000
0000
0002
0000
0000
0023
0000
0000
0031
0000
,
0100
0000
0000
0000
1001
0000
0000
0001
0100
0000
0010
0000
2010
0000
0000
0000
,
3100
0000
0010
0000
0001
0000
0000
0000
2000
0000
0000
3020
0000
0000
1030
0000
,
0001
0000
0000
0000
0110
0000
0000
0001
0010
0000
0001
0000
1002
0000
0000
0000
,
1003
0000
0100
0000
0010
0000
0000
0000
0002
0000
0000
2003
0000
0000
3010
0000
,
1000
0000
0000
0000
0110
0000
0000
1000
0100
0000
0010
0000
0002
0000
0000
0000
,
0103
0000
0100
0000
0010
0000
1000
0000
0100
0010
0000
0001
1000
0000
0000
0000
,
0001
0000
0100
0000
0010
0000
0100
0000
0000
0101
0000
0000
1001
0000
0000
1000
,
0100
0000
1000
0000
0010
0000
0100
0000
0000
0101
0000
0000
1001
0000
0000
0001
,
0010
0000
0100
0000
0010
0000
0001
0000
0000
0011
0000
0000
1001
0000
0000
1000
,
0100
0000
0010
0000
0001
0000
0100
0000
0000
1010
0000
0000
1000
0000
0001
1000
,
0001
0000
0100
0000
1000
0000
0100
0000
0020
0100
0000
0000
1030
0000
0000
1000
,
0100
0000
0001
0000
0100
0000
0010
0000
0002
0010
0000
0000
1003
0000
0000
0001
,
0100
0000
0010
0000
0001
0000
0010
0000
0200
1000
0000
0000
0310
0000
0000
1000
,
0100
0000
0010
0000
1000
0000
0010
0000
0200
0001
0000
0000
0310
0000
0000
0001
,
2000
0000
0100
0000
3002
0000
0000
0000
2003
0000
0100
0000
3002
0000
0000
1003
,
0010
0000
0100
0000
0001
0000
1000
0000
0002
0000
0000
0013
0001
0000
1000
0000
,
0002
0000
0010
0000
2003
0000
0000
0000
3002
0000
0010
0000
2003
0000
0000
3001
,
0100
0000
0010
0000
1000
0000
0001
0000
2000
0000
0000
3100
0010
0000
0100
0000
,
1000
0000
0010
0000
0100
0000
1000
0000
0100
0010
0000
0010
0100
0000
0000
0100
,
0001
0000
0010
0000
0100
0000
0001
0000
0100
0010
0000
0010
0100
0000
0000
0010
,
0001
1000
0020
0001
0130
0001
0020
1000
,
0130
0000
1000
0000
1001
0000
1100
0000
0000
1001
0000
0000
0022
0000
0000
0000
,
0033
0000
0000
0000
,
0000
0000
0000
0000
,
0000
0000
0000
0000
,
0000
0000
0000
0000
,
0001
0100
0020
0000
1030
0100
0020
0000
,
0031
0000
0000
0000
0000
0000
0000
0000
0200
0000
0000
0320
0000
0000
2030
0000
,
3001
0000
0000
0110
0000
0000
1000
0000
0000
0110
0000
0000
1001
0000
0000
1000
,
0100
0000
0100
0000
1000
0001
1000
0001
1000
0001
1000
0001
1000
0000
0100
0000
,
0010
0000
0010
0000
0100
0001
0000
0100
0010
0000
0100
0000
2100
0000
0000
0000
,
3010
0000
0010
0000
0100
1000
0000
0100
0020
0000
0000
0230
0000
0000
0301
0000
,
1000
0000
1000
0000
0100
0010
0000
0100
0001
0000
0100
0000
2100
0000
0000
0000
,
3001
0000
0001
0000
0100
0010
0000
0100
1000
0000
0100
0000
0001
0000
1000
0100
,
0010
0000
0010
0000
0100
0001
0000
0100
1000
0000
0010
0000
1020
0000
0000
0000
,
0130
0000
0100
0000
0010
0001
0000
0010
2000
0000
0000
3200
0000
0000
0310
0001
,
1000
0000
1000
0000
0010
0001
0000
0010
0100
0010
0100
0000
0001
0000
0000
0000
,
1000
0000
0100
0000
1100
0000
1000
0010
0100
0000
0001
0000
0010
0100
1000
0000
,
0000
0000
0000
0000
,
1100
0000
0100
0000
1000
0010
0000
0100
0002
0000
0000
2003
0000
0000
3002
0000
,
0003
0000
0000
0000
,
0101
0000
0100
0000
0001
0010
0000
0100
2000
0000
0000
3002
0000
0000
2003
0000
,
3100
0000
0100
0000
0010
0100
0000
1000
0100
0000
0010
0000
0012
0000
0000
0000
,
0103
0000
0100
0000
0010
0100
0000
0001
2000
0000
0000
3020
0000
0000
0130
0001
,
1000
0000
1000
0000
0100
0010
0000
0100
0001
0000
0100
0000
0010
0001
0000
1000
,
0001
0000
0001
0000
0100
0010
0000
0100
1000
0000
0100
0000
0010
0100
0010
0000
,
1000
0100
0100
1000
0010
0100
1000
0001
,
0010
0100
0001
1000
0010
0100
1000
0001
,
0010
0100
0110
0001
1000
0100
0010
1000
,
0001
0100
0010
0001
1000
0100
0010
1000
,
0010
0100
0110
1000
0100
0001
1000
0010
,
0001
0100
1000
0001
0010
1000
0100
0001
,
0100
0100
0110
0001
1000
1000
0010
0010
,
0001
1000
0100
0100
0001
0010
0110
0110
,
0020
0000
0000
0000
,
0000
0000
0000
0000
,
0030
0000
0000
0000
;

//---------------dance-single - t7r----------------
#NOTES:
     dance-single:
     t7r:
     Challenge:
     15:
     :
0000
0000
0000
0000
,
0000
0000
0000
0000
,
0000
0000
0000
0000
,
0000
0000
0000
0000
,
0000
0000
0000
0000
,
0001
0010
0000
0000
0002
0000
0000
0000
1003
0010
0000
0000
2000
0000
0000
0000
,
3200
0000
0000
0000
0001
0000
0000
0000
0320
0000
0000
0032
0000
0000
0000
0000
,
1003
0010
0000
0000
0200
0000
0000
0000
0301
0010
0000
0000
0200
0000
0000
0000
,
0320
0000
0000
0000
1000
0000
0000
0000
0230
0000
0000
2300
0000
0000
0000
0000
,
3010
0000
0010
0000
0100
0001
0000
0100
0010
0000
0100
0000
0102
0000
0000
0000
,
0013
0000
0010
0000
0100
1000
0000
0100
0020
0000
0000
0230
0000
0000
1300
0001
,
0100
0000
0100
0000
0010
0100
0000
0010
1000
0000
0010
0000
2010
0000
0000
0000
,
3100
0000
0100
0000
0010
0100
0000
0001
0200
0000
0000
2300
0000
0000
3010
0100
,
0001
0000
0001
0000
0010
1000
0000
0010
0100
0000
0010
0000
0012
0000
0000
0000
,
1003
0000
1000
0000
0010
0001
0000
0010
0200
0000
0000
0320
0000
0000
1030
0001
,
0010
0000
0010
0000
1000
0010
0000
0100
0010
0100
1000
0001
0100
0010
0000
0010
,
1000
0000
1000
0000
0010
0000
0100
0001
1000
0100
0010
0000
0001
0100
0010
1000
,
0001
0000
0100
0000
0010
0000
0110
0000
0000
1010
0000
0000
1001
0000
0000
1000
,
0100
0000
0001
0000
0100
0000
0110
0000
0000
0011
0000
0000
1001
0000
0000
0001
,
0100
0000
0010
0000
0100
0000
1100
0000
0000
0110
0000
0000
0101
0000
0000
0001
,
0010
0000
1000
0000
0010
0000
0110
0000
0000
0011
0000
0000
0001
0100
0010
1000
,
0001
0000
1000
0000
0010
0000
0001
0000
0020
0100
0000
0030
2001
0000
0000
3001
,
1000
0000
0001
0000
0010
0000
1000
0000
0020
0100
0000
0030
1002
0000
0000
1003
,
0010
0000
0100
0000
1000
0000
0100
0000
0020
0100
0000
0030
2010
0000
0000
3010
,
0100
0000
0001
0000
0010
0000
0110
0000
0000
1100
0000
0000
2001
0000
0000
3001
,
1000
0000
0100
0000
2000
0000
0001
0000
3100
0000
1000
0000
0002
0100
0000
1003
,
0001
0000
1000
0000
0001
0000
0100
0000
2000
0100
0000
3100
0001
0000
1000
0000
,
0001
0000
0010
0000
0002
0000
1000
0000
0013
0000
0001
0000
2000
0010
0000
3001
,
1000
0000
0001
0000
1000
0000
0010
0000
0002
0010
0000
0013
1000
0000
0001
1000
,
0001
0000
0010
0000
0001
0000
0100
0000
0020
1000
0000
1030
0100
0000
1000
0010
,
0100
0000
0001
0000
1000
0000
0100
0000
0020
0001
0000
0031
1000
0000
0010
0100
,
0001
0000
0100
0000
1000
0000
1100
0000
0000
0110
0000
0000
1010
0000
0000
1000
,
0001
0000
1000
0000
0100
0000
0101
0000
0000
0110
0000
0000
2002
0000
0000
0000
,
3003
0000
0000
0000
,
0000
0000
0000
0000
,
0000
0000
0000
0000
,
0000
0000
0000
0000
,
0000
1000
0200
0320
0031
1000
0200
0320
,
0031
0000
1000
0000
0020
0000
0000
0000
0001
0000
0000
0100
0000
0000
1030
0000
,
0001
0000
0000
0010
0100
0000
1100
0000
0000
0100
0000
0100
0010
0000
0000
0010
,
0001
0000
0001
0000
1000
0001
1000
0001
1000
0001
1000
0001
1000
0000
0100
0000
,
0110
0000
0010
0000
0001
0100
0000
0100
1000
0000
0100
0000
1001
0000
0000
0000
,
1100
0000
0100
0000
0010
0100
0000
0001
0200
0000
0000
2300
0000
0000
3010
0100
,
0001
0000
0001
0000
1000
0100
0000
0100
0001
0000
0100
0000
1001
0000
0000
0000
,
0011
0000
0010
0000
0001
0100
0000
0010
0200
0000
0000
2300
0000
0000
3100
0010
,
1000
0000
1000
0000
0001
0010
0000
0010
1000
0000
0010
0000
1001
0000
0000
0000
,
1010
0000
0010
0000
0100
0001
0000
0010
2000
0000
0000
3020
0000
0000
0130
0010
,
0001
0000
0001
0000
1000
0010
0000
0010
0001
0010
0100
0010
1000
0010
0000
0100
,
0010
0000
0100
0000
0110
0000
0001
0010
0100
1000
0001
0000
1000
0010
0100
0001
,
1000
0000
0000
0000
,
0101
0000
0201
0000
1300
0100
0000
0010
0200
0000
0301
2000
0000
3001
0010
0100
,
1000
0000
0000
0000
,
1100
0000
1200
0000
0301
0100
0000
0010
0200
0000
1300
0002
0000
1003
0010
0100
,
0001
0000
0001
0000
0100
0010
0000
0100
0001
0000
1000
0000
1001
0000
0000
0000
,
1000
0000
1000
0000
0100
0010
0000
0100
2000
0000
0000
3020
0000
0000
0130
0001
,
1000
0000
1000
0000
0100
0001
0000
1000
0010
0100
0010
0001
1000
0010
0000
0100
,
0010
0000
0010
0000
1000
0000
0010
0100
0001
0010
0100
1000
0010
0100
0001
0000
,
1000
0000
0000
0000
0000
0000
0000
0000
0100
0000
0000
0000
0000
0000
0000
0000
1100
0000
0000
0000
0000
0000
0000
0000
1000
0000
0000
0000
0000
0000
0000
0000
0200
0300
0000
0000
0000
0000
0000
0000
0200
0300
0000
0000
0000
0000
0000
0000
0001
0000
0000
0000
0000
0000
0000
0000
1000
0000
0000
0000
0000
0000
0000
0000
,
0200
0300
0000
0000
0000
0000
0000
0000
0200
0300
0000
0000
0000
0000
0000
0000
0001
0000
0000
0000
0000
0000
0000
0000
1000
0000
0000
0000
0000
0000
0000
0000
0200
0300
0000
0000
0000
0000
0000
0000
0200
0300
0000
0000
0000
0000
0000
0000
0001
0000
0000
0000
0000
0000
0000
0000
1000
0000
0000
0000
0000
0000
0000
0000
,
1001
0000
0000
0000
0000
0000
0000
0000
0001
0000
0000
0000
0000
0000
0000
0000
0101
0000
0000
0000
0000
0000
0000
0000
0001
0000
0000
0000
0000
0000
0000
0000
0200
0300
0000
0000
0000
0000
0000
0000
0200
0300
0000
0000
0000
0000
0000
0000
1000
0000
0000
0000
0000
0000
0000
0000
0001
0000
0000
0000
0000
0000
0000
0000
,
0200
0300
0000
0000
0000
0000
0000
0000
0200
0300
0000
0000
0000
0000
0000
0000
1000
0000
0000
0000
0000
0000
0000
0000
0001
0000
0000
0000
0000
0000
0000
0000
0020
0030
0000
0000
0000
0000
0000
0000
0020
0030
0000
0000
0000
0000
0000
0000
1000
0000
0000
0000
0000
0000
0000
0000
0001
0000
0000
0000
0000
0000
0000
0000
,
1001
0000
0000
0000
0000
0000
0000
0000
1100
0000
0000
0000
0000
0000
0000
0000
0110
0000
0000
0000
0000
0000
0000
0000
0001
0000
0000
0000
0000
0000
0000
0000
0200
0300
0000
0000
0000
0000
0000
0000
0200
0300
0000
0000
0000
0000
0000
0000
0010
0000
0000
0000
0000
0000
0000
0000
0001
0000
0000
0000
0000
0000
0000
0000
,
0200
0300
0000
0000
0000
0000
0000
0000
0200
0300
0000
0000
0000
0000
0000
0000
0010
0000
0000
0000
0000
0000
0000
0000
0001
0000
0000
0000
0000
0000
0000
0000
0200
0300
0000
0000
0000
0000
0000
0000
0200
0300
0000
0000
0000
0000
0000
0000
1000
0000
0000
0000
0000
0000
0000
0000
0001
0000
0000
0000
0000
0000
0000
0000
,
1001
0101
0101
0011
0110
1100
1100
1100
,
0100
0000
0000
0000
0000
0000
0000
0000
2000
3000
0000
0000
0000
0000
0000
0000
2000
3000
0000
0000
0000
0000
0000
0000
0010
0000
0000
0000
0000
0000
0000
0000
0001
0000
0000
0000
0000
0000
0000
0000
0200
0300
0000
0000
0000
0000
0000
0000
0200
0300
0000
0000
0000
0000
0000
0000
1000
0000
0000
0000
0000
0000
0000
0000
,
0020
0000
0000
0000
,
0000
0000
0000
0000
,
0030
0000
0000
0000
;

//---------------dance-double - t7r----------------
#NOTES:
     dance-double:
     t7r:
     Easy:
     6:
     :
00000000
00000000
00000000
00000000
,
00000000
00000000
00000000
00000000
,
00000000
00000000
00000000
00000000
,
00000000
00000000
00000000
00000000
,
00000000
00000000
00000000
00000000
,
00010000
00200000
00310000
10000000
,
00100000
00000000
10000000
02000000
,
03010000
00002000
00013000
00000100
,
00001000
00000000
00000020
00000230
,
00000301
00001001
00000001
00000010
,
00000001
00000100
00001000
00010000
,
00001000
00011000
00001000
00010000
,
00200000
00000000
01300000
00010000
,
10000000
11000000
10000000
01000000
,
00100000
00001000
00020000
00032000
,
00013000
00001000
00000010
00000100
,
00000010
00000011
00000001
00000100
,
00000000
00001000
00010000
00011000
,
00000000
00010000
00001000
00011000
,
00000000
01000000
00100000
01100000
,
00000000
00100000
10000000
10010000
,
10000000
01000000
00100000
00100000
,
00010000
00001000
00000010
00000100
,
00000001
00000010
00000100
00000100
,
00001000
00010000
01000000
00100000
,
10000000
02000000
03000000
00020000
,
00030000
00000000
00001000
00010000
,
00001000
00000200
00000300
00000002
,
00000003
00000000
00000010
00000100
,
00000010
00000001
00001001
00000000
,
00000001
00000100
00000101
00000000
,
00001000
00000100
00010100
00000000
,
00001000
00010000
00011000
00022000
,
00033000
00000000
00000000
00000000
,
00000000
00000000
00000000
00000000
,
00000000
00000000
00000000
00000000
,
00000000
00000000
00000000
00000000
,
00000000
02000000
03000000
00200000
,
00300000
00000000
20000000
30020000
,
10030000
00000000
01000000
00000000
,
00010000
00010000
00001000
00010000
,
00000000
00011000
00000000
00001000
,
00000100
00000010
00002000
00003002
,
00000013
00000000
00001001
00000000
,
00000001
00000100
00002000
00023000
,
00031000
00000000
01100000
00000000
,
00100000
00010000
20000000
30020000
,
10030000
00000000
01100000
00000000
,
10000000
01000000
00010000
00001000
,
00011000
00000000
00000000
00000000
,
00000001
00000100
00001000
00010000
,
00011000
00000000
00000000
00000000
,
10000000
00100000
00010000
00001000
,
00020000
00000100
00000000
00030100
,
00010000
00001000
00000200
00000300
,
00000001
00000010
00001000
00010000
,
00002000
01000000
00000000
01003000
,
00100000
00000000
10010000
00000000
,
10000000
01000000
00100000
00001000
,
00000000
00000000
00011000
00000000
,
00010000
00000010
00000100
00000001
,
00000000
00000000
00001001
00000000
,
00000001
00000010
00000100
00010000
,
00000000
00000000
00011000
00000000
,
00001000
00100000
01000000
10000000
,
00200000
00000000
00000000
00000000
,
00000000
00000000
00000000
00000000
,
00300000
00000000
00000000
00000000
;

//---------------dance-double - t7r----------------
#NOTES:
     dance-double:
     t7r:
     Medium:
     10:
     :
00000000
00000000
00000000
00000000
,
00000000
00000000
00000000
00000000
,
00000000
00000000
00000000
00000000
,
00000000
00000000
00000000
00000000
,
00000000
00000000
00000000
00000000
,
10000000
00200000
10300000
00020000
,
00130000
00000000
00000000
00000000
00000000
00000000
00000000
00000000
00001000
00000000
00000000
00020000
00000000
00000000
00000000
00000000
,
00030010
00002000
00003001
00000020
,
00000130
00000000
00000000
00000000
00000000
00000000
00000000
00000000
00010000
00000000
00000000
00002000
00000000
00000000
00000000
00000000
,
00003000
01000000
00010000
10000000
00010000
01000000
00010000
10000000
,
01000000
00100000
00010000
00000000
00001000
00000000
00000020
00000000
,
00000001
00000000
00000100
00000000
00001030
00000000
00000001
00000020
,
00000000
00000000
00000130
00002000
00000000
00003002
00000000
00000000
,
00001003
00000100
00001000
00000001
00001000
00000010
00001000
00000001
,
00001000
00000001
00000200
00000000
00001300
00000000
00020000
00000000
,
01030000
10000000
00200000
00000000
01300000
00010000
00200000
00000000
,
00301000
00000000
00000000
00000000
00000000
00000000
00000000
00000000
00010000
00000000
00000000
00002000
00000000
00000000
00000000
00000000
,
00003000
00000000
01000000
00000000
00010000
00000000
10000000
00000000
00000000
10000000
00000000
00000000
10000000
00000000
00000000
01000000
,
00000000
00000000
00100000
00000000
00001000
00000000
00010000
00000000
00000000
00010000
00000000
00000000
00010000
00000000
00000000
00000010
,
00000000
00000000
00001000
00000000
00000001
00000000
00000100
00000000
00000000
00000100
00000000
00000000
00000100
00000000
00000000
00000001
,
00000000
00000000
00000010
00000000
00000100
00000000
00001000
00000000
00000000
00001000
00000000
00000000
00001000
00000000
00000000
00000000
,
00000001
00000100
00001000
00000000
00020000
00000000
00230000
00000000
,
10300000
00000000
01000000
00000000
00100000
00000000
00010000
00000000
00000000
00001000
00000000
00000000
00000010
00000000
00000000
00001000
,
00000000
00001000
00000001
00000100
00000002
00000000
00001003
00000000
,
00000001
00000000
00000010
00000000
00000100
00000000
00001000
00000000
00000000
00010000
00000000
00000000
00100000
00000000
00000000
00000000
,
00010000
10000000
02000000
00000000
03100000
01000000
20000000
00000000
,
30100000
00000000
00000000
00000000
00000000
00000000
00000000
00000000
00020000
00000000
00000000
00032000
00000000
00000000
00013000
00000000
,
00000010
00001000
00000200
00000000
00000310
00000001
00000200
00000000
,
00001300
00000000
00000000
00000000
00000000
00000000
00000000
00000000
00020000
00000000
00000000
00032000
00000000
00000000
00013000
00000000
,
01000000
00000000
00100000
01000000
10000000
00000000
00100000
00000000
,
01000000
00000000
00010000
10000000
02000000
00000000
03100000
00000000
,
00001000
00010000
00000010
00002000
00000000
00003001
00000010
00000100
,
00001000
00000000
00000001
00000000
00000100
00000000
00000100
00000000
00000000
00001000
00000000
00000000
00022000
00000000
00000000
00000000
,
00033000
00000000
00000000
00000000
,
00000000
00000000
00000000
00000000
,
00000000
00000000
00000000
00000000
,
00000000
00000000
00000000
00000000
,
10000000
02000000
03100000
00020000
,
00031000
00000000
00000000
00000000
00000000
00000000
00000000
00000000
00000010
00000000
00000000
00002000
00000000
00000000
00003000
00000000
,
00001001
00000000
00000000
00000001
00000000
00000000
00000100
00000000
00000000
00001000
00000000
00000000
00011000
00000000
00000000
00000000
,
00010000
00010000
00010000
00010000
01000000
00000000
10000000
00100000
,
01000000
00200000
00010000
01000000
,
10300000
00000000
01000000
00000000
00100000
00000000
00000000
00000000
00010000
00000000
00000000
20000000
00000000
00000000
30100000
00000000
,
10000000
01000000
00100000
00000000
00001000
00010000
00001000
00000000
,
00010000
00000100
00002000
00000000
00003020
00000000
00000230
00000000
,
00000301
00000010
00000100
00000000
00000010
00000001
00001000
00000010
,
00000100
00000020
00000001
00000100
,
00001030
00000001
00000010
00000000
00001000
00010000
00001000
00000000
,
00020000
00000000
00130000
01000000
00010000
00100000
01000000
00000000
,
00000000
00000000
00000000
00000000
,
00010000
00000000
00001000
00000000
00010000
00000000
00000000
00000000
00000020
00000000
00000000
00002030
00000000
00000000
00003001
00000000
,
00000000
00000000
00000000
00000000
,
00000010
00000000
00001000
00000000
00010000
00000000
00000000
00000000
00002000
00000000
00000000
00203000
00000000
00000000
00310000
00000000
,
02000000
10000000
00100000
00010000
,
03100000
00000000
01000000
00000000
00010000
00000000
00000000
00000000
20000000
00000000
00000000
32000000
00000000
00000000
03010000
00000000
,
00001000
00021000
00000010
00001000
,
00030100
00001000
00000001
00000000
00000100
00000010
00001000
00000000
,
00010000
00000000
10000000
01000000
10000000
01000000
00010000
00001000
,
00010000
00001000
00000100
00000001
00000100
00000001
00001000
00000001
,
00001000
00000000
00000001
00000100
00000001
00000100
00001000
00010000
,
00001000
00010000
01000000
10000000
01000000
10000000
00010000
10000000
,
00010000
00000000
10000000
00100000
10000000
00100000
00010000
00001000
,
00010000
00001000
00000010
00000001
00000010
00000001
00001000
00000001
,
00001000
00000000
00000001
00000010
00000001
00000010
00001000
00010000
,
00001000
00001000
00010000
00010000
00100000
00100000
10000000
10000000
,
00020000
00000000
00000000
00000000
,
00000000
00000000
00000000
00000000
,
00030000
00000000
00000000
00000000
;

//---------------dance-double - t7r----------------
#NOTES:
     dance-double:
     t7r:
     Hard:
     13:
     :
00000000
00000000
00000000
00000000
,
00000000
00000000
00000000
00000000
,
00000000
00000000
00000000
00000000
,
00000000
00000000
00000000
00000000
,
00000000
00000000
00000000
00000000
,
00000001
00002000
00003001
00000200
,
00000301
00000000
00000000
00000000
00000000
00000000
00000000
00000000
00000020
00000000
00000000
00002030
00000000
00000000
00000000
00000000
,
00013000
00000200
00001300
00000002
,
00000103
00000000
00000000
00000000
00000000
00000000
00000000
00000000
00002000
00000000
00000000
00023000
00000000
00000000
00000000
00000000
,
01030000
00000000
00000000
00000000
10010000
00000000
00000000
10000000
00100000
00000000
10000000
00000000
00010000
00000000
00000000
00000000
,
10000000
00000000
10000000
00000000
01000000
00000000
00000000
00100000
00002000
00000000
00000000
00023000
00000000
00000000
00031000
00000000
,
00000100
00000000
00000000
00000000
00001001
00000000
00000000
00000001
00000010
00000000
00000100
00000000
00001000
00000000
00000000
00000000
,
00010000
00000000
00010000
00000000
00100000
00000000
00000000
00000000
00020000
00000000
00000000
20030000
00000000
00000000
30100000
00000000
,
01000000
00000000
00000000
00000000
10010000
00000000
00000000
10000000
01000000
00000000
00100000
00000000
00010000
00000000
00000000
00000000
,
00001000
00000000
00000010
00000000
00000100
00000000
00000000
00000000
00000002
00000000
00000000
00000023
00000000
00000000
00000031
00000000
,
00001000
00000000
00000000
00000000
00000110
00000000
00000000
00000001
00001000
00000000
00000100
00000000
00000010
00000000
00000000
00000000
,
00000001
00000000
00000001
00000000
00000100
00000000
00000000
00000000
00001000
00100000
00000000
00001000
00010000
00000000
00000000
00000000
,
00001000
00000000
00010000
00000000
01000000
00000000
10000000
00000000
00000000
10010000
00000000
00000000
11000000
00000000
00000000
10000000
,
00010000
00000000
10000000
00000000
01000000
00000000
00100000
00000000
00000000
00110000
00000000
00000000
00101000
00000000
00000000
00001000
,
00010000
00000000
00001000
00000000
00000100
00000000
00000001
00000000
00000000
00001001
00000000
00000000
00000101
00000000
00000000
00000001
,
00001000
00000000
00000001
00000000
00000100
00000000
00000010
00000000
00000000
00001010
00000000
00000000
00010010
00000000
00000000
00010000
,
00001000
00000000
00010000
00000000
01000000
00000000
00100000
00000000
00010000
02000000
00000000
00000000
03100000
00000000
00000000
00000000
,
10000000
00000000
01000000
00000000
00100000
00000000
00010000
00000000
10000000
00200000
00000000
00000000
01300000
00000000
00000000
00000000
,
00010000
00000000
00100000
00000000
00001000
00000000
00010000
00000000
00001000
00000200
00000000
00000000
00000310
00000000
00000000
00001000
,
00000100
00000000
00000010
00000000
00000001
00000000
00001001
00000000
00000000
00001100
00000000
00000000
00010100
00000000
00000000
00000100
,
00010000
00001000
00000200
00000000
00001300
00010000
02000000
00000000
,
03100000
00000000
00010000
00000000
10000000
00000000
00000000
00000000
00200000
00000000
00000000
00320000
00000000
00000000
00031000
00000000
,
00010000
00001000
00000020
00000000
00001030
00010000
00200000
00000000
,
10300000
00000000
01000000
00000000
00100000
00000000
00000000
00000000
00002000
00000000
00000000
00023000
00000000
00000000
00030010
00000000
,
00000100
00000000
00000001
00000000
00001000
00000000
00000100
00000000
00010000
00001000
00000000
00001000
00010000
00000000
00001000
00000000
,
01000000
00000000
00010000
00000000
00100000
00000000
01000000
00000000
10000000
00100000
00000000
00100000
01000000
00000000
00100000
00000000
,
00000000
00000000
10100000
00000000
10000000
00000000
01000000
00000000
00000000
01100000
00000000
00000000
00110000
00000000
00000000
00001000
,
00010000
00000000
00000010
00000000
00000010
00000000
00000110
00000000
00000000
00001001
00000000
00000000
00002200
00000000
00000000
00000000
,
00003300
00000000
00000000
00000000
,
00000000
00000000
00000000
00000000
,
00000000
00000000
00000000
00000000
,
00000000
00000000
00000000
00000000
,
00010000
00001000
02000000
00000000
03100000
10000000
00020000
00000000
,
10030000
00000000
00000000
00000000
00000000
00000000
00000000
00000000
02000000
00000000
00000000
03020000
00000000
00000000
00031000
00000000
,
00000100
00000000
00000000
00000010
00000000
00000000
00001010
00000000
00000000
00000100
00000000
00000000
00011000
00000000
00000000
00001000
,
00100000
00000000
00100000
00000000
00010000
10000000
00010000
10000000
00010000
10000000
00010000
10000000
00010000
00000000
01000000
00000000
,
00100000
00000000
00100000
00000000
10000000
01000000
00000000
00100000
01000000
00000000
10000000
00000000
20010000
00000000
00000000
00000000
,
31000000
00000000
01000000
00000000
00010000
00001000
00000000
00000000
00020000
00000000
00000000
00030020
00000000
00000000
00001030
00000000
,
00000010
00000000
00000010
00000000
00000100
00000001
00000000
00000100
00000010
00000000
00000100
00000000
00000102
00000000
00000000
00000000
,
00000103
00000000
00000100
00000000
00001000
00010000
00000000
00001000
00200000
00000000
00000000
00320000
00000000
00000000
10030000
00100000
,
10000000
00000000
10000000
00000000
01000000
00100000
00000000
01000000
00010000
00000000
01000000
00000000
01200000
00000000
00000000
00000000
,
00301000
00000000
00001000
00000000
00010000
00001000
00000000
00000010
00000200
00000000
00000000
00000320
00000000
00000000
00000031
00001000
,
00000001
00000000
00000001
00000000
00000100
00001000
00000000
00000100
00000010
00000000
00001000
00000000
00001100
00000000
00000000
00000100
,
00010000
00000000
00001000
00000000
00010000
00000000
00100000
01000000
00100000
00000000
10000000
00000000
00010000
00000000
00000000
00000000
,
00000000
00000000
00000000
00000000
,
00001100
00000000
00000100
00000000
00001000
00000001
00000000
00000000
00000200
00000000
00000000
00002300
00000000
00000000
00013000
00000000
,
00000000
00000000
00000000
00000000
,
11000000
00000000
01000000
00000000
00100000
00010000
00000000
10000000
00100000
00000000
00010000
00000000
00011000
00000000
00001000
01000000
,
00020000
00000000
00100000
00000000
10030000
00010000
00000000
10000000
01000000
00000000
00010000
00000000
00011000
00000000
00000000
00000000
,
00010100
00000000
00000100
00000000
00001000
00000001
00000000
00000100
00000010
00000000
00001000
00000000
00000001
00000000
00000010
00000001
,
00001000
00000000
00000001
00000000
00000100
00001000
00000000
00000100
00000010
00000100
00000010
00000000
00001010
00000000
00000000
00001000
,
00000100
00000000
00000100
00000000
00011000
00000000
00001000
01000000
00010000
00000000
01000000
00000000
10010000
00000000
00000000
00000000
,
10000000
01000000
01000000
00100000
10000000
00010000
01000000
00100000
,
00001000
00010000
00001000
00000100
00000010
00001000
00000100
00000010
,
00000001
00000100
00000100
00000010
00000001
00001000
00000100
00000010
,
00010000
00001000
00010000
01000000
00100000
00010000
01000000
00100000
,
10000000
00100000
00100000
01000000
10000000
00010000
00100000
01000000
,
00001000
00010000
00001000
00000010
00000100
00001000
00000010
00000100
,
00000001
00000001
00000011
00000010
00001000
00001000
00011000
00001000
,
00010000
00100000
00100000
00100000
10000000
00010000
10010000
10010000
,
02000000
00000000
00000000
00000000
,
00000000
00000000
00000000
00000000
,
03000000
00000000
00000000
00000000
;

//---------------dance-double - t7r----------------
#NOTES:
     dance-double:
     t7r:
     Challenge:
     15:
     :
00000000
00000000
00000000
00000000
,
00000000
00000000
00000000
00000000
,
00000000
00000000
00000000
00000000
,
00000000
00000000
00000000
00000000
,
00000000
00000000
00000000
00000000
,
10000000
01000000
00000000
00000000
20000000
00000000
00000000
00000000
30010000
01000000
00000000
00000000
00020000
00000000
00000000
00000000
,
10030000
00000000
00000000
00000000
00000000
00000000
00000000
00000000
00200000
00000000
00000000
00320000
00000000
00000000
00031000
00000000
,
00000010
00000100
00000000
00000000
00002000
00000000
00000000
00000000
00003001
00000100
00000000
00000000
00000020
00000000
00000000
00000000
,
00000130
00000000
00000000
00000000
00000000
00000000
00000000
00000000
00000002
00000000
00000000
00000023
00000000
00000000
00000000
00000000
,
00001030
00000000
00001000
00000000
00010000
00000100
00000000
00001000
00000001
00000000
00000100
00000000
00000101
00000000
00000000
00000000
,
00000001
00000000
00000001
00000000
00000010
00000100
00000000
00000010
00000002
00000000
00000000
00000203
00000000
00000000
00001300
00010000
,
00001000
00000000
00001000
00000000
01000000
00010000
00000000
00100000
00010000
00000000
10000000
00000000
10010000
00000000
00000000
00000000
,
10000000
00000000
10000000
00000000
01000000
00100000
00000000
01000000
20000000
00000000
00000000
30020000
00000000
00000000
01030000
00001000
,
00010000
00000000
00010000
00000000
00001000
00000100
00000000
00000001
00001000
00000000
00000001
00000000
00000011
00000000
00000000
00000000
,
00000001
00000000
00000001
00000000
00000100
00000010
00000000
00000100
00002000
00000000
00000000
00023000
00000000
00000000
01030000
10000000
,
00010000
00000000
00010000
00000000
00100000
00001000
00000000
00010000
00001000
01000000
00010000
00100000
01000000
00100000
00000000
00100000
,
00010000
00000000
00010000
00000000
10000000
00000000
00100000
01000000
00010000
10000000
01000000
00000000
00010000
00001000
00010000
00000100
,
00001000
00000000
00000010
00000000
00000100
00000000
00000101
00000000
00000000
00000011
00000000
00000000
00001001
00000000
00000000
00000001
,
00000100
00000000
00001000
00000000
00010000
00000000
00011000
00000000
00000000
00101000
00000000
00000000
00110000
00000000
00000000
00010000
,
10000000
00000000
00100000
00000000
00010000
00000000
00011000
00000000
00000000
00010100
00000000
00000000
00001100
00000000
00000000
00001000
,
00000010
00000000
00000100
00000000
00000001
00000000
00000101
00000000
00000000
00000011
00000000
00000000
00000001
00000010
00000100
00001000
,
00000001
00000000
00000100
00000000
00001000
00000000
00010000
00000000
00200000
01000000
00000000
10300000
00010000
01000000
00000000
00010000
,
10000000
00000000
01000000
00000000
00010000
00000000
00001000
00000000
00000020
00000100
00000000
00000031
00001000
00000100
00000000
00001000
,
00000001
00000000
00000010
00000000
00001000
00000000
00010000
00000000
02000000
00100000
00000000
13000000
00010000
00100000
00000000
00010000
,
10000000
00000000
00100000
00000000
00010000
00000000
00011000
00000000
00000000
00010010
00000000
00000000
00000110
00000000
00000000
00000010
,
00001000
00000100
00002000
00010000
00003100
00010000
00002000
00000100
,
00013000
00000000
00001000
00000000
00020000
00000000
01000000
00000000
00032000
00010000
00000000
00013000
00002000
00000000
00000000
00103000
,
00010000
00100000
00020000
00001000
00130000
00001000
00020000
00100000
,
00031000
00000000
00010000
00000000
00002000
00000000
00000010
00000000
00023000
00001000
00000000
00031000
00010000
00000100
00010000
00001000
,
00010000
00000000
01000000
00000000
01100000
00000000
00100000
00000000
00020000
01000000
00000000
01030000
00100000
00000000
10000000
01000000
,
00100000
00000000
01000000
00000000
10000000
00000000
00100000
00000000
00020000
00001000
00000000
00031000
00010000
00000000
00001000
00000100
,
00000010
00000000
00001000
00000000
00000100
00000000
00000101
00000000
00000000
00000110
00000000
00000000
00000011
00000000
00000001
00000100
,
00000010
00000000
00001000
00000000
00010000
00000000
10010000
00000000
00000000
01100000
00000000
00000000
20020000
00000000
00000000
00000000
,
30030000
00000000
00000000
00000000
,
00000000
00000000
00000000
00000000
,
00000000
00000000
00000000
00000000
,
00000000
00000000
00000000
00000000
,
00000000
00000001
00000020
00000230
00001300
00010000
00200000
02300000
,
13000000
00100000
00020000
00000000
00032000
00000000
00003020
00000000
,
00000130
00000000
00000000
00000010
00000001
00000000
00001001
00000000
00000000
00000100
00000000
00000000
00011000
00000000
00000000
00001000
,
00010000
00000000
00010000
00000000
00001000
00010000
00001000
00010000
00001000
00010000
00001000
00010000
00001000
00000000
01000000
00000000
,
01100000
00000000
00100000
00000000
10000000
01000000
00000000
01000000
00010000
00000000
01000000
00000000
10010000
00000000
00000000
00000000
,
11000000
00000000
01000000
00000000
00100000
00001000
00000000
00010000
00002000
00000000
00000000
00003200
00000000
00000000
00000310
00001000
,
00000001
00000000
00000010
00000000
00000001
00000100
00000000
00000100
00001000
00000000
00000100
00000000
00001001
00000000
00000000
00000000
,
00000011
00000000
00000001
00000000
00000100
00000001
00000000
00000010
00000001
00000000
00000100
00000000
00001000
00000000
00010000
00001000
,
01000000
00000000
00100000
00000000
10000000
01000000
00000000
01000000
00010000
00000000
01000000
00000000
10010000
00000000
00000000
00000000
,
10000000
00000000
00100000
00000000
00010000
00001000
00000000
00010000
00000020
00000000
00000000
00000230
00000000
00000000
00000310
00001000
,
00000001
00000000
00000001
00000000
00001000
00000010
00000000
00000010
00000001
00000010
00000100
00000010
00001000
00000010
00000000
00000100
,
00001000
00000000
00000100
00000000
00011000
00000000
00010000
00100000
01000000
00100000
10000000
00000000
01000000
00100000
00001000
00010000
,
00001000
00000000
00000000
00000000
,
00010000
00000000
00011000
00000000
00001000
01000000
00000000
00010000
00200000
00000000
00310000
20000000
00000000
31000000
00100000
00001000
,
00010000
00000000
00000000
00000000
,
00001000
00000000
00011000
00000000
00010000
00000100
00000000
00001000
00000020
00000000
00001030
00000002
00000000
00000103
00000010
00010000
,
00001000
00000000
00001000
00000000
00010000
00100000
00000000
01000000
00100000
00000000
00010000
00000000
00210000
00000000
00000000
00000000
,
10300000
00000000
10000000
00000000
01000000
00010000
00000000
10000000
00200000
00000000
00301000
00020000
00000000
00031000
00000010
00000100
,
00000010
00000000
00000010
00000000
00000001
00000100
00000000
00000010
00000001
00000000
00000010
00001000
00000001
00000010
00000000
00001000
,
00010000
00000000
00100000
00000000
10000000
00000000
01000000
00100000
00001000
00010000
00000010
00001000
00000100
00000010
00000001
00000000
,
00000100
00000000
00000000
00000000
00000000
00000000
00000000
00000000
00001000
00000000
00000000
00000000
00000000
00000000
00000000
00000000
00011000
00000000
00000000
00000000
00000000
00000000
00000000
00000000
00010000
00000000
00000000
00000000
00000000
00000000
00000000
00000000
02000000
03000000
00000000
00000000
00000000
00000000
00000000
00000000
02000000
03000000
00000000
00000000
00000000
00000000
00000000
00000000
00010000
00000000
00000000
00000000
00000000
00000000
00000000
00000000
10000000
00000000
00000000
00000000
00000000
00000000
00000000
00000000
,
02000000
03000000
00000000
00000000
00000000
00000000
00000000
00000000
02000000
03000000
00000000
00000000
00000000
00000000
00000000
00000000
00010000
00000000
00000000
00000000
00000000
00000000
00000000
00000000
00100000
00000000
00000000
00000000
00000000
00000000
00000000
00000000
00002000
00003000
00000000
00000000
00000000
00000000
00000000
00000000
00002000
00003000
00000000
00000000
00000000
00000000
00000000
00000000
00000010
00000000
00000000
00000000
00000000
00000000
00000000
00000000
00000100
00000000
00000000
00000000
00000000
00000000
00000000
00000000
,
00000110
00000000
00000000
00000000
00000000
00000000
00000000
00000000
00000010
00000000
00000000
00000000
00000000
00000000
00000000
00000000
00010010
00000000
00000000
00000000
00000000
00000000
00000000
00000000
00010000
00000000
00000000
00000000
00000000
00000000
00000000
00000000
00200000
00300000
00000000
00000000
00000000
00000000
00000000
00000000
00200000
00300000
00000000
00000000
00000000
00000000
00000000
00000000
00010000
00000000
00000000
00000000
00000000
00000000
00000000
00000000
10000000
00000000
00000000
00000000
00000000
00000000
00000000
00000000
,
02000000
03000000
00000000
00000000
00000000
00000000
00000000
00000000
02000000
03000000
00000000
00000000
00000000
00000000
00000000
00000000
00010000
00000000
00000000
00000000
00000000
00000000
00000000
00000000
00100000
00000000
00000000
00000000
00000000
00000000
00000000
00000000
00002000
00003000
00000000
00000000
00000000
00000000
00000000
00000000
00002000
00003000
00000000
00000000
00000000
00000000
00000000
00000000
00000010
00000000
00000000
00000000
00000000
00000000
00000000
00000000
00000100
00000000
00000000
00000000
00000000
00000000
00000000
00000000
,
00000110
00000000
00000000
00000000
00000000
00000000
00000000
00000000
00000100
00000000
00000000
00000000
00000000
00000000
00000000
00000000
00000101
00000000
00000000
00000000
00000000
00000000
00000000
00000000
00000001
00000000
00000000
00000000
00000000
00000000
00000000
00000000
00000020
00000030
00000000
00000000
00000000
00000000
00000000
00000000
00000020
00000030
00000000
00000000
00000000
00000000
00000000
00000000
00001000
00000000
00000000
00000000
00000000
00000000
00000000
00000000
00000100
00000000
00000000
00000000
00000000
00000000
00000000
00000000
,
00020000
00030000
00000000
00000000
00000000
00000000
00000000
00000000
00020000
00030000
00000000
00000000
00000000
00000000
00000000
00000000
01000000
00000000
00000000
00000000
00000000
00000000
00000000
00000000
00010000
00000000
00000000
00000000
00000000
00000000
00000000
00000000
00200000
00300000
00000000
00000000
00000000
00000000
00000000
00000000
00200000
00300000
00000000
00000000
00000000
00000000
00000000
00000000
10000000
00000000
00000000
00000000
00000000
00000000
00000000
00000000
00010000
00000000
00000000
00000000
00000000
00000000
00000000
00000000
,
10010000
10000000
10000000
01000000
01100000
01100000
00110000
00110000
,
00100000
00000000
00000000
00000000
00000000
00000000
00000000
00000000
00002000
00003000
00000000
00000000
00000000
00000000
00000000
00000000
00002000
00003000
00000000
00000000
00000000
00000000
00000000
00000000
00000100
00000000
00000000
00000000
00000000
00000000
00000000
00000000
00001000
00000000
00000000
00000000
00000000
00000000
00000000
00000000
00000020
00000030
00000000
00000000
00000000
00000000
00000000
00000000
00000020
00000030
00000000
00000000
00000000
00000000
00000000
00000000
00000001
00000000
00000000
00000000
00000000
00000000
00000000
00000000
,
00000200
00000000
00000000
00000000
,
00000000
00000000
00000000
00000000
,
00000300
00000000
00000000
00000000
;
