#TITLE:CTRL + ALT + DEL;
#ARTIST:RĂªve;
#ARTISTTRANSLIT:Reve;
#BANNER:CTRL + ALT + DEL.png;
#BACKGROUND:CTRL + ALT + DEL-bg.png;
#JACKET:CTRL + ALT + DEL-jacket.png;
#CDTITLE:./CDTITLES/NONE.PNG;
#MUSIC:CTRL + ALT + DEL.ogg;
#SAMPLESTART:22;
#SAMPLELENGTH:15;
#BPMS:0=120;

//---------------dance-single - t7r----------------
#NOTES:
     dance-single:
     t7r:
     Beginner:
     2:
     :
0000
0000
0000
0000
,
0000
0000
0000
0000
,
0000
0000
0000
0000
,
0000
0000
0000
0000
,
0000
0000
0000
0000
,
1000
0000
0000
0000
,
0001
0000
0000
0000
,
0100
0000
0000
0000
,
0010
0000
0000
0000
,
1000
0000
1000
0000
,
0001
0000
0001
0000
,
0100
0000
0000
0000
,
0010
0000
0000
0000
,
1000
0000
0000
0000
,
1000
1000
1000
0000
,
0001
0000
0000
0000
,
0001
0001
0001
0000
,
0100
0000
0000
0000
,
0100
0100
0100
0000
,
0010
0000
0000
0000
,
0010
0010
0010
0000
,
1000
0000
0000
0000
,
0100
0000
0000
0000
,
0001
0000
0000
0000
,
0010
0000
0000
0000
,
0001
0000
0000
0000
,
0100
0000
0000
0000
,
1000
0000
0000
0000
,
0010
0010
0010
0000
,
1000
0000
0000
0000
,
0100
0000
0000
0000
,
0010
0000
0000
0000
,
0001
0000
0000
0000
,
1000
0000
1000
0000
,
1000
1000
1000
0000
,
0001
0000
0001
0000
,
0001
0001
0001
0000
,
0100
0000
0100
0000
,
0100
0100
0100
0000
,
0010
0000
0010
0000
,
0010
0010
0010
0000
,
1000
0000
0000
0000
,
0100
0100
0100
0000
,
0010
0000
0000
0000
,
0001
0001
0001
0000
,
0100
0000
0000
0000
,
0010
0010
0010
0000
,
1000
0000
0001
0000
,
1000
1000
1000
0000
;

//---------------dance-single - t7r----------------
#NOTES:
     dance-single:
     t7r:
     Easy:
     5:
     :
0000
0000
0000
0000
,
0000
0000
0000
0000
,
0000
0000
0000
0000
,
0000
0000
0000
0000
,
0000
0000
0000
0000
,
0010
0000
0100
0000
,
0001
0010
0100
0000
,
0001
0000
0100
0000
,
1000
0010
0100
0000
,
1000
0000
0001
0000
,
0100
1000
0010
0000
,
0001
0000
1000
0000
,
0100
0000
0000
0000
,
1000
0000
0001
0000
,
1000
1000
0100
0000
,
0001
0000
1000
0000
,
0001
0001
0100
0000
,
1000
0000
0010
0000
,
1000
1000
0100
0000
,
0001
0000
0010
0000
,
0001
0000
0100
0000
,
1000
0000
0020
0030
,
1000
0100
1000
0000
,
0001
0000
0020
0030
,
0001
0100
0001
0000
,
0100
0000
0020
0030
,
1000
0001
0010
0000
,
0100
0000
0001
0000
,
0100
0100
1000
0000
,
0110
0000
0001
0000
,
0110
1000
0110
0000
,
2002
3003
0010
0000
,
0100
0000
0000
0000
,
0001
0000
0010
0000
,
1000
1000
0100
0000
,
1000
0000
0010
0000
,
0001
0001
0100
0000
,
0010
0000
1000
0000
,
0100
0001
0010
0000
,
0001
0000
0100
0000
,
1000
0010
0100
0000
,
0001
0010
0001
0001
,
1000
0010
1000
1000
,
0200
0001
0010
1300
,
0001
0100
1000
0010
,
0100
0000
0110
0000
,
1000
1000
0100
1000
,
0001
1000
0010
0001
,
0100
0000
0110
0000
;

//---------------dance-single - t7r----------------
#NOTES:
     dance-single:
     t7r:
     Medium:
     7:
     :
0000
0000
0000
0000
,
0000
0000
0000
0000
,
0000
0000
0000
0000
,
0000
0000
0000
0000
,
0000
0000
0000
0000
,
0100
0000
0000
0000
0001
0010
0001
0000
,
1000
0000
0000
0000
0100
0001
0100
0000
,
0010
0000
0000
0000
0001
1000
0001
0000
,
0010
0000
0000
0000
1000
0001
1000
0000
,
0100
0000
0000
0000
0001
0010
0100
0000
,
0010
0000
0000
0000
1000
0100
0010
0000
,
0100
0000
0000
0000
0001
1000
0100
0000
,
1000
0000
0000
0000
,
0010
0000
0000
0000
0001
0100
0001
0000
,
1000
1000
0001
0000
1000
0100
1000
0000
,
0001
0000
0000
0000
1000
0100
1000
0000
,
0001
0001
1000
0000
0010
0100
0010
0000
,
0100
0000
0000
0000
0010
0001
1000
0000
,
0001
0010
0001
0000
1000
1000
0001
0000
,
0010
0000
0000
0000
1000
0001
0100
0000
,
0010
0000
0100
0000
,
1000
0000
0100
0020
0000
0000
0030
0000
,
1000
0100
1000
0100
1000
0000
1000
0000
,
0001
0000
0100
0020
0000
0000
0030
0000
,
0001
0100
0001
0100
0001
0000
1000
0000
,
0100
0000
0010
0200
0000
0000
0300
0000
,
1000
0001
1000
0001
1000
0000
0010
0000
,
0100
0000
0001
2000
0100
0000
3001
0000
,
0100
0010
0010
0010
0010
0000
0000
1000
,
1000
0000
0000
0100
0100
0000
0000
0001
,
0001
0000
0010
0000
0010
0000
0000
0001
,
0002
0000
0003
0100
0100
0000
1000
0000
,
0010
0000
0000
0000
,
1000
0000
0100
0000
0001
1000
0001
0000
,
0001
0000
0100
0000
1000
0001
1000
0000
,
1000
0000
0010
0000
0001
1000
0001
0000
,
0001
0000
0010
0000
1000
0001
1000
0000
,
0100
0000
0010
0000
1000
0100
1000
0000
,
0010
0000
0001
0000
0100
0010
0100
0000
,
0001
0000
0010
0000
1000
0100
0010
0000
,
0001
0100
1000
0010
,
0001
0100
1000
0000
1000
0100
0001
0000
,
0001
0010
1000
0000
1000
0010
0001
1000
,
2000
0100
0001
3010
,
1000
0010
0001
0100
,
1000
0100
0010
0000
1001
0000
0110
0000
,
0001
0001
1000
0000
0110
0000
1001
0000
,
0100
0000
0011
0000
1000
1000
0010
0000
,
0001
0100
1000
0010
;

//---------------dance-single - t7r----------------
#NOTES:
     dance-single:
     t7r:
     Hard:
     9:
     :
0000
0000
0000
0000
,
0000
0000
0000
0000
,
0000
0000
0000
0000
,
0000
0000
0000
0000
,
0000
0000
0000
0000
,
0010
0000
0100
0000
0001
0010
0100
0000
,
1000
0001
0100
0010
1000
0001
0100
0000
,
0001
0000
0010
0000
1000
0100
0010
0000
,
0001
1000
0010
0100
0001
1000
0100
0000
,
1000
0000
0010
0000
0001
0100
0010
0000
,
0100
0001
1000
0010
0100
0001
0010
0000
,
0001
0000
0100
0000
1000
0010
0100
0000
,
0001
0000
0000
0000
,
1000
0000
0100
0000
0001
0010
0001
0000
,
1000
1000
0001
0000
0100
0010
1000
0000
,
0001
0000
0010
0000
1000
0100
1000
0000
,
0001
0001
1000
0000
0010
0100
0001
0000
,
2000
0100
3001
0000
0010
1000
0100
0000
,
0010
0001
1000
0001
0100
0010
1000
0000
,
0001
0000
0010
0000
1000
0100
1000
0000
,
0001
0100
1000
0010
,
0001
0000
1000
0200
0001
0000
0310
0000
,
0001
0001
0100
0100
0001
0001
1000
0010
,
1000
0000
0001
0200
1000
0000
0310
0000
,
1000
1000
0010
0010
1000
1000
0001
0100
,
0001
0000
1000
0020
0001
0000
0130
0000
,
0001
0001
0010
0010
0001
1000
0001
0100
,
0010
0000
2000
0100
3002
0100
2003
0100
,
3001
1000
1000
1000
0010
0000
0100
0001
,
1001
0000
0000
1000
1100
0000
0000
0001
,
0011
0110
1100
1010
0110
0000
0000
0001
,
0021
0000
0000
0031
1001
0000
0110
0000
,
1000
0100
0001
0010
,
1000
0000
0010
0000
0001
0100
1000
0000
,
0100
0001
0100
1000
0100
0010
1001
0000
,
0001
0000
0010
0000
1000
0100
0001
0000
,
0100
1000
0100
0001
0100
0010
1001
0000
,
1000
0010
0101
0000
0010
1000
0001
0000
,
1000
0100
0001
0010
1000
0100
0001
0000
,
0100
1000
0110
0000
0001
0010
1001
0000
,
0001
0010
1000
0100
,
0001
0110
0001
0110
0001
0110
0001
0100
,
1000
0110
1000
0110
1000
0110
0001
0100
,
1020
0001
0100
1030
,
0100
0001
0100
1000
0100
0100
0010
0010
,
0002
0100
1003
0000
0010
0001
1000
0000
,
0100
0100
0010
0010
1000
0001
0101
0000
,
0021
0000
1030
0000
0010
0100
1001
0000
,
1000
0010
0001
0100
;

//---------------dance-single - t7r----------------
#NOTES:
     dance-single:
     t7r:
     Challenge:
     14:
     :
0000
0000
0000
0000
,
0000
0000
0000
0000
,
0000
0000
0000
0000
,
0000
0000
0000
0000
,
0000
0000
0000
0000
,
0010
0000
0000
0000
0000
0000
1001
0000
0000
0000
0000
0100
0000
0000
0010
0000
0000
0100
0001
0000
0000
1000
0000
0000
,
0001
0000
0000
0010
0000
0000
1000
0000
0000
0010
0000
0001
0000
0000
1000
0000
0000
0001
0100
0000
0000
0001
0000
0000
,
0010
0000
0000
0000
0000
0000
1001
0000
0000
0000
0000
0100
0000
0000
0010
0000
0000
0100
1000
0000
0000
0001
0000
0000
,
1000
0000
0000
0010
0000
0000
0001
0000
0000
0010
0000
1000
0000
0000
0001
0000
0000
1000
0100
0000
0000
1000
0000
0000
,
0100
0000
0000
0000
0000
0000
0110
0000
0000
0000
0000
1000
0000
0000
0010
0000
0000
0100
0001
0000
0000
1000
0000
0000
,
0001
0000
0000
0100
0000
0000
1000
0000
0000
0100
0000
0010
0000
0000
1000
0000
0000
0001
0010
0000
0000
0100
0000
0000
,
1000
0000
0000
0000
0000
0000
0110
0000
0000
0000
0000
0001
0000
0000
1000
0000
0000
0010
0100
0000
0000
0001
0000
0000
,
1000
0000
0000
0000
0000
0000
0100
0000
0000
0000
0000
0001
0000
0000
0010
0000
0000
0100
1000
0000
0000
0010
0000
0000
,
1000
0000
0000
0001
0000
0000
0200
0000
0000
0300
0000
1000
0000
0000
0100
0000
0000
0001
1000
0000
0000
0001
0000
0000
,
0010
0000
0000
0010
0000
0000
0011
0000
0000
0001
0000
1000
0000
0000
0001
0000
0000
0010
1000
0000
0000
0010
0000
0000
,
0001
0000
0000
1000
0000
0000
0200
0000
0000
0300
0000
0010
0000
0000
0100
0000
0000
1000
0001
0000
0000
1000
0000
0000
,
0010
0000
0000
0010
0000
0000
1010
0000
0000
1000
0000
0010
0000
0000
0001
0000
0000
0100
0010
0000
0000
1000
0000
0000
,
0001
1000
0100
1000
0000
0000
0001
0000
0000
0100
0000
0010
0000
0000
0001
0000
0000
0010
0100
0000
0000
0001
0000
0000
,
1000
0000
0000
0100
0000
0000
1100
0000
0000
1000
0000
0010
0000
0000
0100
0000
0000
1000
0100
0000
0000
0010
0000
0000
,
1000
0000
0000
0000
0000
0000
2010
0000
0000
0000
0000
3001
0000
0000
0010
0000
0000
0100
0001
0000
0000
0100
0000
0000
,
1000
0000
0000
0000
0000
0000
0010
0000
0000
0000
0000
0001
0000
0000
0100
0000
0000
0010
1000
0000
0000
0001
0000
0000
,
1000
0000
0000
0100
0000
0000
0010
0000
0000
0200
0000
0001
0000
0000
0301
0000
0000
0100
0010
0000
0000
0001
0000
0000
,
1000
0000
0000
0010
0000
0000
0100
0000
0000
1000
0000
0100
0000
0000
0010
0000
0000
0100
0001
0000
0000
1000
0000
0000
,
0001
0000
0000
0100
0000
0000
0010
0000
0000
0200
0000
1000
0000
0000
1300
0000
0000
0100
0010
0000
0000
1000
0000
0000
,
0001
0000
0000
0010
0000
0000
0100
0000
0000
0001
0000
0100
0000
0000
0010
0000
0000
0100
1000
0000
0000
0001
0000
0000
,
2000
0000
0000
0010
0000
0000
3001
0000
0000
1000
0000
0100
0000
0000
0100
0000
0000
0010
1000
0000
0000
0010
0000
0000
,
0001
0000
0000
0100
0000
0000
0001
0000
0000
1000
0000
0010
0000
0000
0100
0000
0000
1000
0100
0000
0000
0010
0000
0000
,
2000
0100
3002
0010
2003
0010
3002
1000
,
0203
0000
0000
1000
0000
0000
0010
0000
0000
0010
0000
0000
0301
0000
0010
0000
0000
0010
1000
0000
0000
0110
0000
0000
,
1001
0001
0100
1010
0101
0010
1000
1100
,
0011
1001
0110
1010
0101
0010
0001
0110
,
0021
0000
0000
1000
0000
0000
0100
0000
0000
0031
0000
0100
0000
0000
0010
0000
0000
0100
1000
0000
0100
0000
0000
0000
,
0001
0000
0000
0000
0000
0000
0010
0000
0000
0000
0000
1000
0000
0000
0100
0000
0000
0010
0001
0000
0000
1000
0000
0000
,
0001
0000
0000
0000
0000
0000
1001
0000
0000
0000
0000
0010
0000
0000
1000
0000
0000
0100
1000
0000
0000
0001
0000
0000
,
1000
0000
0000
0010
0000
0000
0010
0000
0000
0100
0000
0010
0000
0000
0001
0000
0000
0010
0100
0000
0000
0001
0000
0000
,
1000
0000
0000
0000
0000
0000
1001
0000
0000
0000
0000
0010
0000
0000
0001
0000
0000
0100
0001
0000
0000
1000
0000
0000
,
0001
0000
0000
0010
0000
0000
0010
0000
0000
0100
0000
0010
0000
0000
1000
0000
0000
0010
0100
0000
0100
1000
0000
0000
,
0001
0000
0000
1000
0000
0000
0011
0000
0000
1000
0000
0001
0000
0000
1001
0000
0000
0010
1000
0000
0000
0001
0000
0000
,
1000
0000
0000
0100
0000
0000
0110
0000
0000
0010
0000
0100
0000
0000
1000
0000
0000
0010
0100
0000
0100
0001
0000
0000
,
1000
0000
0000
0001
0000
0000
1010
0000
0000
0001
0000
1000
0000
0000
1001
0000
0000
0010
0001
0000
0000
1000
0000
0000
,
0001
0000
0000
0000
0000
0000
0100
0000
0000
0000
0000
1000
0000
0000
0010
0000
0000
0100
0001
0000
0000
1000
0000
0000
,
0001
0110
1000
0110
0001
0110
1000
0110
,
0100
1001
0010
1001
0100
1001
0010
0110
,
2001
0000
0000
0100
0000
0000
3001
0000
0000
0100
0000
0010
0000
0000
0100
0000
0000
1000
0100
0000
0000
0001
0000
0000
,
0010
0000
0000
1000
0000
0000
0001
0000
0000
0010
0000
0100
0000
0000
1000
0000
0000
0001
0100
0000
0100
0010
0000
0000
,
1000
0001
1000
0100
0000
0000
0020
0000
0000
1000
0000
0130
0000
0000
0010
0000
0000
0001
1000
0000
0000
0010
0000
0000
,
0100
0000
0000
0110
0000
0000
1001
0000
0000
0100
0000
0010
0000
0000
0100
0000
0000
0001
1000
0000
1000
0001
0000
0000
,
0021
0000
0000
0000
0000
0000
1030
0000
0000
0010
0000
0001
0000
0000
0100
0000
0000
1000
0100
0000
0000
0010
0000
0000
,
1000
0000
0000
0000
0000
0000
0100
0000
0000
0000
0000
0001
0000
0000
0010
0000
0000
0100
1000
0000
0000
0001
0000
0000
;

//---------------dance-double - t7r----------------
#NOTES:
     dance-double:
     t7r:
     Easy:
     5:
     :
00000000
00000000
00000000
00000000
,
00000000
00000000
00000000
00000000
,
00000000
00000000
00000000
00000000
,
00000000
00000000
00000000
00000000
,
00000000
00000000
00000000
00000000
,
10000000
00000000
01000000
00000000
,
00010000
00100000
00001000
00000000
,
00010000
00000000
00000100
00000000
,
00001000
00000010
00000100
00000000
,
00000001
00000000
00000010
00000000
,
00001000
00000100
00010000
00000000
,
00001000
00000000
01000000
00000000
,
10000000
00000000
00000000
00000000
,
00100000
00000000
10000000
00000000
,
01000000
01000000
00010000
00000000
,
00000100
00000000
00001000
00000000
,
00000001
00000001
00000100
00000000
,
00010000
00000000
00001000
00000000
,
01000000
01000000
00010000
00000000
,
00100000
00000000
00001000
00000000
,
00010000
00000000
00000010
00000000
,
00000001
00000000
00000100
00000000
,
00001000
00001000
00010000
00000000
,
01000000
00000000
10000000
00000000
,
00100000
00100000
01000000
00000000
,
00100000
00000000
00010000
00000000
,
00001000
00001000
00000010
00000000
,
00000100
00000000
00001000
00000000
,
00000001
00000100
00001000
00000000
,
00010000
00000000
00001000
00000000
,
00100000
00000000
00010000
00000000
,
10000000
00000000
00100000
00000000
,
00010000
00000000
00000000
00000000
,
00000100
00000000
00000010
00000000
,
00000001
00000010
00000100
00000000
,
00010000
00000000
00001000
00000000
,
00000100
00010000
00001000
00000000
,
00100000
00000000
01000000
00000000
,
00010000
01000000
00100000
00000000
,
10000000
00000000
00100000
00000000
,
00001000
00000000
00000000
00000000
,
00010000
00000000
00000100
00000000
,
00001000
00001000
00000001
00000100
,
00002000
00000000
00013000
00000000
,
00001000
00100000
01000000
00000000
,
00010000
00000000
10000000
00000000
,
00100000
00010000
00001000
00000000
,
00000020
00000000
00000130
00000000
,
00010000
00000000
00011000
00000000
;

//---------------dance-double - t7r----------------
#NOTES:
     dance-double:
     t7r:
     Medium:
     7:
     :
00000000
00000000
00000000
00000000
,
00000000
00000000
00000000
00000000
,
00000000
00000000
00000000
00000000
,
00000000
00000000
00000000
00000000
,
00000000
00000000
00000000
00000000
,
00000100
00000000
00000000
00000000
00000001
00000010
00000001
00000000
,
00000100
00000000
00000000
00000000
00010000
00001000
00010000
00000000
,
01000000
00000000
00000000
00000000
00010000
10000000
00010000
00000000
,
00100000
00000000
00000000
00000000
10000000
01000000
10000000
00000000
,
01000000
00000000
00000000
00000000
00001000
00010000
00001000
00000000
,
00010000
00000000
00000000
00000000
00000010
00000100
00000010
00000000
,
00000001
00000000
00000000
00000000
00001000
00000100
00001000
00000000
,
00000100
00000000
00000000
00000000
,
00010000
00000000
00001000
01000000
,
00010000
00010000
10000000
00000000
01000000
00000000
00010000
00000000
,
00001000
00000000
00010000
00000100
,
00001000
00001000
00000001
00000000
00000100
00000000
00001000
00000000
,
00010000
00000000
00001000
00100000
,
00010000
00010000
10000000
00000000
00100000
00000000
00010000
00000000
,
00001000
00000000
00010000
00000010
,
00001000
00000000
00000100
00000000
,
00000001
00000000
00000010
00000200
00000000
00000000
00000300
00000000
,
00000001
00000100
00001000
00010000
,
00001000
00000000
01000000
00200000
00000000
00000000
00300000
00000000
,
00010000
00100000
00001000
00010000
,
00000010
00000000
00001000
00000002
00000000
00000000
00000003
00000000
,
00000100
00010000
00001000
01000000
,
00010000
00000000
00100000
02000000
00000000
00000000
03000000
00000000
,
00000000
10000000
10000000
10000000
00100000
00000000
00000000
00010000
,
00010000
00000000
00000000
00000100
00000100
00000000
00000000
00001000
,
00001000
00000000
00000001
00000000
00000100
00000000
00000000
00010000
,
00020000
00000000
00030000
00001000
00001000
00000000
01000000
00000000
,
00100000
00000000
00000000
00000000
,
00001000
00000000
01000000
00000000
00010000
10000000
00010000
00000000
,
10000000
01000000
00010000
00001000
,
00010000
00000000
00000100
00000000
00001000
00000001
00001000
00000000
,
00000001
00000100
00001000
00010000
,
00001000
00000000
00100000
00000000
00010000
10000000
00010000
00000000
,
10000000
00100000
00010000
00001000
,
00010000
00000000
00000010
00000000
00001000
00000001
00001000
00000000
,
00000001
00000100
00001000
00000010
,
00000000
00000001
00000000
00001000
00000000
00010000
00000000
10000000
,
00000000
01000000
00000000
00010000
00000000
00001000
00000000
00000010
,
00000020
00001000
00000100
00000031
,
00000100
00000010
00000001
00001000
,
00000000
00000100
00010000
00011000
,
00001000
01000000
00010000
00000000
00100000
00000000
10010000
00000000
,
00000000
01000000
00010000
00000000
00001000
00000000
00000010
00000000
,
00000100
00010000
00001000
00100000
;

//---------------dance-double - t7r----------------
#NOTES:
     dance-double:
     t7r:
     Hard:
     8:
     :
00000000
00000000
00000000
00000000
,
00000000
00000000
00000000
00000000
,
00000000
00000000
00000000
00000000
,
00000000
00000000
00000000
00000000
,
00000000
00000000
00000000
00000000
,
00100000
00000000
01000000
00000000
00010000
00100000
00010000
00000000
,
01000000
00010000
00001000
00000100
,
00000001
00000000
00000010
00000000
00001000
00000100
00001000
00000000
,
00000100
00001000
00010000
01000000
,
10000000
00000000
00100000
00000000
00010000
10000000
01000000
00000000
,
00010000
00000000
00001000
00000000
00000010
00000100
00000001
00000000
,
00001000
00000000
00000100
00000000
00000001
00000010
00000100
00000000
,
00010000
00000000
00000000
00000000
,
00001000
00000000
00010000
00000000
01000000
10000000
01000000
00000000
,
10000000
00000000
00100000
00000000
00010000
00001000
00010000
00000000
,
00000100
00000000
00001000
00000000
00000001
00001000
00000001
00000000
,
00001000
00000000
00000100
00000000
00000001
00000010
00000100
00000000
,
00010000
00000100
00002000
00000000
00010000
00000000
00003100
00000000
,
00010000
00001000
00100000
00000000
01000000
10000000
00010000
00000000
,
10000000
00000000
01100000
00000000
00010000
10000000
00100000
00000000
,
10000000
01000000
00010000
00100000
,
00011000
00000000
00010000
00002000
01000000
00000000
00003000
00000000
,
00010000
00010000
00000100
00000100
00001000
00001000
00000001
00000001
,
00000100
00000000
00000010
00020000
00001000
00000000
00030000
00000000
,
00001000
00001000
00100000
00100000
00010000
00010000
10000000
10000000
,
01000000
00000000
00010000
00002000
01000000
00000000
00013000
00000000
,
00001000
00001000
00100000
00100000
00010000
00010000
10000000
10000000
,
00100000
00000000
00010000
00002000
01000000
00000000
00013000
00000000
,
01000000
10000000
10000000
00010000
00010000
00000000
00000000
00100000
,
00001000
00000000
00000000
00010000
00000010
00000000
00000000
00001000
,
00000001
00000000
00000100
00001000
00011000
00000000
00000000
00000010
,
00010000
00000000
00000000
00001000
01000000
00000000
00010000
00000000
,
10000000
01000000
00010000
00100000
,
00001000
00000000
00010000
00000000
00000010
00000100
00000001
00000000
,
00001000
00000000
00000100
00000000
00000001
00000010
00000100
00000000
,
00010000
00000000
00001000
00000000
00100000
00010000
10000000
00000000
,
00010000
00000000
01000000
00000000
10000000
00100000
01000000
00000000
,
00001000
00000000
00010000
00000000
00000100
00001000
00000001
00000000
,
00001000
00000000
00000010
00000000
00000001
00000100
00000010
00000000
,
00010000
00000000
00001000
00000000
01000000
00010000
10000000
00000000
,
00010000
00000000
00100000
00000000
10000000
01000000
00100000
00000000
,
00001000
00010000
01000000
10000000
01000000
00010000
00001000
00010000
,
01000000
10000000
01000000
00010000
00001000
00000100
00000001
00000010
,
00000200
00000000
00000001
00000000
00000310
00000001
00001000
00000000
,
00000001
00000000
00000100
00000000
00001000
00000010
00000100
00000000
,
00001000
00010000
00000100
00000000
00010000
00001000
01000000
00000000
,
00010000
00010000
00100000
00100000
00010000
10000000
00100000
00000000
,
00020000
00000000
01000000
00000000
00031000
00000100
00000010
00000000
,
00010000
00000100
00001000
01000000
;

//---------------dance-double - t7r----------------
#NOTES:
     dance-double:
     t7r:
     Challenge:
     14:
     :
00000000
00000000
00000000
00000000
,
00000000
00000000
00000000
00000000
,
00000000
00000000
00000000
00000000
,
00000000
00000000
00000000
00000000
,
00000000
00000000
00000000
00000000
,
00010000
00000000
00000000
00000000
00000000
00000000
00000100
00000000
00000000
00000000
00000000
00001000
00000000
00000000
00000001
00000000
00000000
00000100
00000001
00000000
00000000
00001000
00000000
00000000
,
00000001
00000000
00000000
00000100
00000000
00000000
00001000
00000000
00000000
00010000
00000000
00000100
00000000
00000000
00010000
00000000
00000000
00001000
01000000
00000000
00000000
00010000
00000000
00000000
,
10000000
00000000
00000000
00000000
00000000
00000000
01000000
00000000
00000000
00000000
00000000
10000000
00000000
00000000
00010000
00000000
00000000
01000000
00010000
00000000
00000000
10000000
00000000
00000000
,
00100000
00000000
00000000
00010000
00000000
00000000
00001000
00000000
00000000
00010000
00000000
00000100
00000000
00000000
00001000
00000000
00000000
00000010
00000100
00000000
00000000
00000001
00000000
00000000
,
00000010
00000000
00000000
00000000
00000000
00000000
00001001
00000000
00000000
00000000
00000000
00000001
00000000
00000000
00000100
00000000
00000000
00000010
00001000
00000000
00000000
00000001
00000000
00000000
,
00000010
00000000
00000000
00001000
00000000
00000000
00010000
00000000
00000000
00001000
00000000
00100000
00000000
00000000
00010000
00000000
00000000
10000000
00100000
00000000
00000000
00010000
00000000
00000000
,
00001000
00000000
00000000
00000000
00000000
00000000
00000110
00000000
00000000
00000000
00000000
00000010
00000000
00000000
00000001
00000000
00000000
00000100
00001000
00000000
00000000
00010000
00000000
00000000
,
00001000
00000000
00000000
00000000
00000000
00000000
01000000
00000000
00000000
00000000
00000000
10000000
00000000
00000000
00100000
00000000
00000000
10000000
00010000
00000000
00000000
10000000
00000000
00000000
,
01000000
00000000
00000000
00100000
00000000
00000000
00020000
00000000
00000000
00030000
00000000
10000000
00000000
00000000
00100000
00000000
00000000
00010000
00001000
00000000
00000000
01000000
00000000
00000000
,
00010000
00000000
00000000
00010000
00000000
00000000
00110000
00000000
00000000
00100000
00000000
00001000
00000000
00000000
00010000
00000000
00000000
00001000
00000010
00000000
00000000
00000001
00000000
00000000
,
00000100
00000000
00000000
00000010
00000000
00000000
00002000
00000000
00000000
00003000
00000000
00000001
00000000
00000000
00000010
00000000
00000000
00001000
00010000
00000000
00000000
00000100
00000000
00000000
,
00001000
00000000
00000000
00001000
00000000
00000000
00001010
00000000
00000000
00000010
00000000
00010000
00000000
00000000
00001000
00000000
00000000
00010000
00100000
00000000
00000000
10000000
00000000
00000000
,
01000000
00000000
00100000
00010000
00000000
00000000
20000000
00000000
00000000
30100000
00000000
01000000
00000000
00000000
00010000
00000000
00000000
10000000
01000000
00000000
00000000
00010000
00000000
00000000
,
00001000
00000000
00000000
00001000
00000000
00000000
00001100
00000000
00000000
00000100
00000000
00000010
00000000
00000000
00001000
00000000
00000000
00000001
00000010
00000000
00000000
00000100
00000000
00000000
,
00010000
00000000
00000000
00000000
00000000
00000000
00022000
00000000
00000000
00033000
00000000
00001000
00000000
00000000
01000000
00000000
00000000
00010000
10000000
00000000
00000000
01000000
00000000
00000000
,
00010000
00000000
00000000
00000000
00000000
00000000
00000100
00000000
00000000
00000000
00000000
00000001
00000000
00000000
00000010
00000000
00000000
00000100
00001000
00000000
00000000
00000001
00000000
00000000
,
00000100
00000000
00000000
00000000
00000000
00000000
00001000
00000000
00000000
00020000
00000000
00000000
00030100
00000000
00001000
00000000
00000000
00001000
00000001
00000000
00000000
00000100
00000000
00000000
,
00001000
00000000
00000000
00010000
00000000
00000000
00100000
00000000
00000000
01000000
00000000
00010000
00000000
00000000
00100000
00000000
00000000
00100000
00010000
00000000
00000000
10000000
00000000
00000000
,
01000000
00000000
00000000
00000000
00000000
00000000
00010000
00000000
00000000
00002000
00000000
00000000
01003000
00000000
00010000
00000000
00000000
00010000
10000000
00000000
00000000
01000000
00000000
00000000
,
00010000
00000000
00000000
00001000
00000000
00000000
00000010
00000000
00000000
00000100
00000000
00001000
00000000
00000000
00000010
00000000
00000000
00000010
00001000
00000000
00000000
00000001
00000000
00000000
,
00000100
00000000
00000000
00000000
00000000
00000000
00011000
00000000
00000000
02000000
00000000
00000000
03010000
00000000
10000000
00000000
00000000
10000000
00100000
00000000
00000000
10000000
00000000
00000000
,
01000000
00000000
00000000
00010000
00000000
00000000
00001000
00000000
00000000
00000010
00000000
00000100
00000000
00000000
00001000
00000000
00000000
00000001
00000100
00000000
00000000
00001000
00000000
00000000
,
00020000
00000000
00031000
00000200
00001000
00020300
00001000
00030200
,
00001000
00010300
01000000
01000000
00200000
00010000
00301000
00011000
,
00010100
00000000
00000000
00011000
01001000
00000000
00000000
00011000
,
00010010
00011000
00101000
00011000
01001000
00000000
00000000
01100000
,
10010000
00000000
10000000
01000000
00000000
00000000
00100000
00000000
00000000
00001000
00000000
00010000
00000000
00000000
00010000
00000000
00000000
00000010
00001000
00000000
00000100
00000000
00000000
00000000
,
00010000
00000000
00000000
00000000
00000000
00000000
00000100
00000000
00000000
00000000
00000000
00000001
00000000
00000000
00000010
00000000
00000000
00000100
00001000
00000000
00000000
00000001
00000000
00000000
,
00000100
00000000
00000000
00000000
00000000
00000000
00011000
00000000
00000000
00000000
00000000
00001000
00000000
00000000
00010000
00000000
00000000
01000000
10000000
00000000
00000000
00100000
00000000
00000000
,
00010000
00000000
00000000
00001000
00000000
00000000
00001000
00000000
00000000
00010000
00000000
00000100
00000000
00000000
00001000
00000000
00000000
00000001
00000100
00000000
00000000
00001000
00000000
00000000
,
01000000
00000000
00000000
00000000
00000000
00000000
00011000
00000000
00000000
00000000
00000000
00010000
00000000
00000000
00001000
00000000
00000000
00000100
00000001
00000000
00000000
00000010
00000000
00000000
,
00001000
00000000
00000000
00010000
00000000
00000000
00010000
00000000
00000000
00001000
00000000
01000000
00000000
00000000
00010000
00000000
00000000
10000000
01000000
00000000
01000000
00010000
00000000
00000000
,
00000100
00000000
00000000
00001000
00000000
00000000
00001001
00000000
00000000
00000001
00000000
00000010
00000000
00000000
00001000
00000000
00000000
00010000
00000100
00000000
00000000
00001000
00000000
00000000
,
00000001
00000000
00000000
00000100
00000000
00000000
00001100
00000000
00000000
00001000
00000000
00010000
00000000
00000000
00100000
00000000
00000000
10000000
01000000
00000000
01000000
00100000
00000000
00000000
,
00001000
00000000
00000000
00010000
00000000
00000000
00110000
00000000
00000000
00100000
00000000
10000000
00000000
00000000
01000000
00000000
00000000
00100000
00001000
00000000
00000000
00010000
00000000
00000000
,
00001000
00000000
00000000
00000000
00000000
00000000
01000000
00000000
00000000
00000000
00000000
10000000
00000000
00000000
00100000
00000000
00000000
00010000
01000000
00000000
00000000
00001000
00000000
00000000
,
00010000
00001100
00010000
00001100
00001000
01010000
00001000
01010000
,
00010000
00001010
00010000
00001010
00001000
00110000
00001000
00110000
,
00200000
00000000
00000000
10000000
00000000
00000000
01300000
00000000
00000000
10000000
00000000
00100000
00000000
00000000
00010000
00000000
00000000
00001000
01000000
00000000
00000000
00010000
00000000
00000000
,
10000000
00000000
00000000
00010000
00000000
00000000
01000000
00000000
00000000
10000000
00000000
00100000
00000000
00000000
01000000
00000000
00000000
00001000
00010000
00000000
00010000
00000100
00000000
00000000
,
00001000
00000001
00001000
00000010
00000000
00000000
00000200
00000000
00000000
00001000
00000000
00000310
00000000
00000000
00001000
00000000
00000000
00000001
00000010
00000000
00000000
00001000
00000000
00000000
,
00010000
00000000
00000000
00000100
00000000
00000000
00001100
00000000
00000000
00000100
00000000
00010000
00000000
00000000
00001000
00000000
00000000
00100000
00010000
00000000
00010000
10000000
00000000
00000000
,
00200000
00000000
00000000
00000000
00000000
00000000
00310000
00000000
00000000
00001000
00000000
00000010
00000000
00000000
00000100
00000000
00000000
00010000
00001000
00000000
00000000
00011000
00000000
00000000
,
00010000
00000000
00000000
00000000
00000000
00000000
00000100
00000000
00000000
00000000
00000000
00000001
00000000
00000000
00000010
00000000
00000000
00001000
00010000
00000000
00000000
01000000
00000000
00000000
;
