#TITLE:COSMIC RAY;
#ARTIST:BEMANI Sound Team "Captain Sonic";
#ARTISTTRANSLIT:Captain Sonic;
#BANNER:COSMIC RAY.png;
#BACKGROUND:COSMIC RAY-bg.png;
#JACKET:COSMIC RAY-jacket.png;
#CDTITLE:./CDTITLES/BEATMANIA IIDX.PNG;
#MUSIC:COSMIC RAY.ogg;
#SAMPLESTART:20.923;
#SAMPLELENGTH:15;
#BPMS:0=195,126=97.5,142=195,170=97.5,172=195;
#DISPLAYBPM:98:195;
#STOPS:96=0.38461538461538461538461538461538,96.25=0.38461538461538461538461538461538,96.5=0.15384615384615384615384615384615,125=0.38461538461538461538461538461538,125.25=0.38461538461538461538461538461538,125.5=0.15384615384615384615384615384615;

//---------------dance-single - t7r----------------
#NOTES:
     dance-single:
     t7r:
     Beginner:
     5:
     :
0000
0000
0000
0000
,
0000
0000
0000
0000
,
0000
0000
0000
0000
,
0000
0000
0000
0000
,
0000
0000
0000
0000
,
1000
0000
0000
0000
,
0001
0000
0000
0000
,
0100
0000
0000
0000
,
0010
0000
0000
0000
,
1001
0000
0000
0000
,
0000
0000
0000
0000
,
1001
0000
0000
0000
,
0000
0000
0000
0000
,
1001
0000
0000
0000
,
0000
0000
0000
0000
,
1000
0000
0100
0000
,
0010
0000
0000
0000
,
0000
0001
0000
0001
,
0001
0000
0000
0000
,
1000
0000
1000
0000
,
1000
0000
0000
0000
,
0000
0010
0000
0010
,
0010
0000
0000
0000
,
0100
0000
0000
0000
,
0100
0000
0010
0000
,
0010
0010
0000
0000
,
0000
1000
0000
1000
,
0000
1000
1000
1000
,
0000
0000
0001
0000
,
0001
0001
0000
0000
,
0000
0010
0000
0000
,
0010
0010
0100
0000
,
0000
0000
1000
0000
,
0000
0000
1001
0000
,
0000
0000
0001
0000
,
0001
0000
0100
0000
,
0100
0000
0100
0000
,
0000
0000
0010
0000
,
0010
0000
0010
0000
,
0000
0000
1000
0000
,
1000
0000
1000
0000
,
0000
0000
0001
0000
,
0001
0001
0001
0000
,
0100
0100
0000
0000
,
0000
0000
0000
0000
,
0010
0000
0010
0000
,
1000
1000
1000
0000
,
0001
0001
0000
0000
,
0000
0000
0000
0000
,
1000
0000
1000
0000
,
0100
0000
0000
0000
,
0010
0010
0000
0000
,
0000
0000
0000
0000
,
0001
0000
1000
0000
,
0001
0001
0001
0000
,
0100
0100
0000
0000
,
0000
0000
0000
0000
,
0010
0000
0100
0000
,
1001
0000
0000
0000
,
1000
1000
0000
1000
,
0000
1000
0000
0000
,
0001
0000
0100
0000
,
0010
0000
1000
0000
,
0001
0001
0000
0001
,
0000
0001
0000
0000
,
1000
0000
0100
0000
,
0110
0000
0000
0000
,
0001
0001
0000
1000
,
1000
1000
0000
0010
,
0010
0000
0100
0000
,
0001
0001
0001
0000
,
1000
1000
0000
0100
,
0100
0100
0000
0010
,
0010
0000
0001
0000
,
1000
0000
0000
0000
,
0010
0010
0000
0000
;

//---------------dance-single - t7r----------------
#NOTES:
     dance-single:
     t7r:
     Easy:
     12:
     :
0000
0000
0000
0000
,
0000
0000
0000
0000
,
0000
0000
0000
0000
,
0000
0000
0000
0000
,
0000
0000
0000
0000
,
1000
0100
0000
1000
0100
0000
1000
0000
,
0001
0100
0000
0001
0100
0000
0001
0000
,
1000
0010
0000
0100
0010
0000
1000
0000
,
2002
0000
0000
3003
,
0002
0010
0000
1000
,
0000
0000
0000
0000
0100
0000
0000
0000
0000
0000
1003
0000
0000
0001
0000
0000
,
2000
0010
0000
0001
,
0000
0000
0000
0000
0100
0000
0000
0000
0000
0000
3001
0000
0000
1000
0000
0000
,
0002
0100
0000
0010
,
0000
1000
0000
0103
,
0010
0000
0010
0000
0100
0001
0000
1000
,
0002
0013
0200
1300
,
1001
0000
1000
0000
0100
0000
0010
0001
,
1000
0001
0100
1010
,
0001
0000
0100
0000
0010
0100
0001
1000
,
0001
0000
0010
0000
0001
0100
0000
0010
,
1000
0000
0001
0000
0010
0000
0100
1000
,
0001
0000
1000
0000
0010
0200
0000
0301
,
1000
0000
0100
0000
0010
0001
1000
0000
,
0010
0110
1001
0000
1000
0000
0000
0000
0100
0000
0000
0000
0010
0000
0000
0000
,
0001
0100
0010
0000
0001
0000
0020
0000
,
0030
0000
0000
0000
1000
0000
0000
0000
1100
0000
0000
0000
0001
0000
0000
1000
,
0000
0001
0100
0001
1000
0000
0100
1000
,
0000
1000
0001
0000
0010
0000
0100
0000
,
1000
0010
0100
0000
1000
0000
0100
0020
,
0000
0000
0030
0000
1000
0000
0000
0000
1001
0000
0000
0000
1000
0000
0000
0100
,
0000
0000
1000
0000
0001
0101
1100
0000
0002
0000
0023
0000
0230
0000
0300
0001
,
0000
0000
0002
0000
0203
0000
0320
0000
2030
0000
3200
0000
0320
0000
0030
1000
,
0000
0000
2000
0000
3200
0000
0320
0000
0031
0100
0001
0000
0020
0000
0030
0100
,
0000
0000
0000
0000
0002
0000
0000
0000
2003
0000
0000
0000
3010
0000
0000
0000
0200
0000
0300
0000
0100
0000
0000
0000
0000
0000
0000
0000
0000
0010
0000
0000
,
0200
0000
0000
0300
0000
0100
0000
0000
0001
0000
2000
0000
0000
0000
0000
0000
3001
0000
0000
0000
0000
0000
0000
0000
0101
0000
0000
0000
0000
0000
0000
0000
,
0101
0000
0001
1000
0001
0000
0101
0000
,
0101
1001
1000
1100
,
1100
0000
0000
0000
1000
0000
0000
0001
1000
0000
0100
0000
1000
0000
0000
0000
,
1100
0000
1001
0000
1000
0100
0010
0001
,
1000
0200
0000
0310
0001
0100
0010
1000
,
0001
0020
0000
0031
1000
0100
0010
0001
,
0100
0000
0010
0000
1000
0000
0000
0001
0200
0300
0100
0000
0010
0200
0000
0000
,
0301
2010
0100
0100
,
0001
0100
3100
1100
,
1000
0001
0100
0000
0001
0020
0001
0030
,
0001
0110
1000
1001
,
0001
0012
0100
0100
,
1000
0100
0103
0101
,
0001
1000
0100
1000
0010
0000
1010
0000
,
2000
3100
0110
1001
,
1000
1020
0100
0100
,
1000
0100
0130
0110
,
0001
0010
0100
1000
0010
0200
0001
0300
,
0010
0110
1001
1000
,
0100
0210
1000
1000
,
0010
1000
1300
0110
,
0001
0000
0100
0000
1000
0000
0100
0000
0001
0000
0100
0000
0010
0000
0000
1000
,
0002
0000
0000
0003
,
1000
0100
0020
0000
0000
0000
1000
0000
,
0000
0001
0030
0100
,
1000
0000
0010
0100
0001
0000
1000
0000
,
0001
0000
0010
0100
1000
0001
0100
0000
,
0001
0100
0020
0000
0000
0000
0001
0000
,
0000
1000
0030
0100
,
0110
0001
0000
1000
,
2002
0000
3003
0110
,
1000
0100
0020
0000
0100
0100
0100
0000
,
1000
1000
0130
0110
,
0010
0001
1000
0000
0001
0000
1001
0000
,
1000
0010
0100
0000
0001
0000
1001
0000
,
0001
0100
0020
0000
0100
0100
0100
0000
,
0001
1000
0130
0110
,
0001
0010
1000
0000
0001
0100
1000
0000
,
0210
1000
0001
0310
,
1001
0010
0000
0000
;

//---------------dance-single - t7r----------------
#NOTES:
     dance-single:
     t7r:
     Medium:
     15:
     :
0000
0000
0000
0000
,
0000
0000
0000
0000
,
0000
0000
0000
0000
,
0000
0000
0000
0000
,
0000
0000
0000
0000
,
1000
0100
0000
1100
0000
1000
0001
0100
,
0001
0010
0000
0011
0000
0001
1000
0100
,
1000
0010
0000
1010
0000
1000
0100
0010
,
0002
0000
0000
0000
0000
0103
0000
0100
,
0010
0000
2000
0000
3100
0010
0002
0000
,
0103
0000
0010
0000
2000
0000
0000
0000
3010
0000
0100
0000
0000
0100
0000
0000
,
0001
0000
0020
0000
0031
0100
0020
0000
,
1030
0000
0100
0000
0020
0000
0000
0000
0031
0000
0100
0000
0000
0100
0000
0000
,
0010
0000
2000
0000
3010
1000
0002
0000
,
0013
0001
2000
0000
3001
0100
0000
0100
,
0001
0010
0200
0000
1300
0010
0001
0010
,
2000
0000
3100
0010
0001
1000
0001
0000
,
1000
0100
0000
0010
0000
0100
1000
0000
0000
0000
0000
0000
0001
0000
0100
0000
,
0001
0010
0000
0001
0010
0000
0100
1000
0000
0000
0000
0100
0010
0000
0001
0000
,
1000
0010
0100
0000
1000
0100
0010
0100
,
0001
0000
1000
0000
0100
0000
0001
0100
0000
0010
0100
0000
0000
0000
0010
0000
,
0001
0100
0000
0010
0000
0100
0001
0000
0000
0000
0000
0000
1000
0000
0010
0000
,
1000
0100
0000
1000
0100
0000
0010
0000
0002
0000
2003
0000
3010
0000
0100
0000
,
0001
0000
1000
0000
0100
0000
0000
0000
0010
0100
0010
0000
0001
0000
1000
0000
,
1001
0101
1100
0000
1000
0010
0000
0100
0000
0010
1000
0000
0000
0000
0000
0000
,
0100
0000
0010
0000
0001
0000
0100
0000
1000
0000
0100
0000
0002
0000
0000
0013
,
0100
0000
1000
0000
0010
0100
0000
0000
0110
0000
0000
0000
0001
0000
0100
0001
,
0000
0100
1000
0000
0100
0000
0100
0000
0010
0000
0100
0000
0001
0000
1000
0000
,
0000
0000
1001
0000
0001
0010
0000
0100
0000
0010
0001
0000
0000
0000
0000
0000
,
1000
0000
0100
0000
1000
0010
0000
1000
0010
0000
0100
0000
0002
0000
2003
0000
,
3010
0000
0100
0000
0001
0010
0001
0000
1000
0010
1000
0000
0010
0000
0100
0001
,
0000
1000
0001
0000
1001
1100
0011
0000
0001
0100
0020
0000
0032
0000
0000
0013
,
0000
0000
0000
0000
0020
0000
0000
0000
0130
0001
0000
0001
1000
0000
0001
0000
1000
0000
0100
0000
0020
0000
0000
0000
2030
0000
0000
0000
0000
0000
3010
0000
,
0000
0000
0000
0000
0020
0000
0000
0000
0130
1000
0000
1000
0001
0000
1000
0000
0001
0000
0100
0000
0010
0000
0100
0000
0001
0010
0000
0100
0000
0100
1000
0000
,
0000
0000
0010
0000
0200
0000
0000
0000
0301
0000
1000
0010
0000
0010
0100
0000
0010
2000
0000
0000
3001
0000
0000
0000
0000
0000
0000
0000
0000
0001
0000
0000
,
1000
0002
0000
0000
1003
0000
0000
0000
1000
0000
0002
0000
0000
0000
0000
0000
1003
0000
0000
0000
0000
0000
0000
0000
1100
0000
0000
0000
0000
0000
0000
0000
,
1100
0000
1000
0001
0100
0000
0101
0000
,
0101
0001
0011
0011
,
0011
0000
0000
0000
0001
0000
0000
1000
0010
0000
0100
0000
0001
0000
0000
0000
,
0010
0200
1000
0300
0100
0010
0001
0100
,
0010
1000
0100
0010
0001
0100
0010
1000
,
0001
0200
0001
0300
0010
0100
0010
0001
,
0010
0000
1000
0000
0100
0000
0010
0001
2000
0000
3100
0000
0010
0002
0000
0000
,
0103
0120
1000
1000
,
0100
0100
1030
1001
,
1000
0000
0000
0000
0100
0000
1000
0000
0000
0000
0001
0000
0100
0000
0000
0002
0000
0000
1000
0000
0000
0003
0000
0000
,
0010
0100
1000
0000
0010
0000
0110
0000
,
0100
0120
0001
0100
,
0100
0100
1030
1001
,
0001
0010
0100
0001
0100
1000
0020
0000
,
0130
0001
1000
0001
0000
1000
0100
1000
0001
0100
0001
1000
,
0010
0120
0001
0100
,
0001
0000
0000
1000
0000
0000
1030
0000
0000
0001
0010
0100
,
1000
0000
0001
0000
0100
0000
0001
0000
1000
0000
0100
0000
1000
0000
0000
0200
0000
0000
1000
0000
0000
0300
0000
0000
,
0001
0000
0100
0010
0100
0000
0000
0000
0001
0000
0000
0000
1001
0000
0000
0000
,
1000
1020
0001
0100
,
1000
0000
0000
1000
0000
0000
0130
0000
0000
0001
0010
0100
,
1000
0000
0010
0000
0100
0000
1000
0000
0100
0000
0001
0000
0020
0000
0000
0031
,
2000
0000
0000
0000
,
3100
1000
0020
0000
0100
0000
1000
0000
,
0100
0000
0001
0000
0130
0000
0010
1000
,
0001
0000
0010
0000
0100
0000
0010
0001
0000
0001
1000
0000
0010
0000
0100
0000
,
0001
0000
0010
0000
0100
0000
1000
0010
0000
0010
0100
0000
0001
0000
0000
0000
,
0100
0001
0020
0000
0001
0000
0100
0000
,
1000
0000
0000
0000
0100
0000
0000
0000
0031
0000
0000
0000
1000
0000
0001
0100
,
0002
0000
0000
0000
0010
0000
0000
0000
1000
0000
0000
0000
0103
0000
0010
0100
,
0020
0000
0030
0110
,
1000
0100
0020
0000
0100
0100
0100
0000
,
1000
0000
1000
0000
0130
0100
0100
0000
,
0010
0001
0100
0000
0010
1000
0001
0000
,
0010
0001
0100
0010
1000
0100
0010
0000
,
0001
0000
1000
0000
0020
0000
0000
0000
1000
0000
0000
0000
0000
0000
1000
0001
,
0000
0000
0000
0000
0001
0000
0000
0000
0031
0000
0000
0000
0000
0000
1000
0001
,
1000
0000
0001
0100
0001
0000
1000
0100
1000
0000
0001
0010
0001
0000
1000
0000
,
0020
0000
0100
0000
1000
0000
0130
0001
,
0011
1000
0000
0000
;

//---------------dance-single - t7r----------------
#NOTES:
     dance-single:
     t7r:
     Hard:
     17:
     :
0000
0000
0000
0000
,
0000
0000
0000
0000
,
0000
0000
0000
0000
,
0000
0000
0000
0000
,
0000
0000
0000
0000
,
1000
0100
1000
0000
0000
0000
0001
0100
0001
0000
0000
0000
1000
0100
1000
0000
,
0001
0010
0001
0000
0000
0000
1000
0010
1000
0000
0000
0000
0001
0010
0001
0000
,
1000
0001
0100
0000
0000
0000
0001
1000
0100
0000
0000
0000
1000
0001
0010
0001
,
1000
0000
0010
0000
0100
0001
0000
0001
0010
0000
0100
0000
1000
0010
0000
0010
,
0100
0000
0001
0010
0001
1000
0000
0001
0100
0000
0001
0010
0001
1000
0000
0001
,
0100
0000
0001
0010
0001
1000
0000
0001
0100
0000
0010
0000
0000
0110
0000
0000
,
1010
0000
1000
0100
1000
0001
0000
1000
0010
0000
1000
0100
1000
0001
0000
1000
,
0010
0000
1000
0100
1000
0001
0000
1000
0010
0000
0100
0000
0000
0110
0000
0000
,
0101
0000
0001
0010
0001
1000
0000
0001
0100
0000
0001
0010
0001
1000
0000
0001
,
0100
0000
0001
0010
0001
1000
0000
0001
0100
0000
0001
0000
0010
0100
1000
0000
,
0002
0203
0320
2030
3002
0023
0230
2300
,
3020
0032
2003
3200
0302
0023
0130
0000
,
1000
0100
0000
1000
0001
0000
1000
0100
0000
1000
0000
0001
1000
0000
0001
0000
,
0100
0001
0100
0001
1000
0000
0100
1000
0100
1000
0001
0100
0010
0000
1000
0000
,
0001
0000
0010
0000
0100
0000
0010
0001
0010
0001
1000
0000
0001
0000
0100
0000
,
0010
0000
0010
0000
0100
0000
1000
0100
0000
0001
0100
0000
0010
0000
0100
0000
,
0001
0010
0000
0001
1000
0000
0001
0010
0000
0001
0000
1000
0001
0000
1000
0000
,
0010
1000
0010
1000
0001
0000
2000
0000
3200
0000
0310
0001
1000
0000
0010
0000
,
0100
0000
0010
0000
1000
0000
0100
0001
0100
0001
0100
0000
0010
0000
0100
0000
,
0110
1100
0011
0000
0001
0100
0000
0010
0100
0000
0001
0010
0000
0001
0000
1000
,
0100
0000
1000
0000
0010
0000
0100
0001
1000
0000
0100
1000
0002
0000
0013
0100
,
1000
0000
0001
0000
1000
0010
1000
0000
0001
0010
0001
0000
1000
0000
0100
0010
,
0000
0100
0001
0000
0100
0000
0100
0000
0010
0000
0100
1000
0001
0100
0010
0000
,
1000
0100
0010
0000
0001
0100
0000
0010
0100
0000
1000
0100
0000
0010
0000
0100
,
0001
0000
1000
0000
0100
0000
0010
0100
1000
0000
0010
0100
0002
0000
0013
0001
,
1000
0000
0001
0000
1000
0010
1000
0000
0010
0001
0010
0000
0100
0000
1000
0100
,
0010
0000
0000
0000
0100
0000
0000
0000
0101
0000
1010
0000
1001
0000
0000
0000
1000
0000
0100
0000
0010
0000
0100
0000
1000
0100
0000
1000
0000
1000
0001
0000
,
0000
0000
0100
0000
0002
0000
0000
0000
1003
0000
0010
0000
0200
0000
0000
0000
0301
0000
0010
0000
0100
0000
0010
0000
0001
0010
0000
0001
0000
0001
1000
0000
,
0000
0000
0010
0000
2000
0000
0000
0000
3001
0000
0100
0000
0020
0000
0000
0000
1030
0000
0100
0000
1000
0010
0000
1000
0001
0000
1000
0000
0001
0010
0000
0100
,
0010
0000
0001
0000
0100
0010
0000
0010
1000
0000
0100
0000
0010
0001
0000
0000
1000
0002
0000
0000
1003
0000
0000
0000
0000
0000
0000
0000
0000
0001
0000
0000
,
1000
0002
0000
0000
1003
0000
0000
0000
0002
0000
0203
0000
0000
0000
0300
0000
0102
0000
0003
0000
0000
0000
0000
0000
0102
0000
0003
0000
0000
0000
0000
0000
,
1001
0000
0000
0000
2100
3000
0100
0000
2100
3000
0000
0000
2100
3000
0000
0000
,
1001
0000
0000
0000
0102
0003
0000
0000
0120
0030
0000
0000
0120
0030
0000
0000
,
1010
0000
0000
0000
1002
0003
0000
1000
0100
0000
0100
0000
0001
0000
0000
0000
,
0110
0000
2000
0000
0001
0000
3000
0000
0020
0030
0001
0000
0200
0300
1000
0000
,
0100
0000
0001
0000
0020
0030
0100
0000
0210
0300
1000
0000
0200
0300
0001
0000
,
0100
0000
1000
0000
0010
0200
0300
0000
0010
0000
0001
0010
0100
0000
0001
0010
,
0100
0000
0000
0000
0000
0000
0000
0000
0000
0000
0000
0000
0010
0000
0000
0000
0000
0000
0000
0000
0000
0000
0000
0000
1001
0000
0000
0000
0000
0000
0000
0000
0000
0000
0000
0000
1000
0000
0000
0000
0100
0000
0000
0000
1000
0000
0000
0000
0200
0000
0000
0300
0000
0000
0000
0000
0000
0000
0000
0000
1000
0000
0000
0000
0000
0000
0000
0000
0000
0000
0000
0000
0110
0000
0000
0000
0000
0000
0002
0000
0000
0000
0000
0000
0000
0000
0000
0000
0000
0000
0003
0000
0000
0000
0000
0000
,
0101
0000
0001
1000
0020
0000
1000
0001
0000
0000
0001
1000
0000
0000
1000
0001
,
0000
0000
0000
0000
0000
0000
0001
0000
0000
1000
0000
0000
0000
0000
0000
0000
0000
0000
1000
0000
0000
0001
0000
0000
0030
0000
0000
0000
0000
0000
0000
0000
0000
0000
0000
0000
0001
0000
0000
0000
0100
0000
0000
0000
0001
0000
0000
0000
,
1000
0000
0100
0000
0010
0000
0100
0000
1000
0000
0010
0000
0100
0000
0000
0002
0000
0000
1000
0000
0000
0003
0000
0000
,
0001
0100
0001
0100
0010
0000
0000
0000
0110
0000
0001
0000
1000
0000
0000
0000
,
1100
0000
1000
0001
0020
0000
0001
1000
0000
0000
1000
0001
0000
0000
0001
1000
,
0000
0000
0000
0000
0000
0000
1000
0000
0000
0001
0000
0000
0000
0000
0000
0000
0000
0000
0001
0000
0000
1000
0000
0000
0030
0000
0000
0000
0000
0000
0000
0000
0000
0000
0000
0000
1000
0000
0000
0000
0010
0000
0000
0000
0100
0000
0000
0000
,
0001
0010
0110
0010
0011
0010
0110
0000
,
0001
0100
0010
1000
0000
0001
0100
0010
0100
1000
0100
0010
,
0100
0000
0001
0100
0020
0000
1000
0100
0000
0000
0001
0100
0000
0000
1000
0100
,
0000
0000
0000
0000
0000
0000
0001
0000
0000
0100
0000
0000
0000
0000
0000
0000
0000
0000
1000
0000
0000
0100
0000
0000
0030
0000
0000
0000
0000
0000
0000
0000
0000
0000
0000
0000
0001
0000
0000
0000
0100
0000
0000
0000
0010
0000
0000
0000
,
1000
0000
0100
0000
0010
0000
0100
0000
0001
0000
0100
0000
1000
0000
0000
0020
0000
0000
0100
0000
0000
0030
0000
0000
,
1000
0100
1000
0100
0010
0000
0000
0000
0110
0000
1000
0000
0001
0000
0000
0000
,
1100
0000
1000
0001
0020
0000
0001
0100
0000
0000
1000
0100
0000
0000
0001
1000
,
0000
0000
0000
0000
0000
0000
1000
0000
0000
0001
0000
0000
0000
0000
0000
0000
0000
0000
0001
0000
0000
0100
0000
0000
0030
0000
0000
0000
0000
0000
0000
0000
0000
0000
0000
0000
1000
0000
0000
0000
0100
0000
0000
0000
0010
0000
0000
0000
,
0100
0000
0001
0000
1001
0000
1000
0000
1010
0000
0010
0000
0011
0000
0000
0001
,
0200
0000
0000
0000
,
0310
0000
1000
0001
0020
0000
0000
0000
1000
0000
0000
0000
0001
0000
0000
0000
,
0100
0100
0100
0000
0031
0000
1001
0001
,
0100
0000
0010
0000
1000
0000
0001
0010
0000
0001
0010
0000
0001
0000
1000
0000
,
0010
0000
0100
0000
0001
0000
1000
0100
0000
1000
0100
0000
0010
0000
0001
0000
,
0100
0000
0001
1000
0020
0000
0000
0000
0001
0000
0000
0000
1000
0000
0000
0000
,
0100
0000
0100
0000
0100
0000
0000
0000
1030
0000
0000
0000
1001
0000
0001
0010
,
0001
0000
0100
0000
0010
0000
1000
0100
0000
0010
0100
0000
0001
0000
0100
1000
,
0002
0000
0000
0000
0100
0000
0000
0000
1003
0000
0010
0000
0110
0000
0010
1000
,
0001
1000
2001
0100
0100
0100
0010
0100
,
0100
0000
0100
0000
0001
0000
0100
0000
3100
0000
0100
0000
0010
0000
0001
0100
,
0001
0000
0100
0000
0010
0000
0100
0000
0100
0000
0100
0000
1000
0100
1000
0000
,
0100
0000
0100
0000
0010
0000
0100
0000
0100
0000
0100
0000
0001
0010
0100
1000
,
0001
0000
1000
0100
0002
0000
0100
1000
0000
0000
1000
0100
0000
0000
0100
1000
,
0000
0000
1000
0100
0000
0000
0100
1000
0003
0000
1000
0100
0010
0000
0001
0100
,
0010
1000
0001
0100
0010
1000
0001
0100
0010
0100
0001
1000
0010
0100
0001
1000
,
0001
0010
0100
0010
0001
0000
1000
0010
0100
0010
1000
0000
0010
0000
0100
0000
,
0101
0010
0000
0000
;

//---------------dance-single - t7r----------------
#NOTES:
     dance-single:
     t7r:
     Challenge:
     19:
     :
0000
0000
0000
0000
,
0000
0000
0000
0000
,
0000
0000
0000
0000
,
0000
0000
0000
0000
,
0000
0000
0000
0000
,
1000
0100
0010
0100
1000
0000
0001
0010
0100
0010
0001
0000
1000
0010
0100
0001
,
0010
0100
1000
0100
0010
0000
0001
0100
0010
0100
0001
0000
1000
0010
0100
0001
,
1000
0100
0010
0001
1000
0000
0001
0100
0010
1000
0001
0000
1000
0010
0100
0001
,
1000
0100
0010
0100
1000
0010
0100
0001
0010
0100
1000
0010
0100
0001
1000
0001
,
0010
0001
0010
0001
0100
0010
0000
1000
0100
0010
0100
1000
0010
0100
0000
0001
,
0010
0100
0010
0001
0100
0010
0000
1000
0010
0100
0010
0000
0000
0110
0000
0000
,
0001
0010
0100
1000
0010
0100
0000
0010
1000
0100
0010
0001
0100
0010
0000
1000
,
0010
0100
0001
0010
0100
1000
0000
0001
1000
0010
0100
0000
0000
0110
0000
0000
,
1000
0100
0010
0100
1000
0001
0000
0100
0001
0010
0001
1000
0010
0100
0000
0010
,
1000
0001
0100
0010
1000
0100
0000
0010
0100
1000
0001
0100
0010
1000
0100
0010
,
0002
0203
0320
0032
2003
3200
0320
2030
,
3002
0023
2030
3002
0203
1300
0010
0000
,
0100
0001
0000
0100
1000
0000
0100
0010
0000
1000
0000
0001
0010
0000
0100
0000
,
0010
0001
1000
0001
0010
0000
0100
1000
0001
1000
0010
0100
0001
0000
1000
0000
,
0001
0000
0100
0000
1000
0000
0100
0001
0100
0001
1000
0000
0001
0000
0010
0000
,
0100
0000
0100
0000
0001
0000
0100
0010
0001
0100
0010
0000
1000
0000
0110
0000
,
1000
0100
0000
0001
0100
0000
0010
0001
0000
1000
0000
0010
0100
0000
0001
0000
,
1000
0010
0100
0010
1000
0000
0001
0010
0200
0000
1300
0001
0010
0000
0001
0000
,
1000
0000
0010
0000
0001
0000
1000
0100
0001
0010
0100
0000
1000
0000
0001
0000
,
1001
1100
0012
0000
0103
0001
0000
0010
0100
0000
1000
0010
0000
0001
0000
0010
,
0100
0000
0001
0000
1000
0100
0010
0001
1000
0000
0010
0100
0002
0000
1003
0001
,
0010
0000
0000
0000
0000
0000
0001
0000
0000
0000
0000
0000
0100
0000
0001
0000
0100
0000
0001
0000
0000
0000
0000
0000
0100
0000
0000
1000
0000
0000
0100
0000
0000
0000
0000
0000
0010
0000
0000
0000
0000
0000
1000
0000
0000
0100
0000
0000
,
0000
0001
0100
0000
0010
0000
0010
0000
0001
0000
0100
1000
0100
0010
1000
0000
,
0100
0010
0001
0000
1000
0010
0000
0001
0010
0000
0100
0001
0000
0010
0000
0100
,
1000
0000
0001
0000
1000
0100
1000
0010
0100
0000
0001
0010
0002
0000
1003
0010
,
0100
0000
0000
0000
0000
0000
0010
0000
0000
0000
0000
0000
1000
0000
0100
0000
1000
0000
0100
0000
0000
0000
0000
0000
0001
0000
0000
0100
0000
0000
0001
0000
0000
0000
0000
0000
0100
0000
0000
0000
0000
0000
1000
0000
0000
0010
0000
0000
,
0000
0000
0001
0000
0010
0000
0000
0000
0110
0000
0101
0000
2010
0000
0000
0000
3001
0000
0010
0000
0100
0000
0010
0001
0100
0001
0010
0000
0001
0000
1000
0010
,
0100
0000
0010
0000
1000
0000
0100
0010
0001
0010
0100
0000
1000
0000
0001
0100
0010
0000
1000
0000
0001
0000
0010
0100
1000
0100
0010
0000
0001
0000
0100
0001
,
0010
0000
0001
0000
1000
0000
0010
0100
0001
0100
0010
0000
1000
0000
0001
0010
0100
0000
1000
0000
0010
0000
0001
0010
0100
0010
1000
0000
0001
0000
0010
0100
,
1000
0000
0100
0000
0001
0000
1000
0010
0100
0010
0001
0000
1000
0000
0010
0100
0001
1000
0000
0000
0001
0000
0000
0000
0000
0000
0000
0000
1000
0001
0000
0000
,
2000
3000
1000
0000
0000
1000
0000
0000
2000
3000
2000
0000
0000
0000
0000
0000
3001
0000
0100
0000
0000
0000
0100
0000
0010
0000
0100
0000
0000
0000
0100
0000
,
1000
0100
0000
0100
0010
0000
0110
0000
1000
0100
0000
0100
0010
0100
0000
0100
,
0001
0100
0000
0100
0010
0000
0001
1000
0010
0100
0000
0100
1000
0100
0000
0100
,
0001
0100
0000
0100
0010
0000
1000
0001
0010
0000
0001
0000
1001
0000
0001
1000
,
0010
0100
0000
0100
0001
0000
1000
0000
0001
0000
0010
0100
1000
0000
0010
0100
,
1000
0000
0100
0001
0010
0000
0011
0000
1000
0000
0100
0010
0001
0000
0100
0010
,
0001
0000
0010
0000
1000
0100
0000
0100
0010
0000
0100
0000
1001
0000
0010
0000
,
1100
0000
0000
0000
0000
0000
0000
0000
0000
0000
0000
0000
0010
0000
0000
0000
0000
0000
0000
0000
0000
0000
0000
0000
1001
0000
0000
0000
0000
0000
0000
0000
0000
0000
0000
0000
0001
0000
0000
0000
0100
0000
0000
0000
0010
0000
0000
0000
0100
0000
0000
0010
0000
0000
0000
0000
0000
0000
0000
0000
0100
0000
0000
0000
0000
0000
0000
0000
0000
0000
0000
0000
0010
0000
0000
0000
0000
0000
0020
0000
0000
0000
0000
0000
0000
0000
0000
0000
0000
0000
0000
0000
0000
0000
0000
0000
,
1030
0000
0001
1000
0020
0000
1000
0001
0000
0000
0001
1000
0000
0000
1000
0001
,
0000
0000
0000
0000
0000
0000
0001
0000
0000
1000
0000
0000
0000
0000
0000
0000
0000
0000
1000
0000
0000
0001
0000
0000
0030
0000
0000
0000
0000
0000
0001
0000
0000
0000
0000
0000
1000
0000
0000
0000
0100
0000
0000
0000
0100
0000
0000
0000
,
1000
0000
0010
0000
0100
0000
1000
0000
0100
0000
0010
0000
1000
0000
0000
0020
0000
0000
0100
0000
0000
1030
0000
0000
,
0100
0000
0001
0000
0100
0000
0001
0000
0000
0100
0000
0000
1000
0000
0000
0000
0000
0000
0000
0000
0000
0000
0000
0000
1010
0000
0000
0000
0000
0000
1000
0000
0000
0000
0000
0000
0001
0000
0000
0000
0000
0000
0010
0000
0000
0000
0000
0000
,
0011
0000
0001
0100
0020
0000
1000
0100
0000
0000
0001
0100
0000
0000
1000
0100
,
0000
0000
0000
0000
0000
0000
0001
0000
0000
0100
0000
0000
0000
0000
0000
0000
0000
0000
1000
0000
0000
0100
0000
0000
0030
0000
0000
0000
0000
0000
0001
0000
0000
0000
0000
0000
1000
0000
0000
0000
0010
0000
0000
0000
0010
0000
0000
0000
,
0100
0000
0001
0010
0001
0000
1000
0010
1000
0000
0001
0000
1001
0000
0001
0000
,
0100
0000
1000
0000
1000
0000
0100
0000
0000
0000
0100
0000
0001
0000
0010
0000
1000
0010
1000
0000
0010
0000
0001
0000
,
0010
0000
0001
0100
2000
0000
0100
0001
0000
0000
0001
0100
0000
0000
0100
0001
,
0000
0000
0000
0000
0000
0000
0001
0000
0000
0100
0000
0000
0000
0000
0000
0000
0000
0000
0100
0000
0000
0001
0000
0000
3000
0000
0000
0000
0000
0000
0010
0000
0000
0000
0000
0000
0100
0000
0000
0000
0001
0000
0000
0000
0001
0000
0000
0000
,
1000
0000
0100
0000
0001
0000
1000
0000
0010
0000
0001
0000
0100
0000
0000
0020
0000
0000
0001
0000
0000
0130
0000
0000
,
0001
0000
0100
0000
0001
0000
0100
0000
0000
1000
0000
0000
0100
0000
0000
0000
0000
0000
0000
0000
0000
0000
0000
0000
0110
0000
0000
0000
0000
0000
0001
0000
0000
0000
0000
0000
1000
0000
0000
0000
0000
0000
0010
0000
0000
0100
0000
0000
,
0001
0000
1000
0100
0002
0000
0100
0010
0000
0000
0100
0010
0000
0000
0010
0100
,
0000
0000
0000
0000
0000
0000
0010
0000
0000
0100
0000
0000
0000
0000
0000
0000
0000
0000
0100
0000
0000
0010
0000
0000
0003
0000
0000
0000
0000
0000
0100
0000
0000
0000
0000
0000
0001
0000
0000
0000
1000
0000
0000
0000
1000
0000
0000
0000
,
0010
0000
0100
0000
1010
0000
0010
0000
1010
0000
0010
0000
1010
0000
1000
0001
,
0010
0000
0000
0000
0000
0000
0000
0000
0000
0000
0000
0000
0100
0000
0000
0000
0000
0000
0000
0000
0000
0000
0000
0000
1000
0000
0000
0000
0000
0000
0000
0000
0000
0000
0000
0000
0001
0000
0000
0000
0000
0000
0000
0000
0000
0000
0000
0000
0100
0000
0000
0000
0000
0000
0000
0000
0000
0000
0000
0000
0000
0000
0000
0000
0000
0010
0000
0000
0000
0000
0000
0000
0000
0000
0000
0000
0000
0000
1000
0000
0000
0000
0000
0000
0000
0000
0000
0000
0000
0000
0001
0000
0000
0000
0000
0000
0000
0000
0000
0000
0000
0000
0010
0000
0000
0000
0000
0000
0000
0000
0000
0000
0000
0000
0000
0000
1000
0000
0000
0000
0000
0000
0000
0000
0000
0000
0000
0000
0000
0010
0000
0000
0000
0000
0000
0000
0000
0000
0000
0000
0000
0000
0000
0000
0000
0001
0000
0000
0000
0000
0000
0000
0000
0000
0000
0000
0000
0000
0000
0000
0000
0000
0100
0000
0000
0000
0000
0000
0000
0000
0000
0000
0000
0000
0000
0000
0000
0000
0000
0000
0010
0000
0000
0000
0000
0000
0000
0000
0000
0000
0000
0000
,
0100
0000
0001
1000
0020
0000
1000
0100
0000
0100
1000
0000
0000
0000
1000
0100
,
0000
0100
1000
0000
0000
0000
1000
0100
0030
0100
1000
0000
1001
0000
1000
0000
,
0001
0010
0001
0010
0100
0010
0001
0100
0010
1000
0100
0010
0100
1000
0010
0100
,
0001
1000
0100
0010
0100
1000
0010
0100
0001
1000
0100
0010
0001
0100
0010
0100
,
0010
0000
1000
0001
0020
0000
0001
0100
0000
0100
0001
0000
0000
0000
0001
0100
,
0000
0100
0001
0000
0000
0000
0001
0100
0030
0100
0001
0000
1001
0000
0001
0100
,
1000
0100
0010
0100
0001
0000
1000
0100
0010
0100
0001
0000
0100
1000
0010
0100
,
0010
1000
0100
0010
0001
0100
0010
1000
0010
0100
0001
1000
0010
0000
1000
0000
,
1001
0001
0021
0100
0100
0100
0001
0100
,
0100
0000
0100
0000
1000
0000
0100
0000
0130
0000
0100
0000
1001
0000
1000
0010
,
0100
0000
0010
0000
1001
0000
0001
0010
1000
0000
0010
0001
0100
0001
0010
0000
,
0011
0000
0001
0100
1000
0000
0100
0010
1000
0000
0100
0001
0100
1000
0010
0100
,
0001
1000
0010
0100
0020
1000
0001
0100
0000
1000
0100
1000
0000
1000
0001
0100
,
0000
1000
0100
1000
0000
1000
0001
0100
0030
1000
0001
0100
0001
0010
0100
1000
,
0001
0100
0010
0001
1000
0100
0010
1000
0001
0010
0100
0001
1000
0010
0100
1000
,
0001
0100
0010
1000
0100
0001
0100
1000
0010
0100
0001
0010
1000
0010
0001
0000
,
1001
0010
0000
0000
;

//---------------dance-double - t7r----------------
#NOTES:
     dance-double:
     t7r:
     Easy:
     12:
     :
00000000
00000000
00000000
00000000
,
00000000
00000000
00000000
00000000
,
00000000
00000000
00000000
00000000
,
00000000
00000000
00000000
00000000
,
00000000
00000000
00000000
00000000
,
00000010
00001000
00000000
00000010
00000000
00000000
00001000
00000000
,
00000001
00000010
00000000
00000001
00000000
00000000
00000100
00000000
,
00001000
00010000
00000000
00001000
00000000
00000000
01000000
00000000
,
00020000
00000000
00000000
00030000
,
20010000
01000000
00000000
00010000
,
00000000
00000000
00000000
00000000
30100000
00000000
00000000
00000000
00000000
00000000
10000000
00000000
00000000
01000000
00000000
00000000
,
00020000
00001000
00000000
01000000
,
00000000
00000000
00000000
00000000
00031000
00000000
00000000
00000000
00000000
00000000
00010000
00000000
00000000
00001000
00000000
00000000
,
00000200
00001000
00000000
00000010
,
00000000
00000301
00000000
00000010
,
00000100
00001000
00000001
00000000
00000100
00000000
00000010
00001000
,
00000200
00010300
00002000
00013000
,
00011000
00000000
00010000
00000000
01000000
00000000
10000000
00100000
,
01000000
00100000
10000000
10010000
,
10000000
00000000
01000000
00000000
10000000
00100000
10000000
00000000
,
00100000
00000000
00010000
00000000
00001000
00010000
00000000
00010000
,
00001000
00000000
00000100
00000000
00000010
00000000
00001000
00000001
,
00000100
00000000
00000001
00000000
00000010
00000002
00000000
00001003
,
00000001
00000000
00000100
00000000
00001000
00010000
00001000
00000000
,
00010000
01000000
10000000
00000000
00100000
00000000
00000000
00000000
01000000
00000000
00000000
00000000
00010000
00000000
00000000
00000000
,
10000000
01000000
00100000
00000000
00010000
00000000
00002000
00000000
,
00003010
00000000
00000100
00000001
00001000
00000000
00000100
00001000
,
00000001
00000000
00000100
00000000
00001000
00010000
00001000
00010000
,
00000000
00010000
00001000
00000000
00010000
00000000
00100000
00000000
,
10000000
01000000
00100000
00000000
00010000
00000000
01000000
00020000
,
00000000
00000000
10030000
00000000
00010000
00000000
00000000
00000000
10000000
00000000
00000000
00000000
01000000
00000000
00000000
00010000
,
00000000
00000000
00001000
00000000
00010000
00001000
00000100
00000000
00000020
00000000
00000230
00000000
00000302
00000000
00000003
00000010
,
00000000
00000000
00000020
00000000
00000230
00000000
00020300
00000000
00032000
00000000
02003000
00000000
03020000
00000000
00030000
10000000
,
00000000
00000000
20000000
00000000
32000000
00000000
03200000
00000000
00302000
00000000
00023000
00000000
00030020
00000000
00000030
00000100
,
00000000
00000000
00000000
00000000
00000200
00000000
00000000
00000000
00000302
00000000
00000000
00000000
00002003
00000000
00000000
00000000
00003002
00000000
00000000
00000000
00000013
00000000
00000000
00000000
00000000
00000000
00000000
00000000
00000000
00001000
00000000
00000000
,
00020000
00000000
00031000
00000000
00010000
02000000
00000000
00000000
13000000
00000000
00000000
00000000
10100000
00000000
00000000
00000000
,
10100000
00000000
10000000
01000000
10000000
00000000
10100000
00000000
,
10100000
10000000
00010000
00110000
,
00110000
00000000
00000000
00000000
00100000
00000000
00000000
00001000
00010000
00000000
00001000
00000000
00010000
00000000
00000000
00000000
,
00002000
00003100
00000010
00000110
,
00000110
00000000
00000100
00000001
00001000
00000000
00001001
00000000
,
00001001
00000002
00000013
00001000
,
00010000
00000000
00001000
00000000
00010000
00000000
00001000
00000000
02000000
03000000
01000000
00000000
00100000
02000000
00000000
00000000
,
03010000
00200000
10000000
10000000
,
01000000
00010000
00310000
10010000
,
10000000
01000000
10000000
00000000
00010000
20000000
00100000
30000000
,
00010000
00100000
00001000
00000000
00010000
00000000
00011000
00000000
,
00001000
00000020
00001000
00001000
,
00000100
00000001
00000031
00001001
,
00000001
00000100
00000000
00001000
00010000
00002000
00000000
00013000
,
02000000
13000000
00100000
00010000
,
00001000
00021000
01000000
01000000
,
00001000
00001000
00031000
00011000
,
00010000
00001000
00000010
00000000
00000001
00000200
00000010
00000300
,
00000001
00000010
00000100
00000000
00010000
00000000
00001000
00000000
,
00010000
00012000
00000100
00000100
,
00010000
00010000
00013000
00011000
,
00010000
00100000
00000000
01000000
00100000
20000000
00010000
30000000
,
20020000
00000000
00000000
30030000
,
10000000
12000000
00000000
00010000
,
00000000
00100000
03000000
01000000
,
10000000
00000000
00100000
00000000
01000000
00010000
01000000
00000000
,
00010000
00000000
00100000
00000000
00001000
00010000
00001000
00000000
,
00010000
00012000
00000000
01000000
,
00000000
00000000
00010000
00000000
00003000
00000000
00001000
00000100
,
00000020
00000100
00000000
00000130
,
00002002
00000000
00003003
00000110
,
00000001
00000010
00000002
00000000
00000100
00000000
00001000
00000000
,
00000010
00000000
00001000
00000000
00000103
00000000
00000001
00001000
,
00000100
00000000
00000010
00000000
00000001
00000000
00000100
00001000
,
00010000
00000000
00100000
00000000
01000000
00010000
10000000
00000000
,
01000000
00010000
00002000
00000000
00010000
00010000
00010000
00000000
,
01000000
00000000
00010000
00000000
00003100
00000100
00000100
00000000
,
00000010
00000110
00001001
00000101
,
00000001
00000010
00001000
00000000
00010000
00000000
01000000
10000000
,
00100000
01000000
00000000
00000000
;

//---------------dance-double - t7r----------------
#NOTES:
     dance-double:
     t7r:
     Medium:
     15:
     :
00000000
00000000
00000000
00000000
,
00000000
00000000
00000000
00000000
,
00000000
00000000
00000000
00000000
,
00000000
00000000
00000000
00000000
,
00000000
00000000
00000000
00000000
,
00000001
00000100
00000000
00000101
00000000
00000001
00000010
00000000
,
00000001
00001000
00000000
00001001
00000000
00001000
00000100
00000000
,
00010000
00001000
00000000
00011000
00000000
00001000
00010000
00000000
,
01000000
10000000
00100000
00000000
01000000
00010000
00100000
00010000
,
10000000
01000000
00200000
00000000
00310000
01000000
00200000
00000000
,
10300000
00000000
01000000
00000000
00020000
00000000
00000000
00000000
00031000
00000000
00010000
00000000
00000000
00010000
00000000
00000000
,
00001000
00000100
00000020
00000000
00001030
00000100
00000020
00000000
,
00000031
00000000
00001000
00000000
00000020
00000000
00000000
00000000
00000130
00000000
00001000
00000000
00000000
00001000
00000000
00000000
,
00010000
01000000
00200000
00000000
00310000
01000000
00200000
00000000
,
10300000
00010000
00200000
00000000
10300000
00100000
01000000
00100000
,
00010000
01000000
00200000
00000000
10300000
00100000
00010000
00001000
,
00020000
00000000
00031000
00000010
00000100
00001000
00000001
00000000
,
00000100
00000001
00000000
00001000
00000000
00000001
00000010
00000000
00000000
00000000
00000000
00000000
00000001
00000000
00000100
00000000
,
00000001
00000000
00000010
00000000
00000100
00000000
00000010
00000001
00000000
00000000
00000000
00000100
00000010
00000000
00001000
00000000
,
00000100
00010000
00001000
00000000
00010000
01000000
10000000
00100000
,
01000000
00000000
01000000
00000000
00010000
00000000
01000000
00100000
00000000
01000000
00010000
00000000
00000000
00000000
10000000
00000000
,
00100000
10000000
00000000
00010000
00000000
10000000
01000000
00000000
00000000
00000000
00000000
00000000
10000000
00000000
00100000
00000000
,
10000000
01000000
00100000
01000000
20000000
30020000
10030000
01000000
,
10000000
00100000
01000000
00000000
00010000
00100000
00001000
00001000
,
00011000
00001100
00000110
00000000
00000001
00000100
00000000
00000001
00000000
00001000
00000010
00000000
00000000
00000000
00000000
00000000
,
00001000
00000000
00000001
00000000
00000100
00000000
00001000
00000000
00010000
00000000
00100000
00000000
20000000
00000000
00000000
30010000
,
00100000
00000000
00010000
00000000
10000000
01000000
00000000
00000000
11000000
00000000
00000000
00000000
10000000
00000000
01000000
00100000
,
00000000
01000000
10000000
00000000
00100000
00000000
00100000
00000000
01000000
00000000
00010000
00000000
00100000
00000000
00001000
00000000
,
00000000
00000000
00011000
00000000
00001000
00000100
00000000
00000010
00000000
00000100
00000001
00000000
00000000
00000000
00000000
00000000
,
00000010
00000100
00000010
00000001
00000100
00000020
00002030
00003001
,
00000010
00000000
00001000
00000000
00010000
00000000
01000000
00000000
01000000
00000000
00000000
00000000
10000000
00000000
00100000
01000000
,
00000000
00000000
00010000
00000000
10010000
01010000
00011000
00000000
00001000
00000100
00000020
00000000
00001030
00000000
00000000
00000001
,
00000000
00000000
00000000
00000000
00000002
00000000
00000000
00000000
00000013
00001000
00000000
00001000
00010000
00000000
00001000
00000000
00010000
00000000
01000000
00000000
00200000
00000000
00000000
00000000
00310000
00000000
00000000
00000000
00000000
00000000
10000000
00000000
,
00000000
00000000
00000000
00000000
20000000
00000000
00000000
00000000
30100000
00010000
00000000
00010000
00001000
00000000
00010000
00000000
00001000
00000000
00010000
00000000
01000000
00000000
10000000
00000000
00100000
01000000
00000000
00010000
00000000
00010000
00100000
00000000
,
00000000
00000000
00001000
00000000
00020000
00000000
00000000
00000000
00031000
00000000
00000010
00000100
00000000
00000100
00000010
00000000
00000001
00000200
00000000
00000000
00000310
00000000
00000000
00000000
00000000
00000000
00000000
00000000
00000000
00010000
00000000
00000000
,
00001000
00020000
00000000
00000000
00031000
00000000
00000000
00000000
00010000
00000000
00002000
00000000
00000000
00000000
00000000
00000000
00003100
00000000
00000000
00000000
00000000
00000000
00000000
00000000
00000110
00000000
00000000
00000000
00000000
00000000
00000000
00000000
,
00000110
00000000
00000100
00000001
00001000
00000000
00001001
00000000
,
00001001
00000001
00000011
00000011
,
00000011
00000000
00000000
00000000
00000100
00000000
00000000
00010000
00001000
00000000
00010000
00000000
01000000
00000000
00000000
00000000
,
10000000
00200000
01000000
00300000
10000000
01000000
00100000
01000000
,
00010000
01000000
00010000
00001000
00000100
00000010
00000100
00000001
,
00000010
00000100
00010000
00000000
00001000
00010000
00001000
00000100
,
00001000
00000000
00010000
00000000
01000000
00000000
10000000
00010000
20000000
00000000
31000000
00000000
00100000
00020000
00000000
00000000
,
01030000
10200000
01000000
00010000
,
01000000
01000000
01300000
10010000
,
10000000
00000000
00000000
00000000
01000000
00000000
10000000
00000000
00000000
00000000
00010000
00000000
01000000
00000000
00000000
00200000
00000000
00000000
00010000
00000000
00000000
00300000
00000000
00000000
,
10000000
01000000
00010000
00000000
00001000
00000000
00011000
00000000
,
00001000
00001020
00000100
00001000
,
00000100
00000100
00000130
00001001
,
00000001
00000100
00000010
00000001
00000010
00001000
00000200
00000000
,
00010300
00001000
00010000
00001000
00000000
00000000
00010000
00000000
00100000
01000000
00000000
00010000
,
10000000
12000000
00010000
00100000
,
10000000
10000000
13000000
10010000
,
10000000
00100000
00010000
00100000
01000000
00020000
00100000
00030000
,
00001000
00000000
00010000
00001000
00010000
00000000
00000000
00000000
00001000
00000000
00000000
00000000
00011000
00000000
00000000
00000000
,
00001000
00001200
00000010
00000001
,
00000010
00000010
00000310
00001001
,
00000001
00000000
00000010
00000000
00001000
00000000
00010000
00000000
00001000
00000000
00000100
00000000
00000010
00000000
00000000
00001000
,
00000002
00000000
00000000
00000000
,
00000013
00000100
00020000
00000000
00001000
00000000
01000000
00000000
,
00001000
00000100
00031000
01000000
,
00010000
00000000
00100000
00000000
01000000
00000000
00000000
10000000
00100000
00000000
01000000
00000000
00010000
00000000
00000000
00100000
,
00010000
00000000
10000000
00000000
00100000
00000000
00000000
00010000
00001000
00000000
00010000
00000000
00000000
00000000
00001000
00000000
,
00000100
00000010
00002000
00000000
00000100
00000000
00010000
00000000
,
01000000
00000000
00000000
00000000
00010000
00000000
00000000
00000000
00003100
00000000
00000000
00000000
00000010
00000000
00000001
00001000
,
00000001
00000000
00000100
00000000
00000010
00000000
00000000
00001000
00000100
00000000
00010000
00000000
00001000
00000000
00000000
00100000
,
00020000
00000000
00030000
10010000
,
10000000
01000000
00020000
00000000
00001000
00001000
00001000
00000000
,
00000100
00000000
00000100
00000000
00031000
00001000
00001000
00000000
,
00001000
00000010
00000100
00000000
00000010
00000001
00001000
00000000
,
00000001
00000100
00001000
00000000
00010000
00001000
00010000
00100000
,
01000000
00000000
00010000
00000000
00200000
00000000
00000000
00000000
10000000
00000000
00000000
00000000
00000000
00000000
00010000
10000000
,
00000000
00000000
00000000
00000000
00010000
00000000
00000000
00000000
01300000
00000000
00000000
00000000
00000000
00000000
00100000
10000000
,
00010000
00000000
10000000
01000000
10000000
00000000
01000000
00000000
00100000
00000000
00001000
00010000
00001000
00000000
00010000
00000000
,
00001000
00000000
00000100
00000000
00000001
00000000
00001000
00000100
00000000
00010000
00001000
00000000
00010000
00000000
01000000
00000000
,
01100000
00001000
00000000
00000000
;

//---------------dance-double - t7r----------------
#NOTES:
     dance-double:
     t7r:
     Hard:
     17:
     :
00000000
00000000
00000000
00000000
,
00000000
00000000
00000000
00000000
,
00000000
00000000
00000000
00000000
,
00000000
00000000
00000000
00000000
,
00000000
00000000
00000000
00000000
,
00000001
00001000
00000001
00000000
00000000
00000000
00000100
00000001
00000100
00000000
00000000
00000000
00000001
00001000
00000001
00000000
,
00001000
00000100
00001000
00000000
00000000
00000000
00000100
00010000
00000100
00000000
00000000
00000000
00010000
00001000
00010000
00000000
,
00001000
01000000
00001000
00000000
00000000
00000000
01000000
00010000
01000000
00000000
00000000
00000000
00010000
10000000
00010000
00000000
,
10000000
00000000
01000000
00000000
00100000
00010000
00000000
00010000
10000000
00000000
00100000
00000000
01000000
00010000
00000000
00010000
,
00100000
00000000
00001000
00000000
00010000
00001000
00000000
00010000
00000100
00000000
00001000
00000000
00000001
00000100
00000000
00000001
,
00000010
00000000
00000001
00000000
00001000
00000001
00000000
00001000
00000100
00000000
00010000
00000000
00000000
00001000
00000000
00000000
,
00010000
00000000
01000000
00000000
00100000
01000000
00000000
00100000
00010000
00000000
10000000
00000000
00100000
01000000
00000000
00010000
,
00100000
00000000
00001000
00000000
00010000
00001000
00000000
00010000
00000100
00000000
00010000
00000000
00000000
00001000
00000000
00000000
,
00010000
00000000
00001000
00000000
00000100
00000010
00000000
00000100
00000001
00000000
00000010
00000000
00000100
00001000
00000000
00000001
,
00001000
00000000
00000001
00000000
00000100
00001000
00000000
00010000
00001000
00000000
00010000
00000000
01000000
10000000
00000000
00100000
,
02000000
23000000
32000000
00000000
03010000
00100000
01000000
00010000
,
00002000
00000000
00003020
00000000
00000031
00001000
00000010
00000000
,
00001000
00000100
00000000
00000010
00000000
00000001
00001000
00000000
00000000
00000000
00000001
00000000
00000100
00000000
00000001
00000000
,
00001000
00000000
00000100
00001000
00000100
00000000
00001000
00000000
00000001
00000000
00000100
00000010
00001000
00000000
00000001
00000000
,
00000010
00000000
00001000
00000000
00010000
00000000
00000000
00000000
00001000
00010000
00001000
00000000
00010000
00000000
01000000
00000000
,
10000000
00000000
00100000
00000000
01000000
00000000
10000000
01000000
00000000
00010000
01000000
00000000
00010000
00000000
10000000
00000000
,
00010000
00100000
00000000
01000000
00000000
10000000
00010000
00000000
00000000
00000000
10000000
00000000
00100000
00000000
10000000
00000000
,
00010000
00000000
00100000
00010000
00100000
00000000
00010000
00000000
20000000
00000000
32000000
00000000
03100000
00000000
01000000
00000000
,
10000000
00000000
00100000
00000000
00010000
00000000
00000000
00000000
00001000
00010000
00001000
00000000
00010000
00000000
00001000
00000000
,
00001010
00000011
00001001
00000000
00000001
00000100
00000000
00000001
00001000
00000000
00000001
00000010
00000000
00000100
00000000
00001000
,
00000001
00000000
00000100
00000000
00001000
00000000
00010000
00001000
00010000
00000000
00001000
00100000
00020000
00000000
01030000
00100000
,
10000000
00000000
01000000
00000000
00010000
01000000
00010000
00000000
01000000
10000000
01000000
00000000
10000000
00000000
00100000
00010000
,
00000000
00100000
01000000
00000000
00010000
00000000
00010000
00000000
00100000
00000000
00010000
10000000
01000000
00000000
00010000
00000000
,
00001000
00000000
00010000
00000000
00001000
00000100
00000000
00000010
00000100
00000000
00000001
00000010
00000000
00000001
00000000
00001000
,
00000001
00000000
00000100
00000000
00001000
00000000
00010000
00001000
00010000
00000000
01000000
10000000
00020000
00000000
10030000
00100000
,
01000000
00000000
00100000
00000000
10000000
01000000
10000000
00000000
01000000
00010000
01000000
00000000
00010000
00000000
00001000
00010000
,
00000100
00000000
00000000
00000000
00010000
00000000
00000000
00000000
00011000
00000000
01010000
00000000
00001100
00000000
00000000
00000000
00001000
00000000
00000001
00000000
00000200
00000000
00000000
00000000
00001300
00010000
00000000
00001000
00000000
00001000
00010000
00000000
,
00000000
00000000
00000000
00000000
02000000
00000000
00000000
00000000
13000000
00100000
00000000
01000000
00000000
01000000
00010000
00000000
10000000
00000000
01000000
00000000
00020000
00000000
00000000
00000000
00031000
00010000
00000000
00001000
00000000
00001000
00010000
00000000
,
00000000
00000000
00000000
00000000
00002000
00000000
00000000
00000000
00003100
00000010
00000000
00001000
00000000
00001000
00000001
00000000
00000010
00000000
00000100
00000000
00001000
00000000
00000001
00000000
00000100
00001000
00000000
00010000
00000000
00010000
00001000
00000000
,
00000000
00000000
00010000
00000000
01000000
00000000
10000000
00000000
00100000
01000000
00000000
00010000
00000000
00010000
00100000
00000000
00001000
00020000
00000000
00000000
00031000
00000000
00000000
00000000
00000000
00000000
00000000
00000000
00000000
00010000
00000000
00000000
,
00001000
00020000
00000000
00000000
00031000
00000000
00000000
00000000
00020000
00000000
00032000
00000000
00000000
00000000
00003000
00000000
00011000
00000000
00000000
00000000
00000000
00000000
00000000
00000000
01010000
00000000
00000000
00000000
00000000
00000000
00000000
00000000
,
01010000
00000000
00011000
00001000
00001100
00000000
00001100
00000000
,
00011000
00001000
00011000
00101000
,
00011000
00000000
00000000
00000000
00011000
00000000
00000000
00010000
00100000
00000000
01000000
00000000
00010000
00000000
00000000
00000000
,
00100000
02000000
10000000
03000000
10000000
00100000
01000000
10000000
,
01000000
00010000
00100000
00001000
00011000
00001000
00000010
00000001
,
00000100
00000000
00000010
00000000
00000100
00000002
00000003
00000000
00000010
00000000
00001000
00000010
00000100
00000000
00001000
00000010
,
00000100
00000000
00000000
00000000
00000000
00000000
00000000
00000000
00000000
00000000
00000000
00000000
00001000
00000000
00000000
00000000
00000000
00000000
00000000
00000000
00000000
00000000
00000000
00000000
00010000
00000000
00000000
00000000
00000000
00000000
00000000
00000000
00000000
00000000
00000000
00000000
00100000
00000000
00000000
00000000
01000000
00000000
00000000
00000000
00100000
00000000
00000000
00000000
02000000
00000000
00000000
03000000
00000000
00000000
00000000
00000000
00000000
00000000
00000000
00000000
01000000
00000000
00000000
00000000
00000000
00000000
00000000
00000000
00000000
00000000
00000000
00000000
01100000
00000000
00000000
00000000
00000000
00000000
20000000
00000000
00000000
00000000
00000000
00000000
00000000
00000000
00000000
00000000
00000000
00000000
30000000
00000000
00000000
00000000
00000000
00000000
,
11000000
00000000
10000000
00010000
00200000
00000000
00010000
10000000
00000000
00000000
10000000
00010000
00000000
00000000
00010000
10000000
,
00000000
00000000
00000000
00000000
00000000
00000000
10000000
00000000
00000000
00010000
00000000
00000000
00000000
00000000
00000000
00000000
00000000
00000000
00010000
00000000
00000000
10000000
00000000
00000000
00300000
00000000
00000000
00000000
00000000
00000000
00000000
00000000
00000000
00000000
00000000
00000000
10000000
00000000
00000000
00000000
01000000
00000000
00000000
00000000
10000000
00000000
00000000
00000000
,
00010000
00000000
00100000
00000000
01000000
00000000
10000000
00000000
01000000
00000000
00100000
00000000
01000000
00000000
00000000
20000000
00000000
00000000
00100000
00000000
00000000
30000000
00000000
00000000
,
10000000
00000000
01000000
00010000
00001000
00000000
00000000
00000000
00011000
00000000
00001000
00000000
00000100
00000000
00000000
00000000
,
00001001
00000000
00000001
00001000
00000020
00000000
00001000
00000001
00000000
00000000
00000001
00001000
00000000
00000000
00001000
00000001
,
00000000
00000000
00000000
00000000
00000000
00000000
00000001
00000000
00000000
00001000
00000000
00000000
00000000
00000000
00000000
00000000
00000000
00000000
00001000
00000000
00000000
00000001
00000000
00000000
00000030
00000000
00000000
00000000
00000000
00000000
00000000
00000000
00000000
00000000
00000000
00000000
00000001
00000000
00000000
00000000
00000100
00000000
00000000
00000000
00000001
00000000
00000000
00000000
,
00000010
00001000
00010000
00001000
00011000
00001000
00020000
00000000
,
01030000
10000000
00100000
01000000
00000000
10000000
01000000
00100000
10000000
01000000
00010000
00001000
,
00010000
00000000
00001000
00000100
00000020
00000000
00001000
00000100
00000000
00000000
00000001
00000100
00000000
00000000
00001000
00000100
,
00000000
00000000
00000000
00000000
00000000
00000000
00000001
00000000
00000000
00000100
00000000
00000000
00000000
00000000
00000000
00000000
00000000
00000000
00001000
00000000
00000000
00000100
00000000
00000000
00000030
00000000
00000000
00000000
00000000
00000000
00000000
00000000
00000000
00000000
00000000
00000000
00000001
00000000
00000000
00000000
00000100
00000000
00000000
00000000
00000001
00000000
00000000
00000000
,
00000010
00000000
00001000
00000000
00010000
00000000
00000010
00000000
00000100
00000000
00001000
00000000
00010000
00000000
00000000
00000200
00000000
00000000
00001000
00000000
00000000
00000300
00000000
00000000
,
00010000
00000000
00001000
00000100
00000001
00000000
00000000
00000000
00000010
00000000
00001000
00010000
00001000
00000000
00010000
00000000
,
00100000
00000000
10000000
01000000
00200000
00000000
00010000
01000000
00000000
00000000
10000000
00010000
00000000
00000000
00010000
10000000
,
00000000
00000000
00000000
00000000
00000000
00000000
10000000
00000000
00000000
01000000
00000000
00000000
00000000
00000000
00000000
00000000
00000000
00000000
00010000
00000000
00000000
01000000
00000000
00000000
00300000
00000000
00000000
00000000
00000000
00000000
00000000
00000000
00000000
00000000
00000000
00000000
10000000
00000000
00000000
00000000
01000000
00000000
00000000
00000000
00100000
00000000
00000000
00000000
,
10000000
00000000
00100000
00000000
00101000
00000000
00001000
00000000
00011000
00000000
00001000
00000000
00001100
00000000
00000000
00000100
,
00000002
00000000
00000000
00000003
,
00000010
00000100
00002000
00000000
00000010
00000000
00000100
00000000
,
00000001
00000000
00000010
00000000
00003100
00000100
00001000
00000000
,
00000001
00000000
00000100
00000000
00000010
00000000
00001000
00000100
00001000
00000000
00000100
00000000
00010000
00000000
00001000
00010000
,
00001000
00000000
00010000
00000000
01000000
00000000
00100000
01000000
00100000
00000000
00010000
00000000
10000000
00000000
00100000
01000000
,
00100000
10000000
00020000
00000000
00100000
00000000
01000000
00000000
,
10000000
00000000
00000000
00000000
00100000
00000000
00000000
00000000
01030000
00000000
01000000
00000000
00010000
00000000
10000000
00010000
,
10000000
00000000
01000000
00000000
00010000
00000000
00001000
00010000
00001000
00000000
00000100
00000000
00000010
00000000
00001000
00000001
,
00000200
00000000
00001000
00000000
00000310
00000000
00000110
00000100
,
00000001
00001000
00001002
00000100
00000100
00000100
00001000
00000100
,
00000100
00000000
00000100
00000000
00001000
00000000
00000100
00000000
00000103
00000000
00000100
00000000
00000010
00000000
00001000
00000001
,
00001000
00000000
00000001
00000000
00000010
00000000
00000100
00000000
00010000
00000000
00010000
00000000
00001000
00010000
00001000
00000000
,
00010000
00000000
01000000
00000000
00100000
00000000
01000000
00000000
10000000
00000000
00100000
00000000
01000000
00100000
10000000
00010000
,
10000000
00000000
01000000
00100000
00020000
00000000
00001000
00000100
00000000
00000000
01000000
00100000
00000000
00000000
00001000
00000100
,
00000000
00000000
01000000
00100000
00000000
00000000
00001000
00000100
00030000
00000000
00001000
00010000
00001000
00000000
00010000
00000000
,
00001000
00000010
00000100
00001000
00010000
01000000
00100000
00010000
,
00001000
00000000
00010000
01000000
10000000
00000000
00100000
01000000
00000000
00100000
10000000
00000000
01000000
00000000
00010000
00000000
,
00011000
00000010
00000000
00000000
;

//---------------dance-double - t7r----------------
#NOTES:
     dance-double:
     t7r:
     Challenge:
     18:
     :
00000000
00000000
00000000
00000000
,
00000000
00000000
00000000
00000000
,
00000000
00000000
00000000
00000000
,
00000000
00000000
00000000
00000000
,
00000000
00000000
00000000
00000000
,
10000000
01000000
00100000
01000000
10000000
00000000
00010000
01000000
00100000
01000000
00010000
00000000
10000000
00100000
10000000
00000000
,
00010000
00100000
01000000
00100000
00001000
00000000
00010000
00000100
00010000
00001000
00010000
00000000
00001000
00010000
00001000
00000000
,
00000100
00000010
00000100
00000001
00000100
00000000
00000010
00001000
00000001
00000010
00000001
00000000
00000010
00000100
00001000
00000001
,
00001000
00000000
00000001
00000010
00000100
00000010
00000000
00000001
00000100
00000000
00001000
00010000
00001000
00100000
00000000
00010000
,
10000000
00000000
01000000
00100000
01000000
10000000
00000000
00100000
01000000
00000000
00010000
00100000
01000000
00100000
00000000
00010000
,
10000000
00000000
00100000
01000000
00010000
00100000
00000000
00001000
00010000
00000000
00001000
00000000
00000000
00011000
00000000
00000000
,
00001000
00000000
00000100
00000001
00001000
00000001
00000000
00000010
00000100
00000000
00000010
00000001
00000100
00000010
00000000
00001000
,
00000100
00000000
00000010
00000001
00001000
00000010
00000000
00000100
00000001
00000000
00000100
00000000
00000000
00011000
00000000
00000000
,
00010000
00000000
01000000
10000000
00100000
01000000
00000000
00100000
10000000
00000000
00010000
00100000
01000000
00100000
00000000
00010000
,
10000000
00000000
00100000
01000000
00010000
10000000
00000000
01000000
00010000
00000000
00001000
00010000
00001000
00000000
00010000
00000000
,
00002000
00000000
00003200
00000000
00000302
00000000
00000013
00000100
00000010
00000000
00002000
00000000
00023000
00000000
01030000
10000000
,
00020000
02030000
23000000
30020000
00230000
20300000
30010000
00000000
,
10000000
01000000
00000000
00100000
00010000
00000000
10000000
00100000
00000000
01000000
00000000
00010000
00100000
00000000
00001000
00000000
,
00010000
00001000
00010000
00001000
00010000
00000000
00000100
00001000
00000100
00001000
00000100
00000010
00000001
00000000
00000100
00000000
,
00000001
00000000
00000010
00000000
00001000
00000000
00010000
00000000
00001000
00010000
00100000
00000000
01000000
00000000
00010000
00000000
,
01000000
00000000
01000000
00000000
00100000
00000000
10000000
01000000
00100000
00000000
00010000
00000000
10000000
01000000
00100000
00000000
,
00010000
01000000
00000000
00010000
10000000
00000000
00010000
00100000
00000000
01000000
00000000
00100000
00001000
00000000
00010000
00000000
,
00001000
00000000
00000100
00000010
00001000
00000000
00000100
00000010
00000002
00000000
00001003
00000001
00000010
00000000
00000001
00000000
,
00000100
00000000
00000010
00001000
00000001
00000000
00000010
00000001
00000100
00001000
00000100
00000000
00001000
00000000
00010000
00000000
,
00011000
00000110
01100000
00000000
00010000
01000000
00000000
00010000
10000000
00000000
01000000
00100000
00000000
01000000
00000000
00010000
,
00001000
00000000
00000100
00000000
00000010
00001000
00000010
00001000
00000001
00000000
00000010
00000001
00002000
00000000
00003001
00000100
,
00000010
00000000
00000100
00000000
00000010
00000001
00000010
00000000
00001000
00000100
00001000
00000000
00000100
00000000
00010000
00001000
,
00000000
00010000
01000000
00000000
00100000
00000000
00100000
00000000
00010000
00000000
01000000
10000000
01000000
00100000
10000000
00000000
,
01000000
00100000
00010000
00000000
10000000
01000000
00000000
10000000
00100000
00000000
01000000
00010000
00000000
00100000
00000000
00001000
,
00010000
00000000
00001000
00000000
00000010
00000100
00000010
00000100
00001000
00000000
00000010
00001000
00000002
00000000
00000103
00000010
,
00001000
00000000
00000000
00000000
00000000
00000000
00000100
00000000
00000000
00000000
00000000
00000000
00010000
00000000
00001000
00000000
00010000
00000000
00001000
00000000
00000000
00000000
00000000
00000000
01000000
00000000
00000000
00010000
00000000
00000000
01000000
00000000
00000000
00000000
00000000
00000000
00100000
00000000
00000000
00000000
00000000
00000000
01000000
00000000
00000000
00001000
00000000
00000000
,
00000000
00000000
00010000
00000000
00001000
00000000
00000000
00000000
00011000
00000000
01100000
00000000
00000110
00000000
00000000
00000000
00000001
00000000
00000100
00000000
00000001
00000000
00000010
00000001
00001000
00000001
00000010
00000000
00000001
00000000
00000100
00000010
,
00001000
00000000
00000100
00000000
00010000
00000000
00001000
00010000
00001000
01000000
00001000
00000000
00010000
00000000
00001000
00000000
00010000
00000000
01000000
00000000
10000000
00000000
01000000
00100000
00010000
00100000
01000000
00000000
10000000
00000000
00100000
01000000
,
00010000
00000000
10000000
00000000
00100000
00000000
10000000
01000000
00100000
00001000
00010000
00000000
00001000
00000000
00010000
00000000
00001000
00000000
00000100
00000000
00000010
00000000
00000100
00000001
00000010
00000001
00001000
00000000
00000001
00000000
00000010
00000100
,
00001000
00000000
00000001
00000000
00000100
00000000
00001000
00010000
00001000
00000000
00010000
00000000
00100000
10000000
00010000
00100000
01000000
10000000
00000000
00000000
00010000
00000000
00000000
00000000
00000000
00000000
00000000
00000000
00001000
00000001
00000000
00000000
,
00002000
00003000
00001000
00000000
00000000
00001000
00000000
00000000
00001000
00000000
00002000
00000000
00000000
00000000
00000000
00000000
00003001
00000000
00000100
00000000
00000000
00000000
00000100
00000000
00000010
00000000
00001000
00000000
00000000
00000000
00001000
00000000
,
00000100
00010000
00000000
00010000
00001000
00000000
00010000
00000000
01000000
10000000
00000000
10000000
00100000
01000000
00000000
01000000
,
00010000
00100000
00000000
00100000
00001000
00000000
00010000
00000000
00001000
00000100
00000000
00000100
00000001
00000010
00000000
00000010
,
00000001
00001000
00000000
00001000
00000100
00000000
00010000
00001000
00010000
00000000
00001000
00000000
00011000
00000000
00001000
00000000
,
00010000
00000000
02000000
00000000
10000000
00000000
03000000
00000000
00100000
00000000
00010000
00100000
01000000
00000000
00010000
00100000
,
01000000
00000000
00010000
00000000
00001000
00000000
00001000
00000000
00000100
00000000
00001000
00000100
00000010
00000000
00001000
00000100
,
00000010
00000000
00000001
00000000
00001000
00000001
00000000
00000001
00000010
00000000
00001000
00000000
00000010
00000000
00000001
00000000
,
00000100
00000000
00000000
00000000
00000000
00000000
00000000
00000000
00000000
00000000
00000000
00000000
00001000
00000000
00000000
00000000
00000000
00000000
00010000
00000000
00000000
00000000
00000000
00000000
00001000
00000000
00000000
00000000
00000000
00000000
00000000
00000000
00000000
00000000
00000000
00000000
00010000
00000000
00000000
00000000
00000100
00000000
00000000
00000000
00010000
00000000
00000000
00000000
00000100
00000000
00000000
00001000
00000000
00000000
00000000
00000000
00000000
00000000
00000000
00000000
00010000
00000000
00000000
00000000
00000000
00000000
00000000
00000000
00000000
00000000
00000000
00000000
10000000
00000000
00000000
00000000
00000000
00000000
00020000
00000000
00000000
00000000
00000000
00000000
00000000
00000000
00000000
00000000
00000000
00000000
00000000
00000000
00000000
00000000
00000000
00000000
,
10030000
00000000
00010000
10000000
00200000
00000000
10000000
00010000
00000000
00000000
00010000
10000000
00000000
00000000
10000000
00010000
,
00000000
00000000
00000000
00000000
00000000
00000000
00010000
00000000
00000000
10000000
00000000
00000000
00000000
00000000
00000000
00000000
00000000
00000000
10000000
00000000
00000000
00010000
00000000
00000000
00300000
00000000
00000000
00000000
00000000
00000000
00000000
00000000
00000000
00000000
00000000
00000000
00010000
00000000
00000000
00000000
01000000
00000000
00000000
00000000
01000000
00000000
00000000
00000000
,
00010000
00000000
10000000
00000000
01000000
00000000
00100000
00000000
10000000
00000000
00100000
00000000
00010000
00000000
00000000
02000000
00000000
00000000
00100000
00000000
00000000
03000000
00000000
00000000
,
00010000
00000000
00000100
00000000
00010000
00000000
00000100
00000000
00000000
00010000
00000000
00000000
00001000
00000000
00000000
00000000
00000000
00000000
00000000
00000000
00000000
00000000
00000000
00000000
00000110
00000000
00000000
00000000
00000000
00000000
00000100
00000000
00000000
00000000
00000000
00000000
00000001
00000000
00000000
00000000
00000000
00000000
00000010
00000000
00000000
00000000
00000000
00000000
,
00000001
00000000
00001000
00000100
00000020
00000000
00000001
00000100
00000000
00000000
00001000
00000100
00000000
00000000
00000001
00000100
,
00000000
00000000
00000000
00000000
00000000
00000000
00001000
00000000
00000000
00000100
00000000
00000000
00000000
00000000
00000000
00000000
00000000
00000000
00000001
00000000
00000000
00000100
00000000
00000000
00000030
00000000
00000000
00000000
00000000
00000000
00000000
00000000
00000000
00000000
00000000
00000000
00001000
00000000
00000000
00000000
00000100
00000000
00000000
00000000
00000100
00000000
00000000
00000000
,
00000010
00000001
00000101
00000001
00000011
00000010
00000110
00000100
,
00001000
00000000
00000100
00000000
00010000
00000000
00001000
00000000
00000000
00000000
00010000
00000000
00001000
00000000
00010000
00000000
00000100
00010000
00000100
00000000
00010000
00000000
00001000
00000000
,
00010000
00000000
01000000
10000000
00020000
00000000
10000000
01000000
00000000
00000000
01000000
10000000
00000000
00000000
10000000
01000000
,
00000000
00000000
00000000
00000000
00000000
00000000
01000000
00000000
00000000
10000000
00000000
00000000
00000000
00000000
00000000
00000000
00000000
00000000
10000000
00000000
00000000
01000000
00000000
00000000
00030000
00000000
00000000
00000000
00000000
00000000
00000000
00000000
00000000
00000000
00000000
00000000
01000000
00000000
00000000
00000000
10000000
00000000
00000000
00000000
10000000
00000000
00000000
00000000
,
00100000
00000000
00010000
00000000
00001000
00000000
00100000
00000000
00001000
00000000
00010000
00000000
00001000
00000000
00000000
00000200
00000000
00000000
00000010
00000000
00000000
00000300
00000000
00000000
,
00000001
00000000
00000010
00000000
00000001
00000000
00000010
00000000
00000000
00001000
00000000
00000000
00000010
00000000
00000000
00000000
00000000
00000000
00000000
00000000
00000000
00000000
00000000
00000000
00000110
00000000
00000000
00000000
00000000
00000000
00000000
00000000
00000000
00000000
00000000
00000000
00000001
00000000
00000000
00000000
00000000
00000000
00001000
00000000
00000000
00000100
00000000
00000000
,
00000002
00000000
00000100
00000010
00000000
00000000
00000100
00000010
00000000
00000000
00000010
00000100
00000000
00000000
00000010
00000100
,
00000000
00000000
00000000
00000000
00000000
00000000
00000100
00000000
00000000
00000010
00000000
00000000
00000000
00000000
00000000
00000000
00000000
00000000
00000100
00000000
00000000
00000010
00000000
00000000
00000003
00000000
00000000
00000000
00000000
00000000
00000000
00000000
00000000
00000000
00000000
00000000
00000100
00000000
00000000
00000000
00000001
00000000
00000000
00000000
00000001
00000000
00000000
00000000
,
00000010
00000000
00001000
00010000
00100000
00000000
10000000
00000000
10010000
00000000
10000000
00000000
11000000
00000000
01000000
10000000
,
00020000
00000000
00000000
00030000
,
10000000
00000000
01000000
00000000
00200000
00000000
01000000
10000000
00000000
10000000
01000000
00000000
00000000
00000000
01000000
10000000
,
00000000
10000000
01000000
00000000
00000000
00000000
01000000
10000000
00300000
10000000
01000000
00000000
00100000
00000000
00010000
00000000
,
10000000
01000000
10000000
01000000
00100000
00000000
01000000
00010000
00000000
00010000
00001000
00000000
00000010
00000000
00000100
00000010
,
00000100
00000010
00000001
00000000
00000100
00000000
00001000
00010000
00000000
00010000
00001000
00000000
00000100
00000000
00000010
00001000
,
00000001
00000000
00000100
00001000
00020000
00000000
00001000
01000000
00000000
01000000
00001000
00000000
00000000
00000000
00001000
01000000
,
00000000
01000000
00001000
00000000
00000000
00000000
00001000
01000000
00030000
01000000
00001000
00000000
00010000
00000000
01000000
10000000
,
01000000
00000000
00010000
00000000
00001000
00000000
00000100
00000010
00000100
00000001
00001000
00000000
00000001
00000000
00000010
00001000
,
00010000
00000100
00010000
00001000
00010000
00000000
00001000
01000000
00001000
00010000
00001000
00000000
00011000
00000000
00001000
00010000
,
00100000
00000000
10000000
01000000
00200000
00000000
01000000
00000000
01000000
00000000
01000000
00000000
10000000
00000000
01000000
00000000
,
01000000
00000000
01000000
00000000
00010000
00000000
01000000
00000000
01300000
00000000
01000000
00000000
10000000
00000000
00100000
01000000
,
00100000
00000000
00100000
00000000
00110000
00000000
00100000
00000000
10000000
00000000
10000000
00000000
01000000
00010000
00001000
00000000
,
00011000
00000000
00001000
00000000
00001010
00000000
00000010
00000001
00001000
00000000
00000001
00000000
00001001
00000000
00000001
00000100
,
00001000
00010000
00000100
01000000
00002000
01000000
00000100
01000000
00000000
01000000
00000100
01000000
00000000
01000000
00000100
01000000
,
00000000
01000000
00000100
01000000
00000000
01000000
00000100
01000000
00003000
01000000
00000100
01000000
00010000
00000000
00100000
01000000
,
10000000
00000000
00100000
01000000
00010000
00000000
10000000
01000000
00010000
00000000
00001000
00000100
00000001
00000000
00000100
00000001
,
00001000
00000001
00000010
00000100
00001000
00000000
00000001
00000100
00001000
00010000
00001000
00010000
01000000
00000000
00100000
00000000
,
00110000
00001000
00000000
00000000
;
