#TITLE:!CAUTION! small but deadly;
#ARTIST:Karl with a K;
#TITLETRANSLIT:CAUTION! small but deadly;
#BANNER:CAUTION! small but deadly.png;
#BACKGROUND:CAUTION! small but deadly-bg.png;
#JACKET:CAUTION! small but deadly-jacket.png;
#CDTITLE:./CDTITLES/NONE.PNG;
#MUSIC:CAUTION! small but deadly.ogg;
#SAMPLESTART:102.475;
#SAMPLELENGTH:15;
#DISPLAYBPM:208;
#BPMS:0=208;

//---------------dance-single - t7r----------------
#NOTES:
     dance-single:
     t7r:
     Beginner:
     1:
     :
0000
0000
0000
0000
,
0000
0000
0000
0000
,
0000
0000
0000
0000
,
0000
0000
0000
0000
,
0000
0000
0000
0000
,
0000
0000
0000
0000
,
0000
0000
0000
0000
,
0000
0100
0000
0000
,
0000
0000
0000
0000
,
0000
0010
0000
0000
,
0000
0000
0000
1000
0000
0000
0000
0000
,
0000
0000
0000
0000
,
0000
0000
0000
0001
0000
0000
0000
0000
,
0000
0000
0010
0000
,
0000
0000
0000
0000
,
0000
0000
0000
0000
,
0000
0000
0000
0000
0000
0100
0000
0000
,
0000
0000
0000
0000
,
0000
0000
0000
0000
0000
1000
0000
0000
,
0000
0000
0000
0000
,
0000
0000
0000
0000
,
0000
0000
0000
0000
,
0000
0000
0000
0000
,
0000
0000
0000
0000
,
0000
0000
0000
0000
,
0000
0000
0000
0000
,
0000
0001
0000
0000
0000
0000
0000
0000
,
0000
0000
0000
0000
,
0000
1000
0000
0000
0000
0000
0000
0000
,
0000
0000
0000
0000
,
0000
0010
0000
0000
0000
0000
0000
0000
,
0000
0000
0000
0000
,
0000
0100
0000
0000
0000
0000
0000
0000
,
0000
0000
0000
0000
,
0000
0000
0000
0000
0000
0010
0000
0000
,
0000
0000
0000
0000
0000
0010
0000
0000
,
0000
0000
0000
0000
0000
1000
0000
0000
,
0000
0000
0000
0000
0000
1000
0000
0000
,
0000
1000
0000
0000
0000
0000
0000
0000
,
0000
0001
0000
0000
0000
0000
0000
0000
,
0000
0010
0000
0000
0000
0000
0000
0000
,
0000
0100
0000
0000
0000
0000
0000
0000
,
0000
0000
0000
0000
0000
0010
0000
0000
,
0000
0000
0000
0000
0000
0010
0000
0000
,
0000
0000
0000
0000
0000
0100
0000
0000
,
0000
0000
0000
0000
0000
0100
0000
0000
,
0000
0000
0000
0000
0000
1000
0000
0000
,
0000
0000
0000
0000
0000
1000
0000
0000
,
0000
0000
0000
0000
0000
0001
0000
0000
,
0000
0000
0000
0000
0000
0001
0000
0000
,
0000
0001
0000
0000
0000
0000
0000
0000
,
0000
0000
0000
0000
,
0000
0100
0000
0000
0000
0000
0000
0000
,
0000
0000
0000
0000
,
0000
0010
0000
0000
0000
0000
0000
0000
,
0000
0000
0000
0000
,
0000
1000
0000
0000
0000
0000
0000
0000
,
0000
0000
0000
0000
,
0000
0100
0000
0000
0000
0000
0000
0000
,
0000
0000
0000
0000
,
0000
0000
0000
0000
,
0000
0000
0000
0000
,
0000
0000
0000
0000
0000
0000
0000
0000
0000
0000
0000
0000
0000
0000
0000
0000
0000
0000
0000
0000
0000
0010
0000
0000
0000
0000
0000
0000
0000
0000
0000
0000
,
0000
0000
0000
0000
,
0000
0000
0000
0000
,
0000
0000
0000
0000
,
0000
0000
0000
0000
,
0000
0001
0000
0000
0000
0000
0000
0000
,
0000
0000
0000
0000
,
0000
1000
0000
0000
0000
0000
0000
0000
,
0000
0000
0000
0000
,
0000
0010
0000
0000
0000
0000
0000
0000
,
0000
0000
0000
0000
,
0000
0100
0000
0000
0000
0000
0000
0000
,
0000
0000
0000
0000
,
0000
1000
0000
0000
0000
0000
0000
0000
,
0000
0000
0000
0001
,
0000
0000
0000
0000
,
0000
0000
0000
0100
0000
0000
0000
0000
,
0000
0000
0000
0000
0000
0010
0000
0000
,
0000
0000
0000
0000
,
0000
1000
0000
0000
,
0000
0000
0000
0000
0000
0000
0000
0001
,
0000
0000
0000
0000
,
0000
0000
0010
0000
,
0000
0000
0000
0100
,
0000
0000
0000
0000
0000
0000
0000
1000
,
0000
0000
0000
0000
,
0000
0000
0000
0000
,
0000
0000
0000
0010
0000
0000
0000
0000
,
0000
0000
0000
0010
0000
0000
0000
0000
,
0000
0000
0000
1000
0000
0000
0000
0000
,
0000
0000
0000
0000
,
0000
0000
0000
0001
0000
0000
0000
0000
,
0000
0000
0000
0001
0000
0000
0000
0000
,
0000
0000
0000
0010
0000
0000
0000
0000
,
0000
0000
0000
0000
,
0000
0100
0000
0000
0000
0000
0000
0000
,
0000
0100
0000
0000
0000
0000
0000
0000
,
0000
1000
0000
0000
0000
0000
0000
0000
,
0000
1000
0000
0000
,
0000
0000
0000
0001
0000
0000
0000
0000
,
0000
0000
0100
0000
,
0000
0000
0000
0000
0000
0010
0000
0000
,
0000
0000
1000
0000
,
0000
0000
0000
0000
0000
0000
0000
0001
,
0000
0000
0000
0000
0000
0000
0000
0001
,
0000
0000
0000
0000
0000
0000
0000
1000
,
0000
0000
0000
0000
0000
0000
0000
1000
,
0000
0000
0000
0000
0000
0000
0000
0010
,
0000
0000
0000
0000
0000
0000
0000
0010
,
0000
0000
0000
0000
0000
0000
0000
0100
,
0000
0000
0000
0000
0000
0000
0000
0100
,
0000
0000
0000
0000
,
0000
0000
0001
0000
0000
0000
0000
0000
0000
0000
0000
0001
0000
0000
0000
0000
,
0000
0000
0000
0000
0001
0000
0000
0000
0000
0000
0000
0000
0000
0000
0000
1001
;

//---------------dance-single - t7r----------------
#NOTES:
     dance-single:
     t7r:
     Easy:
     11:
     :
0000
0000
0000
0000
,
0000
0000
0000
0000
,
0000
0000
0000
0000
,
0000
0000
0000
0000
,
0000
0000
0000
0000
,
0000
0000
0000
0000
,
0000
0000
0000
0000
,
0000
0001
0010
0100
,
0000
1000
0000
0001
0000
0100
0000
0010
,
0000
1000
0100
0010
,
0001
0001
0000
1000
0000
0010
0000
0100
,
0000
0001
1000
0100
,
0010
0000
0000
0001
0000
0100
0000
0010
,
0000
1000
1000
0000
0001
0000
0010
0000
,
0001
0010
0100
0010
,
0100
0010
0100
1000
,
0100
0000
1000
0000
0001
0001
0000
0100
,
0000
0010
0000
0000
1000
0000
0001
0000
,
0010
0000
0100
0000
0000
1000
0000
0010
,
0000
0100
0000
0001
0001
0000
1000
0000
,
0000
0000
0100
0000
0000
0000
0000
0000
0000
0010
0000
0000
0000
0010
0000
0000
,
0000
0000
0000
0001
0000
0000
0000
0000
0000
0100
0000
0000
0000
0000
0010
0000
,
0000
0000
0010
0000
0000
0000
1000
0000
0000
0000
0000
0000
0001
0000
0000
1000
,
0000
0000
0000
1000
0000
0000
0000
0000
0001
0000
0000
0000
1001
0000
0000
0000
,
0000
1000
0000
1000
0000
0000
0000
0000
0010
0000
0000
0000
0110
0000
0000
0000
,
0000
1000
0000
0000
0000
0001
0000
0000
0000
0000
1000
0000
0000
0000
1001
0000
,
0000
1000
0000
0100
0000
0010
0000
0100
,
0000
0001
0000
0100
0000
1000
0000
0010
,
0000
0100
0000
0010
0000
0100
0000
1000
,
0000
0100
0000
0010
0000
0100
0000
0001
,
0000
0010
0000
0100
0000
1000
0000
0001
,
0000
0100
0000
0010
0000
1000
0000
0100
,
0000
0001
0000
0100
0000
1000
0000
0010
,
0000
0100
0000
0010
0000
1001
0000
0000
,
0000
1000
0000
0100
0000
0010
0000
0100
,
0000
0001
0000
0100
0000
1100
0000
0000
,
0000
0001
0000
0100
0000
0010
0000
0100
,
0000
1000
0000
0100
0000
0101
0000
0000
,
0000
0000
0000
0001
0000
0000
0000
0000
0000
0000
0000
0010
0000
0000
0000
0001
0000
0000
0000
0000
0000
0000
0000
0001
,
0000
0000
0000
0100
0000
0000
0000
0000
0000
0000
0000
0100
0000
0000
0000
0010
0000
0000
0000
0000
0000
0000
0000
0010
,
0000
0000
0000
1000
0000
0000
0000
0100
0000
0000
0000
1000
0000
0000
0000
0001
0000
0000
0000
0000
0000
0000
0000
0001
,
0000
0000
0000
0100
0000
0000
0000
0001
0000
0000
0000
1000
0000
0000
0000
0010
0000
0000
0000
0000
0000
0000
0000
0000
,
0000
0100
0000
0000
0000
2001
0000
0000
,
0000
3100
0000
0010
0000
1002
0000
0000
,
0000
0103
0000
0000
0000
2001
0000
0000
,
0000
3100
0100
0000
0000
1002
0000
0000
,
0000
0103
0000
0000
0000
2010
0000
0000
,
0000
3100
0000
0100
0000
0012
0000
0000
,
0000
0103
0100
0000
0000
2010
0000
0000
,
0000
3100
0000
0010
0000
2002
0000
3003
,
0000
0001
0000
0010
0000
0001
0000
0010
,
0000
0100
0000
0010
0000
0100
0000
0010
,
0000
1000
0000
0010
0000
1000
0000
0010
,
0000
0100
0000
0010
0000
0100
0000
0010
,
0000
0001
0000
0100
0000
0001
0000
0100
,
0000
0010
0000
0100
0000
0010
0000
0100
,
0000
1000
0000
0100
0000
1000
0000
0100
,
0000
0010
0000
0100
0000
0001
0000
1000
,
0000
2002
0000
0000
0000
0000
0000
0000
,
0000
0000
0000
0000
,
0000
0000
0000
3003
0000
0000
0000
0000
,
0000
0000
0000
0000
,
0000
0000
0000
0000
0000
0000
0000
0000
0000
0000
0000
0000
0000
0000
0000
0000
0000
0000
0000
0000
0000
2000
0000
0000
0000
0000
0000
0000
0000
0000
0000
0000
,
0000
0000
0000
0000
0000
0000
0000
3100
0000
0000
0000
0000
0000
0000
0000
0000
0000
0000
0000
0000
0000
0000
0020
0000
0000
0000
0000
0000
0000
0000
0000
0000
,
0000
0000
0000
0000
0000
0100
0000
0000
0000
0000
0000
0000
0000
0000
0130
0000
0000
0000
0000
0000
0000
0000
0000
0000
0000
0000
0000
0000
2000
0000
0000
0000
,
0000
0000
0000
0000
,
0000
0000
0000
3000
0000
0000
0000
0010
,
0000
0200
0000
0001
0000
0310
0000
0000
,
0000
2000
0000
0100
0000
3001
0000
0000
,
0000
1000
0000
0100
0000
0010
0000
0100
,
0000
0001
0000
0100
0000
1000
0000
0010
,
0000
0200
0000
1000
0000
0310
0000
0000
,
0000
2000
0000
0100
0000
3001
0000
0000
,
0000
0010
0000
0001
0000
0100
0000
1000
,
0000
0200
0000
0310
0000
1000
0001
1000
,
0000
0001
0000
0000
0100
0000
0000
0010
,
0000
1001
0000
1000
,
0000
0100
0000
0000
0110
0000
0000
0000
,
0001
1000
0000
0001
0000
0000
0100
0000
,
0000
0110
0000
0000
0000
1000
0000
0000
,
0100
0000
0000
0110
0000
0000
0011
0000
,
0001
1000
0001
0000
0000
0101
0000
0000
,
1010
0000
0000
1100
0000
0000
0000
1000
,
0000
0000
1100
0000
0000
0110
0000
0000
,
0000
1000
0001
0000
0100
0000
0000
0110
,
0000
1010
0000
1000
,
0000
1100
0000
0000
0110
0000
0000
2001
,
0000
0000
0000
0000
0000
0000
3001
0000
0000
0100
0000
0000
0000
0100
0000
0000
,
0000
0100
0000
0000
0000
0100
0000
0000
0000
0100
0000
0000
0000
0010
0000
0000
,
0000
1000
0000
0100
1000
0100
0000
1000
,
0000
0001
0000
0100
0001
0100
0000
0001
,
0000
1000
0000
0010
1000
0010
0000
1000
,
0000
0001
0000
0010
0000
0100
0000
1000
,
0000
0001
0000
0010
0001
0010
0000
0001
,
0000
1000
0000
0010
1000
0010
0000
1000
,
0000
0001
0000
0010
0100
0010
0000
0001
,
0000
0100
0000
0010
0000
1000
0000
0100
,
0000
0010
0100
0010
0000
0001
0000
1000
,
0001
0000
0100
0001
0100
0000
0001
1000
,
0000
0001
0000
0010
0001
0010
0000
0001
,
0000
1000
0010
1000
0010
1000
0000
0001
,
0000
1000
0000
0100
0000
0010
0100
0010
,
0000
0010
0000
0010
0001
0000
1000
0001
,
1000
0000
1000
0000
1000
0001
0000
0100
,
0010
0100
0000
0100
0000
0100
0010
0000
,
1000
0100
0010
0000
0001
1000
0000
0010
,
0000
1000
0000
0001
0000
1001
0000
0001
,
0000
0010
0000
0100
0000
1000
0000
0010
,
0000
0100
0000
0001
0000
1001
0000
1000
,
0000
0010
0000
0100
0000
0001
0000
1000
,
0000
0100
0000
0001
0000
1100
0000
0001
,
0000
0100
0000
1000
0000
0101
0000
1000
,
0000
0100
0000
0010
0000
1001
0000
0001
,
0000
0100
0000
0010
0000
0000
1001
0000
,
0000
0000
0001
0000
0000
0000
1010
0000
0000
0000
0000
1000
0000
0000
0000
0011
,
0000
0000
0000
0000
0001
0000
0000
0000
0000
0000
0000
0110
0000
0000
0000
2001
,
0000
0000
0000
0000
0000
0000
0000
0000
0000
0000
0000
0000
0000
0000
0000
0001
,
0000
0000
0000
0001
0000
0000
0000
0001
0000
0000
0000
3001
0000
1000
0000
0001
,
0000
1000
0000
0002
0000
0000
0000
0000
0000
0000
0000
0000
0000
0000
0000
0000
,
0000
0000
0000
0000
0000
0003
0000
0000
0000
0000
0000
0000
0000
0000
0000
0000
;

//---------------dance-single - t7r----------------
#NOTES:
     dance-single:
     t7r:
     Medium:
     14:
     :
0000
0000
0000
0000
,
0000
0000
0000
0000
,
0000
0000
0000
0000
,
0000
0000
0000
0000
,
0000
0000
0000
0000
,
0000
0000
0000
0000
,
0000
0000
0000
0000
,
0000
1000
1100
0101
,
1000
0100
0010
0100
1000
0001
0000
0100
,
0010
0101
0011
1001
,
0001
0010
0010
0001
0000
0101
0000
1100
,
0000
0001
0100
0010
0100
0001
1000
0000
,
0100
0010
0000
1100
0000
1010
0000
1001
,
0000
1000
0010
0010
1000
0000
0100
0010
,
0100
0001
0100
0010
0100
1000
0100
0010
,
0100
0001
0100
0010
0100
1000
0010
0100
,
0010
0001
0010
0100
0010
1000
0000
1010
,
0000
0011
0000
1000
0010
0100
0010
1000
,
0001
0000
0010
0100
0000
0011
0000
0101
,
0000
1001
0000
0001
0100
0100
0001
0000
,
0100
0000
0010
0000
0000
0100
0000
0000
0000
1000
0000
0000
0000
0100
0000
0000
,
0010
0000
0000
0100
0000
0001
0000
1000
0000
0100
0000
0010
0000
0000
0100
0000
,
0000
0000
1000
0000
0000
0000
0100
0000
0000
0001
0000
0000
0100
0000
0010
0000
,
0001
0000
0000
1001
0000
0000
0000
0000
1000
0000
0000
0000
1100
0000
0000
0000
,
0000
0001
0000
0000
1000
0000
0000
0000
0010
0000
0000
0000
0100
0000
0000
0000
,
0000
1001
0000
0000
0000
0011
0000
0000
0000
0000
1000
0000
0100
0000
1000
0000
,
1000
0001
0100
0010
0100
1000
0100
0010
,
0100
0001
0010
0100
1000
0001
0010
0100
,
1000
0001
0010
0100
0001
0100
0010
0001
,
1000
0010
0100
0001
1000
0010
0100
0010
,
0000
1001
0000
1000
0100
0010
0100
0001
,
0100
0010
0100
1000
0010
0100
0001
1000
,
0010
0100
0000
1010
0000
0100
0000
0011
,
0000
0000
0000
1000
0000
0001
0000
1000
0000
0001
0000
0000
0100
0000
0000
0110
0000
0000
0000
0000
0000
0000
0000
0000
,
0000
0001
0100
0010
0000
0001
0010
0100
,
0000
0001
0010
0100
0000
2002
0000
3003
,
0000
1000
0100
0010
0000
1000
0010
0100
,
0000
1000
0010
0100
0000
0220
0000
0330
,
0000
0000
0000
1000
0000
0000
0000
0100
0000
0000
0000
0010
0000
0000
0000
0001
0000
0000
0000
1000
0000
0000
0000
1001
,
0000
0000
0000
0001
0000
0000
0000
0100
0000
0000
0000
0010
0000
0000
0000
1000
0000
0000
0000
0001
0000
0000
0000
1001
,
0000
0000
0000
1000
0000
0000
0000
0100
0000
0000
0000
0010
0000
0000
0000
1000
0000
0000
0000
0010
0000
0000
0000
0110
,
0000
0000
0000
0001
0000
0000
0000
0100
0000
0000
0000
0010
0000
0000
0000
0001
0000
0000
0000
0010
0000
0000
0000
0110
,
0000
1000
0100
0001
0000
2100
0000
3001
,
1000
0001
0100
0001
0000
1002
0000
0103
,
1000
0100
0000
0010
0000
1002
0000
0013
,
0000
0001
0100
0000
0001
2000
0000
3100
,
0001
0000
0100
0010
0000
0012
0000
0103
,
0000
1000
0000
0100
0010
2000
0000
3100
,
0010
0000
1000
0000
0010
0002
0000
1003
,
0010
0100
0001
1000
0000
0220
0000
0330
,
0000
1000
0010
1000
0010
0001
0010
0001
,
0010
0100
0010
0100
0010
0001
0010
0001
,
0010
1000
0100
1000
0100
0010
0100
0010
,
0100
0001
0100
0001
0100
0010
0100
0010
,
0100
1000
0100
0010
0100
0001
0100
0010
,
0100
1000
0100
0010
0100
0001
0100
0010
,
0100
1000
0010
0100
0010
0001
0010
0100
,
0010
0000
0000
1000
0000
0000
0100
0000
0000
0010
0000
0000
0000
0000
0000
0001
0000
0000
0000
0000
0000
1000
0000
0001
,
0000
1000
0000
0020
0000
0000
0000
0000
0000
0000
0000
0000
0000
0000
0000
0000
0000
0000
0000
0000
0000
0000
0000
0000
,
0000
0000
0000
0000
,
0000
0000
0000
0030
0000
0000
0000
0000
,
0000
0000
0000
0000
,
0000
0000
0000
0000
0000
0000
0000
0000
0000
0000
0000
0000
0000
0000
0000
0000
0000
0000
0000
0000
0000
1000
0000
0000
0000
0000
0000
0000
0000
0000
0000
1000
,
0000
0000
0000
0000
0000
0000
0000
0100
0000
0000
0000
0000
0000
0000
0000
0010
0000
0000
0000
0000
0000
0000
0200
0000
0000
0000
0000
0000
0000
0000
0000
0000
,
0000
0000
0000
0000
0000
1300
0000
0000
0000
0000
0000
0000
0000
0000
0010
0000
0000
0000
0000
0000
0000
0000
0000
0000
0000
0000
0000
0000
0200
0000
0000
0000
,
0000
0000
0000
0000
,
0000
0000
0000
0300
0000
0000
0000
0010
,
0100
0002
0000
0010
0000
1003
0000
0000
,
0000
0200
0000
1000
0000
0310
0000
0000
,
0000
0001
0000
0100
0002
0000
0000
1003
,
0000
0010
0000
0100
0001
0000
1000
0001
,
0000
2000
0000
0001
0000
3010
0000
0010
,
0000
0200
0000
1000
0000
0310
0000
0100
,
0001
1000
0000
0100
0000
0010
0000
0100
,
0000
0002
0000
0103
0000
1000
1000
0001
,
0001
1000
0000
0000
1100
0000
0000
1100
,
0000
1001
0000
0001
,
0000
0101
0000
0000
1001
0000
0000
0000
,
0001
1000
0001
0010
0000
0000
0110
0000
,
0000
1001
0000
0000
0000
0101
0000
0000
,
0110
0000
0000
1010
0000
0000
1001
0000
,
1000
0001
1000
0000
0000
1100
0000
0000
,
0011
0000
0000
1001
0000
0000
0000
0001
,
0000
0000
0011
0000
0000
0110
0000
0000
,
0000
1000
0001
1000
0010
0000
0000
1010
,
0000
1001
0000
0101
,
0000
0110
0000
0000
1001
0000
0000
2010
,
0000
0000
0000
0000
0000
0000
3001
0000
0000
0100
0000
0000
0000
0100
0000
0000
,
0000
0100
0000
0000
0000
0100
0000
0000
0000
0100
0000
0000
0000
0100
0010
0000
,
1000
0001
0010
0100
0010
0001
0100
0010
,
1000
0001
0010
0100
0010
0001
0100
0010
,
1000
0001
0010
0100
0010
1000
0010
0100
,
0010
0001
0000
1000
0010
0100
0001
1000
,
0001
1000
0010
0100
0010
1000
0100
0010
,
0001
1000
0010
0100
0010
1000
0100
0010
,
0001
1000
0010
0100
0010
0001
0010
0100
,
0010
1000
0100
0001
0000
0100
1000
0010
,
0100
0010
1000
0001
0000
1100
0000
0001
,
0010
0000
0001
0100
0010
0000
0001
0010
,
0000
0100
0010
0100
1000
0100
0000
0010
,
1000
0001
1000
0100
0001
0000
0100
0010
,
0100
1000
0010
0100
0010
0100
0100
0001
,
1000
0001
0010
0001
0100
0010
0100
0100
,
0001
1000
0001
0010
0001
1000
0100
0010
,
1000
0001
0100
0010
0100
0001
0100
1000
,
0010
0100
1000
0001
0010
0100
0000
1010
,
0000
1001
0000
1001
0000
1001
0000
1000
,
0000
1000
0100
0000
0000
0100
0010
0000
0000
0010
0001
0000
0000
0001
1000
0000
,
0000
1100
0000
1001
0000
0101
0000
0001
,
0000
0001
0010
0000
0000
0010
0100
0000
0000
0100
1000
0000
0000
0000
0010
0000
,
0100
0000
0000
0000
0010
0000
0000
0000
0001
0000
0000
0000
0010
0000
0000
0000
0000
0000
0000
0000
1000
0000
0000
0001
0000
0000
1000
0000
0000
0001
0000
0000
,
0000
0000
0000
0000
0010
0000
0000
0000
0100
0000
0000
0000
0010
0000
0000
0000
0001
0000
0000
1000
0000
0000
0001
0000
0000
1000
0000
0000
0010
0000
0000
0000
,
0100
0000
0000
0000
1000
0000
0000
0000
0100
0000
0000
0000
0010
0000
0000
0000
0100
0000
0000
0000
0001
0000
0000
1000
0000
0000
0001
0000
0000
1000
0000
0000
,
0001
0000
0000
0000
0010
0000
0000
0000
0100
0000
0000
0000
1000
0000
0000
0000
0001
0000
0000
0000
0010
0000
0000
0000
0100
0000
0000
1000
0000
0000
0001
0000
,
0000
1000
0000
0000
0010
0000
0000
0000
0000
0000
0000
0000
1100
0000
0000
0000
0000
0000
0000
0000
0000
0000
0010
0000
0000
0000
0000
0000
0000
0000
0101
0000
,
0000
0000
0000
0000
0010
0000
0000
0100
0000
0000
0000
1001
0000
0000
0000
0210
,
0000
0000
0000
0010
0000
0000
0000
0010
0000
0000
0000
0010
0000
0000
0000
0310
,
0000
0100
0000
0010
0000
0100
0000
0010
0000
0100
0000
0010
0000
0100
0000
0010
,
0000
1000
0000
0002
0000
0000
0000
0000
0000
0000
0000
0000
0000
0000
0000
0000
,
0000
0000
0000
0000
0000
0003
0000
0000
0000
0000
0000
0000
0000
0000
0000
0000
;

//---------------dance-single - t7r----------------
#NOTES:
     dance-single:
     t7r:
     Hard:
     17:
     :
0000
0000
0000
0000
,
0000
0000
0000
0000
,
0000
0000
0000
0000
,
0000
0000
0000
0000
,
0000
0000
0000
0000
,
0000
0000
0000
0000
,
0000
0000
0000
0000
,
0000
0000
0000
0000
1000
0000
0100
0010
0100
0000
1000
0000
0001
0000
0100
0000
,
0010
0100
0010
0000
1000
0000
0001
0010
0001
0000
1000
0000
0001
0000
1000
0010
,
1000
0000
0001
0000
0100
0001
1000
0000
0100
1000
0001
0000
1000
0000
0000
0000
,
0001
0000
0001
0000
1000
0000
0001
0000
0100
0010
0100
0000
0001
0000
1000
0000
,
0100
0000
0010
0100
0010
0000
0001
0000
1000
0010
1000
0000
0001
0000
1000
0000
,
0001
0010
0001
0000
1000
0000
0100
1000
0001
0000
0100
0001
1000
0000
0001
0000
,
0000
0000
1000
0000
1000
0000
0001
0000
1000
0000
0100
0010
0001
0000
0001
0000
,
0100
0001
0100
0000
0010
0000
0010
0000
1000
0001
1000
0000
0001
0000
0001
0000
,
0010
0100
0010
0000
0100
0000
0100
0000
1000
0010
1000
0000
0001
0000
0001
0000
,
1000
0100
1000
0000
0001
0010
0001
0000
1000
0000
0001
0000
0100
0001
1000
0000
,
0001
0000
0010
0000
0100
0000
0010
0001
1000
0000
0001
0000
1000
0010
0100
0000
,
0010
0000
1000
0000
0001
0010
0100
0000
1000
0000
0001
0100
0010
0000
1000
0100
,
0010
0000
0001
0000
0000
0000
1000
0000
1000
0000
0001
0000
1000
0010
1000
0000
,
0001
0000
1000
0010
0000
1000
0001
1000
0000
0001
1000
0001
0000
1000
0100
1000
,
0100
1000
0000
0001
0100
0001
0100
0001
0000
1000
0000
0001
1000
0000
0001
0010
,
0001
0000
1000
0001
1000
0000
0001
0100
0001
0100
0001
0000
1000
0100
1000
0100
,
1000
0001
0000
1000
0000
0000
0000
0000
0001
0010
0001
0000
1000
0001
0000
0000
,
0000
1000
0010
1000
0001
0000
0000
0000
1000
0100
1000
0000
0001
0000
0000
0000
,
0000
1000
0001
0000
0000
0001
1000
0000
0000
0000
0001
0100
0001
0100
0001
1000
,
0001
1000
0001
0000
0010
0100
0010
0000
0100
0000
0001
0000
0100
0000
0010
0100
,
0010
0100
1000
0010
0100
1000
0100
0010
,
0100
0000
0001
0010
0001
0000
1000
0000
0010
0000
0100
0000
1000
0000
0100
0000
,
0010
0000
0100
0001
0100
0000
0001
0000
0010
0000
0100
0000
1000
0000
0001
1000
,
0010
0000
1000
0000
0001
0010
0001
0000
0010
0000
0100
0000
0010
0000
1000
0010
,
0100
0000
0010
0000
0001
0100
0010
0000
0001
0000
0010
0000
0100
0010
0100
0000
,
0010
0000
1000
0000
0100
1000
0001
0000
0100
0001
1000
0000
0001
0000
1000
0000
,
0100
0000
0000
1000
0000
0010
0000
0100
0000
0001
0000
0000
1000
0000
0000
1010
0000
0000
0000
0000
0000
0000
0000
0000
,
0000
0000
0010
1000
0010
0000
0100
0000
0001
0000
0010
0001
0010
0000
0100
0000
,
1000
0000
0010
0100
0010
0000
0100
0000
0001
0000
2002
0000
0000
0000
3003
0000
,
0000
0000
1000
0100
1000
0000
0010
0000
0100
0000
0001
0010
0001
0000
0100
0000
,
0010
0000
1000
0100
1000
0000
0001
0000
1000
0000
2020
0000
0000
0000
3030
0000
,
0000
0000
0000
1000
0000
0000
0000
0001
0000
0000
0000
0101
0000
0000
0000
0001
0000
0000
0000
1000
0000
0000
0000
1100
,
0000
0000
0000
1000
0000
0100
0000
0010
0000
0000
0000
0100
0000
0000
0000
0001
0000
0100
0000
0010
0000
0000
0000
0100
,
0000
0000
0000
1000
0000
0000
0000
0001
0000
0000
0000
1100
0000
0000
0000
0001
0000
0000
0000
1000
0000
0000
0000
0101
,
0000
0000
0000
1001
0000
0000
0000
1001
0000
0000
0000
1010
0000
0000
0000
1001
0000
0000
0000
1001
0000
0000
0000
0011
,
0000
1000
0100
0010
0000
2100
0000
3001
,
0100
0010
0100
1000
0000
0102
0000
1003
,
0100
0010
0000
1000
0010
0002
0000
0103
,
0000
1000
0100
0000
0001
2000
0000
3100
,
0010
0000
0100
0001
0000
2100
0000
3001
,
0000
1000
0000
0001
0100
0020
0000
0031
,
0010
0000
1000
0001
0000
1200
0000
0310
,
0100
1000
0010
0100
0000
2002
0000
3003
,
0000
1000
0100
0010
0100
0001
0100
0010
,
0100
1000
0100
0001
0100
1000
0100
0001
,
0100
1000
0010
0100
0010
0001
0010
0100
,
0010
1000
0010
0001
0010
1000
0010
0001
,
0010
0100
1000
0001
0010
1000
0001
1000
,
0100
0010
1000
0001
0100
1000
0001
1000
,
0010
0100
1000
0001
0010
1000
0100
0010
,
1000
0000
0001
0000
0100
0000
1000
0000
0010
0000
0200
0000
0000
0000
0301
1000
,
0001
1000
0020
0000
0000
0000
0000
0000
0000
0000
0000
0000
0000
0000
0000
0000
,
0000
2030
0000
0000
0000
3100
0000
0200
,
0000
0000
0000
0020
0000
0000
0000
0000
,
0000
0000
0000
0000
,
0000
0000
0000
0000
0000
0000
0000
0000
0000
0000
0000
0000
0330
0000
0000
0000
0000
0000
0000
0000
0000
0002
0000
0000
0000
0000
0000
0000
0000
0000
0000
0100
,
0000
0000
0000
0000
0000
0000
0000
1000
0000
0000
0000
0000
0000
0000
0000
1003
0000
0000
0000
0000
0000
0000
0020
0000
0000
0000
0000
0000
0000
0000
0000
0000
,
0000
0000
0000
0000
0000
0001
0000
0000
0000
0000
0000
0000
0000
0000
0130
0000
0000
0000
0000
0000
0000
0000
0000
0000
0000
0000
0000
0000
0002
0000
0000
0000
,
0000
0000
0000
0000
,
0000
0000
0000
0003
0000
0000
0000
1000
,
0000
0001
0100
0010
0000
2000
0000
3001
,
0010
0200
0000
1300
0010
0000
0100
0010
,
0000
0001
0000
0010
1000
0001
0010
0100
,
0000
2000
0000
0010
0000
0001
0000
3001
,
0000
1000
0100
0010
0000
0002
0000
1003
,
0010
0200
0000
0301
0010
0000
0100
0010
,
0000
1000
0000
0010
0001
1000
0010
0100
,
0000
0000
0002
0000
0000
0000
0010
0000
0000
0000
1003
0001
1000
0001
1000
0001
,
1000
0001
1000
0000
0000
0000
0000
0000
1100
0000
0000
0000
0000
0000
1001
0000
,
0000
1010
0000
0001
,
0000
1001
0000
0000
0101
0000
0000
0000
,
0001
0010
0010
0100
0000
0000
0110
0000
,
0000
1001
0000
0000
0000
1000
0000
0000
,
1010
0000
0000
0011
0000
0000
1001
0000
,
0001
0100
0010
0000
0000
0101
0000
0000
,
0110
0000
0000
1010
0000
0000
0000
1001
,
0000
0000
1100
0000
0000
0011
0000
0000
,
0000
1000
0010
0010
0100
0000
0000
0110
,
0000
1001
0000
0101
,
0000
0110
0000
0000
1001
0000
0000
2100
,
0000
0000
0000
0000
0000
0000
3001
1000
0001
0100
0000
0000
0000
0100
0000
0000
,
0000
0100
0000
0000
0000
0100
0000
0000
0000
0100
0000
0000
0000
0100
0010
0000
,
1000
0000
0001
0010
0001
0010
0001
0000
0100
0000
0010
0000
1000
0000
0001
0010
,
0001
0000
1000
0010
1000
0010
1000
0000
0100
0000
0010
0000
0001
0000
1000
0010
,
1000
0000
0001
0100
0001
0100
0001
0000
0010
0000
0100
0000
1000
0000
0001
0100
,
0001
0000
1000
0100
0010
0100
1000
0000
0100
0000
0001
0000
1000
0000
0010
0100
,
0010
0000
0001
0100
0010
0100
0001
0000
1000
0000
0001
0000
0010
0000
0100
1000
,
0001
0000
1000
0010
0100
0010
1000
0000
0001
0000
1000
0000
0100
0000
0010
0100
,
1000
0000
0001
0000
0100
0010
0100
0000
1000
0100
1000
0000
0100
0010
0100
0000
,
0001
0000
0010
0100
1000
0100
0010
0000
0001
0000
1000
0000
0010
0100
0001
0000
,
0010
0100
1000
0000
0001
0000
1100
0000
0000
0000
1001
0000
0000
0000
0001
0000
,
1100
0000
0001
1000
0101
0000
1000
1001
,
0000
0001
0100
0100
0010
0110
0000
1000
,
0100
0100
0010
0100
0110
0000
1001
0000
,
1000
0000
0001
0000
0010
0000
0001
0000
0100
0001
0100
0000
0010
0000
0100
0000
,
0100
0000
1000
0000
1000
0000
0100
0000
0010
0000
1000
0000
0100
1000
0100
0000
,
0010
0000
0100
0000
0100
0000
0001
0000
0001
0000
0100
0000
0010
0100
1000
0000
,
0010
0000
0100
0000
0001
1000
0010
0000
1000
0000
0010
0000
0100
0001
0010
0000
,
0100
1000
0010
0000
0100
0001
0010
0000
0100
0000
2000
0000
0000
0000
3001
0000
,
0000
0100
0001
1000
0001
0000
0100
0000
0000
0001
1000
0001
0100
0000
0001
0000
,
0000
1000
0001
1000
0100
0000
1000
0000
0000
0001
1000
0001
0100
0000
0001
0000
,
0000
1000
0001
1000
0100
0000
1000
0000
0000
0001
1000
0001
0010
0000
0001
0000
,
0000
1000
0001
1000
0010
0000
1000
0000
0001
1000
0010
0000
0000
0000
1000
0000
,
0100
0000
0010
0000
0001
0000
0000
0000
0000
0000
0000
0000
0100
0000
0000
0000
0001
0000
1000
0000
0001
0000
0000
0010
0000
0000
0100
0000
0000
0001
0000
0000
,
0100
0000
0000
0000
1000
0000
0010
0000
0100
0000
0000
0000
0000
0000
0000
0000
0010
0000
0000
1000
0000
0000
0100
0000
0000
0010
0000
0000
1000
0000
0000
0000
,
0010
0000
0000
0000
0100
0000
1000
0000
0001
0000
0000
0000
0000
0000
0000
0000
0100
0000
0000
0000
1000
0000
0000
0100
0000
0000
0010
0000
0000
0100
0000
0000
,
0001
0000
0000
0000
1000
0000
0100
0000
0010
0000
0000
0000
0000
0000
0000
0000
0001
0000
0100
0000
0010
0000
0000
0000
0001
0000
0000
0010
0000
0000
0100
0000
,
0000
0001
0000
0000
1000
0000
0100
0000
0000
0000
0000
0000
1001
0000
0000
0000
0000
0000
0000
0000
0000
0000
0001
0000
0100
0000
0000
0000
0000
0000
1001
0000
,
0000
0000
0000
0000
1000
0010
0100
0000
0000
0000
0000
1010
0000
0000
0000
2001
,
0000
0000
0000
3001
0000
1000
0000
0001
0000
1000
0000
0001
0000
1000
0000
0001
,
0000
1000
0000
0001
1000
0001
1000
0001
1000
0001
1000
0001
1000
0001
1000
0100
,
0010
0001
0100
0020
0000
0000
0000
0000
0000
0000
0000
0000
0000
0000
0000
0000
,
0000
0000
0000
0000
0000
0030
0000
0000
0000
0000
0000
0000
0000
0000
0000
0000
;

//---------------dance-single - t7r----------------
#NOTES:
     dance-single:
     t7r:
     Challenge:
     19:
     :
0000
0000
0000
0000
,
0000
0000
0000
0000
,
0000
0000
0000
0000
,
0000
0000
0000
0000
,
0000
0000
0000
0000
,
0000
0000
0000
0000
,
0000
0000
0000
0000
,
0000
0000
0000
0000
1000
0000
0100
1000
0001
0000
0100
0001
1000
0000
0100
0000
,
1000
0001
0100
0000
0001
0000
1000
0010
0100
0010
1000
0000
0001
0100
0010
0000
,
1000
0000
0100
0000
0010
0100
1000
0010
0100
0001
1000
0100
0010
0001
1000
0000
,
0110
0000
0110
0000
0110
0000
1000
0100
0010
0000
0001
0000
0100
0000
0010
0000
,
0100
0000
0001
1000
0100
0000
1000
0000
0001
0010
0100
0000
1000
0000
0010
0000
,
0100
0001
1000
0000
0100
0000
0010
0100
1000
0010
0100
0001
1000
0100
0010
0001
,
0100
0000
1001
0000
1001
0000
1001
0000
1100
0000
0100
1000
0001
0100
0001
0100
,
0001
0100
0001
0100
0001
0010
0001
0010
0001
0010
0001
0010
0001
1000
0001
1000
,
0001
1000
0001
1000
0001
0100
0001
0100
0001
0100
0001
0100
0001
0010
0001
0010
,
0001
0010
0001
0010
0001
1000
0001
1000
0001
1000
0001
0000
0100
0001
1000
0000
,
0100
1000
0001
0000
0100
0001
1000
0001
0100
0000
0001
0000
1000
0010
0100
0000
,
0001
0000
1000
0100
0010
0000
0001
0000
0100
0000
0010
0100
0001
0000
0010
0100
,
1000
0000
0001
0000
0100
0000
0001
0000
1001
0000
1001
0000
0001
0100
0001
0000
,
1000
0000
0100
1000
0000
0001
0100
0001
0000
1000
0100
1000
0000
0001
1000
0001
,
1000
0001
0000
0100
0001
1000
0001
1000
0000
0001
0000
1000
0100
0000
1000
0001
,
1000
0000
0001
0100
0001
0000
1000
0100
1000
0100
1000
0000
0001
1000
0001
1000
,
0001
1000
0000
0010
0000
0000
0000
0000
1000
0100
0010
0000
0100
1000
0000
0000
,
0000
0001
0100
0010
0100
0000
0000
0000
0001
0010
0100
0000
1000
0000
0000
0000
,
0000
0001
1000
0000
0000
0010
0100
0000
0000
0000
0001
0010
0001
0010
0001
1000
,
0001
1000
0001
0010
0100
0010
0001
0000
1000
0000
0010
0000
0100
0000
0010
1000
,
0001
0000
0100
0000
0001
0010
0100
0000
1000
0000
0010
0000
0100
0001
1000
0000
,
0100
0000
1000
0001
0100
0001
1000
0001
0100
0001
1000
0000
0001
0000
0100
0000
,
0010
0000
0100
0001
1000
0001
0100
0000
0001
0000
1000
0000
0001
0000
0010
0100
,
1000
0000
0010
0100
0001
0100
0010
0000
1000
0000
0100
0000
0010
0000
0001
0100
,
0010
0000
1000
0000
0010
0100
0001
0100
0010
0000
0100
0000
0001
0010
0100
0000
,
0010
0000
0001
0010
0001
1000
0001
0100
0001
1000
0010
0000
0100
0000
1000
0000
,
0100
0000
0000
0001
0000
0010
0000
1000
0000
0010
0000
0000
0100
0000
0000
0110
0000
0000
0000
0000
0000
0000
0000
0000
,
0000
0000
0200
0000
1000
0001
0000
0000
0001
1000
0000
0000
1000
0001
0000
0000
,
0001
1000
0000
0000
1000
0001
0300
0000
0010
0000
0110
0000
0100
0001
1000
0000
,
0001
0000
0020
0000
0001
1000
0000
0000
1000
0001
0000
0000
0001
1000
0000
0000
,
1000
0001
0000
0000
0001
1000
0030
0000
0100
0000
0110
0000
0100
0000
0001
1000
,
0100
0000
0000
1000
0000
0100
0000
0010
0000
0001
0000
0100
0000
0010
0000
1000
0000
0010
0000
0100
0000
0001
0000
0010
,
0000
0100
0000
1000
0000
0010
0000
0100
0000
0001
0000
1000
0000
0010
0000
1000
0000
0100
0000
0010
0000
0001
0000
1000
,
0000
0010
0000
0100
0000
0001
0000
0100
0000
0010
0000
0100
0000
1000
0000
0100
0000
0010
0000
0100
0000
0001
0000
1000
,
0000
0100
0000
0010
0000
0100
0000
0010
0000
1000
0000
0010
0000
0100
0000
0010
0000
0001
0000
0100
0000
0010
0000
0100
,
0000
0001
0000
1000
0000
0000
0100
0000
0000
1100
0000
0000
0000
0000
0000
2001
0000
0000
0000
0000
0000
3001
0000
0000
,
0100
0101
0100
0001
1000
1002
0100
1003
,
0010
0110
0000
1010
0010
2001
0000
3100
,
0000
0110
0100
0001
0100
1002
0100
0003
,
0100
0110
0100
0110
0000
2001
0000
3100
,
0000
0101
0100
1000
0001
1002
0000
0103
,
1000
1100
0100
0010
0100
2001
0100
3001
,
0100
0000
0000
1000
0000
0000
0100
0000
0000
0110
0000
0000
0000
0000
0000
0001
0010
0001
1000
0000
0000
0100
0000
0000
,
0010
1000
0010
0001
0100
1000
0100
0001
,
0010
1010
0010
0001
0100
1100
0100
0110
,
0010
0001
0010
1000
0100
0001
0100
1000
,
0010
0110
0010
0100
1000
1100
0100
0001
,
1000
0001
0100
0100
1000
0001
0100
0100
,
1000
1001
0001
1000
0100
0110
0010
0011
,
0001
1000
0100
0100
0001
1000
0100
0100
,
0001
0000
1001
0000
0001
0000
0101
0000
0100
0000
0020
0000
0000
0000
1030
0001
,
1000
0001
0200
0000
0000
0000
0000
0000
0000
0000
0000
0000
0000
0000
0000
0000
,
0000
0000
0000
0000
0301
2000
0000
0000
0000
0000
0000
0000
0000
0000
0000
0000
0000
0000
0000
0000
3010
0000
0000
0000
0000
0000
0000
0000
0020
0000
0000
0000
,
0000
0000
0000
0000
0000
0000
0000
0000
0000
0000
0000
0000
0130
0002
0000
0000
0000
0000
0000
0000
0000
0000
0000
0000
0000
0000
0000
0000
0000
0000
0000
0000
,
0000
0000
0000
0000
,
0000
0000
0000
0000
0000
0000
0000
0000
0000
0000
0000
0000
0003
0000
0000
0000
0000
0000
0000
0000
1000
0200
0000
0000
0000
0000
0000
0000
0000
0000
0000
0001
,
0000
0000
0000
0000
0000
0000
0000
0010
0000
0000
0000
0000
0000
0000
0000
0310
0000
0000
0000
0000
0000
0001
2000
0000
0000
0000
0000
0000
0000
0000
0000
0000
,
0000
0000
0000
0000
0000
0010
0000
0000
0000
0000
0000
0000
0000
0000
3001
0000
0000
0000
0000
0000
0000
0000
0000
0000
0000
0000
0000
0000
0010
0200
0000
0000
,
0000
0000
0000
0000
,
0000
0000
0000
0300
0000
0000
0000
1000
,
0010
0100
0010
0001
0010
0100
0010
0001
,
0010
1000
0100
0010
1000
0001
0100
0010
,
0001
0010
1000
0010
0100
0010
1000
0010
,
0100
0010
0001
1000
0010
0100
0001
0100
,
0010
1000
0100
0010
0100
0001
0100
0010
,
0100
0001
0100
1000
0010
0100
1000
0001
,
0010
0100
0001
0100
1000
0100
0010
0100
,
0001
0000
0020
0000
1030
0000
0010
0000
0001
0000
1000
0001
1000
0001
1000
0001
,
1000
0001
1000
0000
0000
0000
0000
0000
1100
0000
0000
0000
0000
0000
1001
0000
,
0000
1001
0000
0101
,
0000
1001
0000
0000
1100
0000
0000
0000
,
1000
1000
1000
1001
0000
0000
0101
0000
,
0000
0011
0000
0000
0000
1001
0000
0000
,
1010
0000
0000
1001
0000
0000
0011
0000
,
1000
0100
0101
0000
0000
0110
0000
0000
,
0011
0000
0000
1001
0000
0000
0000
0101
,
0000
0000
0110
0000
0000
1010
0000
0000
,
0000
0001
0001
0001
1001
0000
0000
0101
,
0000
0110
0000
1010
,
0000
0110
0000
0000
1001
0000
0000
2100
,
0000
0000
0000
0000
0000
0000
3001
1000
0001
0100
0000
0000
0000
0100
0000
0000
,
0000
0100
0000
0000
0000
0100
0000
0000
0000
0100
0000
0000
0000
0100
0001
1000
,
0001
0000
1000
0100
0010
0100
1000
0000
0001
0000
1000
0000
0100
0000
0010
0100
,
1000
0000
0001
0000
0100
0001
0010
0000
0100
1000
0010
0000
0100
0001
0010
0000
,
0001
0000
1000
0001
0100
0010
1000
0001
0100
0001
1000
0000
0100
0000
1000
0000
,
0001
0000
1000
0100
0010
0000
0001
0000
1000
0000
0100
0000
0001
0000
1000
0010
,
0001
0000
1000
0010
0100
0010
1000
0000
0001
0000
1000
0000
0010
0000
0100
0010
,
1000
0000
0001
0000
0010
0001
0100
0000
0010
1000
0100
0000
0010
0001
0100
0000
,
0001
0000
1000
0001
0010
0100
1000
0001
0010
0000
0001
0000
1000
0000
0010
0000
,
1000
0000
0001
1000
0100
0010
0001
0000
1000
0000
0010
0000
0001
0000
1000
0100
,
0001
0000
0100
1000
0100
0000
0110
0000
0000
0000
0101
0000
0000
0000
1001
0000
,
1001
0000
1100
0101
0110
0000
0011
1001
,
0000
0101
0101
1100
0110
1010
0000
1100
,
1100
0101
0110
0011
0011
0000
1001
0000
,
0110
0000
0100
0000
0001
0000
1000
0000
0001
0000
1000
0100
1000
0100
1000
0100
,
1000
0100
1000
0001
1000
0001
1000
0001
1000
0000
0001
0100
0001
0100
0001
0100
,
0001
0100
0001
1000
0001
1000
0001
1000
0001
1000
0001
0000
1000
0010
1000
0010
,
1000
0010
1000
0010
1000
0001
1000
0001
1000
0000
0001
0010
0001
0010
0100
1000
,
0100
1000
0010
0100
0001
1000
0100
0010
0001
0000
1000
0000
0000
0000
2001
0000
,
0000
0000
3001
0100
0001
1000
0001
1000
0001
1000
0001
0100
0001
1000
0001
1000
,
0001
1000
0001
0100
0001
1000
0001
1000
0001
1000
0001
0100
0001
1000
0001
1000
,
0001
1000
0001
0100
0001
1000
0001
1000
0001
1000
0001
0100
0001
1000
0001
1000
,
0001
1000
0001
0100
0001
1000
0001
1000
0001
1000
0100
0010
0001
0000
1000
0001
,
1000
0000
0001
0000
1000
0000
0001
0000
1000
0000
0001
0000
1000
0000
0001
0000
1000
0000
0001
0000
1000
0000
0000
0100
0000
0000
0001
0000
0000
1000
0000
0000
,
0010
0000
0001
0000
1000
0000
0001
0000
1000
0000
0001
0000
1000
0000
0001
0000
1000
0000
0000
0010
0000
0000
0001
0000
0000
1000
0000
0000
0100
0000
0001
0000
,
1000
0000
0001
0000
1000
0000
0001
0000
1000
0000
0001
0000
1000
0000
0001
0000
1000
0000
0001
0000
1000
0000
0000
0100
0000
0000
0010
0000
0000
1000
0000
0000
,
0010
0000
0001
0000
1000
0000
0001
0000
1000
0000
0100
0000
1000
0000
0100
0000
1000
0000
0100
0000
0010
0000
0001
0000
0100
0000
0000
1000
0000
0000
0001
0000
,
0000
0010
0000
0000
1000
0000
0001
0000
1000
0000
0000
0000
0110
0000
0000
0000
0000
0000
0000
0000
0000
0000
0001
0000
0100
0000
1000
0000
0000
0000
0100
0000
,
0010
0000
0000
0000
0000
0000
0000
0000
1000
0000
0100
0000
0001
0000
0100
0000
0010
0000
0000
0000
0000
0000
0001
2000
0000
0000
0000
0000
0000
0000
3001
0000
,
0010
0001
0010
0001
0010
0001
0010
0001
0010
0001
0010
0001
0010
0001
0010
0001
,
0010
0001
0010
0001
0010
0001
0010
0001
0010
0001
0010
0001
0010
1000
0010
0001
,
0100
1000
0100
0020
0000
0000
0000
0000
0000
0000
0000
0000
0000
0000
0000
0000
,
0000
0000
0000
0000
0000
0030
0000
0000
0000
0000
0000
0000
0000
0000
0000
0000
;

//---------------dance-double - t7r----------------
#NOTES:
     dance-double:
     t7r:
     Easy:
     10:
     :
00000000
00000000
00000000
00000000
,
00000000
00000000
00000000
00000000
,
00000000
00000000
00000000
00000000
,
00000000
00000000
00000000
00000000
,
00000000
00000000
00000000
00000000
,
00000000
00000000
00000000
00000000
,
00000000
00000000
00000000
00000000
,
00000000
00001000
00010000
00001000
,
00000000
00000100
00000000
00000001
00000000
00001000
00000000
00000001
,
00000000
00000010
00001000
00010000
,
00001000
00001000
00000000
00010000
00000000
00001000
00000000
00010000
,
00000000
01000000
10000000
00010000
,
10000000
00000000
00000000
00100000
00000000
00010000
00000000
00001000
,
00000000
00010000
00010000
00000000
00001000
00000000
00000100
00000000
,
00000001
00001000
00000001
00000010
,
00000001
00000010
00000100
00010000
,
00000100
00000000
00010000
00000000
00001000
00001000
00000000
00010000
,
00000000
00001000
00000000
00000000
00000010
00000000
00000001
00000000
,
00001000
00000000
00000001
00000000
00000000
00000100
00000000
00001000
,
00000000
00010000
00000000
00001000
00001000
00000000
00010000
00000000
,
00000000
00000000
01000000
00000000
00000000
00000000
00000000
00000000
00000000
10000000
00000000
00000000
00000000
10000000
00000000
00000000
,
00000000
00000000
00000000
00010000
00000000
00000000
00000000
00000000
00000000
10000000
00000000
00000000
00000000
00000000
00100000
00000000
,
00000000
00000000
00100000
00000000
00000000
00000000
00010000
00000000
00000000
00000000
00000000
00000000
00001000
00000000
00000000
00010000
,
00000000
00000000
00000000
00010000
00000000
00000000
00000000
00000000
00001000
00000000
00000000
00000000
00011000
00000000
00000000
00000000
,
00000000
00010000
00000000
00010000
00000000
00000000
00000000
00000000
01000000
00000000
00000000
00000000
10000000
00000000
00000000
00000000
,
00000000
00100000
00000000
00000000
00000000
00010000
00000000
00000000
00000000
00000000
00001000
00000000
00000000
00000000
00011000
00000000
,
00000000
00001000
00000000
00000100
00000000
00000010
00000000
00000100
,
00000000
00000001
00000000
00000010
00000000
00000100
00000000
00000000
,
00000000
00001000
00000000
00000001
00000000
00000100
00000000
00001000
,
00000000
00010000
00000000
00001000
00000000
00100000
00000000
00000000
,
00000000
00001000
00000000
00010000
00000000
01000000
00000000
00100000
,
00000000
01000000
00000000
10000000
00000000
00100000
00000000
01000000
,
00000000
00100000
00000000
10000000
00000000
01000000
00000000
00010000
,
00000000
00001000
00000000
00000100
00000000
00000101
00000000
00000000
,
00000000
00000002
00000000
00000010
00000000
00000000
00000000
00001003
,
00000000
00000001
00000000
00000100
00000000
00001000
00000000
00000000
,
00000000
00020000
00000000
00001000
00000000
00000000
00000000
01030000
,
00000000
10000000
00000000
00010000
00000000
01000000
00000000
00000000
,
00000000
00100000
00000000
00000000
00000000
10010000
00000000
00000000
,
00000000
10000000
00000000
00000000
00000000
01000000
00000000
00000000
,
00000000
00010000
00000000
00000000
00000000
00011000
00000000
00000000
,
00000000
00001000
00000000
00000000
00000000
00000010
00000000
00000000
,
00000000
00000001
00000000
00000000
00000000
00000200
00000000
00000000
,
00000000
00001300
00000000
00000100
00000000
00000002
00000000
00000000
,
00000000
00000013
00000000
00000000
00000000
00002000
00000000
00000000
,
00000000
00013000
00000000
00001000
00000000
00020000
00000000
00000000
,
00000000
01030000
00000000
00000000
00000000
00200000
00000000
00000000
,
00000000
00310000
00000000
10000000
00000000
00200000
00000000
00000000
,
00000000
00310000
00000000
00000000
00000000
00002000
00000000
00000000
,
00000000
00013000
00000000
00001000
00000000
00000020
00000000
00000000
,
00000000
00000031
00000000
00000100
00000000
00000001
00000000
00000100
,
00000000
00000001
00000000
00000010
00000000
00000001
00000000
00000010
,
00000000
00001000
00000000
00010000
00000000
00001000
00000000
00010000
,
00000000
00001000
00000000
00000100
00000000
00001000
00000000
00000100
,
00000000
00001000
00000000
00000000
00000000
00010000
00000000
00000000
,
00000000
01000000
00000000
10000000
00000000
00100000
00000000
01000000
,
00000000
00010000
00000000
00000000
00000000
00100000
00000000
00000000
,
00000000
00001000
00000000
00010000
00000000
00001000
00000000
00000100
,
00000000
00000002
00000000
00000000
00000000
00000000
00000000
00000000
,
00000000
00000000
00000000
00000000
,
00000000
00000000
00000000
00000003
00000000
00000000
00000000
00000000
,
00000000
00000000
00000000
00000000
,
00000000
00000000
00000000
00000000
00000000
00000000
00000000
00000000
00000000
00000000
00000000
00000000
00000000
00000000
00000000
00000000
00000000
00000000
00000000
00000000
00000000
00000020
00000000
00000000
00000000
00000000
00000000
00000000
00000000
00000000
00000000
00000000
,
00000000
00000000
00000000
00000000
00000000
00000130
00000000
00000000
00000000
00000000
00000000
00000000
00000000
00000000
00000000
00000000
00000000
00000000
00000000
00000000
00000000
00002000
00000000
00000000
00000000
00000000
00000000
00000000
00000000
00000000
00000000
00000000
,
00000000
00000000
00000000
00000000
00000000
00003100
00000000
00000000
00000000
00000000
00000000
00000000
00000000
00000000
00010000
00000000
00000000
00000000
00000000
00000000
00000000
00000000
00000000
00000000
00000000
00000000
00000000
00000000
00002000
00000000
00000000
00000000
,
00000000
00000000
00000000
00000000
,
00000000
00000000
00000000
00003000
00000000
00000000
00000000
00010000
,
00000000
00002000
00000000
00000000
00000000
00013000
00000000
00000000
,
00000000
02000000
00000000
00000000
00000000
13000000
00000000
00000000
,
00000000
00200000
00000000
00000000
00000000
01300000
00000000
00000000
,
00000000
00020000
00000000
00000000
00000000
00130000
00000000
00001000
,
00000000
00020000
00000000
00000000
00000000
00031000
00000000
00000000
,
00000000
00000200
00000000
00000000
00000000
00000310
00000000
00000000
,
00000000
00001000
00000000
00000100
00000000
00000010
00000000
00000001
,
00000000
00000200
00000000
00000000
00000000
00001300
00000000
00010000
,
00000000
00001000
00000000
00000000
00001000
00000000
00000000
00010000
,
00000000
00011000
00000000
00001000
,
00000000
00010000
00000000
00000000
01000000
00000000
00000000
00000000
,
10000000
00000000
00000000
00010000
00000000
00000000
10000000
00000000
,
00000000
10010000
00000000
00000000
00000000
10000000
00000000
00000000
,
00100000
00000000
00000000
00010000
00000000
00000000
00011000
00000000
,
00000000
00000000
00001000
00000000
00000000
00000010
00000000
00000000
,
00000100
00000000
00000000
00000110
00000000
00000000
00000000
00000010
,
00000000
00000000
00000001
00000000
00000000
00001001
00000000
00000000
,
00000000
00000001
00000000
00000000
00000100
00000000
00000000
00001000
,
00000000
00011000
00000000
00010000
,
00000000
00100000
00000000
00000000
10000000
00000000
00000000
20010000
,
00000000
00000000
00000000
00000000
00000000
00000000
30010000
00000000
00000000
01000000
00000000
00000000
00000000
01000000
00000000
00000000
,
00000000
01000000
00000000
00000000
00000000
01000000
00000000
00000000
00000000
01000000
00000000
00000000
00000000
00100000
00000000
00000000
,
00000000
10000000
00000000
01000000
10000000
00000000
00000000
00010000
,
00000000
00100000
00000000
00001000
00010000
00000000
00000000
00001000
,
00000000
00000010
00000000
00000100
00000010
00000000
00000000
00000001
,
00000000
00000100
00000000
00000010
00000000
00001000
00000000
00000100
,
00000000
00010000
00000000
00001000
00010000
00000000
00000000
00100000
,
00000000
01000000
00000000
00010000
00100000
00000000
00000000
00010000
,
00000000
10000000
00000000
00100000
01000000
00000000
00000000
00010000
,
00000000
00100000
00000000
00001000
00000000
00010000
00000000
00001000
,
00000000
00000100
00000010
00000100
00000000
00000010
00000000
00001000
,
00000001
00000000
00000000
00000010
00000000
00000100
00000000
00010000
,
00000000
00001000
00000000
00001000
00000000
00010000
00000000
01000000
,
00000000
10000000
00000000
00100000
00000000
10000000
00000000
00100000
,
00000000
00010000
00000000
00001000
00000000
00010000
00001000
00010000
,
00000000
00010000
00000000
00001000
00010000
00000000
00001000
00010000
,
00001000
00000000
00010000
00000000
00010000
00001000
00000000
00000100
,
00000010
00000100
00000000
00000100
00000010
00000000
00001000
00000000
,
00000001
00000000
00000010
00000000
00001000
00020000
00000000
00031000
,
00000000
00010000
00000000
01000000
00000000
00100000
00000000
00001000
,
00000000
00010000
00000000
01000000
00000000
00100000
00000000
00001000
,
00000000
00010000
00000000
00001000
00000000
00000100
00000000
00000010
,
00000000
00001000
00000000
00000001
00000000
00000010
00000000
00000001
,
00000000
00000100
00000000
00000101
00000000
00000000
00000000
00000001
,
00000000
00001000
00000000
00001100
00000000
00000000
00000000
00000100
,
00000000
00010000
00000000
00011000
00000000
00000000
00000000
00001000
,
00000000
00100000
00000000
00110000
00000000
00010000
00000000
10000000
,
00000000
00000000
00100000
00000000
00000000
00000000
00010000
00000000
00000000
00000000
00000000
00001000
00000000
00000000
00000000
00011000
,
00000000
00000000
00000000
00000000
00001000
00000000
00000000
00000000
00000000
00000000
00000000
00000110
00000000
00000000
00000000
00001002
,
00000000
00000000
00000000
00000000
00000000
00000000
00000000
00000000
00000000
00000000
00000000
00000000
00000000
00000000
00000000
00000100
,
00000000
00000000
00000000
00000100
00000000
00000000
00000000
00000103
00000000
00000000
00000000
00000100
00000000
00000001
00000000
00001000
,
00000000
00000100
00000000
00020000
00000000
00000000
00000000
00000000
00000000
00000000
00000000
00000000
00000000
00000000
00000000
00000000
,
00000000
00000000
00000000
00000000
00000000
00030000
00000000
00000000
00000000
00000000
00000000
00000000
00000000
00000000
00000000
00000000
;

//---------------dance-double - t7r----------------
#NOTES:
     dance-double:
     t7r:
     Medium:
     14:
     :
00000000
00000000
00000000
00000000
,
00000000
00000000
00000000
00000000
,
00000000
00000000
00000000
00000000
,
00000000
00000000
00000000
00000000
,
00000000
00000000
00000000
00000000
,
00000000
00000000
00000000
00000000
,
00000000
00000000
00000000
00000000
,
00000000
00100000
00110000
10010000
,
00010000
01000000
00000000
00010000
00000000
10000000
00000000
01000000
,
00010000
00001000
00010000
00001000
,
00000100
00000010
00000100
00000001
00000000
00000011
00000000
00001001
,
00000000
00000001
00000010
00000000
00000100
00000000
00000010
00000000
,
00000001
00000100
00000000
00001000
00000000
00010000
00000000
00001000
,
00000000
00010000
01000000
00100000
01000000
00000000
10000000
00100000
,
10000000
00100000
10000000
00100000
01000000
00000000
00010000
00100000
,
00010000
00100000
00010000
00100000
00001000
00000000
00010000
00001000
,
00010000
00001000
00010000
00001000
00000100
00000010
00000000
00000110
,
00000000
00000101
00000000
00000001
00000010
00000000
00001000
00000000
,
00010000
00000000
00001000
00010000
00000000
00100000
00000000
10000000
,
00000000
00010000
00000000
01000000
00001000
00010000
00001000
00000000
,
00010000
00000000
00001000
00000000
00000000
00010000
00000000
00000000
00000000
01000000
00000000
00000000
00000000
10000000
00000000
00000000
,
00100000
00000000
00000000
00010000
00000000
00001000
00000000
00000000
00000000
00000100
00000000
00000010
00000000
00000000
00000100
00000000
,
00000000
00000000
00000001
00000000
00000000
00000000
00001000
00000000
00000000
00000100
00000000
00000000
00010000
00000000
00001000
00000000
,
00010000
00000000
00000000
00011000
00000000
00000000
00000000
00000000
01000000
00000000
00000000
00000000
01100000
00000000
00000000
00000000
,
00000000
10000000
00000000
00000000
00010000
00000000
00000000
00000000
10000000
00000000
00000000
00000000
01000000
00000000
00000000
00000000
,
00000000
00010000
00000000
00000000
00000000
00011000
00000000
00000000
00000000
00000000
00001000
00000000
00000010
00000000
00000001
00000000
,
00000000
00000100
00000000
00000001
00000010
00000001
00000000
00000100
,
00000000
00000010
00001000
00000000
00000001
00001000
00000000
00000100
,
00000000
00010000
00000000
00001000
00010000
00001000
00000000
00010000
,
00000000
00100000
00000000
01000000
00010000
00100000
00000000
00010000
,
00000000
10000000
00000000
01000000
00100000
01000000
00000000
00010000
,
00000000
00001000
00010000
00000000
00001000
00000100
00000010
00000000
,
00001000
00000001
00000000
00000010
00000000
00001000
00010000
00001000
,
00000000
00000000
00000000
00010000
00000000
00000000
00000000
01000000
00000000
10000000
00000000
00000000
00100000
00000000
00000000
01100000
00000000
00000000
00000000
00000000
00000000
00000000
00000000
00000000
,
00000000
10000000
01000000
00010000
00000000
00001000
00000100
00000001
,
00000000
00000010
00001000
00010000
00000000
00022000
00000000
00033000
,
00000000
00010000
00100000
10000000
00000000
01000000
00010000
00001000
,
00000000
00000010
00000100
00010000
00000000
00022000
00000000
00033000
,
00000000
00000000
00000000
00001000
00000000
00000000
00000000
00000100
00000000
00000000
00000000
00000001
00000000
00000000
00000000
00001000
00000000
00000000
00000000
00000100
00000000
00000000
00000000
00010000
,
00000000
00000000
00000000
00001000
00000000
00000000
00000000
00010000
00000000
00000000
00000000
01000000
00000000
00000000
00000000
10000000
00000000
00000000
00000000
00100000
00000000
00000000
00000000
01000000
,
00000000
00000000
00000000
00010000
00000000
00000000
00000000
00100000
00000000
00000000
00000000
00001000
00000000
00000000
00000000
00010000
00000000
00000000
00000000
00001000
00000000
00000000
00000000
00011000
,
00000000
00000000
00000000
00010000
00000000
00000000
00000000
00001000
00000000
00000000
00000000
00000010
00000000
00000000
00000000
00000100
00000000
00000000
00000000
00000010
00000000
00000000
00000000
00000011
,
00000000
00000001
00000100
00001000
00000000
00021000
00000000
00031000
,
00010000
01000000
00100000
01000000
00000000
20010000
00000000
31000000
,
00010000
00001000
00000000
00010000
00000000
00021000
00000000
00031000
,
00000000
00000100
00000010
00000000
00000100
00000002
00000000
00000013
,
00000001
00000000
00001000
00000001
00000000
00000102
00000000
00000103
,
00000000
00001000
00000000
00010000
00001000
00020000
00000000
00031000
,
00010000
00000000
00100000
00000000
01000000
00200000
00000000
10300000
,
01000000
00100000
01000000
00010000
00000000
00002000
00000000
00000000
,
00000000
00013000
01000000
00010000
01000000
00010000
01000000
00010000
,
01000000
00010000
00000000
00001000
00010000
00001000
00000000
00011000
,
00000000
00001000
00000100
00001000
00000100
00001000
00000100
00001000
,
00000100
00001000
00000000
00010000
00001000
00010000
00000000
00011000
,
00000000
00010000
00100000
00010000
00100000
00010000
00100000
00010000
,
00100000
00010000
00000000
00001000
00010000
00001000
00000000
00011000
,
00000000
00001000
00000010
00001000
00000010
00001000
00000010
00001000
,
00000010
00001000
00000000
00000010
00000000
00000001
00000000
00000100
,
00000000
00001000
00000000
00020000
00000000
00000000
00000000
00000000
00000000
00000000
00000000
00000000
00000000
00000000
00000000
00000000
00000000
00000000
00000000
00000000
00000000
00000000
00000000
00000000
,
00000000
00000000
00000000
00000000
,
00000000
00000000
00000000
00030000
00000000
00000000
00000000
00000000
,
00000000
00000000
00000000
00000000
,
00000000
00000000
00000000
00000000
00000000
00000000
00000000
00000000
00000000
00000000
00000000
00000000
00000000
00000000
00000000
00000000
00000000
00000000
00000000
00000000
00000000
00001000
00000000
00000000
00000000
00000000
00000000
00000000
00000000
00001000
00000000
00000000
,
00000000
00000000
00000000
00000000
00000000
00010000
00000000
00000000
00000000
00000000
00000000
00000000
00000000
01000000
00000000
00000000
00000000
00000000
00000000
00000000
00000000
00000000
00200000
00000000
00000000
00000000
00000000
00000000
00000000
00000000
00000000
00000000
,
00000000
00000000
00000000
00000000
00000000
01000000
00000000
00000000
00000000
00000000
00000000
00000000
00000000
01300000
00000000
00000000
00000000
00000000
00000000
00000000
00000000
00000000
00000000
00000000
00000000
00000000
00000000
00000000
20000000
00000000
00000000
00000000
,
00000000
00000000
00000000
00000000
,
00000000
00000000
00000000
30000000
00000000
00000000
00000000
00100000
,
01000000
00020000
00000000
00001000
00000000
00130000
00000000
00000000
,
00000000
00002000
00000000
00013000
00000100
00000000
00000000
00001000
,
00000010
00000200
00000000
00001000
00000000
00000310
00000000
00000100
,
00000000
00000002
00000000
00000010
00000000
00001003
00000000
00000001
,
00000000
00000010
00000000
00000010
00000000
00001000
00000000
00010000
,
00000000
00200000
00000000
00001000
00000000
01300000
00000000
00100000
,
00000000
10000000
01000000
10000000
00000000
01000000
00000000
00010000
,
00001000
00020000
00000000
00031000
00000000
00000100
00000001
00001000
,
00000100
00010000
00000000
00000000
00011000
00000000
00000000
00010100
,
00000000
00011000
00000000
00001000
,
00000000
00011000
00000000
00000000
01001000
00000000
00000000
00000000
,
00001000
00010000
00001000
00010000
00000000
00000000
00011000
00000000
,
00000000
00010010
00000000
00000000
00000000
00011000
00000000
00000000
,
00101000
00000000
00000000
00011000
00000000
00000000
00011000
00000000
,
00001000
00010000
00100000
00000000
00000000
10100000
00000000
00000000
,
11000000
00000000
00000000
10010000
00000000
00000000
00000000
11000000
,
00000000
00000000
01100000
00000000
00000000
00110000
00000000
00000000
,
00000000
00001000
00010000
00001000
00000010
00000000
00000000
00000110
,
00000000
00000011
00000000
00001001
,
00000000
00000101
00000000
00000000
00000110
00000000
00000000
00020010
,
00000000
00000000
00000000
00000000
00000000
00000000
00031000
00000000
00000000
00010000
00000000
00000000
00000000
00010000
00000000
00000000
,
00000000
00010000
00000000
00000000
00000000
00010000
00000000
00000000
00000000
00010000
00000000
00000000
00000000
01000000
10000000
00000000
,
00100000
10000000
01000000
10000000
01000000
00100000
01000000
10000000
,
00100000
01000000
00000000
00010000
00100000
00001000
00010000
00001000
,
00000000
00010000
00001000
00000100
00000010
00001000
00000100
00000010
,
00000001
00001000
00000000
00000001
00000010
00000100
00001000
00000010
,
00000100
00000001
00000010
00000001
00000010
00000100
00000010
00000001
,
00000100
00000010
00000000
00001000
00000100
00010000
00001000
00010000
,
00000000
00001000
00010000
00100000
01000000
00010000
00100000
01000000
,
10000000
00010000
00000000
10000000
01000000
00100000
00010000
01000000
,
00100000
10000000
01000000
00010000
00000000
00011000
00000000
00001000
,
00000100
00000000
00000001
00001000
00000001
00000000
00000010
00001000
,
00000000
00010000
00001000
00010000
00001000
00001000
00000000
00010000
,
00010000
00100000
01000000
00010000
00100000
00001000
00010000
00001000
,
00000100
00000001
00001000
00000001
00000010
00000001
00000001
00000100
,
00000010
00001000
00000100
00010000
00001000
00010000
00001000
00001000
,
00010000
00100000
01000000
00010000
00100000
01000000
10000000
01000000
,
01000000
10000000
00100000
01000000
00010000
00100000
10000000
00100000
,
00001000
00010000
00001000
00000010
00000001
00002000
00000000
00003001
,
00000000
00000101
00000000
00001001
00000000
00001001
00000000
00000001
,
00000000
00000010
00000100
00000000
00000000
00000000
00010000
00000000
00000000
00001000
00010000
00000000
00000000
00000000
00001000
00000000
,
00000000
00011000
00000000
01001000
00000000
01001000
00000000
00001000
,
00000000
00010000
01000000
00000000
00000000
00000000
10000000
00000000
00000000
00100000
01000000
00000000
00000000
00000000
00100000
00000000
,
10000000
00000000
00000000
00000000
01000000
00000000
00000000
00000000
00000000
00000000
00000000
00000000
10000000
00000000
00000000
00000000
00000000
00000000
00000000
00000000
01000000
00000000
00000000
00000000
00000000
00000000
00010000
00000000
00000000
00001000
00000000
00000000
,
00000000
00000000
00000000
00000000
00000100
00000000
00000000
00000000
00000000
00000000
00000000
00000000
00000010
00000000
00000000
00000000
00000000
00000000
00000000
00001000
00000000
00000000
00000000
00000000
00000000
00000001
00000000
00000000
00000010
00000000
00000000
00000000
,
00000000
00000000
00000000
00000000
00000100
00000000
00000000
00000000
00000000
00000000
00000000
00000000
00010000
00000000
00000000
00000000
00000000
00000000
00000000
00000000
00001000
00000000
00000000
00000000
00000000
00000000
00010000
00000000
00000000
00100000
00000000
00000000
,
00000000
00000000
00000000
00000000
01000000
00000000
00000000
00000000
00000000
00000000
00000000
00000000
00100000
00000000
00000000
00000000
10000000
00000000
00000000
00000000
01000000
00000000
00000000
00000000
00000000
00000000
00000000
00010000
00000000
00000000
00001000
00000000
,
00000000
00010000
00000000
00000000
00001000
00000000
00000000
00000000
00000000
00000000
00000000
00000000
00011000
00000000
00000000
00000000
00000000
00000000
00000000
00000000
00000000
00000000
00010000
00000000
00000000
00000000
00000000
00000000
00000000
00000000
00010100
00000000
,
00000000
00000000
00000000
00000000
00010000
00000000
00000000
00001000
00000000
00000000
00000000
00101000
00000000
00000000
00000000
00021000
,
00000000
00000000
00000000
00001000
00000000
00000000
00000000
00001000
00000000
00000000
00000000
00001000
00000000
00000000
00000000
00001000
,
00000000
00000000
00000000
00031000
00000000
00010000
00000000
00001000
00000000
00010000
00000000
00001000
00000000
00010000
00000000
00001000
,
00000000
00010000
00000000
02000000
00000000
00000000
00000000
00000000
00000000
00000000
00000000
00000000
00000000
00000000
00000000
00000000
,
00000000
00000000
00000000
00000000
00000000
03000000
00000000
00000000
00000000
00000000
00000000
00000000
00000000
00000000
00000000
00000000
;

//---------------dance-double - t7r----------------
#NOTES:
     dance-double:
     t7r:
     Hard:
     17:
     :
00000000
00000000
00000000
00000000
,
00000000
00000000
00000000
00000000
,
00000000
00000000
00000000
00000000
,
00000000
00000000
00000000
00000000
,
00000000
00000000
00000000
00000000
,
00000000
00000000
00000000
00000000
,
00000000
00000000
00000000
00000000
,
00000000
00000000
00000000
00000000
00000001
00000000
00000100
00000001
00000100
00000000
00000001
00000000
00001000
00000000
00000100
00000000
,
00010000
00001000
00010000
00000000
00001000
00000000
00010000
00000000
01000000
00000000
10000000
00000000
00100000
00000000
01000000
00100000
,
01000000
00000000
00100000
00000000
10000000
00000000
01000000
00000000
00010000
00001000
00010000
00000000
00001000
00000000
00000000
00000000
,
00010000
00000000
00010000
00000000
01000000
00000000
10000000
00000000
01000000
10000000
01000000
00000000
10000000
00000000
00010000
00000000
,
01000000
00000000
00001000
00010000
00001000
00000000
00010000
00000000
00001000
00000000
00000100
00000000
00000001
00000000
00000010
00000000
,
00000100
00000010
00000100
00000000
00000010
00000000
00000001
00000000
00000100
00000000
00001000
00010000
00001000
00000000
00010000
00000000
,
00000000
00000000
00001000
00000000
00001000
00000000
00000100
00000000
00000001
00000000
00000010
00000100
00001000
00000000
00001000
00000000
,
00000001
00000100
00000001
00000000
00000100
00000000
00000100
00000000
00001000
00010000
00001000
00000000
00010000
00000000
00010000
00000000
,
01000000
00100000
01000000
00000000
00100000
00000000
00100000
00000000
00010000
10000000
00010000
00000000
10000000
00000000
10000000
00000000
,
00100000
01000000
00100000
00000000
10000000
00000000
10000000
00000000
00010000
00000000
10000000
00000000
00100000
10000000
00100000
00000000
,
10000000
00000000
00010000
00000000
00100000
00000000
00001000
00010000
00001000
00000000
00010000
00000000
00001000
00000000
00000010
00000000
,
00000001
00000000
00000100
00000000
00000010
00000100
00000010
00000000
00000100
00000000
00000001
00000000
00000010
00000000
00001000
00010000
,
00001000
00000000
00010000
00000000
00000000
00000000
00001000
00000000
00001000
00000000
00000010
00000000
00000001
00000100
00000001
00000000
,
00001000
00000000
00000001
00000010
00000000
00000001
00001000
00000001
00000000
00000100
00000001
00001000
00000000
00000100
00010000
00001000
,
00010000
00001000
00000000
00010000
00001000
00010000
00001000
00010000
00000000
01000000
00000000
10000000
00010000
00000000
10000000
00100000
,
10000000
00000000
00010000
00100000
00010000
00000000
00100000
00001000
00100000
00001000
00100000
00000000
00001000
00010000
00001000
00010000
,
00001000
00010000
00000000
00001000
00000000
00000000
00000000
00000000
00000100
00000001
00001000
00000000
00000001
00001000
00000000
00000000
,
00000000
00000001
00000010
00000001
00001000
00000000
00000000
00000000
00000100
00010000
00000100
00000000
00010000
00000000
00000000
00000000
,
00000000
00001000
00010000
00000000
00000000
00010000
00001000
00000000
00000000
00000000
00010000
00000000
01000000
00000000
10000000
00010000
,
10000000
00010000
10000000
00000000
00100000
01000000
00100000
00000000
10000000
00000000
01000000
00000000
00100000
00000000
10000000
00000000
,
00100000
00000000
00010000
00000000
01000000
00000000
00001000
00000000
00010000
00000000
00001000
00000000
00000100
00000010
00000100
00000000
,
00000001
00000000
00001000
00000001
00001000
00000000
00000001
00000000
00000010
00000000
00000100
00000000
00000001
00000000
00000100
00000000
,
00000010
00000000
00000001
00000100
00000001
00000000
00000100
00000000
00001000
00000000
00010000
00000000
00001000
00000000
00010000
00001000
,
00010000
00000000
00100000
00000000
10000000
00010000
10000000
00000000
01000000
00000000
00100000
00000000
01000000
00000000
10000000
00100000
,
01000000
00000000
00010000
00000000
00100000
01000000
10000000
00000000
01000000
00000000
00010000
00000000
00001000
00000000
00000100
00000000
,
00000001
00000000
00000010
00000000
00000100
00001000
00000001
00000000
00000100
00000001
00001000
00000000
00000001
00000000
00000010
00000000
,
00001000
00000000
00000000
00010000
00000000
00001000
00000000
00010000
00000000
00100000
00000000
00000000
10000000
00000000
00000000
10010000
00000000
00000000
00000000
00000000
00000000
00000000
00000000
00000000
,
00000000
00000000
10000000
01000000
10000000
00000000
00010000
00000000
10000000
00000000
01000000
10000000
01000000
00000000
00010000
00000000
,
00001000
00000000
00000100
00000010
00000100
00000000
00000001
00000000
00001000
00000000
00002002
00000000
00000000
00000000
00003003
00000000
,
00000000
00000000
00000001
00000010
00000001
00000000
00001000
00000000
00000001
00000000
00000010
00000001
00000010
00000000
00001000
00000000
,
00010000
00000000
00100000
01000000
00100000
00000000
10000000
00000000
00010000
00000000
20020000
00000000
00000000
00000000
30030000
00000000
,
00000000
00000000
00000000
10000000
00000000
00000000
00000000
01000000
00000000
00000000
00000000
11000000
00000000
00000000
00000000
01000000
00000000
00000000
00000000
00010000
00000000
00000000
00000000
00011000
,
00000000
00000000
00000000
00001000
00000000
00010000
00000000
00001000
00000000
00000000
00000000
00000100
00000000
00000000
00000000
00000010
00000000
00001000
00000000
00000001
00000000
00000000
00000000
00001000
,
00000000
00000000
00000000
00000001
00000000
00000000
00000000
00000010
00000000
00000000
00000000
00000011
00000000
00000000
00000000
00000010
00000000
00000000
00000000
00001000
00000000
00000000
00000000
00011000
,
00000000
00000000
00000000
00001000
00000000
00000000
00000000
00010000
00000000
00000000
00000000
00110000
00000000
00000000
00000000
01100000
00000000
00000000
00000000
10100000
00000000
00000000
00000000
10010000
,
00000000
10000000
01000000
00100000
00000000
21000000
00000000
30010000
,
00100000
00001000
00010000
00001000
00000000
00021000
00000000
00031000
,
00000100
00000010
00000000
00000100
00000001
00002000
00000000
00003001
,
00000000
00001000
00000010
00000000
00000001
00000020
00000000
00000130
,
00000001
00000000
00001000
00000100
00000000
00001200
00000000
00010300
,
00000000
00001000
00000000
00010000
01000000
00200000
00000000
00310000
,
01000000
00000000
00100000
00010000
00000000
20100000
00000000
31000000
,
00010000
00001000
00000100
00000001
00000000
00002002
00000000
00003003
,
00000000
00000001
00000100
00000010
00000100
00001000
00000100
00000010
,
00000100
00000001
00000100
00000010
00000100
00000001
00000010
00001000
,
00010000
01000000
00100000
01000000
00010000
01000000
00100000
01000000
,
10000000
00100000
00010000
00001000
00000000
00012000
00000000
00013000
,
00100000
10000000
00100000
01000000
00100000
00010000
00100000
01000000
,
00100000
10000000
00100000
01000000
00100000
10000000
01000000
00010000
,
00001000
00000010
00000100
00000010
00001000
00000010
00000100
00000010
,
00000001
00000000
00000100
00000000
00001000
00000000
00010000
00000000
00000000
00000000
00021000
00000000
00000000
00000000
00031000
00010000
,
00001000
00010000
00002000
00000000
00000000
00000000
00000000
00000000
00000000
00000000
00000000
00000000
00000000
00000000
00000000
00000000
,
00000000
00003200
00000000
00000000
00000000
00000301
00000000
00000002
,
00000000
00000000
00000000
00002000
00000000
00000000
00000000
00000000
,
00000000
00000000
00000000
00000000
,
00000000
00000000
00000000
00000000
00000000
00000000
00000000
00000000
00000000
00000000
00000000
00000000
00003003
00000000
00000000
00000000
00000000
00000000
00000000
00000000
00000000
00000001
00000000
00000000
00000000
00000000
00000000
00000000
00000000
00000010
00000000
00000000
,
00000000
00000000
00000000
00000000
00000000
00001000
00000000
00000000
00000000
00000000
00000000
00000000
00000000
00001000
00000000
00000000
00000000
00000000
00000000
00000000
00000000
00000000
00020000
00000000
00000000
00000000
00000000
00000000
00000000
00000000
00000000
00000000
,
00000000
00000000
00000000
00000000
00000000
01000000
00000000
00000000
00000000
00000000
00000000
00000000
00000000
00000000
01030000
00000000
00000000
00000000
00000000
00000000
00000000
00000000
00000000
00000000
00000000
00000000
00000000
00000000
20000000
00000000
00000000
00000000
,
00000000
00000000
00000000
00000000
,
00000000
00000000
00000000
30000000
00000000
00000000
00000000
00100000
,
00000000
10000000
00010000
01000000
00000000
00010000
00000000
00100000
,
00001000
00020000
00000000
00031000
00000100
00000000
00000000
00000010
,
00000000
00000100
00000000
00000001
00001000
00000100
00000000
00001000
,
00000010
00020000
00000000
00001000
00000000
01000000
00000000
01030000
,
00000000
00100000
00000000
00010000
10000000
00100000
00000000
10000000
,
00000000
02000000
00000000
13000000
00100000
00000000
00010000
00001000
,
00000000
00000010
00000000
00000100
00001000
00000001
00000000
00000100
,
00000000
00000000
00002000
00000000
00000000
00000000
01000000
00000000
00000000
00000000
00013000
00001000
00010000
00001000
00010000
00001000
,
00010000
00001000
00010000
00000000
00000000
00000000
00000000
00000000
01010000
00000000
00000000
00000000
00000000
00000000
00011000
00000000
,
00000000
00001100
00000000
00011000
,
00000000
00110000
00000000
00000000
00011000
00000000
00000000
00000000
,
00010000
00001000
00000010
00001000
00000000
00000000
00011000
00000000
,
00000000
01010000
00000000
00000000
00000000
00011000
00000000
00000000
,
00001100
00000000
00000000
00011000
00000000
00000000
00110000
00000000
,
00100000
01000000
00010000
00000000
00000000
11000000
00000000
00000000
,
01010000
00000000
00000000
00011000
00000000
00000000
00000000
00001100
,
00000000
00000000
00000110
00000000
00000000
00001010
00000000
00000000
,
00000000
00000001
00000010
00001000
00010000
00000000
00000000
00011000
,
00000000
00001010
00000000
00011000
,
00000000
00110000
00000000
00000000
01100000
00000000
00000000
20100000
,
00000000
00000000
00000000
00000000
00000000
00000000
30010000
10000000
00010000
01000000
00000000
00000000
00000000
01000000
00000000
00000000
,
00000000
01000000
00000000
00000000
00000000
01000000
00000000
00000000
00000000
01000000
00000000
00000000
00000000
01000000
00100000
00000000
,
10000000
00000000
00010000
00100000
00010000
00100000
00010000
00000000
10000000
00000000
01000000
00000000
00100000
00000000
01000000
10000000
,
01000000
00000000
10000000
00100000
10000000
00100000
10000000
00000000
00100000
00000000
00010000
00000000
00001000
00000000
00010000
00000100
,
00010000
00000000
00001000
00010000
00001000
00010000
00001000
00000000
00000100
00000000
00000001
00000000
00001000
00000000
00000001
00000010
,
00000001
00000000
00001000
00000100
00000010
00000100
00001000
00000000
00000001
00000000
00000100
00000000
00001000
00000000
00010000
00001000
,
00010000
00000000
00001000
01000000
00001000
01000000
00001000
00000000
00100000
00000000
00010000
00000000
10000000
00000000
00100000
01000000
,
00010000
00000000
00100000
00001000
00100000
00001000
00100000
00000000
00001000
00000000
00010000
00000000
00001000
00000000
00000010
00000100
,
00001000
00000000
00000001
00000000
00000100
00000010
00000100
00000000
00001000
00000100
00001000
00000000
00000100
00000010
00000100
00000000
,
00000001
00000000
00001000
00000100
00001000
00000001
00001000
00000000
00000001
00000000
00000100
00000000
00001000
00010000
00000100
00000000
,
00010000
00001000
01000000
00000000
00010000
00000000
10010000
00000000
00000000
00000000
11000000
00000000
00000000
00000000
10000000
00000000
,
10100000
00000000
00100000
00010000
00011000
00000000
00001000
00001010
,
00000000
00000010
00000001
00000100
00000010
00001010
00000000
00000001
,
00000010
00001000
00010000
00001000
00011000
00000000
00001000
00000000
,
00010000
00000000
00100000
00000000
10000000
00000000
00010000
00000000
10000000
00100000
10000000
00000000
00010000
00000000
00100000
00000000
,
00100000
00000000
00001000
00000000
00001000
00000000
00010000
00000000
00001000
00000000
00010000
00000010
00010000
00000000
00000010
00000000
,
00000100
00000000
00000100
00000000
00000001
00000000
00000001
00000000
00001000
00000000
00000100
00000000
00000010
00000001
00000010
00000000
,
00000001
00000000
00000100
00000000
00000100
00000000
00001000
00000000
00010000
00000000
01000000
00000000
10000000
00100000
01000000
00000000
,
00010000
00100000
00001000
00000000
00010000
00000010
00001000
00000000
00000001
00000000
00000200
00000000
00000000
00000000
00000301
00000000
,
00000000
00000100
00000001
00001000
00000001
00000000
00000100
00000000
00000000
00000001
00001000
00000001
00000100
00000000
00001000
00000000
,
00000000
00010000
00001000
00010000
00001000
00000000
01000000
00000000
00000000
00001000
00010000
00001000
00010000
00000000
01000000
00000000
,
00000000
10000000
00010000
10000000
01000000
00000000
10000000
00000000
00000000
00010000
10000000
00010000
00100000
00000000
00001000
00000000
,
00000000
00010000
00001000
00010000
00001000
00000000
00000010
00000000
00000100
00000010
00000001
00000000
00000000
00000000
00000100
00000000
,
00000010
00000000
00001000
00000000
00000001
00000000
00000000
00000000
00000000
00000000
00000000
00000000
00000010
00000000
00000000
00000000
00001000
00000000
00010000
00000000
00001000
00000000
00000000
00010000
00000000
00000000
00001000
00000000
00000000
00010000
00000000
00000000
,
00001000
00000000
01000000
00000000
00001000
00000000
00000000
00000000
00000000
00000000
00000000
00000000
00000000
00000000
00000000
00000000
00010000
00000000
00000000
00001000
00000000
00000000
00010000
00000000
00000000
00001000
00000000
00000000
00010000
00000000
00000000
00000000
,
00001000
00000000
00000000
00000000
00000100
00000000
00000001
00000000
00001000
00000000
00000000
00000000
00000000
00000000
00000000
00000000
00000001
00000000
00000000
00000000
00000010
00000000
00000000
00001000
00000000
00000000
00010000
00000000
00000000
00001000
00000000
00000000
,
00010000
00000000
00000000
00000000
01000000
00000000
10000000
00000000
00100000
00000000
00000000
00000000
00000000
00000000
00000000
00000000
10000000
00000000
00100000
00000000
01000000
00000000
00000000
00000000
00001000
00000000
00000000
00010000
00000000
00000000
00001000
00000000
,
00000000
00010000
00000000
00000000
00001000
00000000
00000100
00000000
00000000
00000000
00000000
00000000
00000101
00000000
00000000
00000000
00000000
00000000
00000000
00000000
00000000
00000000
00000001
00000000
00000010
00000000
00000000
00000000
00000000
00000000
00000110
00000000
,
00000000
00000000
00000000
00000000
00000100
00010000
00001000
00000000
00000000
00000000
00000000
00011000
00000000
00000000
00000000
02100000
,
00000000
00000000
00000000
03001000
00000000
00010000
00000000
00001000
00000000
00010000
00000000
00001000
00000000
00010000
00000000
00001000
,
00000000
00010000
00000000
00001000
00010000
00001000
00010000
00001000
00010000
00001000
00010000
00001000
00010000
00001000
01000000
00010000
,
10000000
01000000
00100000
00002000
00000000
00000000
00000000
00000000
00000000
00000000
00000000
00000000
00000000
00000000
00000000
00000000
,
00000000
00000000
00000000
00000000
00000000
00003000
00000000
00000000
00000000
00000000
00000000
00000000
00000000
00000000
00000000
00000000
;

//---------------dance-double - t7r----------------
#NOTES:
     dance-double:
     t7r:
     Challenge:
     19:
     :
00000000
00000000
00000000
00000000
,
00000000
00000000
00000000
00000000
,
00000000
00000000
00000000
00000000
,
00000000
00000000
00000000
00000000
,
00000000
00000000
00000000
00000000
,
00000000
00000000
00000000
00000000
,
00000000
00000000
00000000
00000000
,
00000000
00000000
00000000
00000000
01000000
00000000
00010000
10000000
01000000
00000000
10000000
00000000
00010000
10000000
00100000
00000000
,
10000000
01000000
00100000
00000000
00010000
00000000
10000000
00100000
01000000
00100000
10000000
00000000
01000000
00000000
00010000
00000000
,
00001000
00000000
00000100
00000000
00000010
00000100
00000001
00001000
00000010
00001000
00000100
00000010
00000001
00000000
00000100
00000000
,
00001000
00000000
00011000
00000000
00011000
00000000
00010000
00000100
00001000
00000000
00000010
00000000
00000100
00000000
00000001
00000000
,
00001000
00000000
00000100
00010000
00001000
00000000
00010000
00000000
01000000
10000000
00010000
00000000
10000000
00000000
00100000
00000000
,
01000000
00010000
10000000
00000000
01000000
00000000
10000000
00100000
10000000
00010000
01000000
00001000
00010000
00000000
00001000
00000000
,
00000100
00000000
00000110
00000000
00000110
00000000
00000110
00000000
00000101
00000000
00000001
00001000
00000001
00000010
00000001
00000010
,
00000001
00000010
00000001
00000010
00000100
00010000
00000100
00010000
00000100
00010000
00000100
00010000
00001000
01000000
00001000
01000000
,
00001000
01000000
00001000
01000000
00010000
10000000
00010000
10000000
00010000
10000000
00010000
10000000
01000000
00100000
01000000
00100000
,
01000000
00100000
01000000
00100000
00001000
00010000
00001000
00010000
00001000
00010000
00001000
00000000
01000000
00010000
10000000
00000000
,
01000000
10000000
00010000
00000000
10000000
01000000
00100000
01000000
10000000
00000000
00100000
00000000
01000000
00010000
10000000
00000000
,
01000000
00000000
00010000
00001000
00010000
00000000
00001000
00000000
00000100
00000000
00000010
00000100
00000001
00000000
00000010
00000100
,
00001000
00000000
00000100
00000000
00010000
00000000
00001000
00000000
00011000
00000000
00011000
00000000
00010000
01000000
00010000
00000000
,
00001000
00000000
00000100
00000001
00000000
00001000
00000001
00001000
00000000
00000100
00010000
00000100
00000000
00010000
00001000
00010000
,
00001000
00010000
00000000
00001000
00000010
00001000
00000010
00001000
00000000
00000010
00000000
00000100
00010000
00000000
00001000
00010000
,
00001000
00000000
00010000
00100000
00010000
00000000
00100000
10000000
00100000
10000000
00100000
00000000
10000000
01000000
10000000
01000000
,
10000000
00100000
00000000
10000000
00000000
00000000
00000000
00000000
01000000
00010000
00001000
00000000
00010000
00001000
00000000
00000000
,
00000000
00000100
00001000
00010000
00001000
00000000
00000000
00000000
00010000
00001000
00010000
00000000
00001000
00000000
00000000
00000000
,
00000000
00000010
00001000
00000000
00000000
00010000
00100000
00000000
00000000
00000000
10000000
01000000
10000000
01000000
10000000
00010000
,
10000000
00010000
10000000
00100000
01000000
00100000
10000000
00000000
01000000
00000000
00010000
00000000
00001000
00000000
00000100
00000001
,
00001000
00000000
00000100
00000000
00000010
00000100
00001000
00000000
00000001
00000000
00000100
00000000
00001000
00010000
00001000
00000000
,
00010000
00000000
00001000
00010000
00100000
00000000
10000000
01000000
00100000
00000000
01000000
00000000
10000000
00000000
00100000
00000000
,
01000000
00000000
00010000
10000000
01000000
10000000
00010000
00000000
10000000
00000000
00100000
00000000
00010000
00000000
00001000
00010000
,
00000010
00000000
00000100
00000010
00001000
00000010
00000100
00000000
00000001
00000000
00000010
00000000
00000100
00000000
00001000
00000001
,
00000010
00000000
00000001
00000000
00000100
00000010
00001000
00000001
00001000
00000000
00000100
00000000
00010000
00001000
00010000
00000000
,
00001000
00000000
01000000
00010000
00100000
00001000
00010000
00001000
00010000
00000010
00001000
00000000
00000010
00000000
00000100
00000000
,
00000001
00000000
00000000
00001000
00000000
00000100
00000000
00010000
00000000
00001000
00000000
00000000
00010000
00000000
00000000
01010000
00000000
00000000
00000000
00000000
00000000
00000000
00000000
00000000
,
00000000
00000000
00010000
00001000
00010000
00000000
00000100
00010000
00000100
00000000
00010000
00001000
00010000
00000000
00000100
00010000
,
00000100
00000000
00010000
00001000
00010000
01000000
10000000
00000000
00100000
00000000
00110000
00000000
00000000
00000000
00000000
00000000
,
00000000
00000000
00001000
00010000
00001000
00000000
01000000
00001000
01000000
00000000
00001000
00010000
00001000
00000000
01000000
00001000
,
01000000
00000000
00001000
00010000
00001000
00000100
00000001
00000000
00000010
00000000
00001010
00000000
00000000
00000000
00000000
00000000
,
00000000
00000000
00000000
00000001
00000000
00000100
00000000
00000001
00000000
00001000
00000000
00001100
00000000
00000000
00000000
00000100
00000000
00010000
00000000
00001000
00000000
00010000
00000000
00011000
,
00000000
00000000
00000000
00001000
00000000
01000000
00000000
00010000
00000000
10000000
00000000
10010000
00000000
00000000
00000000
10000000
00000000
00100000
00000000
10000000
00000000
00010000
00000000
00110000
,
00000000
00000000
00000000
10000000
00000000
01000000
00000000
00100000
00000000
01000000
00000000
10000000
00000000
00100000
00000000
00010000
00000000
00001000
00000000
00000010
00000000
00000100
00000000
00000010
,
00000000
00000001
00000000
00000100
00000000
00000010
00000000
00001000
00000000
00000001
00000000
00000010
00000000
00001000
00000000
00010000
00000000
01000000
00000000
00100000
00000000
01000000
00000000
10000000
,
00000000
00100000
00000000
01000000
00000000
00000000
00010000
00000000
00000000
10010000
00000000
00000000
00000000
00000000
00000000
21000000
00000000
00000000
00000000
00000000
00000000
31000000
00000000
00000000
,
00010000
00001000
00010000
00011000
00001000
00020000
00000000
00030100
,
00001000
00000010
00000000
00000100
00000001
00001002
00000000
00000103
,
00000000
00000010
00000100
00001000
00010000
00210000
01000000
00000000
,
10300000
10010000
10000000
00010000
00000000
00001002
00000000
00000103
,
00000000
00000001
00001000
00010000
00000000
20010000
00000000
30010000
,
00001000
00000001
00000000
00000100
00000010
00001002
00000000
00000103
,
00000000
00000000
00000000
00001000
00000000
00000000
00010000
00000000
00000000
00100000
00000000
00000000
00000000
00000000
00000000
10000000
00010000
10000000
01000000
00000000
00000000
00000000
00000000
00000000
,
00000000
10000000
00010000
10000000
00010000
00001000
00000001
00001000
,
00000001
00001001
00000001
00001000
00000001
00001000
00010000
10000000
,
00010000
10000000
00010000
10000000
00010000
00001000
00000001
00001000
,
00000001
00001001
00000001
00001000
00000001
00001000
00010000
10000000
,
00010000
01000000
00000100
01000000
00000100
01000000
00000100
01000000
,
00000100
01000100
01000000
00000100
01000000
00000100
01000000
00000100
,
00010000
00000010
00100000
00000010
00100000
00000010
00100000
00000010
,
00100000
00000000
00100010
00000000
00000010
00000000
00001000
00000000
00000001
00000000
00000200
00000000
00000000
00000000
00000301
00000010
,
00000100
00010000
00002000
00000000
00000000
00000000
00000000
00000000
00000000
00000000
00000000
00000000
00000000
00000000
00000000
00000000
,
00000000
00000000
00000000
00000000
00003100
00000002
00000000
00000000
00000000
00000000
00000000
00000000
00000000
00000000
00000000
00000000
00000000
00000000
00000000
00000000
00000013
00000000
00000000
00000000
00000000
00000000
00000000
00000000
00000020
00000000
00000000
00000000
,
00000000
00000000
00000000
00000000
00000000
00000000
00000000
00000000
00000000
00000000
00000000
00000000
00000130
00020000
00000000
00000000
00000000
00000000
00000000
00000000
00000000
00000000
00000000
00000000
00000000
00000000
00000000
00000000
00000000
00000000
00000000
00000000
,
00000000
00000000
00000000
00000000
,
00000000
00000000
00000000
00000000
00000000
00000000
00000000
00000000
00000000
00000000
00000000
00000000
00030000
00000000
00000000
00000000
00000000
00000000
00000000
00000000
00001000
00020000
00000000
00000000
00000000
00000000
00000000
00000000
00000000
00100000
00000000
00000000
,
00000000
00000000
00000000
00000000
00000000
00000000
00000000
00001000
00000000
00000000
00000000
00000000
00000000
00000000
00000000
00031000
00000000
00000000
00000000
00000000
00000000
00000100
00000002
00000000
00000000
00000000
00000000
00000000
00000000
00000000
00000000
00000000
,
00000000
00000000
00000000
00000000
00000000
00000010
00000000
00000000
00000000
00000000
00000000
00000000
00000000
00000000
00001003
00000000
00000000
00000000
00000000
00000000
00000000
00000000
00000000
00000000
00000000
00000000
00000000
00000000
00000100
00020000
00000000
00000000
,
00000000
00000000
00000000
00000000
,
00000000
00000000
00000000
00030000
00000000
00000000
00000000
01000000
,
10000000
00100000
01000000
10000000
01000000
00100000
10000000
01000000
,
00010000
00001000
00000010
00000001
00001000
00000010
00000001
00000010
,
00000100
00000001
00000010
00001000
00000001
00000100
00001000
00000001
,
00001000
00000001
00000100
00001000
00010000
00100000
10000000
00100000
,
01000000
00010000
00100000
10000000
00010000
01000000
10000000
00100000
,
01000000
10000000
01000000
00010000
10000000
01000000
00010000
00001000
,
00000100
00000001
00000010
00000001
00001000
00000100
00010000
00001000
,
00010000
00000000
02000000
00000000
13000000
00000000
00100000
00000000
01000000
00000000
00010000
10000000
00010000
10000000
00010000
10000000
,
00010000
10000000
00010000
00000000
00000000
00000000
00000000
00000000
10010000
00000000
00000000
00000000
00000000
00000000
11000000
00000000
,
00000000
10010000
00000000
01001000
,
00000000
00101000
00000000
00000000
00011000
00000000
00000000
00000000
,
00001000
00001000
00001000
00001100
00000000
00000000
00000110
00000000
,
00000000
00001010
00000000
00000000
00000000
00001001
00000000
00000000
,
00000011
00000000
00000000
00000110
00000000
00000000
00010100
00000000
,
00000100
00010000
00011000
00000000
00000000
00001001
00000000
00000000
,
00011000
00000000
00000000
10010000
00000000
00000000
00000000
11000000
,
00000000
00000000
00011000
00000000
00000000
00000101
00000000
00000000
,
00000000
00000001
00000001
00000001
00000011
00000000
00000000
00011000
,
00000000
10100000
00000000
01100000
,
00000000
00000110
00000000
00000000
01100000
00000000
00000000
00012000
,
00000000
00000000
00000000
00000000
00000000
00000000
00013000
00001000
00010000
00000100
00000000
00000000
00000000
00000100
00000000
00000000
,
00000000
01000000
00000000
00000000
00000000
01000000
00000000
00000000
00000000
00000100
00000000
00000000
00000000
00000100
00010000
00001000
,
00010000
00000000
01000000
10000000
00010000
10000000
00100000
00000000
10000000
00000000
01000000
00000000
00100000
00000000
00001000
00010000
,
00000010
00000000
00000100
00000000
00000001
00001000
00000010
00000000
00000100
00000001
00001000
00000000
00000001
00000000
00001000
00000100
,
00010000
00000000
00001000
00010000
00000100
00010000
00001000
00010000
00001000
01000000
00010000
00000000
01000000
00000000
00100000
00000000
,
10000000
00000000
01000000
10000000
00010000
00000000
10000000
00000000
01000000
00000000
00010000
00000000
00001000
00000000
00000010
00000001
,
00001000
00000000
00000001
00000100
00000010
00000100
00000001
00000000
00000010
00000000
00000100
00000000
00001000
00000000
00000001
00000100
,
00000010
00000000
00001000
00000000
00000100
00010000
00001000
00000000
00010000
00000100
00001000
00000000
00000001
00000000
00000100
00000000
,
00001000
00000000
00010000
00000000
00100000
10000000
00010000
00000000
00100000
01000000
10000000
00000000
01000000
00000000
10000000
00000000
,
00100000
00000000
10000000
01000000
00100000
00001000
00010000
00000000
00001000
00000000
00000100
00000000
00000001
00000000
00001000
00000100
,
00000010
00000001
00000101
00000110
00000000
00001010
00000000
00001001
,
00001001
00000000
00000001
00000010
00001010
00000000
00011000
00011000
,
00000000
00010000
00100000
01100000
10100000
10010000
00000000
10000000
,
01000000
01010000
00011000
00001100
00000101
00000000
00001001
00000000
,
00000011
00000000
00000001
00000000
00000100
00000000
00000001
00000000
00001000
00000000
00000100
00010000
00000100
00010000
00000100
00010000
,
00000100
00010000
00001000
00010000
00001000
00010000
00001000
00010000
00001000
00000000
01000000
00001000
01000000
00001000
01000000
00001000
,
01000000
00001000
00010000
00001000
00010000
00001000
00010000
00001000
00010000
00001000
00010000
00000000
00000100
00010000
00000100
00010000
,
00000100
00010000
00000100
00010000
00001000
00010000
00001000
00010000
00001000
00000000
00010000
01000000
10000000
00000000
00010000
01000000
,
10000000
00000000
00010000
00100000
10000000
00000000
01000000
00010000
00001000
00000000
00020000
00000000
00000000
00000000
00031000
00000000
,
00000100
00000010
00000100
00000001
00000100
00000000
00000010
00000000
00000100
00000001
00001000
00000100
00010000
00000000
00001000
00000000
,
00010000
01000000
00100000
01000000
10000000
00000000
00010000
00000000
01000000
00100000
10000000
00010000
10000000
00000000
00010000
00000000
,
10000000
01000000
00100000
01000000
10000000
00000000
00100000
00000000
01000000
00010000
00100000
00001000
00010000
00000000
00000100
00000000
,
00010000
00000010
00001000
00000001
00000100
00000000
00000001
00000010
00000100
00010000
00001000
00000000
00000000
00000000
00010000
00001000
,
00010000
00000000
00001000
00000000
00010000
00000000
00001000
00000000
00010000
00000000
00001000
00000000
00010000
00000000
00001000
00000000
00010000
00000000
00001000
00000000
00010000
00000000
00000000
00100000
00000000
00000000
10000000
00000000
00000000
01000000
00000000
00000000
,
00010000
00000000
00001000
00000000
00010000
00000000
00001000
00000000
00010000
00000000
00001000
00000000
00010000
00000000
00001000
00000000
00010000
00000000
00000000
00001000
00000000
00000000
00000010
00000000
00000000
00000001
00000000
00000000
00000100
00000000
00000000
00000000
,
00001000
00000000
00010000
00000000
00001000
00000000
00010000
00000000
00001000
00000000
00010000
00000000
00001000
00000000
00010000
00000000
00001000
00000000
00010000
00000000
00001000
00000000
00000000
00010000
00000000
00000000
01000000
00000000
00000000
10000000
00000000
00000000
,
00100000
00000000
00010000
00000000
00001000
00000000
00010000
00000000
00001000
00000000
00010000
00000000
00001000
00000000
00010000
00000000
00001000
00000000
00010000
00000000
00001000
00000000
00010000
00000000
00001000
00000000
00000000
00000100
00000000
00000000
00000001
00000000
,
00000000
00000010
00000000
00000000
00001000
00000000
00010000
00000000
00001000
00000000
00000000
00000000
00011000
00000000
00000000
00000000
00000000
00000000
00000000
00000000
00000000
00000000
00010000
00000000
01000000
00000000
10000000
00000000
00000000
00000000
00100000
00000000
,
01000000
00000000
00000000
00000000
00000000
00000000
00000000
00000000
00100000
00000000
00010000
00000000
00001000
00000000
00010000
00000000
00000010
00000000
00000000
00000000
00000000
00000000
00001000
00000002
00000000
00000000
00000000
00000000
00000000
00000000
00001003
00000000
,
00000100
00010000
00000100
00010000
00000100
00010000
00000100
00010000
00000100
00010000
00000100
00010000
00000100
00010000
00000100
00010000
,
00000100
00010000
00000100
00010000
00000100
00010000
00000100
00010000
00000100
00010000
00000100
00010000
00000100
00010000
00000100
00010000
,
01000000
10000000
00100000
00020000
00000000
00000000
00000000
00000000
00000000
00000000
00000000
00000000
00000000
00000000
00000000
00000000
,
00000000
00000000
00000000
00000000
00000000
00030000
00000000
00000000
00000000
00000000
00000000
00000000
00000000
00000000
00000000
00000000
;
