#TITLE:Bereavement;
#ARTIST:Graupel;
#BANNER:Bereavement.png;
#BACKGROUND:Bereavement-bg.png;
#JACKET:Bereavement-jacket.png;
#CDTITLE:./CDTITLES/NONE.PNG;
#MUSIC:Bereavement.ogg;
#SAMPLESTART:9.74;
#SAMPLELENGTH:15;
#BPMS:0=244,36=236,40=225,234=158,264=79,268.5=82,270=170;

//---------------dance-single - t7r----------------
#NOTES:
     dance-single:
     t7r:
     Beginner:
     4:
     :
0000
0000
0000
0000
,
0000
0000
0000
0000
,
0000
0000
0000
0000
,
0000
0000
0000
0000
,
0000
0000
0000
0000
,
0000
0000
0000
0000
,
0000
0000
0000
0000
,
0000
0000
0000
0000
,
0000
0000
0000
0000
,
0000
0000
0000
0000
,
0001
0000
0000
0000
,
0001
0000
0000
0000
,
1000
0000
0000
0000
,
1000
0000
0000
0000
,
0010
0000
0000
0000
,
0010
0000
0000
0000
,
0100
0000
0000
0000
,
0100
0000
0100
0000
,
0010
0000
0000
0000
,
0000
0000
0000
0000
,
1000
0000
0000
0000
,
0000
0000
0000
0000
,
0001
0000
0000
0000
,
0000
0000
0010
0000
,
0010
0000
0000
0000
,
0001
0000
0000
0000
,
0000
0000
1000
0000
,
1000
0000
1000
0000
,
0000
0000
0001
0000
,
0001
0000
0001
0000
,
0000
0000
0100
0000
,
0100
0000
0100
0000
,
0000
0000
0010
0000
,
0000
0000
0010
0000
,
0010
0000
0000
0000
,
1000
0000
0000
0000
,
0001
0000
0001
0000
,
0001
0000
0000
0000
,
0010
0000
0000
0000
,
0001
0000
0000
0000
,
1000
0000
1000
0000
,
1000
0000
0000
0000
,
0010
0000
0010
0000
,
0100
0000
0100
0000
,
0001
0000
0001
0000
,
1000
0000
0000
0000
,
0001
0000
0001
0000
,
0010
0000
0000
0000
,
0100
0000
0100
0000
,
1000
0000
1000
0000
,
0010
0000
0010
0000
,
0100
0000
0100
0000
,
0010
0000
0010
0000
,
1000
0000
1000
0000
,
0001
0000
0001
0000
,
1000
0000
1000
0000
,
0010
0000
0010
0000
,
0100
0000
0100
0000
,
0001
0000
0001
0000
,
1000
0000
0000
0000
,
0000
0000
0000
0000
,
0001
0000
0000
0000
,
0000
0000
0000
0000
,
0010
0000
0000
0000
,
0000
0000
0100
0000
,
0100
0000
0000
0000
,
0010
0000
0000
0000
,
0000
0000
0001
0000
,
0001
0000
0001
0000
,
0000
0000
1000
0000
,
1000
0000
1000
0000
,
0000
0000
0010
0000
,
0010
0000
0010
0000
,
0000
0000
0100
0000
,
0100
0000
0100
0000
,
0000
0000
0010
0000
,
0010
0010
0010
0000
,
0010
0000
1000
0000
,
1000
1000
1000
0000
,
1000
0000
0001
0000
,
0001
0001
0001
0000
,
0001
0000
0010
0000
,
0010
0010
0010
0000
,
0100
0000
1000
0000
,
0001
0001
0001
0000
;

//---------------dance-single - t7r----------------
#NOTES:
     dance-single:
     t7r:
     Easy:
     8:
     :
0000
0000
0000
0000
,
0000
0000
0000
0000
,
0000
0000
0000
0000
,
0000
0000
0000
0000
,
0000
0000
0000
0000
,
0000
0000
0000
0000
,
0000
0000
0000
0000
,
0000
0000
0000
0000
,
0000
0000
0000
0000
,
0100
0000
1001
0000
,
0001
0000
1000
0000
,
0100
0010
0001
0000
,
0100
0000
0010
0000
,
1000
0001
0010
0000
,
0001
0100
0001
0000
,
1000
0100
1000
0000
,
0001
0010
0001
0000
,
1000
0010
0200
0000
,
0301
0010
0001
0010
,
0100
1000
0001
0000
,
1000
0010
1000
0010
,
0100
0001
1000
0000
,
0001
0010
0100
1000
,
0010
0000
1000
0010
,
0100
0000
0010
1000
,
0001
0000
1000
0000
0100
0000
0000
0010
,
0000
0010
0001
0100
,
0010
0000
0100
0000
0001
0000
0000
1000
,
0000
1000
0001
1000
,
0100
0000
0010
0000
0001
0000
0000
0100
,
0000
0100
0010
0100
,
0001
0000
0010
0000
0100
0000
0000
0010
,
0000
0000
0010
0000
0001
0000
0000
1000
,
0000
1000
0010
0000
,
1000
0001
1000
0001
,
1000
0100
1000
0100
,
0010
0001
0100
1000
,
0100
0001
0010
0000
,
0001
1000
0001
1000
,
0001
0100
0001
0100
,
0001
0010
1000
0010
,
0001
0100
0010
0000
,
1000
0100
1000
1000
,
0001
0100
0001
0001
,
1000
0010
1000
1000
,
0001
0010
0001
0001
,
1000
0100
0010
0010
,
0001
0100
0010
0010
,
1000
1000
0001
0001
,
0100
0100
0010
0010
,
1000
1000
0100
0100
,
0010
0100
1000
0001
,
0101
0000
0001
1000
,
1100
0000
1000
0001
,
0010
0001
0100
0000
,
0001
1000
0001
0010
,
0011
0000
1000
0010
,
1010
0010
0010
0010
,
0100
0100
0001
0000
,
2000
0000
0100
0000
,
3001
0000
0010
0100
,
1002
0000
0100
0000
,
1003
1000
0001
0001
,
2001
0000
0010
0000
,
3100
1000
1001
0000
,
1002
0000
0010
0000
,
0103
0000
0000
0000
,
0000
0000
0100
0100
,
0010
0100
0001
0100
,
0100
0010
0100
0100
,
1000
0100
0100
0010
,
0100
0001
1000
1000
,
0100
0010
0010
0100
,
0001
0100
0010
0010
,
0010
0001
2000
3002
,
0203
0300
0001
1000
,
1001
0000
1000
0100
,
1100
0000
0001
1000
,
1001
0000
0001
0100
,
0101
0000
1010
0010
,
1000
0000
0011
0010
,
0001
0000
1100
0100
,
1000
0000
0001
0100
,
1000
0100
0001
0010
,
0100
1000
0110
0000
;

//---------------dance-single - t7r----------------
#NOTES:
     dance-single:
     t7r:
     Medium:
     12:
     :
0000
0000
0000
0000
,
0000
0000
0000
0000
,
0000
0000
0000
0000
,
0000
0000
0000
0000
,
0000
0000
0000
0000
,
0000
0000
0000
0000
,
0000
0000
0000
0000
,
0000
0000
0000
0000
,
0000
0000
0000
0000
,
0110
0000
1001
0000
,
1000
0000
0000
0100
0000
1000
0000
0010
,
0000
1000
0000
0001
0000
0100
0001
0000
,
0010
0000
0000
0001
0000
0100
0000
0010
,
0000
0100
0000
0001
0000
0010
0100
0000
,
1000
0000
0000
0010
0000
1000
0000
0001
,
0000
0010
0000
0001
0000
0100
0010
0000
,
0100
0000
0000
0001
0000
0010
0000
0100
,
1000
0001
1000
0000
,
0001
0100
0000
0001
0000
0010
0000
1000
,
0000
0010
0000
0001
0000
1000
0001
0000
,
1000
0010
0000
1000
0000
0100
0000
0001
,
0000
0100
0000
1000
0000
0001
1000
0000
,
0001
0000
0000
0100
0010
0000
0100
0001
,
0000
0000
0000
1000
0100
0000
1000
0010
,
0000
0000
0000
0100
0010
0000
1000
0001
,
1000
0000
0100
0000
0010
0000
0000
1001
,
0000
0001
0100
1000
,
0100
0000
0010
0000
0100
0000
0000
1001
,
0000
1000
0100
0001
,
0100
0000
0010
0000
0100
0000
0000
0110
,
0000
0001
1000
0010
,
0001
0000
0010
0000
0100
0000
0000
1010
,
0000
0000
0001
0000
1000
0000
0000
0011
,
0000
1000
0001
0000
,
1000
0000
0100
1000
0100
0000
1000
0000
,
0001
0000
0100
0001
0100
0000
0001
0000
,
1000
0000
0010
0000
,
0100
0010
0100
0010
0100
0000
0000
0000
,
0001
0000
1000
0010
1000
0000
0001
0000
,
1000
0000
0001
0010
0001
0000
1000
0000
,
0001
0000
1000
0000
0100
0000
0010
0001
,
0000
0000
0100
0000
0010
1000
0001
0000
,
1000
0100
1000
0001
,
1001
0001
0100
0001
,
0011
0001
0100
0010
,
1000
0010
1000
0010
1000
0000
0001
0000
,
1000
0100
0110
0100
,
1000
0001
1001
0001
,
0100
0010
0100
0010
0100
0010
0100
0010
,
0100
0010
0100
0010
0100
0010
0100
0010
,
0100
0100
0010
0010
,
1000
0100
0011
0100
,
1001
0000
1010
0100
,
1001
0000
0011
0100
,
1001
0000
0100
0010
0000
0010
0100
0000
,
1001
0001
0101
0001
,
1001
1000
1100
1000
,
1000
0001
1000
0001
1000
0001
1000
0001
,
1000
0001
1000
0001
0010
0100
0000
0000
,
0020
0001
0100
1000
,
0130
0000
0100
0000
0010
0001
1000
0000
,
0020
1000
0100
0001
,
0130
0010
0100
0100
0001
1000
0001
0000
,
2000
0100
0001
0010
,
0100
3100
1001
0000
,
0002
0100
1000
1000
,
0013
0000
0000
0000
,
0000
0000
0000
0000
0100
1000
0000
0100
,
0010
0100
0000
0100
0010
0000
0001
0000
,
0100
0001
0100
0000
0010
1000
0000
0010
,
0100
0010
0000
0010
1000
0000
0001
0000
,
0010
0001
0100
0000
0001
0010
0000
0010
,
0001
1000
0000
1000
0010
0000
0100
0000
,
0010
1000
0001
0000
1000
0100
0000
0100
,
0010
0100
0000
0100
1000
0000
0001
0000
,
0100
0001
1000
0000
0001
0100
0000
0100
,
1000
0100
0000
0100
0001
0000
1000
0000
,
0001
0010
0001
0000
1000
0100
0000
0100
,
0001
0100
0000
0100
1000
0000
0010
0100
,
0001
0000
1000
0000
0001
0010
0000
0010
,
1000
0010
0000
0010
0001
0000
1000
0000
,
0001
0100
0010
0000
1000
0010
0000
0010
,
0001
0010
0000
0010
1000
0000
0001
0100
,
0001
0000
1000
0000
0001
0010
0100
1000
,
0010
0100
1001
0000
;

//---------------dance-single - t7r----------------
#NOTES:
     dance-single:
     t7r:
     Hard:
     15:
     :
0000
0000
0000
0000
,
0000
0000
0000
0000
,
0000
0000
0000
0000
,
0000
0000
0000
0000
,
0000
0000
0000
0000
,
0000
0000
0000
0000
,
0000
0000
0000
0000
,
0000
0000
0000
0000
,
0000
0000
0000
0000
,
0110
0000
0000
0000
1001
0000
0000
1000
,
0100
1000
0000
0001
0000
0100
0000
0001
,
0000
0010
0000
0001
0000
0100
0020
0000
,
1030
0001
0000
0010
0000
0100
0000
0010
,
0000
0001
0000
0100
0000
0010
2000
0000
,
3001
0010
0000
0001
0000
0100
0000
1000
,
0000
0100
0000
0001
0000
0010
0002
0000
,
1003
0100
0000
0001
0000
0100
0000
1000
,
0001
0100
0010
1000
0100
0010
0001
1000
,
0010
0100
0001
0100
0000
0010
0000
1000
,
0000
0100
0000
0010
0100
1000
0020
0000
,
0130
0001
0010
0001
0000
1000
0000
0100
,
0000
0010
0000
0100
1000
0001
0200
0000
,
0310
0100
0001
1000
0000
0100
0010
0001
,
0000
0100
0010
1000
0001
0010
0002
0000
,
1003
0010
0100
0010
1000
0100
0010
0000
,
0001
0100
0010
0100
0001
0010
0100
2000
,
0000
3001
0100
0000
0101
0000
1010
0000
,
1100
0000
1001
0000
1000
0100
0010
0002
,
0000
1003
0010
0000
0110
0000
0101
0000
,
1001
0000
1010
0000
0001
0010
0100
2000
,
0000
3010
0100
0000
0110
0000
1010
0000
,
1001
0000
0101
0000
1000
0100
0001
0200
,
0000
1300
0001
0100
1000
0100
0001
0020
,
0000
0031
0100
0010
1000
0100
0010
0001
,
1000
0100
1000
0100
0010
0100
0010
0100
,
0010
0001
0010
0001
1000
0100
0010
0001
,
1000
0001
0100
0001
1000
0001
0010
0001
,
1000
0010
0001
0010
1000
0001
0010
1000
,
0010
0001
0010
0001
1000
0100
0010
0001
,
1000
0010
1000
0010
0100
0001
0010
0100
,
1000
0010
1000
0010
0100
0010
0100
0010
,
1000
0100
0010
0001
0100
0010
1000
0001
,
1000
1100
0101
1100
,
0001
0101
1100
0101
,
1000
0000
1010
0000
0010
0100
0001
0000
,
1000
0100
0010
0100
1000
0100
0010
0001
,
0100
0101
1010
1001
,
0100
1100
0011
1001
,
1000
0100
1000
0100
0001
0100
0001
0100
,
1000
0010
1000
0010
0001
0010
0001
0010
,
1000
0100
0100
0001
1000
0010
0010
0001
,
1000
0100
0010
0100
0001
0100
0010
0100
,
1000
0010
0100
0010
0001
0010
0100
0010
,
1000
0100
0001
0100
0010
1000
0001
0100
,
1000
0010
0001
0010
0100
1000
0001
0010
,
1000
0100
0100
0001
1000
0010
0010
0100
,
1000
0010
0010
0001
1000
0100
0100
0010
,
1000
0100
0001
0100
1000
0010
0001
0010
,
1000
0000
0100
0010
0000
0100
1000
0000
0001
0000
0101
0000
0000
0000
1000
0000
,
2001
0010
0100
0001
,
0100
0000
0010
0000
3001
0020
0230
1300
,
1002
0100
0010
1000
,
0103
0001
0100
0001
1000
0100
1000
0000
0001
0010
0001
0010
0001
0100
0010
0000
,
2001
0100
0001
0010
,
0100
0000
0000
0000
3100
0000
1000
0001
0200
0000
0000
0000
0000
0000
0301
1000
,
0002
0000
0000
0000
0010
0000
0000
0000
1000
0000
0000
0000
0103
0000
0010
0100
,
0010
0000
0000
0000
,
0000
0000
0000
0000
0000
0000
0000
0000
1000
0100
1000
0000
0100
1000
0000
0100
,
1000
0000
0100
0000
0010
0001
0000
1000
0001
0000
0100
0001
0000
0010
0000
0001
,
0010
0000
0100
1000
0000
0001
0000
1000
0001
0100
0001
0000
0100
0001
0000
0100
,
0001
0000
0100
0000
0010
1000
0000
0001
1000
0000
0100
1000
0000
0010
0000
1000
,
0010
0000
0100
0001
0000
1000
0000
0001
1000
0010
1000
0000
0010
1000
0000
0010
,
1000
0000
0010
0000
0100
0001
0000
1000
0001
0000
0010
0001
0000
0100
0000
0001
,
0100
0000
0010
1000
0000
0001
0000
1000
0001
0010
0001
0000
0010
0001
0000
0010
,
0001
0000
0010
0000
0100
1000
0000
0001
1000
0000
0100
0000
0100
0000
0001
0000
,
1000
0000
0010
0000
0010
0000
0100
0000
1000
0001
0100
0001
0000
1000
0001
0100
,
0001
1000
0001
0000
1000
0100
0000
0010
0100
1000
0000
0001
1000
0100
0000
1000
,
0001
0000
0100
0000
0000
0001
1000
0000
0001
0010
0001
1000
0000
0001
1000
0010
,
1000
0001
1000
0000
0001
0100
0001
0010
0001
0000
0010
0000
0100
0010
0001
1000
,
0010
0000
0200
0000
0301
0000
1000
0000
0001
0010
0100
0010
0000
0001
1000
0010
,
1000
0100
1000
0000
0001
0100
0000
0001
1000
0100
1000
0000
0001
1000
0000
0001
,
0100
0010
0100
0000
0001
1000
0000
0001
0100
0010
1000
0000
0100
0001
0000
0100
,
1000
0001
0100
0000
0010
1000
0000
0001
0010
0000
0001
0010
0001
0000
0100
0001
,
0100
0000
0001
0010
0001
0000
1000
0000
0001
0000
1000
0010
1000
0000
0100
1000
,
0100
0000
1000
0001
0010
0001
0100
0010
1000
0000
0000
0000
0000
0000
0000
0000
;

//---------------dance-single - t7r----------------
#NOTES:
     dance-single:
     t7r:
     Challenge:
     18:
     :
0000
0000
0000
0000
,
0000
0000
0000
0000
,
0000
0000
0000
0000
,
0000
0000
0000
0000
,
0000
0000
0000
0000
,
0000
0000
0000
0000
,
0000
0000
0000
0000
,
0000
0000
0000
0000
,
0000
0000
0000
0000
,
0110
0000
0000
0000
1001
0000
0000
0001
,
0100
0000
0001
0000
0010
0001
0010
0000
0001
0000
1000
0000
0010
1000
0010
0000
,
1000
0000
0001
0000
0100
0001
0100
0000
0001
0000
0010
0000
0100
1000
0001
0000
,
0010
0000
0001
0000
0100
0001
0100
0000
0001
0000
1000
0000
0100
1000
0100
0000
,
1000
0000
0001
0000
0010
0001
0010
0000
0001
0000
0100
0000
0010
1000
0001
0000
,
1000
0000
0010
0000
0100
0010
0100
0000
0001
0000
0010
0000
0100
0010
0100
0000
,
1000
0000
0100
0000
0010
0100
0010
0000
0001
0000
0100
0000
0010
0100
0010
0000
,
1000
0000
0010
0000
0100
0001
0100
0000
0001
0000
0010
0000
0100
1000
0100
0000
,
1000
0010
1000
0010
1000
0001
0100
0000
0001
0010
0001
0010
0001
1000
0001
1000
,
0010
0000
0100
0000
0001
0010
0100
0000
1000
0000
0010
0000
0100
0001
1000
0000
,
0001
0000
0010
0000
0100
0010
0001
0000
1000
0000
0010
0000
0100
0001
1000
0000
,
0100
0000
1000
0000
0010
0100
0001
0000
0010
0000
0001
0000
0100
0010
1000
0000
,
0100
0000
0010
0000
0001
0100
0010
0000
1000
0000
0001
0000
0010
0001
1000
0000
,
0001
0000
0100
0000
0010
1000
0100
0000
1000
0000
0100
0000
0010
0001
0100
0000
,
0001
0000
0010
0000
0100
1000
0010
0000
1000
0000
0010
0000
0100
0001
0010
0000
,
0001
0000
0100
0000
0010
1000
0010
0000
1000
0000
0100
0000
0010
0001
0010
0000
,
0001
0100
0001
0100
0001
0010
0001
0000
1000
0000
0001
0000
1000
0000
2001
0000
,
0000
0000
3001
0010
0001
0000
0010
0000
0100
0000
0001
0000
0100
0000
0010
0000
,
0001
0100
0010
0001
0010
0100
0001
0102
,
0000
0000
1003
0010
1000
0000
0010
0000
0100
0000
1000
0000
0100
0000
0010
1000
,
0010
0000
1000
0100
1000
0000
0010
0100
0010
0000
1000
0000
0001
0000
2001
0000
,
0000
0000
3100
0001
0100
0000
1000
0000
0001
0000
0100
0000
1000
0000
0100
0000
,
0001
0010
0100
0001
0100
0010
0001
1002
,
0000
0000
0013
1000
0010
0000
0001
0000
0100
0000
0010
0000
1000
0000
2010
0000
,
0000
0000
3010
0001
0010
0000
0100
0000
0001
0000
0010
0000
0100
0000
1000
0000
,
0001
0000
0010
0000
0001
0100
0001
0000
0010
0000
0001
0000
0100
0000
0001
0000
,
0010
0000
0001
0000
0100
0001
0100
0000
0010
0000
1000
0000
0001
0000
0010
0000
,
0100
0000
1000
0000
0010
1000
0010
0000
1000
0000
0100
0000
1000
0010
1000
0000
,
0001
0000
0010
0000
1000
0010
0001
0000
1000
0000
0010
0000
0001
0010
1000
0000
,
0001
0000
0100
0000
0010
1000
0010
0000
1000
0000
0100
0000
0010
0000
0001
0000
,
0100
0000
0010
0000
1000
0010
1000
0000
0010
0000
0100
0000
0001
0000
1000
0000
,
0010
0000
1000
0000
0100
1000
0100
0000
0010
0000
0001
0000
0100
0001
0200
0000
,
0000
0000
0310
0100
0010
0100
0001
0000
1000
0100
1000
0100
0010
0001
1000
0010
,
0100
0010
0000
0000
0110
0000
0000
0000
0100
0001
0000
0000
0011
0000
0000
0000
,
0001
1000
0000
0000
1010
0000
0000
0000
1000
0100
0000
0000
0110
0000
0000
0000
,
0001
0010
0001
0010
0001
0100
0001
0000
1000
0100
1000
0100
0010
0100
1000
0000
,
0001
0100
0001
0100
0010
0100
0010
0100
0001
1000
0001
1000
0001
0000
1000
0000
,
0001
0010
0001
0010
0001
0010
0001
0010
0100
0000
0000
0000
1100
0000
0000
0000
,
1000
0010
1000
0010
1000
0010
1000
0010
0100
0000
0000
0000
0101
0000
0000
0000
,
0001
1000
0001
1000
0001
1000
0001
1000
0001
1000
0001
1000
0001
1000
0001
1000
,
0001
1000
0001
1000
0001
1000
0001
1000
0001
1000
0001
1000
0001
1000
0001
1000
,
0010
0000
0100
0001
0100
0001
0100
0000
0010
0000
1000
0100
0010
0000
0001
1000
,
0001
0000
0010
0001
0010
0001
0100
0000
0001
0000
0010
0001
0010
0001
1000
0000
,
0010
0000
0100
0001
0100
0001
0010
0000
0100
0000
0010
0100
0010
0100
1000
0000
,
0010
0000
1000
0001
1000
0001
0010
0000
0001
0000
1000
0001
1000
0001
0100
0000
,
0010
0000
0100
0001
0100
0000
1000
0100
1000
0000
0100
0010
0100
0000
0001
1000
,
0001
0010
0001
0010
0001
0010
0001
0010
0001
1000
0001
1000
0001
0000
1000
0000
,
0010
0100
0010
0100
0010
0100
0010
0100
0010
1000
0010
1000
0010
0000
0100
0000
,
0001
1000
0001
1000
0001
1000
0001
1000
0001
1000
0001
1000
0001
1000
0001
1000
,
0001
0100
0001
0100
0010
1000
0010
1000
0001
0000
1001
0000
0000
0000
0001
1000
,
0002
0010
1000
0100
,
0010
0000
1003
0000
0001
0020
0230
1300
,
2001
0010
0001
0100
,
3001
0100
0001
0100
1000
0100
1000
0100
0001
0010
0001
0010
0100
1000
0010
0100
,
0020
1000
0100
0001
,
0100
0000
0000
0000
0000
0000
0000
0000
0000
0000
0000
0000
0130
0000
0000
0000
0000
0000
0010
0000
1000
0000
0001
0000
0020
0000
0000
0000
0000
0000
0000
0000
0000
0000
0000
0000
0000
0000
0000
0000
0000
0000
0031
0000
0000
1000
0000
0000
,
0002
0000
0000
0000
0000
0000
0100
0000
0000
0000
0000
0000
1000
0000
0000
0000
0000
0000
0013
0000
0000
0100
1000
0001
,
0100
0000
0000
0000
,
0000
0000
0000
0000
0000
0000
0000
0000
0001
0010
0001
1000
0000
0001
0010
0001
,
1000
0100
0010
0001
1000
0100
0010
0001
1000
0010
1000
0001
1000
0001
0010
0000
,
0001
0100
0010
0100
0000
0001
0010
0100
1000
0010
0100
0010
0000
1000
0001
1000
,
0010
0100
0001
0010
0100
1000
0001
0100
0001
0010
0100
0010
0001
0100
0001
0000
,
1000
0010
0100
0010
0000
1000
0100
0010
0001
0100
0010
0100
0000
1000
0100
0010
,
0100
0001
1000
0100
0010
0100
1000
0001
1000
0010
0000
1000
0100
0010
0001
0000
,
1000
0001
0100
0010
0000
1000
0100
1000
0001
0010
0100
0010
0000
1000
0010
0100
,
0010
0001
1000
0010
0100
0010
1000
0001
2000
0000
3200
0000
0320
0000
2030
0000
,
3002
0000
0203
0000
2300
0000
3020
0000
0130
0001
0100
1000
0000
0100
0001
0100
,
1000
0100
0010
0100
0001
0100
0010
0100
1000
0100
0000
0001
0010
0100
1000
0000
,
0001
0010
1000
0010
0000
0001
1000
0001
0010
1000
0010
0100
0000
0010
0001
0010
,
1000
0010
0100
0010
0001
0010
0100
0010
0001
0000
0100
0000
0010
1000
0100
1000
,
0010
0000
0000
0000
0000
0000
0100
0000
0001
0000
1000
0000
0001
0000
0000
0000
0000
0000
1000
0000
0000
0001
0000
0000
1000
0000
0000
0100
0000
0000
0001
0000
0000
0100
0000
0000
0000
0000
0000
1000
0000
0000
0001
0000
0000
0100
0000
0000
,
1000
0100
0001
0100
0010
0100
1000
0100
0010
0100
0000
0001
1000
0100
0010
0000
,
0001
0100
0010
1000
0000
0001
1000
0010
0001
0010
0100
0010
0000
1000
0010
0100
,
0010
0001
0010
0100
0010
1000
0001
1000
0001
0010
0001
0010
0100
1000
0100
1000
,
0001
0100
1000
0001
1000
0100
0001
1000
0001
0010
1000
0010
0001
0100
1000
0100
,
0001
0100
0100
1000
0001
0010
0010
1000
0001
0000
0000
0000
0000
0000
0000
0000
;

//---------------dance-double - t7r----------------
#NOTES:
     dance-double:
     t7r:
     Easy:
     7:
     :
00000000
00000000
00000000
00000000
,
00000000
00000000
00000000
00000000
,
00000000
00000000
00000000
00000000
,
00000000
00000000
00000000
00000000
,
00000000
00000000
00000000
00000000
,
00000000
00000000
00000000
00000000
,
00000000
00000000
00000000
00000000
,
00000000
00000000
00000000
00000000
,
00000000
00000000
00000000
00000000
,
01000000
00000000
10010000
00000000
,
10000000
01000000
10000000
00000000
,
00010000
01000000
00010000
00100000
,
00001000
00010000
00001000
00000000
,
00010000
00000100
00001000
00000001
,
00000100
00000001
00000010
00000000
,
00000100
00010000
00001000
00000000
,
01000000
00010000
10000000
00000000
,
00010000
00100000
01000000
00000000
,
10000000
00100000
10000000
00100000
,
01000000
00010000
00100000
00000000
,
01000000
00100000
01000000
00100000
,
00001000
00010000
00001000
00000000
,
00010000
00001000
00000010
00000000
,
00000001
00000100
00001000
00000000
,
00010000
00001000
01000000
00000000
,
00010000
00000000
00100000
00000000
01000000
00000000
00000000
10000000
,
00000000
10000000
00100000
00000000
,
10000000
00000000
01000000
00000000
10000000
00000000
00000000
01000000
,
00000000
01000000
00100000
00000000
,
00001000
00000000
00010000
00000000
00001000
00000000
00000000
00010000
,
00000000
00010000
00000010
00000000
,
00000100
00000001
00000010
00000000
,
00000100
00000010
00000001
00000000
,
00000100
00001000
00010000
00000000
,
00011000
00000000
00010000
00000000
,
00001000
00010000
01000000
00000000
,
10000000
00100000
10000000
00100000
,
01000000
00010000
00100000
00000000
,
00011000
00000000
00001000
00000000
,
00010000
00001000
00000100
00000000
,
00000001
00000010
00000001
00000010
,
00000100
00010000
00001000
00000000
,
00010000
00010000
00001000
00001000
,
00010000
00000000
01000000
00000000
,
00100000
00100000
00010000
00010000
,
10000000
00000000
00100000
00000000
,
01000000
01000000
00010000
00010000
,
00100000
00000000
00001000
00000000
,
00010000
00010000
00001000
00001000
,
00010000
00010000
00001000
00001000
,
00000010
00000000
00000001
00000000
,
00000100
00000000
00001000
00010000
,
00011000
00000000
00010000
00001000
,
00011000
00000000
00001000
00010000
,
00100000
10000000
00010000
00000000
,
10000000
01000000
00100000
00100000
,
00010000
00100000
00001000
00001000
,
00010000
00000010
00001000
00001000
,
00000001
00000100
00000010
00000000
,
00001002
00000000
00000100
00000000
,
00001003
00000000
00000001
00000010
,
00000200
00000000
00010000
00000000
,
00001300
00001000
00000100
00010000
,
00021000
00000000
00001000
00000000
,
00030100
00000000
00011000
00000000
,
00201000
00000000
00010000
00000000
,
01300000
00000000
00000000
00000000
,
00000000
00000000
10000000
10000000
,
01000000
00100000
00010000
01000000
,
00010000
01000000
00010000
00010000
,
00100000
00001000
00010000
00000100
,
00010000
00000100
00001000
00001000
,
00000010
00000100
00000001
00000010
,
00000100
00010000
00001000
00001000
,
00010000
01000000
20000000
00000000
,
00000000
00000000
30100000
00000000
,
10010000
00000000
01000000
00000000
,
00110000
00000000
00001000
00000000
,
00011000
00000000
00010000
00001000
,
00000010
00000000
00001001
00000000
,
00000100
00000000
00011000
00000000
,
00100000
00000000
10010000
00000000
,
01000000
00000000
00100000
10000000
,
01000000
00010000
00001000
00000100
,
00000001
00000010
00001001
00000000
;

//---------------dance-double - t7r----------------
#NOTES:
     dance-double:
     t7r:
     Medium:
     12:
     :
00000000
00000000
00000000
00000000
,
00000000
00000000
00000000
00000000
,
00000000
00000000
00000000
00000000
,
00000000
00000000
00000000
00000000
,
00000000
00000000
00000000
00000000
,
00000000
00000000
00000000
00000000
,
00000000
00000000
00000000
00000000
,
00000000
00000000
00000000
00000000
,
00000000
00000000
00000000
00000000
,
00000100
00000000
00000110
00000000
,
00000001
00000100
00000000
00000001
00000000
00000010
00000000
00000001
,
00000000
00001000
00000000
00000100
00000000
00010000
00001000
00000000
,
00010000
00000100
00000000
00010000
00000000
00001000
00000000
01000000
,
00000000
00010000
00000000
00100000
00000000
00010000
10000000
00000000
,
00010000
00000000
10000000
00000000
01000000
00000000
00000000
00100000
,
00000000
00001000
00000000
00010000
00000000
00001000
00010000
00000000
,
00001000
00000100
00000001
00000000
,
00000010
00000000
00000100
00000000
00010000
00001000
00010000
00000000
,
00001000
00010000
00000000
01000000
00000000
10000000
00000000
00100000
,
00000000
01000000
00000000
00010000
00000000
00100000
00001000
00000000
,
00010000
00001000
00000000
00000100
00000000
00000001
00000000
00000010
,
00000000
00000100
00000000
00010000
00000000
00001000
00010000
00000000
,
00100000
10000000
00010000
00000000
,
00100000
00001000
00010000
00000000
,
00000010
00001000
00000100
00000000
,
00000010
00000000
00000001
00000000
00000100
00000000
00000000
00000110
,
00000000
00000010
00000100
00000001
,
00000010
00000000
00000100
00000000
00010000
00000000
00000000
00010100
,
00000000
00000100
00010000
00001000
,
00010000
00000000
01000000
00000000
10000000
00000000
00000000
10010000
,
00000000
10000000
00100000
01000000
,
00010000
00000000
00100000
00000000
00001000
00000000
00000000
00020000
,
00000000
00000000
00030100
00001000
00000100
00000000
00000000
00000020
,
00000000
00000000
00000031
00001000
00000001
00000000
00001000
00000000
,
00000001
00000100
00000001
00000100
,
00000010
00001000
00000010
00001000
,
00000100
00010000
00001000
00010000
,
01000000
00000000
10000000
00010000
10000000
00000000
00010000
00000000
,
10000000
00100000
10000000
00100000
,
01000000
00010000
01000000
00010000
,
00100000
00000000
00001000
00000000
00010000
00000000
00001000
00000010
,
00000000
00000000
00000001
00000000
00001000
00000001
00001000
00000000
,
00000001
00000100
00000001
00000010
,
00001000
00010000
00001000
00010000
,
00100000
01000000
00100000
01000000
,
00010000
00000000
00100000
00010000
10000000
00000000
00010000
00000000
,
10000000
01000000
10000000
00100000
,
00010000
00001000
00010000
00001000
,
00000010
00000001
00000010
00000000
00000001
00001000
00000001
00000000
,
00000100
00000001
00000100
00000000
00000010
00001000
00000010
00000000
,
00001000
00000100
00001000
00000100
00001000
00000000
00000100
00000000
,
00010000
00001000
00010000
00011000
,
00001000
01000000
01010000
00000000
,
00010000
00100000
00010000
00110000
,
00010000
10000000
10010000
00000000
,
10000000
01000000
00010000
00001000
,
00010000
00000100
00010100
00000000
,
00010000
00001000
00010000
00001000
00010000
00001000
00010000
00001000
,
00010000
00001000
00010000
00000000
00001000
00001000
00000000
00000000
,
00021000
00000000
00000100
00000000
,
00031000
00000100
00000001
00000010
,
00001002
00000000
00000100
00000000
,
00001003
00000001
00001000
00000000
00000100
00010000
00001000
00000000
,
00012000
00000000
01000000
00000000
,
00013000
00100000
20200000
30300000
,
20010000
00000000
01000000
00000000
,
30010000
00000000
00000000
00000000
,
00000000
00000000
00000000
00000000
00000010
00001000
00000010
00000000
,
00001000
00000000
00000001
00000000
00000010
00000000
00000100
00010000
,
00000100
00010000
00000100
00000000
00010000
00001000
00010000
00000000
,
00001000
01000000
00010000
00000000
00100000
00000000
00010000
10000000
,
00010000
10000000
00010000
00000000
10000000
01000000
00000000
01000000
,
00100000
01000000
00000000
01000000
00100000
00000000
00001000
00010000
,
00001000
00010000
00001000
00000000
00010000
00000100
00000000
00000100
,
00001000
00000000
00000010
00000000
00000100
00000000
00000001
00001000
,
00000001
00000000
00000010
00000000
00000001
00000100
00000000
00000100
,
00001000
00000100
00000000
00001000
00010000
00000000
00100000
00000000
,
01000000
00010000
00000000
00010000
10000000
01000000
00000000
01000000
,
00010000
01000000
00000000
00010000
00001000
00000000
00000010
00000001
,
00001000
00000000
00000000
00000000
00000001
00000010
00000000
00000010
,
00001000
00000010
00000000
00001000
00010000
00000000
01000000
00000000
,
00100000
00010000
00000000
00010000
10000000
00100000
00000000
00100000
,
00010000
00100000
00000000
00010000
00001000
00000000
00000100
00000010
,
00000100
00000000
00000001
00000000
00001000
00000100
00010000
00000000
,
00001000
00010000
00100000
00000000
10010000
00000000
00000000
00000000
;

//---------------dance-double - t7r----------------
#NOTES:
     dance-double:
     t7r:
     Hard:
     15:
     :
00000000
00000000
00000000
00000000
,
00000000
00000000
00000000
00000000
,
00000000
00000000
00000000
00000000
,
00000000
00000000
00000000
00000000
,
00000000
00000000
00000000
00000000
,
00000000
00000000
00000000
00000000
,
00000000
00000000
00000000
00000000
,
00000000
00000000
00000000
00000000
,
00000000
00000000
00000000
00000000
,
00100000
00000000
00000000
00000000
10010000
00000000
00000000
00010000
,
00100000
00001000
00000000
00010000
00000000
00000100
00000000
00001000
,
00000000
00000010
00000000
00000100
00000000
00000001
00000020
00000000
,
00000031
00000100
00000000
00000010
00000000
00001000
00000000
00000100
,
00000000
00010000
00000000
00001000
00000000
00100000
00020000
00000000
,
10030000
00100000
00000000
01000000
00000000
00100000
00000000
10000000
,
00000000
01000000
00000000
00010000
00000000
00001000
00000200
00000000
,
00000301
00000010
00000000
00000001
00000000
00000100
00000000
00000010
,
00001000
00000100
00010000
00001000
01000000
00010000
00100000
01000000
,
10000000
00100000
01000000
00100000
00000000
10000000
00000000
01000000
,
00000000
00100000
00000000
00001000
00000000
00010000
00002000
00000000
,
00003010
00000001
00000100
00000010
00000000
00000100
00000000
00000001
,
00000000
00000010
00000000
00000100
00000000
00010000
00002000
00000000
,
01003000
00000000
00010000
01000000
00100000
00000000
10000000
01000000
,
00000000
00010000
01000000
00000000
00100000
00000000
00001000
00010000
,
00000000
00001000
00000100
00000000
00000001
00000000
00000010
00000100
,
00010000
00001000
00010000
00000000
00001000
00010000
01000000
20000000
,
00000000
30100000
01000000
00100000
10000000
00000000
10100000
00000000
,
11000000
00000000
10010000
00000000
10000000
01000000
00010000
00002000
,
00000000
00013000
00000100
00001000
00000010
00000000
00001010
00000000
,
00000110
00000000
00000101
00000000
00000001
00000010
00001000
00020000
,
00000000
00031000
00100000
00010000
10000000
00000000
10010000
00000000
,
01010000
00000000
00110000
00000000
10000000
01000000
00100000
02000000
,
00000000
03100000
00001000
00010000
00001000
00000000
00000010
00000002
,
00000000
00000103
00000010
00000100
00000001
00000010
00000100
00000000
,
00010000
00000100
00010000
00001000
00010000
00000100
00010000
00001000
,
00010000
01000000
10000000
00010000
10000000
01000000
00100000
00001000
,
00010000
00000100
00010000
00001000
00010000
00000100
00010000
00001000
,
00000100
00000001
00000010
00001000
00000010
00000001
00001000
00000000
,
00000100
00010000
00001000
00010000
00000100
00010000
00001000
00010000
,
00000100
00010000
00001000
00010000
01000000
00100000
00001000
00010000
,
00001000
00000100
00000010
00000000
00001000
00000100
00000010
00000001
,
00000000
00000001
00000100
00000000
00001000
00010000
00001000
00000000
,
00011000
00001000
01001000
01000000
,
01010000
00010000
10010000
10000000
,
11000000
01000000
01100000
00100000
,
00001000
00010000
00000010
00010000
00001000
00010000
00000010
00000000
,
00001010
00000010
00000110
00000100
,
00000101
00000001
00000011
00000010
,
00000001
00000010
00000001
00000010
00000100
00001000
00000100
00010000
,
00001000
00010000
00001000
00010000
00001000
01000000
00010000
01000000
,
00100000
10000000
01000000
00010000
00001000
00000000
00011000
00000000
,
00000100
00011000
01000000
00011000
,
00000010
00011000
00100000
00011000
,
00000100
00011000
00100000
00011000
,
01000000
00011000
00000010
00011000
,
00001000
00010000
01000000
10000000
00010000
00100000
00010000
00000000
,
10000000
00010000
01000000
00100000
10000000
01000000
00010000
00000000
,
00001000
00010000
00000100
00010000
00001000
00000010
00000001
00000000
,
00000100
00000000
00000010
00000000
00001000
00000000
00000000
00000100
00010000
00000000
00011000
00000000
00000000
00000000
00001000
00000000
,
02000000
00010000
10000000
00100000
,
00010000
00000000
03100000
00000000
10000000
01000000
00010000
00001000
,
00020000
00000100
00001000
00000010
,
00030100
00000000
00000010
00000100
00000010
00000000
00000001
00000000
00000100
00000000
00000010
00001000
00000010
00000000
00001000
00000000
,
00001002
00000100
00001000
00000010
,
00000100
00000000
00000000
00000000
00000103
00000000
00000001
00000010
00000200
00000000
00000000
00000000
00000000
00000000
00010300
00001000
,
00020000
00000000
00000000
00000000
01000000
00000000
00000000
00000000
00000100
00000000
00000000
00000000
00030100
00000000
00010000
00001000
,
00000100
00000000
00000000
00000000
,
00000000
00000000
00000000
00000000
00000000
00000000
00000000
00000000
00000001
00000010
00000001
00000000
00001000
00000100
00000000
00001000
,
00000100
00000000
00010000
00000000
00001000
00010000
00000000
00001000
00010000
00000000
01000000
10000000
00000000
00010000
00000000
10000000
,
01000000
00000000
10000000
00100000
00000000
01000000
00000000
00010000
00100000
00010000
00100000
00000000
00001000
00010000
00000000
00001000
,
00010000
00000000
00001000
00000000
00000100
00000001
00000000
00000100
00000001
00000000
00000010
00000100
00000000
00000010
00000000
00000001
,
00000100
00000000
00001000
00010000
00000000
00100000
00000000
10000000
00010000
00100000
00010000
00000000
10000000
01000000
00000000
00100000
,
01000000
00000000
10000000
00000000
01000000
00010000
00000000
00001000
00010000
00000000
00001000
00000100
00000000
00000010
00000000
00000100
,
00000001
00000000
00000010
00000100
00000000
00000010
00000000
00000001
00000100
00000001
00000100
00000000
00000001
00000010
00000000
00000001
,
00000010
00000000
00001000
00000000
00010000
00000000
01000000
10000000
00010000
00000000
01000000
00000000
00010000
00000000
00100000
00000000
,
00001000
00000000
00010000
00000000
00001000
00000000
00000010
00000000
00000001
00000100
00000001
00000100
00000000
00000001
00001000
00000100
,
00001000
00000001
00001000
00000000
00000100
00010000
00000000
00001000
00010000
01000000
00000000
10000000
00010000
01000000
00000000
00010000
,
00100000
00000000
00001000
00000000
00000000
00010000
00001000
00000000
00000100
00000001
00001000
00000001
00000000
00001000
00000010
00001000
,
00000001
00001000
00000100
00000000
00010000
00000000
00001000
00000000
00010000
00000000
01000000
00000000
00100000
00001000
00010000
00000000
,
00001000
00000000
00000010
00000001
00000100
00000000
00000000
00000000
00000001
00000010
00000100
00000010
00000000
00000001
00001000
00000100
,
00001000
00000100
00010000
00000000
00001000
00010000
00000000
00001000
01000000
00010000
01000000
00000000
00010000
00100000
00000000
01000000
,
10000000
00010000
01000000
00000000
00100000
10000000
00000000
00010000
00100000
00010000
00100000
00001000
00000000
00010000
00001000
00000000
,
00000010
00000001
00001000
00000000
00000010
00001000
00000100
00000000
00010000
00000000
00000100
00010000
00000100
00000000
00010000
00001000
,
00010000
00000000
00001000
01000000
00001000
00000000
00100000
00000000
00010000
00000000
10000000
01000000
00100000
00000000
00010000
00000000
,
00001000
00000000
00000010
00000100
00000001
00000000
00001000
00000001
00001000
00000000
00000000
00000000
00000000
00000000
00000000
00000000
;

//---------------dance-double - t7r----------------
#NOTES:
     dance-double:
     t7r:
     Challenge:
     18:
     :
00000000
00000000
00000000
00000000
,
00000000
00000000
00000000
00000000
,
00000000
00000000
00000000
00000000
,
00000000
00000000
00000000
00000000
,
00000000
00000000
00000000
00000000
,
00000000
00000000
00000000
00000000
,
00000000
00000000
00000000
00000000
,
00000000
00000000
00000000
00000000
,
00000000
00000000
00000000
00000000
,
01100000
00000000
00000000
00000000
10010000
00000000
00000000
10000000
,
01000000
00000000
10000000
00000000
00100000
10000000
00100000
00000000
10000000
00000000
00010000
00000000
01000000
00010000
01000000
00000000
,
00010000
00000000
00100000
00000000
00001000
00010000
00001000
00000000
00010000
00000000
00000010
00000000
00002000
00000000
00000000
00000000
,
00003001
00000000
00000010
00000000
00000001
00000100
00000001
00000000
00000100
00000000
00000010
00000000
00001000
00000010
00001000
00000000
,
00000100
00000000
00010000
00000000
00001000
00010000
00001000
00000000
01000000
00000000
00010000
00000000
20000000
00000000
00000000
00000000
,
30010000
00000000
00100000
00000000
01000000
00100000
00010000
00000000
10000000
00000000
00100000
00000000
01000000
00010000
10000000
00000000
,
00010000
00000000
00100000
00000000
01000000
00100000
00001000
00000000
00010000
00000000
00000100
00000000
00002000
00000000
00000000
00000000
,
00003010
00000000
00000100
00000000
00000001
00001000
00000100
00000000
00000010
00000000
00000100
00000000
00010000
00001000
00010000
00000000
,
00001000
00000000
00010000
00000000
01000000
00000000
10000000
00000000
00100000
01000000
00100000
01000000
00100000
00000000
10000000
00000000
,
00010000
00000000
10000000
00000000
00100000
01000000
00010000
00000000
00100000
00000000
01000000
00000000
00100000
00001000
00010000
00000000
,
00001000
00000000
00010000
00000000
00000100
00001000
00000010
00000000
00000100
00000000
00000001
00000000
00000020
00000000
00000000
00000000
,
00000031
00000000
00000100
00000000
00000010
00001000
00000001
00000000
00001000
00000000
00000100
00000000
00000010
00000100
00010000
00000000
,
00000100
00000000
00010000
00000000
00001000
01000000
00010000
00000000
00100000
00000000
00010000
00000000
20000000
00000000
00000000
00000000
,
30100000
00000000
01000000
00000000
00100000
00010000
00100000
00000000
01000000
00000000
00100000
00000000
10000000
00100000
10000000
00000000
,
00100000
00000000
01000000
00000000
00010000
00100000
00010000
00000000
00100000
00000000
00001000
00000000
00020000
00000000
00000000
00000000
,
00031000
00000000
00000010
00000000
00000100
00001000
00000100
00000000
00001000
00000000
00000010
00000000
00000100
00000001
00000100
00000000
,
00000001
00000010
00000100
00000000
00001000
00000010
00000100
00000000
00000001
00000000
00000010
00000000
00001000
00000000
00012000
00000000
,
00000000
00000000
01003000
00001000
00010000
00000000
00001000
00000000
00010000
00000000
00000100
00000000
00010000
00000000
00001000
00000000
,
01000000
00000000
00001000
00000000
00010000
00000000
00001000
00000000
00000010
00000100
00000010
00000000
00000001
00000000
00001002
00000000
,
00000000
00000000
00000103
00000010
00000100
00000000
00000001
00000000
00000100
00000000
00001000
00000000
00010000
00000000
01000000
00100000
,
01000000
00000000
00100000
00001000
00010000
00000000
00001000
00010000
00000010
00000000
00010000
00000000
00001000
00000000
00021000
00000000
,
00000000
00000000
00030010
00010000
00001000
00000000
00010000
00000000
00001000
00000000
00100000
00000000
00001000
00000000
00010000
00000000
,
00000010
00000000
00010000
00000000
00001000
00000000
00010000
00000000
01000000
00100000
01000000
00000000
10000000
00000000
20010000
00000000
,
00000000
00000000
30100000
01000000
00100000
00000000
10000000
00000000
00100000
00000000
01000000
00000000
00010000
00000000
00210000
00000000
,
00000000
00000000
00301000
00010000
00001000
00000000
00010000
00000000
00001000
00000000
00000100
00000000
00000001
00000000
00000010
00000000
,
00000001
00000000
00000100
00000000
00000001
00000010
00000001
00000000
00000100
00000000
00000001
00000000
00000010
00000000
00000001
00000000
,
00001000
00000000
00000100
00000000
00010000
00001000
00010000
00000000
00001000
00000000
00010000
00000000
00100000
00000000
01000000
00000000
,
00010000
00000000
00100000
00000000
01000000
10000000
01000000
00000000
10000000
00000000
00100000
00000000
01000000
00010000
01000000
00000000
,
00010000
00100000
00010000
00001000
00000100
00010000
00001000
00000100
,
00000001
00000000
00001000
00000000
00000001
00000010
00000001
00000000
00000100
00000000
00000001
00000000
00001000
00000000
00000100
00000000
,
00000010
00000000
00000001
00001000
00000001
00000000
00000100
00000000
00001000
00000000
00010000
00000000
01000000
00000000
10000000
00000000
,
01000000
00000000
00100000
00000000
00010000
00100000
00010000
00000000
10000000
00000000
00100000
00000000
01000000
00010000
01000000
00000000
,
00010000
00000000
00100000
00010000
00100000
00000000
00001000
00100000
00001000
00000000
00010000
00001000
00010000
00001000
00010000
00000000
,
00001000
00010000
00000000
00000000
00001000
00000000
00010000
00000000
01000000
00000000
10000000
00000000
00010000
00000000
00100000
00000000
,
00001000
00010000
00000000
00000000
00010000
00000000
00001000
00000000
00000100
00000000
00000001
00000000
00000010
00000000
00001000
00000000
,
00010000
00001000
00000000
00000000
00010000
00000000
00100000
00000000
10000000
00000000
00010000
00000000
00100000
00000000
00001000
00000000
,
00010000
00000100
00010000
00000100
00010000
00000100
00010000
00000100
00010000
00001000
00010000
00000000
00001000
00000000
00010000
00000000
,
00100000
00000000
01000000
00010000
01000000
00000000
00010000
00100000
00010000
00000000
10000000
00000000
01000000
00000000
00010000
00000000
,
00001000
00000000
00000010
00000100
00000010
00000000
00000001
00001000
00000001
00000000
00000100
00000000
00001000
00000000
00010000
00000000
,
00001000
00010000
00001000
00010000
00001000
00010000
00001000
00010000
00001000
00010000
00001000
00010000
00001000
00010000
00001000
00010000
,
00001000
00010000
00001000
00010000
00001000
00010000
00001000
00010000
00001000
00010000
00001000
00010000
00001000
00010000
00001000
00010000
,
00100000
10000000
00010000
00001000
,
00000001
00000100
00000001
00000100
00000001
00000000
00001000
00000100
00001000
00000000
00000001
00001000
00000001
00001000
00000001
00000000
,
00001000
00000100
00001000
00000100
00001000
00000000
00000100
00010000
00000100
00000000
00010000
00001000
00010000
00001000
00010000
00000000
,
00001000
01000000
00001000
01000000
00001000
00000000
01000000
00010000
01000000
00000000
00010000
00100000
00010000
00100000
00010000
00000000
,
10000000
00100000
00010000
00001000
00000010
00000001
00001000
00000001
,
00000100
00001000
00010000
01000000
10000000
01000000
00010000
00001000
,
00000100
00000001
00000100
00001000
00010000
01000000
10000000
01000000
,
00010000
00001000
00010000
00001000
00010000
00001000
00010000
00001000
00010000
00001000
00010000
00001000
00010000
00001000
00010000
00001000
,
00010000
00000000
00000100
00010000
00000000
00001000
00010000
00000000
00001000
00000000
00011000
00000000
00000000
00000000
00000100
00001000
,
00000020
00000001
00000100
00001000
,
00000100
00000000
00000130
00000000
00000001
00000020
00000230
00002300
,
00023000
00100000
10000000
10030000
,
00010000
01000000
00010000
01000000
00100000
10000000
01000000
00000000
10000000
01000000
10000000
01000000
00100000
00010000
00100000
00010000
,
00002000
00000010
00000001
00000001
,
00000100
00000000
00000000
00000000
00000000
00000000
00000000
00000000
00000000
00000000
00000000
00000000
00003100
00000000
00000000
00000000
00000000
00000000
00010000
00000000
00001000
00000000
01000000
00000000
00020000
00000000
00000000
00000000
00000000
00000000
00000000
00000000
00000000
00000000
00000000
00000000
00000000
00000000
00000000
00000000
00000000
00000000
00130000
00000000
00000000
01000000
00000000
00000000
,
20000000
00000000
00000000
00000000
00000000
00000000
00100000
00000000
00000000
00000000
00000000
00000000
00010000
00000000
00000000
00000000
00000000
00000000
30010000
00000000
00000000
00100000
00001000
00010000
,
00001000
00000000
00000000
00000000
,
00000000
00000000
00000000
00000000
00000000
00000000
00000000
00000000
10000000
01000000
00100000
01000000
00000000
10000000
01000000
10000000
,
00010000
01000000
00010000
00100000
00010000
01000000
00010000
00100000
00001000
00010000
00000000
00010000
00001000
00010000
00000100
00000000
,
00001000
00000100
00000010
00000100
00000000
00001000
00000010
00000100
00000001
00000010
00000100
00000010
00000000
00000001
00000100
00000010
,
00000100
00000001
00000010
00000100
00000010
00000001
00001000
00000100
00010000
00001000
00000000
00001000
01000000
00010000
00100000
00000000
,
00010000
01000000
00100000
01000000
00000000
00010000
00100000
01000000
10000000
00100000
01000000
00100000
00000000
10000000
00100000
10000000
,
00010000
00100000
00010000
01000000
00010000
00100000
00010000
01000000
00001000
00010000
00000000
00010000
00001000
00010000
00000010
00000000
,
00001000
00000010
00000100
00000010
00000000
00001000
00000100
00000010
00000001
00000100
00000010
00000100
00000000
00000001
00000010
00000100
,
00000010
00000001
00000100
00000010
00000100
00000001
00001000
00000010
00010000
00000000
00001000
00000000
00000100
00000000
00000001
00000000
,
00001000
00000000
00010000
00000000
00100000
00000000
00010000
00000000
01000000
00010000
01000000
10000000
00000000
01000000
00100000
01000000
,
00010000
01000000
10000000
01000000
00100000
01000000
00010000
01000000
00100000
01000000
00000000
01000000
00010000
00100000
00001000
00000000
,
00010000
00001000
00000010
00000100
00000000
00001000
00000001
00000100
00001000
00000100
00000010
00000100
00000000
00000001
00000100
00001000
,
00000100
00000010
00000100
00000001
00000010
00000100
00000010
00000001
00000100
00000000
00001000
00000000
00010000
00001000
01000000
00001000
,
00100000
00000000
00000000
00000000
00000000
00000000
00010000
00000000
10000000
00000000
00010000
00000000
01000000
00000000
00000000
00000000
00000000
00000000
00100000
00000000
00000000
00000000
00000000
00000000
10000000
00000000
00000000
01000000
00000000
00000000
00010000
00000000
00000000
01000000
00000000
00000000
00000000
00000000
00000000
00100000
00000000
00000000
01000000
00000000
00000000
00010000
00000000
00000000
,
01000000
00100000
01000000
10000000
01000000
00010000
01000000
00100000
00001000
00010000
00000000
00010000
00001000
00000100
00000010
00000000
,
00001000
00000100
00000010
00000001
00000000
00001000
00000010
00000100
00000001
00000010
00000100
00000010
00000000
00000001
00000100
00000001
,
00000010
00000100
00000010
00000001
00001000
00000010
00000100
00000010
00001000
00000100
00001000
00000100
00010000
00001000
00010000
00001000
,
00100000
00010000
00100000
00010000
10000000
01000000
10000000
01000000
10000000
00100000
01000000
00010000
10000000
00100000
01000000
00010000
,
00001000
00000010
00000100
00000001
00001000
00000100
00000010
00000001
00001000
00000000
00000000
00000000
00000000
00000000
00000000
00000000
;
