#TITLE:BEMANI PRO LEAGUE Theme;
#ARTIST:BEMANI Sound Team "Sota F.";
#ARTISTTRANSLIT:Sota F.;
#BANNER:BEMANI PRO LEAGUE Theme.png;
#BACKGROUND:BEMANI PRO LEAGUE Theme-bg.png;
#JACKET:BEMANI PRO LEAGUE Theme-jacket.png;
#CDTITLE:./CDTITLES/BEATMANIA IIDX.PNG;
#MUSIC:BEMANI PRO LEAGUE Theme.ogg;
#SAMPLESTART:1.791;
#SAMPLELENGTH:15;
#BPMS:0=134;
#BGCHANGES:-4=BEMANI PRO LEAGUE Theme.avi=1=0=0=0;

//---------------dance-single - t7r----------------
#NOTES:
     dance-single:
     t7r:
     Beginner:
     1:
     :
0000
0000
0000
0000
,
0000
0000
0000
0000
,
0000
0000
0000
0000
,
0000
0000
0000
0000
,
0000
0000
0000
0000
,
1000
0000
0000
0000
,
0001
0000
0000
0000
,
0100
0000
0000
0000
,
0010
0000
0000
0000
,
0000
1000
0000
0000
,
0000
0001
0000
0000
,
0000
0100
0000
0000
,
0010
0000
0010
0000
,
0000
0001
0000
0000
,
0000
1000
0000
0000
,
0000
0010
0000
0000
,
0100
0000
0100
0000
,
0000
0000
0000
0000
,
0001
0000
0000
0000
,
0001
0000
0000
0000
,
1000
0000
0000
0000
,
1000
0000
0000
0000
,
0010
0000
0000
0000
,
0010
0000
0000
0000
,
0100
0000
0000
0000
,
0100
0000
0000
0000
,
0001
0000
0001
0000
,
0001
0000
0000
0000
,
1000
0000
1000
0000
,
1000
0000
0000
0000
,
0100
0000
0100
0000
,
0100
0000
0000
0000
,
0000
0010
0000
0000
,
0010
0000
0000
0000
,
0001
0000
0000
0000
,
0001
0000
0000
0000
,
1000
0000
0000
0000
,
1000
0000
0000
0000
,
0010
0000
0010
0000
,
0010
0000
0000
0000
,
0100
0000
0100
0000
,
0100
0000
0000
0000
,
0000
0000
0000
0000
,
0001
0000
0000
0000
,
1000
0000
0000
0000
,
0100
0000
0000
0000
,
0010
0000
0000
0000
,
0001
0000
0000
0000
,
0100
0000
0000
0000
,
1000
0000
0000
0000
,
0100
0000
0000
0000
,
0001
0000
0001
0000
,
0001
0000
0000
0000
,
1000
0000
1000
0000
,
1000
0000
0000
0000
,
0010
0000
0010
0000
,
0010
0000
0000
0000
,
0100
0000
0100
0000
,
0100
0000
0000
0000
,
0010
0000
0000
0000
,
1000
0000
0000
0000
,
0001
0001
0001
0000
,
0100
0000
0000
0000
,
0010
0010
0010
0000
;

//---------------dance-single - forcednature----------------
#NOTES:
     dance-single:
     forcednature:
     Easy:
     5:
     :
0000
0000
0000
0000
,
0000
0000
0000
0000
,
0000
0000
0000
0000
,
0000
0000
0000
0000
,
0000
0000
0000
0000
,
1001
0001
0000
0100
,
0000
0010
0000
1000
,
0100
0010
0000
0001
,
0100
0000
0010
0100
,
0110
0001
0000
1000
,
0000
0100
0000
1000
,
0010
1000
0000
0100
,
0010
0010
0100
1000
,
1001
0001
0000
0100
,
0000
0010
1000
0001
,
0000
0010
0000
0100
,
1000
0010
0100
0001
,
2002
0000
0000
3003
,
1001
0001
0100
0001
,
0000
1000
0100
0001
,
0100
1000
0010
1000
,
0000
0001
0100
1000
,
0110
0001
0010
0100
,
0000
1000
0010
0001
,
0010
1000
0100
0010
,
0000
0001
0100
0010
,
1001
0100
0001
0001
,
1000
0100
0001
0100
,
0010
0001
0100
0100
,
0110
0000
1000
0000
,
1001
1000
0010
0010
,
0100
0001
0100
0010
,
0000
1001
0100
0010
,
0110
0000
0001
1000
,
1001
0000
1000
0000
,
0002
0000
0000
0003
,
0100
0000
0010
0000
,
2000
0000
0000
3000
,
0100
0100
0200
0300
,
0010
0010
0020
0030
,
0001
1000
0001
1000
,
2000
0000
0001
0001
,
0002
0000
0000
3003
,
1001
0100
0000
0010
,
0000
0100
0001
0010
,
0100
1000
0000
0010
,
0000
0001
0100
1000
,
0110
0001
0000
1000
,
0000
0100
0001
0010
,
0100
1000
0000
0010
,
0000
0100
1000
0010
,
1001
0100
0000
0001
,
0010
0100
0000
1000
,
0010
0100
0000
0001
,
0010
0100
1000
0001
,
0110
1000
0000
0001
,
0100
0010
0000
1000
,
0100
0001
0000
0010
,
1000
0100
0010
0001
,
0200
0000
0000
0300
,
1001
0000
0100
0000
,
1000
0000
0001
0100
,
0010
0000
1000
0000
,
0100
0000
0010
1001
;

//---------------dance-single - forcednature----------------
#NOTES:
     dance-single:
     forcednature:
     Medium:
     8:
     :
0000
0000
0000
0000
,
0000
0000
0000
0000
,
0000
0000
0000
0000
,
0000
0000
0000
0000
,
0000
0000
0000
0000
,
1001
0001
0100
0010
,
1000
0000
0100
0000
0010
0000
0001
0100
,
0001
0010
1000
0100
,
0200
0000
0000
0000
0010
0010
0310
0000
,
1001
0001
0100
0001
,
1000
0010
0100
0010
1000
0000
0100
0000
,
0010
0001
0100
1000
,
0010
0000
0001
0000
0100
0010
0100
0000
,
1001
1000
0100
1000
,
0010
0100
0001
0100
0010
0000
1000
0000
,
0100
0001
0010
1000
,
0100
0000
0010
0000
0001
1000
0001
0000
,
0220
0000
0000
0330
,
1001
0000
0001
0100
0001
1000
0010
0000
,
0100
2000
0010
0001
,
3100
0000
0010
0001
0100
0010
1000
0000
,
0010
0002
0100
1000
,
0013
0000
0100
1000
0001
0100
0010
0000
,
1000
0200
0001
0010
,
1300
0000
0010
0001
0100
0010
1000
0000
,
0001
0020
1000
0100
,
0031
0100
1000
0010
,
0001
0100
1000
0010
,
0001
0000
1000
0000
0010
0100
0010
0000
,
1000
0001
1000
0000
0100
0010
0100
0000
,
1001
1000
0100
0001
,
0010
0000
1000
0000
0100
0000
0001
0001
,
0000
0110
0001
0100
,
1001
0000
0000
0000
0000
0000
0000
0000
0010
0000
0000
0100
0000
0000
0010
0000
,
0200
0000
0010
0010
,
0001
0010
1300
0000
,
0020
0000
0100
0100
,
1000
0100
0031
0000
,
0001
0100
0001
1000
,
0100
0010
0001
1000
,
0001
1000
0001
1000
0001
1000
0001
1000
,
0010
0000
0000
0000
0010
0000
0000
0000
0100
0000
0000
0100
0000
0000
0000
0000
,
2000
0000
0000
0000
0001
0001
3001
0000
,
1001
0001
0100
1000
,
0100
0000
0001
0000
0010
1000
0010
0000
,
0001
1000
0100
0010
,
0001
0100
0020
0230
,
0310
1000
0001
0100
,
1000
0000
0100
0000
0001
0010
0001
0000
,
1000
0010
0001
0010
,
1000
0100
2000
3002
,
1003
0100
0001
0100
,
1000
0000
0010
0000
0001
0100
0001
0100
,
1000
0100
0001
0100
,
0010
1000
0200
0320
,
0031
0100
0010
1000
,
0001
0000
0100
0000
0010
0001
0010
0001
,
1000
0100
0001
0010
,
1000
0100
0020
0230
,
0320
0000
0100
0130
,
1001
0000
0001
0000
1000
0100
1000
0000
,
0001
0000
0100
0000
0010
1000
0010
0100
,
0001
0000
0010
0000
0100
1000
0100
0000
,
0010
0000
0001
0000
1000
0100
0001
0000
;

//---------------dance-single - t7r----------------
#NOTES:
     dance-single:
     t7r:
     Hard:
     11:
     :
0000
0000
0000
0000
,
0000
0000
0000
0000
,
0000
0000
0000
0000
,
0000
0000
0000
0000
,
0000
0000
0000
0000
,
0001
0000
0000
0000
0010
0000
0000
0100
1000
0000
1000
0000
0001
0000
0000
0000
,
1000
0000
0010
0000
0100
0000
0000
0001
0000
0010
0000
0001
0000
0000
1000
0000
,
0010
0000
0000
0000
0100
0000
0000
0001
0010
0000
0010
0000
0100
0000
0000
0000
,
2000
0000
3001
0000
0100
0100
1001
0000
,
0001
0010
0100
2000
0000
3010
0100
0000
,
0001
0100
0010
2000
0000
3001
0000
0010
,
0001
0100
1000
0010
,
0001
0000
0000
0000
0100
0000
0000
0010
1000
0000
0001
0000
0010
0000
0000
0000
,
1000
0010
0100
0002
0000
0013
0100
0000
,
1000
0100
0010
0002
0000
1003
0000
0010
,
1000
0100
0001
0010
,
1000
0000
0000
0000
0100
0000
0000
0010
0001
0000
1000
0000
0010
0000
0000
0000
,
0001
0100
1000
0110
,
1000
0000
0000
0100
0010
0000
0010
0000
0100
0000
0000
0100
0001
0000
0001
0000
,
0100
0000
0000
0100
0010
0000
0010
0000
0001
0000
1000
0000
0100
0000
0000
0000
,
1000
0000
0000
0010
0100
0000
0100
0000
0010
0000
0000
0010
0001
0000
0001
0000
,
0010
1000
0100
0001
,
1001
0000
0000
0100
0010
0000
0010
0000
0100
0000
0000
0100
1000
0000
1000
0000
,
0100
0000
0000
0100
0010
0000
0010
0000
1000
0000
0001
0000
0100
0000
0000
0000
,
0001
0000
0000
0010
0100
0000
0100
0000
0010
0000
0000
0010
1000
0000
1000
0000
,
0010
0001
0100
1001
,
1100
0000
0101
0000
1000
0100
0001
0000
,
1000
0100
0001
0100
1000
0010
0100
0000
,
0101
0000
1100
0000
0001
0100
1000
0000
,
0001
0100
1000
0100
0001
0010
0100
1000
,
1010
0000
0011
0000
1000
0010
0001
0000
,
1000
0010
0001
0010
0100
0001
1000
0000
,
0001
0000
1001
0000
0010
1000
0100
0000
,
0010
0000
0001
0000
0100
0000
0001
0000
0010
0000
0000
0010
0000
0000
0010
0000
,
0001
0100
1000
0010
,
0001
0001
0100
1000
0001
0000
0010
0000
,
1000
0100
0001
0010
,
1000
1000
0100
0001
1000
0000
0010
0000
,
0001
0001
0100
0100
1000
0000
0010
0000
,
1000
0100
0001
1000
0010
0000
1000
0000
,
0001
0000
0001
0000
0010
0000
0010
0000
0100
0000
0000
0000
1000
0000
0000
1000
,
0001
0000
0100
0000
1000
0000
0100
0000
0001
0000
0000
0010
0000
0000
0010
0000
,
0002
0000
0000
0000
0103
0100
1001
0000
,
1000
0000
0100
1000
0100
0000
1000
0000
,
0001
0000
0010
0001
0010
0000
0001
0000
,
0100
0000
0010
1000
0010
0000
1000
0000
,
0001
0100
1000
0010
,
1001
0000
0010
0100
0001
0010
0100
0000
,
1000
0000
0100
1000
0010
0100
0001
0000
,
0100
0000
0010
1000
0001
0010
0100
0000
,
1000
0010
0001
0100
,
1001
0000
0000
0000
0001
0000
1000
0010
0000
0001
0000
0010
0000
1000
0001
0000
,
0100
0000
0000
0000
0001
0000
1000
0100
0000
0001
0000
0100
0000
1000
0001
0000
,
0010
0000
0000
0000
0001
0000
0100
1000
0000
0100
0000
0010
0000
1000
0001
0000
,
0010
0001
0100
1000
,
0110
0000
0000
0000
1000
0000
0100
0001
0000
0100
0000
1000
0000
0001
0010
0000
,
0001
0000
0000
0000
0100
0000
0010
1000
0000
0010
0000
0001
0000
0010
0100
0000
,
0001
0000
0000
0000
0010
0000
0001
0010
0000
1000
0000
0010
0000
0100
1000
0000
,
0001
0100
1000
0010
,
2001
0000
0000
0000
3100
0100
1001
0000
,
1000
0000
0000
0000
0100
0000
1000
0010
0000
0001
0000
0100
0000
0000
0000
0000
,
0001
0000
0010
0000
1000
0000
0000
0001
0000
0100
0000
1000
0000
0100
0010
0000
,
0100
0000
0000
0000
0001
0000
0010
1000
0000
0100
0000
0001
0000
0000
0000
0000
,
0100
1000
0100
0000
0010
0010
1001
0000
;

//---------------dance-single - t7r----------------
#NOTES:
     dance-single:
     t7r:
     Challenge:
     14:
     :
0000
0000
0000
0000
,
0000
0000
0000
0000
,
0000
0000
0000
0000
,
0000
0000
0000
0000
,
0000
0000
0000
0000
,
1100
0000
0000
0000
1100
0000
1000
0100
0000
0100
0000
0100
0000
0100
0010
0001
,
1000
0000
1000
0000
1000
0000
0010
0100
0000
0001
0000
0010
0000
0000
0001
0000
,
0101
0000
0000
0000
0101
0000
0001
0100
0000
0100
0000
0100
0000
0010
1000
0001
,
1000
0100
0001
0000
0010
0000
0110
0000
,
0001
0100
0010
0002
0000
0103
1000
0000
,
0001
0010
0100
0001
0000
1100
0000
0001
,
0100
0000
0000
0100
1000
0000
0000
1000
0100
0000
0000
0100
0001
0000
0000
0001
,
0010
0000
0000
0000
0011
0000
0000
0001
0100
0000
0010
0000
1010
0000
0000
0000
,
1000
0010
0100
2000
0000
3010
0001
0000
,
1000
0100
0010
1000
0000
0011
0000
1000
,
0010
0000
0000
0010
0001
0000
0000
0001
0010
0000
0000
0010
1000
0000
0000
1000
,
0100
0000
0000
0000
1100
0000
0000
1000
0010
0000
0100
0000
0101
0000
0000
0000
,
0110
0000
0000
0010
0000
0000
0010
0000
0100
0001
0100
0000
1001
0000
0000
0000
,
1100
0000
0000
1000
0100
0000
0010
0000
1000
0000
0000
0100
0010
0000
1000
0000
,
0100
0000
0000
0000
0000
0000
0000
0000
0000
0010
0000
0000
1000
0000
0000
0000
0000
0000
0100
0000
0000
0000
0000
0000
0010
0000
0000
0000
1000
0000
0000
0000
0001
0000
0000
0000
0100
0000
0000
0000
0000
0000
0001
0000
0000
0000
0000
0000
,
0101
0000
0000
0001
0100
0000
0010
0000
0001
0000
0000
0100
0010
0000
0001
0000
,
0100
0000
0000
0010
0001
0000
0100
0000
0010
0000
0001
1000
0001
0000
0000
0000
,
1001
0000
0000
0000
1000
0010
1000
0010
1000
0010
1000
0010
1000
0010
0100
0020
,
0000
0000
0000
0000
0000
0000
1030
0000
0000
1000
0000
0000
0010
0000
0100
0000
0001
0000
1000
0000
0000
0000
0000
0000
,
1001
0000
0000
0000
0001
0010
0001
0010
0001
0010
0001
0010
0001
0010
0100
0020
,
0000
0000
0000
0000
0031
0000
0001
0000
0100
0000
0010
1000
0010
0000
0000
0000
,
1100
0000
0101
0000
1000
0010
0100
0000
,
1000
0010
0100
1000
0100
0001
0100
0010
,
0001
0000
0011
0000
0001
0100
0010
0000
,
0001
0100
0010
0001
0010
1000
0010
0100
,
1000
0000
0000
0100
0001
0000
0100
0000
0010
0000
1000
0000
0100
0000
0000
0000
,
0001
0100
1000
0001
0010
1000
0001
0000
,
0201
0000
1300
0100
0010
1000
0100
0000
,
1000
0000
0010
0000
0001
0000
1000
0000
0100
0000
0000
0110
0000
0000
1001
0000
,
0001
0001
0010
0010
,
1000
1000
0100
0100
,
1000
1000
0010
0010
,
0001
0001
0100
0100
,
0001
0000
0001
0000
0001
0000
0001
0000
0010
0000
0100
0000
1000
0100
0000
1000
,
0010
0100
0010
0000
0010
0100
0010
0000
0100
0000
0001
1000
0000
1000
0001
0000
,
1000
0100
1000
0100
1000
0100
1000
0100
0010
0001
0010
0001
0010
0001
0010
0001
,
1000
0001
1000
0001
1000
0000
0001
0000
0100
0000
0010
0100
0000
0100
0001
0000
,
1000
0000
0000
0001
0000
0000
0100
0000
0010
0000
1000
0000
0001
0000
0000
0000
,
0100
0000
0000
0000
0010
0000
0000
0010
1000
0000
0000
1000
0100
0000
0010
0000
,
0001
0000
0000
0000
0100
0000
0000
0100
0010
0000
0000
0010
1000
0000
0001
0000
,
0010
0000
0000
0000
0100
0000
0000
0100
0010
0000
0000
0010
0001
0000
1000
0000
,
0010
0001
0100
1000
,
0001
0000
0000
0000
0100
0000
0000
0100
0001
0000
0000
0001
0010
0000
0100
0000
,
0001
0000
0000
0000
1000
0000
0000
1000
0100
0000
0000
0100
0010
0000
1000
0000
,
0001
0000
0000
0000
0010
0000
0000
0010
1000
0000
0000
1000
0010
0000
0001
0000
,
0100
1000
0010
0100
,
1001
0000
0000
0000
0001
0000
0010
0100
0000
0100
0000
0100
0000
1000
0100
1000
,
0000
0001
0000
0000
0100
0000
0010
0100
0000
0100
0000
0100
0000
0001
0010
0001
,
1000
0000
0000
0000
0001
0000
0100
0010
0000
0010
0000
0010
0000
1000
0010
1000
,
0001
0010
1000
0000
0110
0000
1001
0000
,
0101
0000
0000
0000
1000
0000
0010
0001
0000
0001
0000
0001
0000
0010
1000
0010
,
0000
1000
0000
0000
0001
0000
0010
1000
0000
1000
0000
1000
0000
0010
0001
0010
,
0100
0000
0000
0000
1000
0000
0100
0001
0000
0001
0000
0001
0000
0100
1000
0100
,
0010
1000
0100
0000
0110
0000
1001
0000
,
2010
0000
0000
0000
0000
0000
0000
0000
3100
1000
0100
0000
1001
0000
0000
0000
,
1100
0000
0000
0000
0101
0000
1000
0100
0000
0100
0000
0100
0000
1000
0010
0100
,
0001
0000
0001
0000
0001
0000
0010
0100
0000
0001
0000
0100
0000
0000
0010
0000
,
0011
0000
0000
0000
1010
0000
0001
0010
0000
0010
0000
0010
0000
0001
0100
0010
,
1000
0000
0100
0000
0001
0000
0100
0000
0010
0001
0010
0000
1001
0000
0000
0000
;

//---------------dance-double - forcednature----------------
#NOTES:
     dance-double:
     forcednature:
     Easy:
     6:
     :
00000000
00000000
00000000
00000000
,
00000000
00000000
00000000
00000000
,
00000000
00000000
00000000
00000000
,
00000000
00000000
00000000
00000000
,
00000000
00000000
00000000
00000000
,
00011000
00001000
01000000
00000000
,
00010000
10000000
01000000
00100000
,
00010000
01000000
00001000
00000000
,
00010000
00000000
00000100
00000010
,
00000110
00001000
00000000
00000001
,
00000000
00000100
00001000
00010000
,
00000000
01000000
00000000
00100000
,
00000000
00010000
10000000
00100000
,
01100000
01000000
00000000
00010000
,
00000000
00100000
00001000
00010000
,
00000010
00001000
00000000
00000100
,
00000000
00000010
00000001
00001000
,
00002002
00000000
00000000
00003003
,
00001001
00001000
00001000
00001000
,
00000000
00000100
00010000
00001000
,
00000000
01000000
01000000
01000000
,
00000000
00010000
00100000
00001000
,
00011000
00000010
00000010
00000010
,
00000000
00001000
00000100
00010000
,
00000000
00001000
00001000
00001000
,
00000000
01000000
00010000
00100000
,
01100000
10000000
00010000
00000000
,
10000000
01000000
00010000
00001000
,
01000000
00010000
00100000
00000000
,
00011000
00000000
00000100
00000000
,
00000110
00000001
00001000
00000000
,
00000001
00000100
00001000
00010000
,
00000000
00011000
00001000
01000000
,
01100000
00000000
00000000
00000000
00000000
00000000
00000000
00000000
10000000
00000000
00000000
00010000
00000000
00000000
10000000
00000000
,
00020000
00000000
00000000
00030000
,
00100000
00100000
00100000
00000000
,
00002000
00000000
00000000
00003000
,
00010000
00010000
00010000
00000000
,
00000100
00000000
00001000
00000000
,
00000100
00000010
00000001
00001000
,
00000010
00000010
00000100
00000100
,
00001000
00000000
00000000
00000000
00010000
00000000
00000000
00000000
01000000
00000000
00000000
01000000
00000000
00000000
00000000
00000000
,
00200000
00000000
00000000
01300000
,
10010000
10000000
00000000
00010000
,
00000000
01000000
00001000
00010000
,
00000010
00010000
00000000
00001000
,
00000000
00010000
00000100
00001000
,
00001001
00000001
00000000
00000100
,
00000000
00000010
00001000
00000010
,
00010000
00001000
00000000
01000000
,
00000000
00010000
10000000
00010000
,
10010000
10000000
00000000
01000000
,
00000000
00100000
00010000
00100000
,
00001000
00010000
00000000
00000100
,
00000000
00001000
00000100
00000010
,
00000110
00000100
00000000
00001000
,
00000000
00000001
00000100
00000001
,
00001000
00000010
00000000
00010000
,
00000000
00001000
01000000
00010000
,
00200000
00000000
00000000
01300000
,
10010000
00000000
10000000
00000000
,
00010000
01000000
00001000
00010000
,
00000100
00000000
00001000
00000000
,
00000001
00000100
00001000
00011000
;

//---------------dance-double - t7r----------------
#NOTES:
     dance-double:
     t7r:
     Medium:
     9:
     :
00000000
00000000
00000000
00000000
,
00000000
00000000
00000000
00000000
,
00000000
00000000
00000000
00000000
,
00000000
00000000
00000000
00000000
,
00000000
00000000
00000000
00000000
,
00100000
00010000
10000000
00100000
,
01000000
00010000
01000000
00000000
00001000
00000000
00010000
00000000
,
00000100
00001000
00000001
00000100
,
00000010
00001000
00000010
00000000
00001000
00000100
00010000
00000000
,
00000000
00001000
00010000
00000000
01000000
00000000
10000000
00000000
,
00000000
00100000
01000000
00000000
00010000
00000000
10000000
00000000
,
00100000
00000000
01000000
00000000
00010000
00100000
00001000
00000000
,
00010000
00000000
00010000
00000000
00001000
00010000
00000010
00000000
,
00000000
00001000
00000100
00000000
00000010
00000000
00000001
00000000
,
00000100
00000000
00000010
00001000
00000100
00000000
00010000
00000000
,
00001000
00000000
00010000
00000000
01000000
10000000
00100000
00000000
,
01000000
00000000
00010000
00000000
10000000
00010000
00100000
00000000
,
00002000
01000000
00013000
00011000
,
00010000
00000000
01000000
10000000
00010000
00010000
00000000
00010000
,
00000000
00000000
10000000
00100000
00010000
00000000
00001000
00000000
,
00010000
00000000
00001000
00000100
00000001
00000001
00000000
00000001
,
00000010
00000000
00000100
00000100
00010000
00000000
00011000
00000000
,
00010000
00000000
00100000
10000000
00010000
00010000
00000000
00010000
,
00000000
00000000
10000000
01000000
00010000
00000000
00001000
00000000
,
00010000
00000000
00001000
00000010
00000001
00000001
00000000
00000001
,
00000100
00000000
00000010
00000010
00010000
00000000
00011000
00000000
,
00001000
00000000
00010000
00000000
01000000
10000000
00100000
00000000
,
00100000
10000000
01000000
00000000
01000000
00000000
00010000
00000000
,
00001000
00000000
00001000
00000000
00000100
00000001
00000010
00000000
,
00000010
00000001
00000100
00000000
00001000
00000000
00010000
00000000
,
00011000
00000000
00010000
00000000
00100000
10000000
01000000
00000000
,
01000000
10000000
00100000
00000000
00100000
00000000
00010000
00000000
,
00002000
00000000
00013000
00000000
00001000
00000010
00000001
00000000
,
00000001
00000000
00000100
00000000
00000010
00000000
00000000
00000000
00010000
00000000
00000000
00010000
00000000
00000000
00010000
00000000
,
00001000
00000000
00000000
00000000
00001000
00000000
00000000
00000000
00010000
00000000
00000000
00000000
00010000
00000000
00000000
00100000
,
00000000
01000000
01000000
00010000
,
10000000
00000000
00000000
00000000
10000000
00000000
00000000
00000000
01000000
00000000
00000000
00000000
01000000
00000000
00000000
00010000
,
00000000
00010000
00001000
00010000
,
00001000
00000000
00000000
00000000
00000100
00000000
00000000
00000000
00000010
00000000
00001000
00000000
00000001
00000000
00000000
00000010
,
00000000
00000000
00000000
00000000
00000001
00000000
00000000
00000000
00000001
00000000
00000000
00001000
00000000
00000000
00000000
00000000
,
00000001
00000000
00000000
00000000
00000100
00000000
00000000
00000000
00001000
00000000
00010000
00000000
00001000
00000000
00000000
00010000
,
00000000
00000000
00000000
00000000
01000000
00000000
00000000
00000000
10000000
00000000
00000000
00100000
00000000
00000000
01000000
00000000
,
00000000
00000000
00000000
00011000
,
00001000
00000000
00010000
01000000
20000000
00000000
00000000
00000000
,
30010000
00000000
10000000
00100000
01000000
00000000
00001000
00000000
,
00010000
00000000
00001000
00000100
00000002
00000000
00000000
00000000
,
00001003
00000100
00020000
00031000
,
00011000
00000000
00001000
00000010
00000002
00000000
00000100
00000000
,
00001003
00000000
00000001
00000100
00000010
00000000
00010000
00000000
,
00001000
00000000
00010000
00100000
20000000
00000000
01000000
00000000
,
30010000
00100000
00002000
00013000
,
00011000
00000000
00010000
01000000
01000000
00000000
10000000
00000000
,
00100000
00000000
01000000
00000000
00010000
00100000
00001000
00000000
,
00010000
00000000
00001000
00000100
00000100
00000000
00000001
00000000
,
00000010
00000100
00020000
00031000
,
00011000
00000000
00010000
00100000
00100000
00000000
10000000
00000000
,
01000000
00100000
00000000
00010000
01000000
00001000
00010000
00000000
,
00001000
00000000
00000010
00000001
00000001
00000000
00000100
00000000
,
00000100
00000010
00020000
00031000
,
00000000
00000000
00000000
00000000
,
01100000
00000000
00000000
00000000
10000000
00000000
00000000
01000000
00000000
00000000
01000000
00000000
00100000
00000000
00000000
00000000
,
00001000
00001000
00001000
00000000
00010000
00000000
00001000
00000000
,
00000100
00000000
00000000
00000000
00000001
00000000
00000000
00000010
00000000
00000000
00000010
00000000
00000100
00000000
00000000
00000000
,
00010000
00010000
00010000
00000000
00001000
00000000
00011000
00000000
;

//---------------dance-double - forcednature----------------
#NOTES:
     dance-double:
     forcednature:
     Hard:
     10:
     :
00000000
00000000
00000000
00000000
,
00000000
00000000
00000000
00000000
,
00000000
00000000
00000000
00000000
,
00000000
00000000
00000000
00000000
,
00000000
00000000
00000000
00000000
,
00011000
00001000
01000000
00010000
,
10000000
00000000
01000000
00000000
00100000
00010000
00100000
00001000
,
00010000
00000100
00001000
00000001
,
00000200
00000000
00000000
00000000
00000310
00001000
00000001
00000000
,
00001001
00000000
00000110
00000000
00000001
00000100
00001000
00000000
,
00010000
00000000
00011000
00000000
00001000
00100000
00010000
01000000
,
00100000
10010000
01000000
10010000
,
10000000
00000000
01000000
00000000
00010000
00001000
00010000
00000000
,
00011000
00000000
00010100
00000000
00001000
00000001
00000100
00000000
,
00000010
00000000
00001001
00000000
00000001
00000100
00001000
00000000
,
00010000
01001000
00010000
00101000
,
01010000
00000000
10000000
00000000
01000000
00010000
00001000
00000000
,
00022000
00000000
00000000
00033000
,
00010100
00000000
00000100
00001000
00000010
00010000
00000100
00001000
,
00000010
00000000
00000100
00001000
00000100
00000010
00000100
00000001
,
00000100
00000000
00001000
00010000
01000000
00100000
00001000
00010000
,
01000000
00000000
00100000
00010000
00100000
10000000
00100000
00000000
,
01100000
00000000
00010000
10000000
00100000
01000000
00010000
10000000
,
00100000
00000000
01000000
10000000
01000000
00100000
01000000
00010000
,
01000000
00000000
00001000
00010000
00000100
00000010
00001000
00010000
,
00000100
00000000
00000010
00000001
00000010
00001000
00000010
00000000
,
00000110
00000000
00000100
00010000
00001000
01000000
00010000
00000000
,
00100000
00001000
00010000
00000010
00010000
00000000
00000100
00001000
,
00000100
00000000
00000010
00000001
00001000
00000001
00000100
00000000
,
00000220
00000000
00000000
00000330
,
00001001
00000000
00000001
00000100
00000010
00001000
00000001
00000000
,
00001000
00000100
00010000
00001000
01000000
00010000
00100000
00001000
,
00000000
00000000
00011000
00000000
00010000
00000100
00001000
00000000
,
00002002
00000000
00000000
00000000
00003003
00000000
00000000
00000000
00000100
00000000
00000000
00000100
00000000
00000000
00000100
00000000
,
00001002
00000100
00000010
00000003
,
00000001
00000000
00000100
00000000
00001000
00000000
00010000
00000000
00100000
00000000
00000000
01000000
00000000
00000000
00100000
00000000
,
20000000
01000000
00100000
30000000
,
10000000
00000000
01000000
00000000
00010000
00000000
00001000
00000000
00000010
00000000
00000000
00000100
00000000
00000000
00000010
00000000
,
00000002
00000100
00001000
00000013
,
00000001
00000000
00000100
00000000
00001000
00000000
00010000
00000000
00100000
00000000
00000000
01000000
00000000
00000000
00100000
00000000
,
20000000
01000000
00010000
30100000
,
10000000
00000000
01000000
00000000
00010000
00000000
00001000
00000000
00000010
00000000
00000000
00000110
00000000
00000000
00001000
00000000
,
00000002
00000000
00000000
00000100
00000000
00000000
00000100
00000000
00000013
00000000
00000010
00000000
00000001
00000000
00000000
00000000
,
00000110
00000000
00001000
00000100
00010000
00000000
00001000
01000000
,
00010000
00000000
00100000
00001000
00010000
00100000
00010000
00000000
,
00011000
00000000
00010000
00001000
01000000
00000000
00001000
00010000
,
00000100
00000000
00001000
00000001
00000020
00000000
00002030
00000000
,
00003010
00000000
00000100
00010000
00001000
00000000
01000000
00001000
,
00010000
00000000
00100000
10000000
01000000
00010000
00001000
00000000
,
01100000
00000000
10000000
00010000
01000000
00000000
00100000
00010000
,
00001000
00000000
00000010
00000100
00002000
00000000
00003020
00000000
,
00000130
00000000
00001000
00010000
01000000
00000000
00010000
00001000
,
01000000
00000000
00010000
10000000
00100000
00010000
00001000
00000000
,
00110000
00000000
01000000
00001000
00010000
00000000
00000100
00001000
,
00000010
00000000
00010000
00001000
00000020
00000000
00000230
00000000
,
00001300
00000000
00000001
00000100
00001000
00000000
00010000
01000000
,
10000000
00000000
00100000
01000000
00010000
10000000
01000000
00000000
,
00100000
00000000
00001000
00010000
00100000
00000000
00010000
00001000
,
00000010
00000000
00000100
00001000
00000020
00000000
00020030
00000000
,
00032000
00000000
00000000
01000000
00000000
00000000
01000000
00000000
00013000
00000000
00001000
00000000
00011000
00000000
00000000
00000000
,
01001000
00000000
00000000
00000000
01000000
00000000
00000000
00010000
00000000
00010000
00000000
00010000
00000000
00000000
00000000
00000000
,
10000000
01000000
00100000
00000000
00010000
01000000
00001000
00010000
,
00000100
00000000
00000000
00000000
00000010
00000000
00000000
00000001
00000000
00000001
00000000
00000001
00000000
00000000
00000000
00000000
,
00000100
00001000
00010000
00100000
10000000
00010000
10010000
00000000
;

//---------------dance-double - t7r----------------
#NOTES:
     dance-double:
     t7r:
     Challenge:
     15:
     :
00000000
00000000
00000000
00000000
,
00000000
00000000
00000000
00000000
,
00000000
00000000
00000000
00000000
,
00000000
00000000
00000000
00000000
,
00000000
00000000
00000000
00000000
,
00000110
00000000
00000000
00000000
00000110
00000000
00000001
00000100
00000000
00000100
00000000
00000100
00000000
00000010
00001000
00000100
,
00010000
00000000
00010000
00000000
00010000
00000000
00001000
00010000
00000000
00100000
00000000
10000000
00000000
01000000
00100000
00000000
,
01100000
00000000
00000000
00000000
01100000
00000000
10000000
00100000
00000000
00100000
00000000
00100000
00000000
01000000
00010000
00100000
,
00001000
00000000
00001000
00000000
00001000
00000000
00010000
00001000
00010000
00000100
00001000
00000000
00001001
00000000
00000000
00000000
,
00000001
00000100
00000010
00000002
00000000
00000013
00001000
00000000
,
00000100
00010000
00001000
00010000
00000000
00011000
00000000
00001000
,
00010000
01000000
00100000
01000000
10000000
00100000
01000000
00010000
,
20000000
00000000
00000000
00000000
30100000
00000000
00000000
00010000
00001000
00000000
00010000
00000000
00011000
00000000
00000000
00000000
,
00001000
00000010
00000100
00002000
00000000
00003010
00000001
00000000
,
00000010
00000100
00000010
00001000
00000000
00001100
00000000
00000100
,
00010000
00001000
00010000
01000000
00100000
01000000
10000000
00100000
,
02000000
00000000
00000000
00000000
03001000
00000000
00000000
00010000
00001000
00000100
00000010
00000000
00000120
00000000
00000000
00000000
,
00002030
00000000
00000000
00003100
00000000
00000000
00010000
00000000
00001000
00010000
00001000
00000000
00012000
00000000
00000000
00000000
,
00023000
00000000
00000000
00000000
01030000
10000000
01000000
10000000
00000000
00100000
10000000
00100000
10000000
00010000
00100000
00010000
,
00000000
00000000
00000000
00000000
00000000
00000000
10000000
00000000
00000000
10000000
00000000
00000000
01000000
00000000
00010000
00000000
00001000
00000000
00000100
00000000
00000000
00000010
00000000
00000000
,
00000110
00000000
00000000
00000000
00000010
00001000
00000010
00001000
00000000
00000001
00000010
00000001
00001000
00000100
00000010
00000001
,
00000200
00000000
00000000
00001300
00010000
00000000
00010000
00000000
01000000
00000000
01000000
00100000
00001000
00000000
00000000
00000000
,
00012000
00000000
00000000
00000000
00003010
00000001
00000010
00000001
00000000
00000100
00000001
00000100
00000001
00001000
00000100
00001000
,
00000000
00000000
00000000
00000000
00000000
00000000
00000001
00000000
00000000
00000001
00000000
00000000
00000010
00000000
00001000
00000000
00010000
00000000
00100000
00000000
00000000
01000000
00000000
00000000
,
01100000
00000000
00000000
00000000
01000000
00010000
01000000
00010000
00000000
10000000
01000000
10000000
00010000
00100000
01000000
10000000
,
00200000
00000000
00000000
00310000
00001000
00000000
00001000
00000000
00000010
00000000
00000010
00000100
00010000
00000000
00000000
00000000
,
00011000
00000000
00000000
00001000
00010000
00000000
00010000
00000000
01000000
00000000
10000000
00000000
00100000
00000000
01000000
00000000
,
10000000
01000000
00100000
10000000
01000000
01000000
00010000
00001000
,
00011000
00000000
00000000
00010000
00001000
00000000
00001000
00000000
00000100
00000000
00000001
00000000
00000010
00000000
00000100
00000000
,
00000001
00000000
00000100
00000000
00000010
00000000
00000001
00000000
00000100
00000000
00001000
00010000
00001000
00000000
00010000
00000000
,
00011000
00000000
00000000
00001000
00010000
00000000
00010000
00000000
00100000
00000000
10000000
00000000
01000000
00000000
00100000
00000000
,
10000000
00100000
01000000
10000000
00100000
00100000
00010000
00001000
,
00020000
00000000
00031000
00000010
00000100
00001000
00000001
00000100
,
00001000
00000000
00020000
00000000
00130000
00000000
20000000
00000000
30100000
00000000
00000000
01100000
00000000
00000000
01000000
00000000
,
00001000
00000000
00000000
00010000
00001000
00000000
00010000
00000000
00100000
00000000
00000000
10000000
01000000
00000000
00100000
01000000
,
00000000
01000000
10000000
00000000
00100000
00000000
00100000
00000000
01000000
00000000
00000000
10000000
00000000
00000000
01000000
00000000
,
00100000
00000000
00000000
10000000
01000000
00000000
00100000
00000000
00010000
00000000
00000000
10000000
00100000
00000000
00010000
00001000
,
00000000
00001000
00010000
00000000
00001000
00000000
00001000
00000000
00000010
00000000
00000100
00000010
00000000
00000001
00001000
00000000
,
00000001
00000000
00000001
00000000
00000100
00000000
00000010
00000000
00001000
00000000
00001000
00000000
00000100
00010000
00001000
00010000
,
00000000
00010000
00001000
00010000
00001000
00010000
00001000
00010000
00001000
01000000
00100000
10000000
00000000
10000000
00010000
00000000
,
10000000
01000000
10000000
01000000
00100000
00010000
00100000
00010000
00001000
00000100
00001000
00000100
00000010
00000001
00000010
00000001
,
00000000
00000001
00001000
00000000
00001000
00000000
00000001
00000000
00000001
00000000
00000100
00001000
00010000
00000000
00001000
00000000
,
01000000
00000000
00000000
00000100
00000000
00000000
01000000
00000000
00001000
00000000
00010000
00000000
00011000
00000000
00000000
00000000
,
00001000
00000000
00000000
00000000
00000100
00000010
00000100
00000001
00000000
00001000
00000000
00000100
00000010
00000100
00010000
00001000
,
00000000
00010000
01000000
00000000
10000000
00100000
01000000
00010000
00000000
10000000
00000000
00100000
01000000
00000000
00100000
00000000
,
10100000
00000000
00000000
00000000
10000000
00100000
01000000
00100000
00000000
10000000
00000000
00010000
00100000
00001000
00010000
00001000
,
00000000
00000010
00000000
00000100
00001000
00000010
00000100
00000001
00002000
00000000
00000000
00000000
00003200
00000000
00000000
00000000
,
00010300
00000000
00000000
00000000
00001000
00010000
00001000
01000000
00000000
00010000
00000000
10000000
00100000
01000000
00010000
10000000
,
00000000
01000000
00100000
00000000
01000000
10000000
00100000
10000000
00000000
00010000
00000000
10000000
00100000
00000000
01000000
00000000
,
01010000
00000000
00000000
00000000
00010000
00100000
00001000
00010000
00000000
00001000
00000000
00000100
00000010
00000100
00000001
00001000
,
00000000
00000100
00000000
00010000
00001000
00010000
01000000
10000000
00100000
00000000
01000000
00000000
01100000
00000000
00000000
00000000
,
20010000
00000000
00000000
00000000
00000000
00000000
00000000
00000000
00000000
00000000
00000000
00000000
31000000
00000000
00000000
00010000
00000000
00000000
00001000
00000000
00000000
00010000
00000000
00000000
00000000
00000000
00000000
00001000
00000000
00000000
00000000
00000000
00000000
00000100
00000000
00000000
00000010
00000000
00000100
00000000
00000010
00000000
00000100
00000000
00000000
00000001
00000000
00000000
,
00000000
00001000
00000001
00000000
00000010
00000001
00000100
00000001
00000000
00001000
00000000
00000100
00010000
00000000
00001000
00000000
,
00011000
00000000
00000000
00000000
00000000
00000000
00000000
00000000
00000000
00000000
00000000
00000000
00010000
00000000
00000000
01000000
00000000
00000000
10000000
00000000
00000000
00100000
00000000
00000000
00000000
00000000
00000000
01000000
00000000
00000000
00000000
00000000
00000000
00100000
00000000
00000000
10000000
00000000
00010000
00000000
10000000
00000000
00010000
00000000
00000000
10000000
00000000
00000000
,
00000000
01000000
00100000
00000000
01000000
10000000
00010000
01000000
00002000
00000000
00100000
00000000
00023000
00000000
00030000
00000000
,
00021000
00000000
00000000
00000000
00000000
00000000
00000000
00000000
00000000
00000000
00000000
00000000
00031000
00000000
00000000
00000100
00000000
00000000
00000001
00000000
00000000
00000010
00000000
00000000
00000000
00000000
00000000
00000100
00000000
00000000
00000000
00000000
00000000
00000010
00000000
00000000
00000001
00000000
00000100
00000000
00000001
00000000
00000100
00000000
00000000
00000010
00000000
00000000
,
00000000
00001000
00000100
00000000
00010000
00001000
01000000
00010000
00000000
00100000
00000000
01000000
10000000
00000000
00100000
00000000
,
01100000
00000000
00000000
00000000
00000000
00000000
00000000
00000000
00000000
00000000
00000000
00000000
10000000
00000000
00000000
01000000
00000000
00000000
00100000
00000000
00000000
00010000
00000000
00000000
00000000
00000000
00000000
10000000
00000000
00000000
00000000
00000000
00000000
00100000
00000000
00000000
00010000
00000000
00001000
00000000
00010000
00000000
00001000
00000000
00000000
00010000
00000000
00000000
,
00000000
00000010
00001000
00000000
00000010
00000100
00000001
00001000
00000100
00010000
00000100
00000000
00012000
00000000
00000000
00000000
,
01003000
00000000
00000000
00000100
00000000
00000000
01000000
00000000
00001000
00010000
00001000
00000000
00012000
00000000
00000000
00000000
,
00013000
00000000
00000000
00000000
00100000
00000000
01000000
00010000
00000000
00010000
00000000
00010000
00000000
10000000
01000000
00100000
,
00001000
00000000
00001000
00000000
00001000
00000000
00010000
00000010
00000000
00000100
00000000
00000001
00000000
00001000
00000100
00000000
,
00010000
00000000
00000000
00000000
00001000
00000000
00010000
01000000
00000000
01000000
00000000
01000000
00000000
10000000
00100000
01000000
,
00001000
00000000
00001000
00000000
00001000
00000000
00010000
00001000
01000000
00000100
01000000
00000000
00011000
00000000
00000000
00000000
;
