#TITLE:BATTLE NO.1;
#ARTIST:TANO*C Sound Team;
#BANNER:BATTLE NO.1.png;
#BACKGROUND:BATTLE NO.1-bg.png;
#JACKET:BATTLE NO.1-jacket.png;
#MUSIC:BATTLE NO.1.ogg;
#SAMPLESTART:22.8;
#SAMPLELENGTH:15;
#BPMS:0=200;
#LABELS:4=Noizenecio - RGTM,44=P*Light - SomethingRandom,76=REDALiCE - chrononical,108=Getty - Daff_4K,140=Srav3r - kaya,172=t+pazolite - Kekkle,204=Laur - NewbStepper,236=DJ Myosuke - t7r,268=USAO - forcednature,300=DJ Genki - Talkion,340=Kobaryo - Maractus,364=Massive New Krew - Pandemonium X,396=DJ Noriken - Marten;

//---------------dance-single - ZIv Step Team----------------
#NOTES:
     dance-single:
     :
     Beginner:
     7:
     :
0000
0000
0000
0000
,
0000
0000
0000
0000
,
0220
0330
0000
0000
,
1000
0000
1000
1000
,
1000
0000
0001
0001
,
0001
0000
0010
0010
,
0010
0000
0000
0000
,
0001
0000
0100
0000
,
0010
0000
1000
0000
,
0001
1000
0002
0000
,
0203
0300
0000
0000
,
0001
0000
1000
0000
,
0001
0000
0100
0000
,
0010
1000
1000
0000
,
0001
0001
0010
0000
,
0100
1000
0001
0000
,
1000
0010
0100
0000
,
0001
0010
0001
0100
,
0220
0000
0000
0330
,
0001
0000
1000
1000
,
0001
0010
1000
0100
,
0001
0000
0001
1000
,
2000
0000
0001
0000
,
3001
0000
0001
1000
,
1000
0010
0001
0100
,
1000
1000
1000
0000
,
0002
0000
0000
1003
,
0000
0001
0001
0001
,
0000
1000
1000
1000
,
0000
0010
0010
0010
,
0000
0100
0200
0300
,
0000
0001
0000
1000
,
0000
0100
0000
0010
,
0010
0000
0100
0000
,
0020
0000
0000
0030
,
0001
0000
0100
0000
,
1000
0000
0000
0000
,
1000
0000
0010
0000
,
0001
0000
0000
0000
,
0001
0000
0010
0000
,
0100
0000
0000
0000
,
1001
0000
0000
0000
,
1000
0000
0010
0000
,
0001
0000
0100
0000
,
1000
0000
0010
0000
,
0002
0000
0003
0000
,
1000
0000
1000
0000
,
0001
0000
0010
0000
,
1000
0000
0100
0000
,
0002
0000
0003
0000
,
1000
0000
0010
0000
,
1000
0000
0000
0000
,
0000
0000
0000
0000
,
0001
0000
0000
0000
,
0000
0000
0000
0000
,
2000
0000
3000
0000
,
0002
0000
0003
0000
,
0200
0000
0300
0000
,
1001
0000
0000
0000
,
0010
0000
0010
0000
,
0100
0100
0100
0000
,
0001
0000
0001
0000
,
1000
1000
1000
1000
,
0000
0010
0010
0000
,
0100
0000
0100
0000
,
0110
0000
1001
0000
,
0110
0000
0000
0000
,
1001
0000
0000
0110
,
0000
0000
0010
0000
,
1000
0000
0000
1001
,
0000
0000
0001
0001
,
1000
1000
0000
0010
,
0000
0100
0100
0000
,
0010
0010
0010
0000
,
1000
0001
1000
0001
,
0000
1000
1000
0000
,
0010
0000
0001
0000
,
0000
1000
1000
0000
,
0100
0000
0001
0000
,
0000
1000
0000
1000
0000
1000
0000
0000
,
0000
0001
0000
0001
0000
0001
0000
0000
,
1001
0000
1001
0000
,
2002
0000
0000
0000
,
3003
0000
0000
0000
,
0000
0000
0000
0000
,
1000
0001
1000
0000
,
0010
0100
0001
0000
,
0010
0000
0001
0000
,
1000
0000
0000
0000
,
0001
1000
0001
0100
,
0010
1000
0100
0010
,
0001
0000
0000
0000
,
1000
0000
0000
0000
,
0010
0000
0000
0000
,
0100
0000
0000
0000
,
0001
0000
0100
0000
,
0010
1000
0100
0010
,
0002
0000
0000
0000
,
0003
1001
0110
0000
,
1001
0000
1000
0000
,
0001
1000
0010
0010
,
0110
0000
1001
0000
,
0110
1001
0110
0000
,
1000
0000
0100
0000
,
0010
0000
0001
0000
,
1000
0001
1000
0001
,
0100
0100
0220
0330
;

//---------------dance-single - ZIv Step Team----------------
#NOTES:
     dance-single:
     :
     Easy:
     11:
     :
0000
0000
0000
0000
,
0000
0000
0000
0000
,
0220
0330
0000
0000
,
1001
0000
1000
0000
1000
0000
0001
1000
,
0001
0000
0001
0000
0010
0100
0010
0100
,
0010
0000
0010
0000
0001
1000
0001
0000
,
0100
0000
0000
0100
0000
0000
0100
0000
,
0110
0000
0010
0000
1000
0000
0001
1000
,
0001
0000
0010
0100
0000
0010
0100
0000
,
1000
0010
0200
0302
,
0023
0030
0000
0000
,
1001
1000
1000
0001
,
0001
0100
0100
0010
,
0010
1000
0100
0010
,
0001
0010
0100
1000
,
0001
0010
0001
0000
0100
0000
0100
0000
,
0001
1000
0001
0000
1000
0000
1000
0000
,
0100
0010
0100
0000
1000
0100
1000
0010
,
0220
0000
0000
0330
,
1000
0000
0100
0001
0000
0100
0000
0001
,
0000
0100
0000
0001
0000
0100
1000
0010
,
0000
0100
0000
0010
0000
0100
0000
0010
,
1000
0000
1000
1000
0000
0001
0001
0000
,
0100
0000
0001
1000
0000
0001
0000
0100
,
0000
0001
0000
0001
0000
0100
0010
0100
,
0020
0000
2030
0000
,
3002
0000
0100
0100
,
1003
0000
0000
0000
0100
0000
0000
0010
0000
0000
0100
0000
1000
0000
0000
0000
,
0001
0000
0000
0000
0100
0000
0000
0010
0000
0000
1000
0000
0001
0000
0100
0000
,
0001
0000
0000
0000
0100
0000
0000
0010
0000
0000
0100
0000
0001
0000
0000
0000
,
1000
0000
0100
0010
0200
0000
0000
0000
,
0300
0000
0000
0000
1000
0000
0000
0010
0000
0000
1000
0000
0000
0001
0000
0000
,
0010
0000
0000
0001
0000
0000
0100
0000
0000
0010
0000
0000
0100
0000
0001
0000
,
1000
0100
1000
0000
0001
0100
0001
0000
,
0020
0100
0130
1001
,
2000
3010
0100
0100
,
0001
0010
0200
0000
1000
0000
1300
0000
,
0001
0000
1000
0100
0001
0000
0100
0020
,
0000
0030
1001
0000
1000
0001
0100
0000
,
0001
0000
0001
0000
1000
0100
1000
0000
,
0010
0000
0000
0000
0000
0000
0000
0000
0010
0000
0000
0000
0000
0000
0000
0000
0100
0000
0000
0000
0001
0000
0000
0000
0000
0000
0000
1000
0000
0000
0000
0000
,
0200
0000
0310
0000
0001
1000
0001
0000
,
0011
1010
0101
1100
,
0001
0100
1000
0010
,
0001
0010
1000
0100
,
0002
0000
0000
0000
1003
0000
1000
0002
,
0000
0023
0000
0230
0000
0000
0310
0000
,
0001
0010
1000
0100
,
0001
0100
1000
0010
,
0002
1003
0010
0010
,
2000
0001
0010
3000
,
0002
0000
0000
0003
,
2000
0000
0000
3000
,
0020
0000
0000
0030
,
0200
0000
0000
0300
,
0001
0001
0001
0001
,
1000
1000
1000
1000
,
0010
0010
0010
0010
,
0020
0000
0000
0030
,
0110
0020
1000
0130
,
0010
0100
0110
1001
,
0110
0200
1000
0310
,
1000
0100
1000
0000
0001
0000
1001
0000
,
0020
0000
0130
0010
0100
0000
0110
0000
,
0001
0000
1000
0001
1000
0000
1001
0001
,
1000
0000
0001
0100
0001
0000
1000
0010
,
2000
0001
3100
0110
,
1001
0000
0001
0100
1000
0000
0200
0000
,
0010
0001
1000
0301
,
1001
0000
1000
0100
0001
0000
0200
0000
,
0010
0000
0001
0000
0010
0010
0310
0000
,
0100
1001
0100
0110
,
0001
0001
1000
1000
0001
0001
1000
0000
,
0010
0000
0000
0100
0000
0000
0001
0000
0000
1000
0000
0000
0001
0000
0000
0000
,
0001
1000
0001
1000
0100
0010
0200
0000
,
1300
0000
0001
0010
0001
0000
1000
0000
,
0010
0100
0001
0110
,
0001
0000
1000
0010
1000
0000
0001
0000
,
0010
0000
0100
0000
1000
0000
0001
0001
,
0000
1010
0000
0101
0000
1010
0000
0100
,
0000
0011
0000
1100
0000
0001
0001
0000
,
1000
0010
1000
0000
0001
0010
0001
0000
,
2000
3200
0302
0023
,
1030
0000
1001
0001
,
0010
0000
0100
0000
1000
1000
0001
0000
,
1000
0100
0001
0100
,
1000
0010
0001
0010
,
1000
0000
1001
1000
,
0010
0000
0100
0000
0001
0001
1000
0000
,
0001
0000
0100
0010
0000
0100
0010
0000
,
1000
0000
0100
0010
0100
0010
0002
0000
,
1003
0010
1000
0100
,
0010
0100
1000
1001
,
0001
0100
0001
0010
,
0001
0000
1000
0001
0100
0000
0001
0000
,
1001
0010
1001
0100
,
1001
0110
1001
0110
,
0002
0203
0320
2030
,
3000
1001
0110
0000
,
0011
0000
0100
0000
1000
0001
1000
0000
,
0010
0000
0010
0010
0100
0000
0110
0000
,
1010
0000
0100
0001
0010
0000
0010
0001
,
1000
1001
0110
2000
,
3001
0000
0100
0001
1000
0000
0100
1000
,
0001
0000
0010
0001
1000
0000
0010
0000
,
1000
0010
1000
0000
0001
0010
0001
0000
,
1000
0010
0100
0002
0000
0000
1003
0000
;

//---------------dance-single - ZIv Step Team----------------
#NOTES:
     dance-single:
     :
     Medium:
     15:
     :
0000
0000
0000
0000
,
0000
0000
0000
0000
,
0220
0330
0000
0000
,
1100
0000
0101
0000
1100
0000
0001
0100
,
0110
0000
0000
0000
1010
0000
0000
0000
0011
0000
0001
0000
1000
0000
0010
0100
,
0010
0000
0000
0000
0110
0000
0000
0000
1001
0000
1000
0000
0100
0000
0010
0100
,
0010
0000
0001
0000
0010
0000
0100
0000
1000
0001
1000
0001
1000
0000
0000
0000
,
1100
0000
0000
0000
0011
0000
0000
0000
1010
0000
0000
0000
0001
0000
1000
0001
,
1000
0000
0010
1000
0100
0010
0001
0000
,
0100
0000
0000
0010
0000
0000
0100
0000
0000
0010
0000
0000
1000
0000
0001
0000
1000
0000
0001
0000
1000
0000
0001
0000
,
0020
0000
0000
0030
,
0110
0000
0001
0000
0001
0000
0100
0010
,
0100
0000
0000
0000
0010
0000
1000
0010
1000
0000
0001
0000
1000
0000
0100
0000
,
1000
0001
0010
0001
1000
0010
1000
0001
,
0100
0000
0001
0000
1000
0000
0001
0000
1000
0000
0000
0010
0000
0000
1000
0000
,
0100
0001
0100
1000
0010
0001
0010
1000
,
0100
0001
1000
0010
0001
1000
0100
0001
,
1000
0000
0010
0000
0001
0000
0001
0000
1000
0000
1000
0000
0010
0100
0010
0000
,
2002
0000
0000
3003
,
1000
0001
1000
0001
0000
0101
0000
1001
,
0000
0000
0110
0000
0000
0000
1010
0000
0000
0000
1000
0010
1000
0000
0100
0000
,
0000
0110
0000
1001
0000
0110
0000
1010
,
1000
0100
0001
0100
1000
0010
0200
0000
,
0310
1000
0100
0001
0000
0001
0000
0001
,
0100
1000
0010
0100
0100
0001
0100
0001
,
1000
0010
0100
0010
1000
0010
0200
0000
,
0302
0000
0010
0010
,
1003
0000
0001
0000
0100
0000
0000
0110
0000
0000
1001
0000
1000
0000
0100
0000
,
0001
0000
0000
0000
0110
0000
0000
1001
0000
0000
1000
0000
0010
0000
0100
0000
,
0001
0000
1000
0000
0100
0000
0000
0110
0000
0000
1001
0000
0001
0000
0100
0000
,
1000
0000
0110
2002
0000
0000
0000
0000
,
3003
0000
0000
0000
1000
0000
0000
1100
0000
0000
0001
0000
0000
0101
0000
0000
,
1000
0000
0000
1010
0000
0000
0001
0000
0000
0011
0000
0000
1000
0000
0001
0000
,
0100
0001
0100
0000
0010
1000
0010
0000
1000
0000
0100
0000
0010
0000
0001
0000
,
0200
0000
0000
0010
0000
0000
0010
0000
0000
0010
0000
0000
0310
0000
1000
0000
,
0002
0000
0013
0010
0100
0010
0001
0100
,
1000
0000
0001
0000
0010
0000
2000
0000
0000
0000
3100
0000
0010
0001
0010
0000
,
0011
0000
0001
1000
0100
0010
0010
0002
,
0000
0000
0103
0001
0100
0000
0010
0000
1000
0000
0100
0000
0001
0000
0000
0000
,
1000
0010
0100
1000
0010
0200
0000
0302
,
0000
0000
0000
0000
1003
0000
0000
0000
0010
0000
0000
0000
0100
0000
0000
0000
0001
0000
0000
0000
1000
0000
0000
0000
0000
0000
0000
1010
0000
0000
0000
0000
,
0202
0303
1000
0001
0010
1000
0020
0200
,
0330
1000
0100
0100
0010
0001
1001
0000
,
1000
0010
0100
0010
2000
0000
3001
1000
,
0001
0000
0010
0000
0100
0000
0010
0000
0001
0000
1000
0001
1000
0000
0001
0000
,
0200
0000
0000
0000
0301
0010
1000
0020
,
0000
0032
0000
2003
0000
3010
0100
0000
,
0001
0100
0010
0100
0002
0000
1003
0001
,
1000
0000
0100
0000
0010
0000
0100
0000
1000
0000
0001
1000
0001
0000
0100
0000
,
0010
0000
0100
0010
0100
0000
0001
0000
1000
0000
0001
1000
0001
0000
0010
0000
,
0200
0000
0000
0000
0310
0000
0001
0000
1000
0001
1000
0000
0002
0000
0000
0000
,
2003
0000
3010
1000
0100
0010
0001
0200
,
0000
0310
0100
0000
0001
0000
1000
0000
,
0002
0000
0013
0001
0100
0010
1000
0200
,
0000
0301
0100
1000
0010
0100
0001
0010
,
0001
0100
0010
1000
,
0001
0100
0010
1000
,
0001
0001
0100
0100
0010
0010
1000
1000
,
0001
1000
0001
0000
1000
0000
1001
0000
,
0010
2001
0010
3100
,
0001
0100
1000
0000
0010
1000
0100
1000
,
0010
1002
0010
0103
,
1000
0100
0001
0100
0010
1000
0001
0000
,
0020
0000
0031
0001
0001
0000
1000
0000
,
1001
0000
1100
0000
0110
0000
0010
0010
,
0010
0000
0100
1000
0001
0000
0100
0010
,
1000
0010
0100
0000
0001
0000
1001
0000
,
0001
0100
1000
1000
0100
0000
0110
0001
,
2000
3020
0032
0023
,
1030
0100
0001
0001
0100
0000
0110
1000
,
0002
0000
0023
0000
0130
0100
1001
0000
,
1000
0100
0001
0000
1000
0010
0001
0000
,
1000
0000
0000
1000
0010
0000
0000
0010
0100
0000
0100
0000
0001
0000
0000
0000
,
1000
0000
0001
1000
0000
0001
1000
0000
0001
1000
0000
0001
1000
0000
0100
0000
,
0010
0010
0001
0001
1000
1000
0020
0000
,
1030
0100
0010
0010
0010
0000
0010
0001
,
1000
0000
1010
0000
0011
0000
0110
2000
,
3001
0100
0010
0010
0010
0000
0010
1000
,
0001
0000
0000
0000
0011
0000
0000
0000
1010
0000
2000
0000
3001
0010
0001
0010
,
0000
0000
0011
0000
0000
0000
1100
0000
0000
0000
0011
0000
0000
0000
0001
0100
,
0000
0000
0101
0000
0000
0000
1010
0000
0000
0000
0010
0100
0010
0000
1000
0000
,
0001
0010
0100
1000
0001
0010
0100
1000
,
0001
0010
0001
0000
1000
0100
1000
0000
0001
0000
0100
0000
0010
0000
1000
0000
,
0001
0000
0011
1000
,
0010
0000
0010
0000
0100
0100
0001
0000
,
1000
0000
0100
0100
0000
1000
1000
0000
,
0001
0000
0100
0100
0000
0001
0001
0000
,
1000
0011
1000
0101
,
1000
0000
0001
0000
0100
0100
0001
0000
,
1000
0000
0100
0000
0010
0000
0001
0000
0100
0000
0010
0000
1000
0000
0100
0010
,
0200
0000
0000
0000
1300
0000
0001
0000
0100
0010
0100
0000
0002
0000
0000
0000
,
2003
3010
0001
0010
,
2000
0000
3100
0000
0010
0001
1001
0000
,
0002
0103
1000
0100
,
0002
0000
0013
0100
1100
0000
1001
0000
,
0011
0100
1100
0001
,
0101
1010
1100
0011
,
0001
1000
0010
1000
0001
1000
0001
0010
,
0000
1001
0110
1001
,
1010
0000
1000
0100
0001
0100
1000
0000
,
0001
0000
0010
0001
0010
0000
0100
0000
1000
0000
0000
0000
1001
0000
0000
0000
,
0011
0000
0001
0100
0110
0000
0010
1000
,
1010
0011
0110
0020
,
0031
0100
0010
0100
0001
0010
0100
1000
,
0010
0100
0010
1000
0100
0010
0001
1000
,
0001
0100
1000
0100
0001
0100
1000
0100
,
0001
0010
0100
2000
0000
0000
3001
0000
;

//---------------dance-single - ZIv Step Team----------------
#NOTES:
     dance-single:
     :
     Hard:
     17:
     :
0000
0000
0000
0000
,
0000
0000
0000
0000
,
0220
0330
0000
0000
,
1100
0000
0101
0000
1100
0000
0101
0101
,
1010
0000
0000
0000
0011
0000
0000
0000
1010
0000
0011
0000
1001
0000
0100
0010
,
0100
0000
0000
0000
0110
0000
0000
0000
0011
0000
1010
0000
1001
0000
0001
0010
,
0100
0000
0010
0000
0001
0000
0100
0000
0010
1000
0010
1000
0001
0000
0000
0000
,
0101
0000
0000
0000
1010
0000
0000
0000
0011
0000
0000
0000
1100
0000
0100
0010
,
0001
0000
1010
1000
0100
0110
0011
0000
,
0101
0000
0000
0101
0000
0000
0110
0000
0000
0110
0000
0000
0010
0000
1000
0000
0100
0000
0010
0000
0001
0000
0100
0000
,
0220
0330
0000
0000
,
1001
0000
0001
0000
1000
0000
0010
0100
,
0010
0000
0000
0000
0100
0000
0001
0100
0001
0100
0001
0000
1000
0000
0001
0010
,
0001
0100
1000
0100
0001
1000
0100
0001
,
0100
0000
1000
0000
0010
0000
0001
0000
0010
0000
0000
1000
0000
0000
0001
0000
,
0100
1000
0001
1000
0100
0001
0010
1000
,
0001
0000
1000
0000
0010
0000
0001
0000
1000
0001
1000
0000
0010
0100
0010
0000
,
1000
0100
1000
0000
0001
0010
0001
0000
1000
0010
1000
0000
0001
0100
0001
0000
,
2002
0000
0000
3003
,
1000
0100
0010
0100
0001
0100
1000
0010
,
0100
0000
1000
0000
0100
0000
0010
0000
1000
0000
0001
0010
0100
0000
0010
0000
,
0001
0100
1000
0100
0010
1000
0001
0100
,
0010
1000
0010
1000
0010
0000
1000
0100
1000
0100
1000
0000
0001
0100
0001
0100
,
0001
0000
1000
0100
0010
0000
0100
0000
1000
0000
0001
0000
0001
0000
1000
0000
,
0100
0010
0001
0010
0100
0001
0100
0010
,
0001
0000
0100
0000
1000
0000
0100
0000
0001
0000
1000
0000
0001
0100
0001
0100
,
0002
0000
0000
1000
1000
0000
1000
0000
,
0013
0000
0100
0000
1100
0000
0000
0011
0000
0000
1001
0000
1000
0000
0010
0000
,
0110
0000
0000
0000
1001
0000
0000
1100
0000
0000
0011
0000
0001
0000
1000
0000
,
0010
0000
0100
0000
0101
0000
0000
1010
0000
0000
1001
0000
0001
0000
0010
0000
,
0100
1000
0001
0100
0220
0000
0000
0000
,
0330
0000
0000
0000
1001
0000
0000
1010
0000
0000
0101
0000
0000
0110
0000
0000
,
1001
0000
0000
0011
0000
0000
1100
0000
0000
0110
0000
0000
1001
0000
1000
0000
,
0001
0100
0001
0000
1000
0100
1000
0000
0010
0100
0010
0100
0001
1000
0001
1000
,
0200
0000
0000
0010
0000
0000
0010
0000
0000
0010
0000
0000
0310
0000
0001
0000
,
2000
0000
0000
0000
3010
0000
0100
0001
0100
0000
1000
0000
0100
0000
0010
1000
,
0010
0000
0001
0000
1000
0000
0200
0000
0000
0000
0301
0010
0001
0000
1000
0000
,
0110
0000
0001
0000
1000
0100
0010
0000
0001
1000
0010
0000
0110
0000
0002
0000
,
0000
0000
1003
0100
1000
0000
1000
0010
1000
0010
0100
0000
0001
0000
1000
0000
,
0100
0010
0100
0000
1000
0000
0001
0000
0100
0001
0100
0000
0020
0000
1000
0000
,
1030
0000
0000
0000
0001
0000
0000
0000
0010
0000
0100
0000
1000
0000
0000
0000
0101
0000
0000
0000
1100
0000
0000
0000
0000
0000
0000
0011
0000
0000
0000
0000
,
2020
0000
3030
0000
0001
1000
0100
0000
0010
0100
1000
0000
0010
0000
0200
0000
,
0000
0000
0301
1000
0001
0000
0100
0010
1000
0000
0010
0000
2010
0000
0000
0000
,
3001
0100
1000
0100
0001
1000
0010
1000
,
0001
0000
0010
0000
1000
0000
0010
0000
0001
0000
1000
0010
0100
0000
0001
0000
,
2001
3020
0000
0130
1000
0100
0001
0020
,
0000
0230
0000
2300
0000
3001
2000
0000
,
3001
0010
1000
0010
0001
1000
0010
1000
,
0001
0000
0100
0000
1000
0000
0100
0000
0001
0000
1000
0100
0010
0000
0001
0000
,
1001
0000
1000
0010
0100
0000
0001
0000
1000
0000
1000
0001
1000
0000
0001
0000
,
0020
0000
0000
0000
0130
0000
0010
0000
0100
1000
0001
1000
0020
0000
0000
0000
,
1030
0100
0010
0001
1000
0010
0100
0002
,
0000
1000
1003
0000
0010
0000
0100
0000
,
0001
0100
0010
1000
0001
0010
0100
2000
,
0000
3001
0100
0010
1000
0100
0010
0001
,
2000
0010
0010
3010
,
0002
0010
0010
0013
,
1000
0000
0001
0100
0010
0000
1000
0100
0010
0000
0001
0100
0010
0000
1000
0100
,
0010
0001
1000
0000
0001
0000
1001
0000
,
0110
0101
1010
1100
,
0101
0100
1000
0001
0100
1000
0100
0010
,
0110
1010
0101
1100
,
1010
0010
0001
1000
0100
0010
1001
0000
,
0200
0000
0310
0100
0101
0000
1100
0000
,
0011
0000
1001
0001
0100
0001
0010
0010
,
1001
0000
0000
0000
0100
0010
0100
0000
1001
0000
0000
0000
0001
0100
0001
0100
,
0001
0010
0100
1000
0001
0100
1010
0000
,
0011
0001
0100
1000
0001
0000
0110
1000
,
0002
0010
0103
0000
0101
0000
1100
0000
,
1000
0100
0001
1000
0010
0000
0011
0001
,
0200
0010
0301
0000
1000
0001
1001
0000
,
1000
0100
0011
0000
0001
0100
1010
0000
,
0001
0000
0100
0010
0100
0000
0001
1000
0001
1000
0001
0000
0010
0000
0000
0000
,
0100
0000
0010
0100
0000
0001
0100
0000
0010
0100
0000
1000
0100
0000
0010
0000
,
0001
0100
0001
0100
0010
1000
0010
1000
0100
0010
0100
0010
0001
0000
0000
0000
,
1000
0001
1000
0001
0010
0000
0010
0000
0010
0000
0000
0000
1100
0000
0010
0000
,
1001
0000
0000
0000
0101
0000
0000
0000
1100
0000
0000
0000
1001
0000
0001
0010
,
0100
1000
0010
0010
0010
0000
0101
0010
,
1001
0000
0000
0000
1100
0000
0000
0000
0101
0000
0200
0000
0310
1000
0010
1000
,
0001
0000
0011
0000
0000
0000
1100
0000
0000
0000
0011
0000
0000
0000
0001
0100
,
0010
0000
1010
0000
0000
0000
0101
0000
0000
0000
1000
0010
0100
0000
0001
0010
,
0100
0000
0100
0000
0100
0000
1000
0010
0100
0000
0100
0000
0001
0100
0010
1000
,
0002
0000
0013
0100
2000
0000
3010
0100
0002
0000
1003
0100
1000
0001
0010
0001
,
1000
0100
0010
1000
0010
0001
1000
0010
,
0100
0001
1000
0100
0010
0010
1001
0000
,
1000
0000
0100
0000
0010
0000
0001
0000
0100
0000
0010
0000
1000
0000
0100
0010
,
0100
0000
1000
0000
0001
0000
0100
0010
0100
0000
0001
0000
2000
0000
0000
0000
,
3001
0100
0010
0001
0010
1000
0001
0010
,
0100
1000
0001
0100
0010
0010
1001
0000
,
1000
0100
1000
0001
0100
0001
1000
0010
1000
0001
0010
0001
0100
0010
0100
0001
,
2000
0000
0000
0000
3001
0000
1001
0000
1000
0100
0010
0100
2000
0000
0000
0000
,
3001
0100
1000
0100
0001
1000
0100
0000
,
1000
0010
0001
0010
1000
0001
2001
0000
,
3100
0010
0001
1000
0010
1000
0100
0000
,
0010
0000
0001
0000
1000
0001
1000
0001
1001
0000
0000
0000
0110
0000
0000
0000
,
1001
0000
1000
0000
0011
0000
0001
0101
,
0000
1100
0000
1000
1010
0000
0011
0000
,
0001
1000
0001
1000
0001
1000
0001
1000
0001
1000
0001
1000
0001
1000
0001
1000
,
0000
0011
1010
1001
,
0101
0001
0010
1000
0010
0001
1001
0000
,
1010
0000
0010
1000
0010
0000
0100
0000
0110
0000
0000
0000
0101
0000
0001
0000
,
1000
0000
0100
1000
1100
0100
0010
0000
,
0001
0000
0100
0010
1000
0000
0100
0010
0001
0000
1000
0000
1020
0000
0000
0000
,
1030
0100
0010
1000
0010
0001
0100
1000
,
0100
0010
1000
0001
0010
0100
0001
0100
,
1000
0001
0100
0001
1000
0001
0010
0001
1000
0010
1000
0001
1000
0100
1000
0001
,
1000
0010
0100
0002
0000
0000
0013
0000
;

//---------------dance-single - ZIv Step Team----------------
#NOTES:
     dance-single:
     :
     Challenge:
     19:
     :
0000
0000
0000
0000
,
0000
0000
0000
0000
,
0220
0330
0000
0000
,
1002
0103
0201
0310
2010
3001
1001
0011
,
0210
0000
1300
0000
1002
0000
0103
0000
0110
0000
0110
0000
0110
0000
1000
0001
,
2001
0000
3100
0000
0210
0000
0001
0300
0101
0000
0110
0000
2100
0000
3010
1000
,
0001
0000
0100
0000
0011
0000
1000
0000
0100
0010
0100
0010
0002
0000
0000
0003
,
0201
0000
1300
0000
2100
0000
3001
0000
0021
0000
1030
0000
2001
0000
3001
0010
,
0210
0000
0000
0300
1010
0000
0001
0000
0100
0000
0011
0000
2100
0000
0000
3000
,
1001
0000
0000
0101
0000
0000
1100
0000
0000
1001
0000
0000
1100
0000
0100
0000
0010
0000
0011
0000
0001
0000
0100
0000
,
0220
0330
0000
MMMM
,
1001
0000
1000
0000
0001
0000
0100
0010
,
0100
0000
0000
0000
0010
0000
1000
0010
1000
0010
1000
0000
0001
0000
1000
0100
,
1000
0010
0010
0100
0100
0001
0001
1000
,
1000
0100
0100
1000
1000
0100
0001
1000
,
0001
0100
1000
0010
0001
1000
0001
0010
,
1000
0000
0100
0000
0001
0000
0010
0000
1000
0001
1000
0001
1000
0010
0100
0010
,
1000
0001
0100
0010
0100
0001
0100
0010
1000
0010
0100
0001
1000
0001
1000
0000
,
2002
0000
0000
3003
,
1000
0001
0100
0110
0010
1010
1000
1100
,
0100
0000
0010
0001
0010
0000
0100
0000
1000
0000
0010
0001
1000
0000
0100
0000
,
0001
0000
1000
0100
0010
0000
0001
0000
0010
0000
0011
0000
0001
0000
0101
0000
,
0001
0100
1000
0100
0001
0000
1000
0100
0001
0100
1000
0000
0010
0100
0001
0010
,
0001
0000
0100
0010
1000
0000
0100
0010
0001
0000
1000
0100
1000
0000
0001
0100
,
0001
0000
0100
0010
1000
0000
0100
0000
1000
0000
0010
0000
0010
0000
0010
0000
,
1000
0000
0100
0010
0001
0000
1000
0010
0100
0000
0001
0010
0001
1000
0010
0100
,
0002
0000
0000
0100
0100
0010
0010
0000
,
0013
0000
0100
0000
0110
0000
0000
1001
0000
0000
1010
0000
0101
0000
0001
1000
,
0001
0000
1000
0000
1100
0000
0000
0011
0000
0000
1001
0000
1000
0010
1000
0000
,
0010
0000
0100
0000
0110
0000
0000
1001
0000
0000
0011
0000
1100
0000
1000
0001
,
1000
0001
0101
1010
0220
0000
0000
0330
,
1001
0000
0000
0000
1100
0000
0000
0101
0000
0000
0011
0000
0000
1010
0000
0000
,
0101
0000
0000
1100
0000
0000
1010
0000
0000
0011
0000
0000
0110
0000
1001
0000
,
1000
0100
1000
0000
0001
0100
0001
0000
0010
0100
0010
0100
1000
0001
1000
0001
,
0100
0000
0010
0100
0000
0010
1000
0000
0001
1000
0001
0000
0010
0000
0100
0000
,
2000
0000
3000
0000
1010
0000
1000
0100
0001
0000
0200
0000
0310
0000
0000
0000
,
0011
0000
0001
1000
0010
0000
0200
0000
0300
0000
0001
1000
0010
0000
0110
0000
,
0001
0000
1000
0100
0010
0000
0010
0001
1000
0000
0010
0000
0110
0000
2001
0000
,
0000
0000
3100
0010
0001
0000
1000
0010
0100
0000
0001
0000
1000
0100
1000
0100
,
0010
0000
0011
0000
0001
1000
0001
0100
0001
0000
2000
0000
3100
0000
0002
0000
,
0103
0000
0000
0000
0010
0000
0001
0000
1000
0000
0000
0000
0010
0000
0000
0000
1010
0000
0000
0000
0011
0000
0000
0000
0000
0000
0000
1100
0000
0000
0000
0000
,
0101
0000
1000
0001
0100
0000
0010
1000
0010
1000
0001
0000
1100
0000
0202
0000
,
0303
0000
1000
0100
0010
0000
0001
0100
0010
0000
1000
0100
0010
0001
0010
0001
,
1000
0001
0010
0100
0010
1000
0010
0010
,
0100
0000
0000
1000
0000
0000
0001
0000
0000
0100
0000
0000
0010
0000
0000
1000
0001
1000
0010
0000
0000
1000
0000
0000
,
0020
0001
0000
0100
1000
1030
0001
0020
,
0000
0230
0000
2300
0000
3001
0200
0000
,
0301
1000
0010
0100
0010
0001
0010
0010
,
0100
0000
0000
0001
0000
0000
1000
0000
0000
0100
0000
0000
1000
0000
0000
0001
0010
0100
0010
0000
0000
0100
0000
0000
,
2000
0000
0000
0000
0000
0000
3001
0000
0100
0000
0010
0000
0100
0000
0000
0000
0000
0000
0010
0000
0000
0000
0000
0000
1000
0000
0000
0000
0000
0000
0001
0000
0000
0010
0000
0000
0100
0000
0000
0000
0000
0000
1000
0000
0000
0000
0000
0000
,
1002
0000
0000
0000
0103
0000
0010
0000
1000
0001
0010
1000
0020
0000
0000
0000
,
0031
0000
0100
0000
0010
0000
1000
0100
0010
0000
0100
0000
0001
0000
0200
0000
,
0000
1300
1010
0000
0110
0000
0101
0000
,
1000
0000
0100
0000
0010
0000
0001
0100
0010
0000
0100
0000
1000
0000
0200
0000
,
0000
0310
1000
0100
0001
1000
0010
0001
,
0200
0010
0010
0310
,
2000
0001
0001
3001
,
1001
0000
0001
0100
1000
0000
1000
0010
0001
0000
0001
0100
1000
0000
1000
0010
,
0001
1000
1001
0000
0110
0000
1001
0000
,
0110
0001
1100
0000
0011
0100
1010
0110
,
1001
0000
1100
0110
0011
1001
0110
0110
,
0101
0010
1001
0000
0101
1000
1100
0110
,
1001
1001
0101
1001
1100
1100
1001
0000
,
0210
0000
0310
0101
1100
0000
0110
0000
,
1001
1000
1100
0110
0011
0110
1001
0001
,
0102
0000
0000
0000
1003
0100
0001
0000
2100
0000
0000
0000
3001
0100
1000
0100
,
0001
0010
1100
0010
0101
1100
0101
0000
,
2000
0100
0010
0100
3010
0000
1010
0001
,
0100
0000
0110
0000
0110
0000
0000
0000
0101
0000
0000
0001
1000
0000
0000
0000
,
0002
0010
0100
0010
0103
0000
0011
1000
,
0100
0110
0110
0000
0001
0001
0100
0100
,
1000
0100
0001
0000
1000
0100
0001
0000
,
0100
0000
0010
0001
0100
0000
0010
1000
0100
0010
0001
0100
0010
0000
1000
0001
,
1000
0000
0100
0001
0000
0100
1000
0000
0010
0001
0000
0010
1000
0000
0001
0000
,
1000
0100
1000
0100
0001
0100
0001
0100
1000
0010
1000
0010
0001
0010
0001
0010
,
1000
0001
1000
0001
0010
0000
0010
0000
0010
0001
1000
0001
0200
0000
0010
0000
,
0301
0000
0000
0000
0000
0000
1000
0000
0000
0100
0000
0000
0010
0000
0000
0000
0000
0000
0001
0000
0000
0100
0000
0000
0010
0000
0000
0000
0000
0000
1000
0000
0000
0000
0000
0000
0011
0000
0000
0000
0000
0000
0010
0000
0001
0000
0010
0000
,
0001
0000
1000
0000
0010
0000
0010
0000
0010
1000
0001
1000
0200
0000
0010
0000
,
1300
0000
0000
0000
0000
0000
0001
0000
0000
0100
0000
0000
0010
0000
0000
0000
0000
0000
1000
0000
0000
0100
0000
0000
0010
0000
0000
0000
0000
0000
0001
0000
1000
0000
0010
0000
0100
0000
0000
0001
0000
0000
0100
0000
0000
0001
0000
0000
,
1000
0000
2100
0000
3010
0000
0012
0000
0103
0000
2100
0000
3010
0000
0100
0010
,
0110
0000
0000
0000
0000
0000
0102
0000
0000
0000
0000
0000
0013
0000
0000
0000
0000
0000
2010
0000
0000
0000
0000
0000
3100
0000
0000
0000
0000
0000
0010
0000
0000
0001
0000
0000
1001
0000
0000
0000
0000
0000
1000
0000
0010
0000
1000
0000
,
0010
0000
0000
0000
0000
0000
0010
0000
0000
0000
0000
0000
0010
0000
0000
0000
0000
0000
0100
0000
0000
0001
0000
0000
0010
0000
0000
0000
0000
0000
0010
0000
0000
0000
0000
0000
0010
0000
0000
0000
0000
0000
0100
0000
1000
0000
0100
0000
,
2000
0000
3100
0010
0002
0000
0103
0010
0002
0000
0013
0100
0001
1000
0010
1000
,
0001
0010
0100
0001
0100
1000
0001
0100
,
0010
1000
0001
0010
0100
0100
1001
0000
,
1100
0000
0011
0000
1100
0000
0101
0000
1010
0000
0101
0000
1100
0000
0001
0100
,
0001
0000
0000
0000
0000
0000
1000
0000
0100
0000
1000
0000
0001
0000
0000
0000
0000
0000
1000
0000
0000
0100
0000
0000
0010
0000
0000
0001
0000
0000
0100
0000
0000
0010
0000
0000
1000
0000
0001
0000
1000
0000
0001
0000
1000
0000
0001
0000
,
1000
0010
0100
1000
0100
0001
1000
0100
,
0010
0001
1000
0010
0100
0100
1001
0000
,
0001
0000
0000
0100
0000
0000
0001
0000
0000
0010
0000
0000
0001
0000
0000
1000
0000
0000
0100
0000
0000
1000
0000
0000
0010
0000
1000
0000
0001
0000
0100
0000
0000
0010
0000
0000
1000
0000
0000
0100
0000
0000
0010
0000
0000
0001
0000
0000
,
2000
0000
0000
0000
3001
1000
0010
0100
0001
0010
0100
1000
0002
0000
0000
0000
,
1003
0001
0101
0001
0010
0011
0001
0101
,
0001
1000
1010
1000
1100
1010
0120
0000
,
1030
0001
0011
0010
0100
0110
0100
1100
,
0001
0000
1000
0000
1000
0100
0010
0001
0011
0000
0000
0000
1010
0000
0000
0000
,
1000
0001
0010
0000
0100
0000
1000
0000
0001
1000
0100
0000
0010
0000
0001
0000
,
1000
0001
0100
0000
0001
0010
0100
0000
0010
0001
1000
0000
0010
0100
0001
0000
,
1000
0010
0100
0001
0010
0100
0010
0001
1000
0010
0100
0001
0010
0100
1000
0001
,
0100
0110
1001
0110
,
1100
0100
0110
0010
0011
1100
0101
0000
,
1010
0000
1000
0100
0001
0000
0101
0000
0110
0000
0000
0000
1001
0000
0001
0000
,
0011
0000
0010
0100
1000
0000
0010
0000
1010
0000
0010
0100
0001
0000
1000
0000
,
1001
0000
0001
0010
1000
0000
0001
0100
1000
0000
0010
0000
0210
0000
0000
0000
,
0310
1000
0100
0000
0010
0000
1000
0000
0010
0001
0100
0000
0010
0000
0001
0000
,
1000
0100
0010
0000
1000
0000
0100
0000
0001
0100
0010
0000
0001
0000
1000
0000
,
0010
1000
0100
0010
0001
0100
0010
1000
0100
0001
0100
1000
0010
0001
0010
1000
,
0001
0010
0100
2000
0000
0000
3010
0000
;

//---------------dance-double - ZIv Step Team----------------
#NOTES:
     dance-double:
     :
     Easy:
     11:
     :
00000000
00000000
00000000
00000000
,
00000000
00000000
00000000
00000000
,
00022000
00033000
00000000
00000000
,
00010000
00000000
00010000
00000000
00010000
00000000
00001000
00010000
,
00001000
00000000
00001000
00000000
00000100
00000010
00000100
00000010
,
00000100
00000000
00000100
00000000
00000001
00001000
00000001
00000000
,
00000010
00000000
00000000
00000010
00000000
00000000
00001000
00000000
,
00010000
00000000
00010000
00000000
00100000
00000000
00100000
01000000
,
00100000
00000000
10000000
00010000
00000000
10000000
00010000
00000000
,
10000000
01000000
00020000
00032000
,
00023000
00030000
00000000
00000000
,
00011000
00001000
00001000
00000010
,
00000010
00000001
00000001
00000100
,
00000110
00000010
00010000
00001000
,
01000000
00000000
00000000
00000000
00100000
00000000
00000000
00000000
10000000
00000000
00000000
10000000
00000000
00000000
10000000
00000000
,
00010000
01000000
00001000
00010000
,
00000100
00001000
00000001
00000100
,
00001000
00010000
00001000
00010000
00001000
00010000
00001000
00010000
,
02000000
00000000
00100000
03100000
,
00000000
01000000
00000000
10000000
00000000
00100000
00000000
00010000
,
00000000
00001000
00000000
00000010
00000000
00000001
00001000
00000001
,
00000000
00000100
00000000
00001000
00000000
00010000
00000000
01000000
,
00100000
00000000
00010000
10000000
00000000
00100000
00020000
00000000
,
00030010
00001000
00000000
00000100
00000000
00000001
00000000
00000100
,
00000000
00001000
00000000
00010000
01000000
00100000
10000000
00000000
,
02000000
03020000
00032000
00003020
,
00000031
00000100
00000010
00001001
,
00000200
00010000
00010300
00001000
,
02000000
00000000
00000000
00000000
03010000
00000000
00000000
10000000
00000000
00000000
00010000
00000000
00100000
00000000
00000000
00000000
,
00002000
00010000
00013000
00000010
,
00000200
00000301
00002000
00000000
,
00003100
00000000
00000000
00000000
00010000
00000000
00000000
00001000
00000000
00000000
01000000
00000000
00000000
00100000
00000000
00000000
,
10000000
00000000
00000000
01000000
00000000
00000000
00010000
00000000
00000000
00001000
00000000
00000000
00000010
00000000
00000001
00000000
,
00000000
00000100
00000000
00001000
00000000
00100000
01000000
00100000
,
00010000
00000000
00000000
01000000
00000000
00000000
01100000
00000000
,
10000000
01000000
00100000
00010000
,
01000000
00100000
00000000
00010000
,
00010000
00100000
00010000
00001000
,
00000100
00000010
00001000
00000000
,
00000001
00000010
00000001
00000100
,
00000010
00001000
00000100
00000000
,
00000100
00000010
00000001
00000000
,
00001000
00000100
00000100
00001100
,
00000001
00000100
00001000
00000100
,
00000001
00001000
00000100
00010000
,
00002000
00000000
00000000
00000000
01003000
00000000
00100000
10000000
,
00000000
00010000
00000000
10000000
00000000
01000000
00100000
00000000
,
00001000
00010000
00001000
00000100
,
00000001
00001000
00000001
00000010
,
00000200
00000000
00010300
00001000
,
01000000
00010000
00200000
00300000
,
00002000
00000000
00000000
00003000
,
00020000
00000000
00000000
00030000
,
00000200
00000000
00000000
00000300
,
00000020
00000000
00000000
00000030
,
00000001
00000001
00000001
00000001
,
00001000
00001000
00001000
00001000
,
00000100
00000100
00010000
00010000
,
00002000
00000000
00000000
00003000
,
01000000
20100000
00010000
31000000
,
00100000
00010000
00001000
00000010
,
00000100
00001020
00000100
00001030
,
00000001
00000010
00000100
00001000
,
00000000
00011000
00012000
00000000
,
01003000
00010000
00110000
00000000
,
11000000
00000000
00101000
00000000
,
00021000
00001000
00001000
00031000
,
00010000
01000000
10000000
01200000
,
10300000
01000000
00010000
00000010
,
00001000
00000100
00000001
00000120
,
00000031
00000000
00000100
00000000
00001000
00010000
00001000
00000000
,
01000000
01001000
00000100
00010100
,
00000010
00001000
00000100
00000000
00010000
00001000
01000000
00000000
,
00100000
00000000
00000000
00010000
00000000
00000000
00100000
00000000
00000000
10000000
00000000
00000000
00100000
00000000
00000000
00000000
,
00010000
00001000
00010000
00001000
00000010
00000100
00000010
00000000
,
00000001
00000000
00001000
00000100
00000010
00000000
00001000
00000000
,
00010000
01000000
10000000
01100000
,
10000000
00000000
00010000
01000000
00100000
00000000
00010000
00000000
,
00001000
00000000
00000100
00000000
00000001
00000000
00001000
00001000
,
00000000
00000110
00000000
00001001
00000000
00000110
00000000
00010000
,
00000000
00011000
00000000
01000000
00000000
10000000
10000000
00000000
,
00010000
00100000
00001000
00000000
00100000
00001000
00010000
00000000
,
00002000
00003020
00000032
00000203
,
00001300
00000000
00011000
00000000
,
00010000
00000000
01000000
00000000
10000000
10000000
00010000
00000000
,
10000000
01000000
00010000
00001000
,
00000100
00000001
00000010
00000100
,
00010000
00000000
00011000
00001000
,
00000100
00000000
00000001
00000000
00001000
00001000
00000001
00000000
,
00000010
00000000
00001000
00010000
00000000
00001000
00010000
00000000
,
01000000
00000000
10000000
00010000
10000000
00010000
01000000
00000000
,
10010000
00010000
00100000
00001000
,
00011000
00000000
00010000
00000000
00000100
00001000
00000010
00000000
,
00000110
00000100
00000001
00000010
,
00000110
00000000
00000100
00001000
00000010
00000000
00001010
00000000
,
00001100
00000100
00010100
00001000
,
00011000
00101000
00110000
01100000
,
01000000
10000000
00100000
01000000
,
00000000
01010000
00110000
00011000
,
00001000
00000000
00000010
00000000
00000001
00001000
00000001
00000000
,
00000100
00000010
00001000
00011000
,
00100000
00000000
00001000
00010000
00000010
00000000
00000100
00000000
,
00000101
00000110
00010010
00002000
,
00013000
01000000
00100000
00000000
00010000
10000000
01000000
00000000
,
00100000
00001000
00010000
00000000
00000010
00000100
00000001
00000000
,
00000010
00000100
00010000
00001000
,
01000000
00010000
00100000
00002000
00000000
00000000
00013000
00000000
;

//---------------dance-double - ZIv Step Team----------------
#NOTES:
     dance-double:
     :
     Medium:
     14:
     :
00000000
00000000
00000000
00000000
,
00000000
00000000
00000000
00000000
,
00022000
00033000
00000000
00000000
,
00011000
00000000
01001000
00000000
01010000
00000000
01000000
00100000
,
10000000
00000000
11000000
00000000
01000000
00100000
00001000
00001000
,
00010000
00000000
00011000
00000000
00010010
00000010
00000100
00000001
,
00000010
00000100
00000100
00000010
00000001
00000001
00001000
00000000
,
00001100
00000000
00011000
00000000
01010000
00000000
01000000
00100000
,
10000000
00000000
10000000
01000000
00000000
00010000
01000000
00000000
,
00100000
00000000
00000000
00100000
00000000
00000000
00001000
00000000
00000000
00001000
00000000
00000000
00010000
00000000
00001000
00000000
00010000
00000000
00001000
00000000
00010000
00000000
00001000
00000000
,
00020000
00030000
00000000
00000000
,
01001000
00000000
01000000
00000000
00001000
00000000
00000010
00000001
,
00000010
00000000
00000100
00000100
00000100
00000000
00001000
00000010
,
00010000
00001000
00100000
00010000
10000000
00100000
10000000
01000000
,
00010000
00000000
00001000
00000000
00000100
00000000
00000001
00000000
00000010
00000000
00000000
00000010
00000000
00000000
00000010
00000000
,
00000100
00010000
00000100
00010000
01000000
00010000
01000000
00010000
,
00001000
01000000
00010000
10000000
01000000
00100000
00001000
00010000
,
00100000
00000000
00010000
00000000
00000010
00000000
00001000
00000000
00000100
00000000
00000010
00000000
00000001
00001000
00000001
00000000
,
00002002
00000000
00000000
00003003
,
00000001
00000100
00000010
00001000
00000000
00001100
00000000
00011000
,
00000000
00000000
01010000
00000000
00000000
00000000
01100000
00000000
00000000
00000000
10000000
00010000
10000000
00000000
01000000
00000000
,
00000000
00110000
00000000
00011000
00000000
00001010
00000000
00000001
,
00000200
00000000
00001300
00020000
00000000
01030000
00100000
00100000
,
00010000
00100000
01000000
00100000
00000000
00010000
00001000
00000010
,
00000001
00000000
00000010
00010000
00001000
01000000
00010000
00000000
,
10000000
01000000
10000000
00000000
01000000
00010000
00001000
00000000
,
00000020
00000032
00001003
00001001
,
00000100
00000000
00000000
00000000
00000010
00000000
00000000
00000110
00000000
00000000
00001001
00000000
00000000
00000000
00000000
00000000
,
00000100
00000000
00000000
00000000
00010000
00000000
00000000
00001000
00000000
00000000
00011000
00000000
00000000
00000000
00000000
00000000
,
01000000
00000000
00100000
00000000
10000000
00000000
00000000
10010000
00000000
00000000
01100000
00000000
00000000
00000000
00000000
00000000
,
10000000
01000000
00010000
00000000
00000010
00000220
00000000
00000000
,
00000330
00000000
00000000
00000000
00000001
00000000
00000000
00000101
00000000
00000000
00001000
00000000
00000000
00001100
00000000
00000000
,
00000100
00000000
00000000
00010100
00000000
00000000
00001000
00000000
00000000
00011000
00000000
00000000
00100000
00000000
00010000
00000000
,
01000000
10000000
00000000
01000000
00010000
00001000
00000000
00000010
,
00001000
00000000
00000000
00100000
00000000
00000000
10000000
00000000
01000000
00000000
00000000
00000000
01100000
00000000
00000000
00000000
,
20000000
00000000
30100000
00010000
00001000
00010000
00001000
00000100
,
00000010
00000010
00001000
00000002
00000000
00000100
00000103
00000000
,
00001001
00000000
00000001
00001000
00000100
00001000
00000010
00020000
,
00000000
00000000
00001000
00000000
00031000
00000000
00100000
00010000
00100000
00000000
00001000
00000000
01000000
00000000
00000000
00000000
,
00010000
10000000
01000000
00100000
00010000
00200000
00000000
00302000
,
00000000
00000000
00000000
00000000
00013000
00000000
00000000
00000000
00000010
00000000
00000000
00000000
00000100
00000000
00000000
00000000
00000001
00000000
00000000
00000000
00001000
00000000
00000000
00000000
00000000
00000000
00000000
00000101
00000000
00000000
00000000
00000000
,
00002100
00000000
00013000
00100000
10000000
10000000
01000000
00200000
,
00000000
00310000
01000000
00010000
00101000
00000000
00001010
00000000
,
00000001
00000100
00000010
00001000
00000020
00000000
00010030
00000100
,
00010000
00000000
00001000
00000000
00100000
00000000
00010000
00000000
00100000
00000000
01000000
00100000
01000000
00000000
10000000
00000000
,
00020000
00000000
00000000
00000000
10030000
00100000
00010000
00200000
,
00000000
02300000
00000000
03002000
00000000
00013000
00001000
00000000
,
00010000
00000010
00001000
00000010
00000200
00000000
00000301
00001000
,
00000001
00000000
00000010
00000000
00000100
00000000
00001000
00000000
00000100
00000000
00010000
00000100
00010000
00000000
00001000
00000000
,
01000000
00000000
00010000
01000000
00010000
00000000
01000000
00000000
00100000
00000000
10000000
00010000
10000000
00000000
00100000
00000000
,
02000000
00000000
00000000
00000000
03001000
00000000
00010000
00000000
00001000
00010000
00001000
00000000
00020000
00000000
00000000
00000000
,
00030020
00000000
00001030
00000001
00000100
00000010
00001000
00000200
,
00000000
00010300
00001000
00000000
00100000
00000000
00010000
00000000
,
00200000
00000000
00310000
10000000
01000000
00100000
00010000
02000000
,
00000000
03001000
00010000
00001000
00000100
00000001
00000010
00000100
,
00001000
00000001
00000100
00001000
,
00010000
00001000
00100000
00010000
,
01000000
01000000
00001000
00001000
00100000
00100000
00010000
00010000
,
10000000
00010000
10000000
00000000
00010000
00000000
10010000
00000000
,
10000000
00010000
00200000
00000000
00001000
00000000
00310000
00000000
,
00100000
00010000
00001000
00000000
00000010
00000000
00000100
00000001
,
00000010
00000001
00002000
00000000
00000100
00000000
00003001
00000000
,
00000100
00001000
00010000
00000000
00100000
00000000
01010000
00000000
,
02000000
00000000
03100000
10000000
01000000
00000000
00100000
00000000
,
00010000
00001000
00000010
00000000
00001000
00010000
00100000
00000000
,
11000000
00000000
01000000
00010000
00001000
00000000
00010000
00001000
,
00020000
00000010
00000100
00031000
,
00010000
00001000
00000100
00000001
00000010
00000000
00000100
00010000
,
00002000
00000100
00010000
00003010
,
00001000
00010000
01000000
10000000
00100000
00000000
00010000
00001000
,
00200000
00000000
10000000
00000000
00010000
00010000
00310000
00000000
,
00100000
00001000
00010000
00000000
00000010
00010000
00001000
00000000
,
00000100
00000000
00001000
00000000
00010000
00100000
00010000
00000000
,
00000010
00000000
00000000
00001000
00000000
00000000
00000100
00000000
00000000
00010000
00000000
00000000
00100000
00000000
00000000
00000000
,
10000000
01000000
00010000
00001000
00000100
00000001
00000020
00000000
,
00000130
00010000
00001000
00001000
00001000
00000000
01001000
00000000
,
00001100
01001000
00001100
00011000
,
00100000
00001000
00010000
00010000
00010000
00000000
00010010
00000000
,
00110000
00010010
00110000
00011000
,
00001000
00000000
00100000
00000000
01000000
00000000
00100000
00000000
00001000
00000000
00100000
00000000
01000000
00000000
00100000
00001000
,
00010000
00000000
00000010
00000000
00000100
00000000
00000010
00000000
00010000
00000000
00000010
00000100
00000001
00000000
00001000
00000000
,
00000100
00000010
00000100
00000010
00001000
00010000
00001000
00010000
,
01000000
00000000
10000000
01000000
10000000
00000000
00010000
00100000
00010000
00000000
10000000
00000000
00100000
00000000
01000000
00000000
,
00001000
00000000
00010100
00000100
,
00000010
00000000
00000010
00000000
00000001
00000001
00001000
00000000
,
00000010
00000000
00010000
00010000
00000000
00001000
00001000
00000000
,
00100000
00000000
01000000
01000000
00000000
10000000
10000000
00000000
,
00100000
00011000
00000100
00011000
,
00000010
00000000
00000100
00000000
00000001
00000001
00000010
00000000
,
00000100
00000000
00010000
00000000
00001000
00000000
00100000
00000000
00010000
00000000
10000000
00000000
00100000
00000000
10000000
00010000
,
20000000
00000000
00000000
00000000
30100000
00000000
01000000
00000000
00001000
00010000
00001000
00000000
00100000
00000000
00000000
00000000
,
21000000
01000000
00100000
30010000
,
02010000
00100000
03010000
00110000
,
00201000
00010000
00001000
00310000
,
00021000
00000000
00030100
00001000
00001010
00000000
00000101
00000000
,
00001001
00000010
00001001
00000100
,
00001010
00010010
00011000
00101000
,
00001000
00100000
00010000
00100000
00001000
00010000
00000010
00000100
,
00000001
00000011
00001100
00001001
,
00000101
00000000
00000001
00000100
00001000
00010000
00100000
00000000
,
10000000
00000000
00100000
10000000
00100000
00000000
01000000
00000000
00010000
00000000
00000000
00000000
00110000
00000000
00000000
00000000
,
00011000
00000010
00011000
00100000
,
00011000
00001010
00000011
00000002
,
00000103
00000001
00000010
00001000
00010000
01000000
10000000
00100000
,
01000000
00010000
01000000
00100000
00010000
00000010
00000100
00000001
,
00000100
00001000
00010000
00100000
10000000
01000000
00010000
00001000
,
00000010
00000001
00001000
00000020
00000000
00000000
00000130
00000000
;

//---------------dance-double - ZIv Step Team----------------
#NOTES:
     dance-double:
     :
     Hard:
     18:
     :
00000000
00000000
00000000
00000000
,
00000000
00000000
00000000
00000000
,
00022000
00033000
00000000
00000000
,
01001000
00000000
11000000
00000000
00101000
00000000
00011000
00011000
,
00010100
00000000
00000000
00000000
00000101
00000000
00000000
00000000
00001010
00000000
00001010
00000000
00010010
00000000
00010000
00001000
,
00010000
00000000
00000000
00000000
01100000
00000000
00000000
00000000
10010000
00000000
10010000
00000000
11000000
00000000
01000000
00100000
,
00010000
00000000
00100000
00000000
01000000
00000000
00010000
00000000
00001000
00010000
00001000
00010000
00000010
00000000
00000000
00000000
,
00000110
00000000
00000000
00000000
00010010
00000000
00000000
00000000
00101000
00000000
00000000
00000000
01100000
00000000
00100000
00010000
,
10000000
00000000
01100000
00010000
00001000
00000110
00001001
00000000
,
00000101
00000000
00000000
00000100
00000000
00000000
00001100
00000000
00000000
00001000
00000000
00000000
00011000
00000000
00010000
00000000
00100000
00000000
10000000
00000000
01000000
00000000
00010000
00000000
,
00002000
00003000
00000000
00000000
,
00011000
00000000
00001000
00000000
00000010
00000000
00000001
00001000
,
00000001
00000000
00000000
00000000
00000100
00000000
00001000
00010000
00001000
00010000
00001000
00000000
00100000
00000000
01000000
10000000
,
01000000
00100000
00001000
00010000
00000100
00000010
00001000
00010000
,
00100000
00000000
01000000
00000000
00001000
00000000
00010000
00000000
00000010
00000000
00000000
00000100
00000000
00000000
00001000
00000000
,
00010000
01000000
10000000
00100000
00010000
00100000
00001000
00000010
,
00001000
00000000
00000100
00000000
00000010
00000000
00000001
00000000
00000100
00000001
00000100
00000000
00000010
00001000
00000010
00000000
,
00010000
00001000
00010000
00000000
00000100
00001000
00000100
00000000
00010000
00001000
00010000
00001000
01000000
00010000
01000000
00010000
,
20000000
00000000
00000000
00000000
01000000
01000000
31000000
00000000
,
10000000
00100000
00010000
00001000
00000000
00001000
00000000
00001000
,
00000010
00000000
00001000
00000000
00010000
00000000
00001000
00000000
00000100
00000000
00000001
00001000
00000100
00000000
00010000
00000000
,
00001000
00010000
00100000
00010000
00000000
00010000
00000000
00010000
,
00001000
00000010
00000100
00000010
00001000
00000000
00010000
00100000
01000000
00100000
00010000
00000000
00001000
00010000
00001000
00010000
,
01000000
00000000
10000000
00010000
10000000
00000000
00100000
00000000
00000000
00000000
00100000
00000000
00000000
00000000
00100000
00000000
,
00010000
00001000
00000010
00000001
00000100
00001000
00010000
00100000
,
10000000
00000000
10000000
00000000
01000000
00000000
01000000
00000000
00010000
00000000
00010000
00000000
00000010
00000100
00000010
00000100
,
00000020
00000000
00000000
00001000
00001030
00000000
00001001
00000000
,
00000001
00000000
00000100
00000000
00000110
00000000
00000000
00001010
00000000
00000000
00001100
00000000
00001000
00000000
00000100
00000000
,
00010000
00000000
00001000
00000000
01001000
00000000
00000000
01100000
00000000
00000000
10100000
00000000
20000000
00000000
00000000
00000000
,
30010000
00000000
00000000
00000000
01100000
00000000
00000000
00101000
00000000
00000000
00011000
00000000
00010000
00000000
00000100
00000000
,
00000001
00000100
00000010
00000001
00000200
00000000
00010300
00000000
,
00100000
00000000
00000000
00000000
00110000
00000000
00000000
10010000
00000000
00000000
11000000
00000000
00000000
01100000
00000000
00000000
,
00101000
00000000
00000000
00011000
00000000
00000000
00010010
00000000
00000000
00000110
00000000
00000000
00000001
00000000
00000100
00000000
,
00000001
00000010
00000001
00000000
00000010
00000000
00001000
00000000
00100000
00010000
00100000
00010000
01000000
00100000
01000000
00100000
,
20000000
00000000
00000000
01000000
00000000
00000000
31000000
00000000
00100000
00000000
00000000
00000000
10010000
00000000
00000000
00000000
,
20000000
00000000
00000000
00000000
30010000
01000000
00010000
00000000
00100000
00000000
00001000
00000000
00010000
00000000
00001000
00000100
,
00001000
00000000
00000100
00000000
00000010
00000000
00002000
00000000
00000000
00000000
00003100
00000010
00000001
00000000
00000100
00000000
,
00000101
00000000
00001000
00000000
00000010
00001000
00000100
00000000
00010000
00001000
00010000
00000000
00001000
00000000
00200000
00000000
,
00000000
00000000
01300000
10000000
00100000
00000000
01000000
00000000
00010000
10000000
00010000
00000000
01010000
00000000
00000000
00000000
,
00010000
00000000
10000000
00000000
01000000
00100000
01000000
00000000
00010000
00000000
00002000
00000000
00013000
00000000
00002000
00000000
,
00003100
00000000
00000000
00000000
00000010
00000000
00000000
00000000
00001000
00000000
00000100
00000000
00000010
00000000
00000000
00000000
00000011
00000000
00000000
00000000
00001100
00000000
00000000
00000000
00000000
00000000
00000000
00000101
00000000
00000000
00000000
00000000
,
00020200
00000000
00030300
00000000
00000100
00010000
00001000
00000000
00100000
00010000
00100000
00000000
00001000
00000000
02000000
00000000
,
00000000
00000000
03010000
00000000
10000000
01000000
00100000
00000000
01000000
00100000
00010000
00000000
10010000
00000000
00000000
00000000
,
10000000
00100000
00010000
00100000
10000000
00010000
00100000
00001000
,
00010000
00000000
00001000
00000000
00000100
00000000
00001000
00000000
00010000
00000000
00000010
00001000
00000001
00000000
00000100
00000000
,
00000120
00002030
00000000
00003001
00000010
00000100
00000010
00002000
,
00000000
00023000
00000000
00030020
00000000
00010030
00002000
00000000
,
00013000
00100000
00010000
00001000
00010000
00100000
10000000
00010000
,
10000000
00000000
01000000
00000000
00010000
00000000
01000000
00000000
10000000
00000000
00010000
01000000
00100000
00000000
01000000
00000000
,
01100000
00000000
00100000
10000000
00010000
00000000
01000000
00000000
00001000
00000000
00001000
00010000
00001000
00000000
00010000
00000000
,
00000020
00000000
00000000
00000000
00000130
00000000
00000010
00000000
00000100
00000001
00001000
00000001
00000020
00000000
00000000
00000000
,
00000130
00010000
00001000
00000010
00000001
00000100
00000010
00002000
,
00000000
00010000
00013000
00000000
00100000
00000000
00010000
00000000
,
01000000
00001000
00010000
00100000
10000000
01000000
00100000
00020000
,
00000000
10030000
01000000
00100000
00010000
00001000
00000100
00000010
,
00000002
00001000
00001000
00001003
,
00000200
00000010
00000010
00000310
,
00000001
00000000
00001000
00000010
00000100
00000000
00000010
00010000
00001000
00000000
00010000
00001000
00100000
00000000
00010000
10000000
,
00100000
10000000
10010000
00000000
01100000
00000000
10010000
00000000
,
01010000
00101000
00011000
00010010
,
00000100
00000001
00000010
00001000
00000010
00000100
00010000
00001000
,
00011000
00010100
00011000
01001000
,
01000000
00010000
01000000
10000000
01000000
00001000
00101000
00000000
,
00021000
00000000
00030010
00000100
00000101
00000000
00001100
00000000
,
00000100
00010000
00001000
01000000
01100000
00000000
10000000
10000000
,
02100000
00000000
00000000
00000000
03001000
00010000
00001000
00000000
00021000
00000000
00000000
00000000
00030010
00000100
00000010
00000100
,
00000010
00001000
00010000
00100000
00010000
01000000
10100000
00000000
,
10000000
01000000
00010000
00000100
00001000
00000000
00000011
00000001
,
00000100
00001001
00001100
00000011
,
00000001
00000100
00001000
01000000
00010000
00000000
10100000
10000000
,
01000000
00100000
00010000
00000000
01000000
00001000
00000100
00000000
,
00000010
00001000
00000100
00000000
00010000
00100000
01000000
00000000
,
00010000
00000000
10000000
00100000
10000000
00000000
01000000
00000000
00010000
00000000
00001000
00000000
00000010
00000000
00000000
00000000
,
00000001
00000000
00000100
00001000
00000000
00001000
00010000
00000000
00010000
00100000
00000000
00100000
10000000
00000000
00010000
00000000
,
01000000
00001000
01000000
00000000
00001000
00010000
00001000
00000000
00010000
00000100
00010000
00000000
00000100
00000000
00000000
00000000
,
00001000
00000001
00001000
00000001
00000100
00000000
00000100
00000000
00000100
00000000
00000000
00000000
00001002
00000000
00000013
00000000
,
00001000
00000000
00000000
00000000
00011000
00000000
00000000
00000000
00001001
00000000
00000000
00000000
00011000
00000000
00001000
00010000
,
00001000
00100000
01000000
01000000
01000000
00000000
20010000
30100000
,
00010000
00000000
00000000
00000000
00011000
00000000
00000000
00000000
00000110
00000000
00000002
00000000
00001003
00000100
00001000
00000100
,
00000010
00000000
00001000
00000000
00100000
00000000
00001000
00000000
00000010
00000000
00001000
00000000
00100000
00000000
00010000
10000000
,
00010000
00000000
00100000
00000000
00001000
00000000
00000010
00000000
00001000
00000000
00100000
00001000
00010000
00000000
00000010
00000000
,
00000100
00000000
00000001
00000000
00000010
00000000
00001000
00000000
00010000
00000000
01000000
00000000
10000000
00010000
10000000
00000000
,
00100000
00000000
01000000
00010000
01000000
00000000
00001000
00010000
00001000
00000000
01000000
00010000
10000000
00010000
01000000
00001000
,
00010000
00000010
00000100
00001000
00000100
00000010
00001000
00000001
,
00000010
00000100
00010000
00001000
00100000
00100000
01000000
00000000
,
10000000
00000000
01000000
00000000
00100000
00000000
00001000
00000000
00010000
00000000
00000100
00000000
00000010
00000000
00000001
00001000
,
00000001
00000000
00000010
00000000
00001000
00000000
00010000
00001000
00010000
00000000
01000000
00000000
20000000
00000000
00000000
00000000
,
30010000
01000000
00100000
00010000
00000010
00010000
00001000
00000010
,
00000100
00000001
00000100
00001000
00000010
00000010
00001001
00000000
,
00000001
00000100
00000001
00001000
00000010
00001000
00000100
00010000
00001000
01000000
00010000
00100000
00010000
10000000
01000000
10000000
,
00200000
00000000
00000000
00000000
00310000
00000000
00011000
00000000
00001000
01000000
00010000
01000000
00200000
00000000
00000000
00000000
,
10300000
00010000
00100000
00001000
00100000
00001000
00010000
00000000
,
00010000
00000100
00001000
00000100
00001000
00000001
00000101
00000000
,
00000001
00000100
00000010
00001000
00000010
00001000
00001100
00000000
,
00000100
00000000
00010000
00000000
00001000
00100000
00001000
00100000
00002000
00000000
00000000
00000000
01003000
00000000
00000000
00000000
,
01100000
00000000
10100000
00000000
10010000
00000000
00100000
00110000
,
00000000
00001010
00000000
00010000
00011000
00000000
00101000
00000000
,
00001000
00010000
00001000
00010000
00001000
00010000
00001000
00010000
00001000
00010000
00001000
00010000
00001000
00010000
00001000
00010000
,
00000000
00011000
00010100
00000110
,
00000011
00000001
00001000
00000100
00001100
00000000
00011000
00000000
,
00001000
00000000
00100000
00010000
00100000
00000000
01000000
00000000
10000000
00000000
00000000
00000000
10100000
00000000
00100000
00000000
,
01000000
00000000
00010000
01000000
01010000
01000000
00100000
00000000
,
10000000
00000000
01000000
00100000
00010000
00000000
00100000
00001000
00010000
00000000
00000010
00000000
00000210
00000000
00000000
00000000
,
00000301
00000010
00001000
00000010
00000100
00010000
01000000
00100000
,
00010000
10000000
01000000
00010000
00001000
00000010
00000001
00001000
,
00000010
00001000
00000010
00001000
00000100
00010000
00001000
00000000
01000000
00010000
00100000
00010000
10000000
00100000
10000000
00000000
,
00100000
01000000
00001000
00020000
00000000
00000000
00031000
00000000
;

//---------------dance-double - ZIv Step Team----------------
#NOTES:
     dance-double:
     :
     Challenge:
     19:
     :
00000000
00000000
00000000
00000000
,
00000000
00000000
00000000
00000000
,
00022000
00033000
00000000
00000000
,
00021000
00130000
01200000
10300000
20010000
31000000
01100000
00110000
,
00012000
00000000
00003010
00000000
00000120
00000000
00000031
00000000
00000101
00000000
00000110
00000000
00001010
00000000
00000010
00010000
,
00002000
00000000
00103000
00000000
02100000
00000000
00010000
03000000
01010000
00000000
01100000
00000000
10010000
00000000
00010000
10000000
,
00100000
00000000
00010000
00000000
00000010
00000000
00001000
00000000
00100000
10000000
01000000
00100000
00002000
00000000
00000000
00003000
,
00021000
00000000
00030100
00000000
00010200
00000000
00000310
00000000
00000120
00000000
00000031
00000000
00000011
00000000
00000001
00000100
,
00002000
00000000
00000000
00003000
00011000
00000000
00100000
00000000
10000000
00000000
01100000
00000000
10010000
00000000
00000000
00000000
,
11000000
00000000
00000000
01100000
00000000
00000000
00101000
00000000
00000000
00011000
00000000
00000000
00010010
00000000
00000010
00000000
00000100
00000000
00000001
00000000
00000010
00000000
00001000
00000000
,
00022000
00033000
00000000
MMMMMMMM
,
00011000
00000000
00100000
00000000
01000000
00000000
10000000
00100000
,
00010000
00000000
00000000
00000000
00001000
00000000
00000100
00000001
00000100
00000001
00000100
00000000
00000010
00000000
00010000
00001000
,
00010000
00100000
10000000
01000000
00010000
00001000
00000010
00000001
,
00000100
00000000
00001000
00000000
00010000
00000000
00100000
00000000
10000000
00000000
00000000
00010000
01000000
00000000
00001000
00000000
,
00010000
00100000
01000000
00001000
00000010
00000100
00010000
01000000
,
00100000
00000000
00001000
00000000
00000100
00000000
00000010
00000000
00001000
00000100
00010000
00001000
01000000
00010000
10000000
00100000
,
01000000
00010000
10000000
01000000
00100000
00010000
01000000
00001000
00010000
00000010
00001000
00000100
00000010
00000001
00001000
00000010
,
00020000
00000000
00000000
00000000
01000000
00001000
00030100
00000000
,
10100000
10100000
10000000
00100000
01000000
00010000
01000000
00001000
,
00011000
00000000
00001000
00000000
00010000
00000000
00000100
00000000
00000110
00000000
00000001
00000010
00000001
00000000
00000010
00000000
,
00000100
00010000
00001000
01000000
00100000
01000000
00001000
00010000
,
00001000
01000000
00100000
10000000
00010000
00000000
00100000
00001000
00100000
00001000
00100000
00000000
00001000
00010000
00000100
00001000
,
00000010
00000000
00000100
00000001
00000100
00000000
00000001
00000000
00000010
00000000
00001000
00000000
00000010
00000000
00000001
00000000
,
00000100
00001000
00011000
00010000
01000000
10000000
10010000
10000000
,
00100000
00000000
01000000
00000000
01000000
00000000
01000000
00000000
00010000
00000000
10000000
01000000
10000000
00100000
10000000
00100000
,
01000000
00000000
00010000
00100000
00001000
00000000
00010000
00000010
00001000
00000000
00000010
00000100
00000010
00000000
00000100
00000000
,
00001001
00000000
00000001
00000000
00000101
00000000
00000000
00001010
00000000
00000000
00001100
00000000
00001100
00000000
00000100
00010000
,
00001000
00000000
01000000
00000000
01100000
00000000
00000000
10100000
00000000
00000000
10100000
00000000
10000000
01000000
00100000
00000000
,
00001000
00000000
00010000
00000000
00010010
00000000
00000000
00000110
00000000
00000000
00000101
00000000
00000101
00000000
00000001
00000010
,
00000100
00000000
00010000
00001000
00010000
00000000
01010000
00000000
00220000
00000000
00000000
00000000
00000000
00000000
00330000
00000000
,
10010000
00000000
00000000
00000000
10100000
00000000
00000000
01100000
00000000
00000000
01010000
00000000
00000000
00011000
00000000
00000000
,
00001100
00000000
00000000
00000101
00000000
00000000
00000011
00000000
00000000
00001010
00000000
00000000
00001001
00000000
00000001
00000000
,
00000100
00000010
00000100
00000000
00000001
00001000
00000001
00000000
00001000
00000010
00001000
00000010
00000100
00000001
00001000
00000100
,
00010000
00000000
00001000
00010000
00000000
01000000
10000000
00000000
00100000
01000000
00000000
00000000
01100000
00000000
00000000
00000000
,
20000000
00000000
00000000
00000000
30010000
01000000
00010000
00000000
00200000
00000000
00001000
00000000
00301000
00000000
00010000
00001000
,
00000100
00000000
00000010
00000000
00001000
00000000
00000200
00000000
00000301
00000000
00000001
00000100
00000010
00000000
00000001
00000000
,
00001001
00000000
00000001
00000010
00000100
00000000
00000010
00000001
00001000
00000000
00001000
00000000
00001100
00000000
00210000
00000000
,
00000000
00000000
01300000
10000000
01000000
00000000
01000000
00000000
00100000
00010000
00100000
01000000
00100000
00000000
00010000
00000000
,
00100000
00001000
00010000
00000000
00001000
00010000
00000010
00000000
00000100
00000000
00000002
00000000
00001003
00000000
00002000
00000000
,
00003100
00000000
00000000
00000000
00010000
00000000
00001000
00000000
00000100
00000000
00000000
00000000
00000010
00000000
00001000
00000000
00000100
00000000
00000000
00000000
00010100
00000000
00000000
00000000
00000000
00000000
00000000
00011000
00000000
00000000
00000000
00000000
,
00202000
00000000
00303000
00000000
00010000
10000000
01000000
00000000
00100000
01000000
00100000
00000000
00110000
00000000
12000000
00000000
,
00000000
00000000
03100000
00010000
00100000
00001000
00010000
00000100
00010000
00001000
00010000
00000010
00002000
00000000
00000000
00000000
,
00003001
00000100
00000010
00000100
00001000
00010000
00001000
00001000
,
00010000
00000000
00000000
01000000
00000000
00000000
00100000
00000000
00000000
01000000
00000000
00000000
10000000
00000000
00000000
00010000
01000000
00100000
01000000
00000000
00000000
00100000
00000000
00000000
,
02000000
10000000
00000000
03100000
01000000
01000000
00001000
00200000
,
00000000
00302000
00000000
00023000
00000000
00030010
00000200
00000000
,
00000301
00000010
00000100
00000010
00001000
00010000
00001000
00001000
,
00010000
00000000
00000000
00100000
00000000
00000000
01000000
00000000
00000000
00100000
00000000
00000000
10000000
00000000
00000000
00010000
00100000
01000000
00100000
00000000
00000000
00010000
00000000
00000000
,
20000000
00000000
00000000
00000000
00000000
00000000
30010000
00000000
01000000
00000000
00100000
00000000
01000000
00000000
00000000
00000000
00000000
00000000
00001000
00000000
00000000
00000000
00000000
00000000
00010000
00000000
00000000
00000000
00000000
00000000
00001000
00000000
00000000
00000100
00000000
00000000
00000001
00000000
00000000
00000000
00000000
00000000
00001000
00000000
00000000
00000000
00000000
00000000
,
00001002
00000000
00000000
00000000
00000103
00000000
00000010
00000000
00001000
00000001
00000100
00001000
00020000
00000000
00000000
00000000
,
00130000
00000000
10000000
00000000
01000000
00000000
00010000
00001000
00010000
00000000
00000100
00000000
00000010
00000000
00000200
00000000
,
00000000
00000301
00000100
00000000
00001100
00000000
00000011
00000000
,
00000010
00000000
00000001
00000000
00000100
00000000
00001000
00010000
00001000
00000000
01000000
00000000
00100000
00000000
02000000
00000000
,
00000000
13000000
01000000
00010000
00100000
01000000
00010000
00001000
,
00000020
00000100
00000100
00000130
,
00002000
00000001
00000001
00003001
,
00000010
00000000
00000001
00000100
00001000
00000000
00010000
00100000
10000000
00000000
10000000
01000000
00010000
00000000
00001000
00000010
,
00000001
00000100
00001000
00000000
00010000
00000000
01100000
00000000
,
11000000
00100000
10010000
00000000
01000000
01100000
01001000
00000000
,
00101000
00010000
00011000
00000000
00000010
00001000
00001100
00001100
,
00000110
00000010
00001001
00000000
00000100
00000011
00001010
00000000
,
00001100
00001100
00011000
01001000
01001000
01001000
00012000
00000000
,
01003000
00000000
10100000
01100000
01010000
00000000
00101000
00000000
,
00011000
00001000
01001000
00000000
00110000
00000000
01100000
00001000
,
00021000
00000000
00000000
00000000
00030010
00000100
00000001
00000000
00001002
00000000
00000000
00000000
00000013
00000100
00010000
00001000
,
00010000
00100000
00011000
00000010
00010000
00001000
00011000
00000000
,
01000000
00010000
00100000
10000000
00010000
00000000
01000000
00001000
,
00000100
00000010
00000001
00000000
00000101
00000000
00001010
00000000
,
00000001
00000010
00000100
00010000
00100000
00000000
01000000
10000000
,
00010000
00100000
00001000
00000000
00000010
00010000
00000100
00000000
,
00000110
00001000
00010000
00000000
01100000
00010000
00001000
00000000
,
01000000
00000000
00010000
01000000
00001000
00000000
00010000
00000010
00001000
00000001
00000010
00000100
00001000
00000000
00000010
00010000
,
00001000
00000000
00000100
00001000
00000000
00010000
00100000
00000000
00010000
00001000
00000000
00010000
01000000
00000000
10000000
00000000
,
00100000
00010000
00001000
00010000
00001000
00000010
00000001
00001000
00000001
00000100
00001000
00010000
00000100
00010000
00001000
01000000
,
00010000
10000000
00100000
10000000
00010000
00000000
00010000
00000000
00010000
00000000
10000000
01000000
00020000
00000000
00001000
00000000
,
00030100
00000000
00000000
00000000
00000000
00000000
00010000
00000000
00000000
00000100
00000000
00000000
00000010
00000000
00000000
00000000
00000000
00000000
00000100
00000000
00000000
00000010
00000000
00000000
00001000
00000000
00000000
00000000
00000000
00000000
00000000
00000000
00000000
00000000
00000000
00000000
00011000
00000000
00000000
00000000
00000000
00000000
00001000
00000000
00010000
00000000
00001000
00000000
,
00010000
00000000
00000010
00000000
00001000
00000000
00001000
00000000
00001000
00000000
00000001
00000100
00002000
00000000
00010000
00000000
,
01003000
00000000
00000000
00000000
00000000
00000000
00001000
00000000
00000000
01000000
00000000
00000000
00100000
00000000
00000000
00000000
00000000
00000000
01000000
00000000
00000000
00100000
00000000
00000000
00010000
00000000
00000000
00000000
00000000
00000000
00001000
00000000
00010000
00000000
00000100
00000000
00001000
00000000
00000000
00000001
00000000
00000000
00000010
00000000
00000000
00000001
00000000
00000000
,
00001000
00000000
00000020
00000000
00010030
00000000
00200000
00000000
00301000
00000000
00000020
00000000
00010030
00000000
00001000
01000000
,
00100000
00000000
02000000
00000000
03001000
00000000
00000200
00000000
00010300
00000000
01000000
00100000
10000000
00000000
00010000
00000000
,
00100000
00000000
00000000
00000000
00000000
00000000
00001000
00000000
00000000
00000000
00000000
00000000
00010000
00000000
00000000
00000000
00000000
00000000
00000100
00000000
00000000
00000010
00000000
00000000
00000001
00000000
00000000
00000000
00000000
00000000
00001000
00000000
00000000
00000000
00000000
00000000
00000100
00000000
00000000
00000000
00000000
00000000
00010000
00000000
00001000
00000000
00010000
00000000
,
00002000
00000000
00103000
01000000
20000000
00000000
30100000
01000000
00020000
00000000
00130000
01000000
10000000
00010000
01000000
00001000
,
00010000
00000100
00000010
00001000
00000010
00000100
00001000
00000001
,
00000100
00000010
00010000
00001000
01000000
01000000
00100000
00000000
,
11000000
00000000
00110000
00000000
01010000
00000000
00101000
00000000
00011000
00000000
00010010
00000000
00001100
00000000
00000001
00000100
,
00000001
00000000
00000000
00000000
00000000
00000000
00001000
00000000
00000100
00000000
00010000
00000000
00001000
00000000
00000000
00000000
00000000
00000000
01000000
00000000
00000000
00010000
00000000
00000000
00100000
00000000
00000000
01000000
00000000
00000000
10000000
00000000
00000000
00100000
00000000
00000000
10000000
00000000
00010000
00000000
10000000
00000000
00010000
00000000
10000000
00000000
00010000
00000000
,
10000000
01000000
00010000
00000100
00001000
00010000
00100000
00001000
,
00000100
00000010
00001000
00100000
00010000
00010000
00011000
00000000
,
00000100
00000000
00000000
00010000
00000000
00000000
00000010
00000000
00000000
00010000
00000000
00000000
00001000
00000000
00000000
00100000
00000000
00000000
00010000
00000000
00000000
00100000
00000000
00000000
01000000
00000000
10000000
00000000
00010000
00000000
01000000
00000000
00000000
00001000
00000000
00000000
00010000
00000000
00000000
00000100
00000000
00000000
00001000
00000000
00000000
00000100
00000000
00000000
,
00000020
00000000
00000000
00000000
00000031
00000100
00000010
00010000
00001000
00100000
00010000
01000000
00200000
00000000
00000000
00000000
,
10300000
01000000
00100000
00000000
01000000
00000000
00100000
00000000
00001000
00000000
00010000
00000000
00000100
00000000
00000000
00000000
,
00010000
00000100
00001000
00000000
00000010
00000000
00000100
00000000
00000001
00000000
00000010
00000000
00001100
00000000
00000000
00000000
,
00000100
00010000
00001000
00000000
00100000
00000000
00010000
00000000
10000000
00000000
01000000
00000000
00100000
00000000
00000000
00000000
,
01000000
10000000
00100000
00000000
01000000
00000000
00010000
00000000
00100000
00000000
00001000
00000000
00011000
00000000
00000000
00000000
,
00010200
00001300
00001200
00010300
,
00011000
00010000
00110000
00100000
01100000
01000000
11000000
10000000
,
10000000
01000000
00100000
00001000
00010000
00000100
00001000
00000010
00000100
00000001
00001000
00000010
00001000
00000100
00010000
00001000
,
00000000
00011000
00100010
00000000
,
00001001
00000001
00000011
00000010
00000110
00001100
00011000
00000000
,
00110000
00000000
00010000
00100000
10000000
00000000
10100000
00000000
01100000
00000000
00000000
00000000
00110000
00000000
00010000
00000000
,
01010000
00000000
01000000
00001000
00010000
00000000
00000010
00000000
00000110
00000000
00000100
00000010
00001000
00000000
00000100
00000000
,
00010100
00000000
00010000
00001000
01000000
00000000
00100000
00010000
00001000
00000000
00000010
00000000
00000210
00000000
00000000
00000000
,
00000310
00001000
00000100
00000000
00001000
00000000
00010000
00000000
00100000
00010000
01000000
00000000
10000000
00000000
01000000
00000000
,
00100000
10000000
01000000
00000000
00010000
00000000
00001000
00000000
00000010
00000001
00000100
00000000
00000010
00000000
00001000
00000000
,
00000001
00000010
00000100
00010000
00001000
01000000
00100000
10000000
01000000
00010000
01000000
00100000
00001000
00010000
00000010
00000100
,
00000001
00000010
00000100
00002000
00000000
00000000
01003000
00000000
;
