#TITLE:All I Want;
#ARTIST:A DAY TO REMEMBER;
#BANNER:All I Want.png;
#BACKGROUND:All I Want-bg.png;
#JACKET:All I Want-jacket.png;
#LYRICSPATH:All I Want.lrc;
#CDTITLE:./CDTITLES/NONE.PNG;
#MUSIC:All I Want.ogg;
#SAMPLESTART:49.5;
#SAMPLELENGTH:15;
#BPMS:0=160;

//---------------dance-single - t7r----------------
#NOTES:
     dance-single:
     t7r:
     Beginner:
     4:
     :
0000
0000
0000
0000
,
0000
0000
0000
0000
,
0000
0000
0000
0000
,
0000
0000
0000
0000
,
0000
0000
0000
0000
,
1000
0000
0000
0000
,
1000
0000
0000
0000
,
0010
0000
0010
0000
,
0010
0000
0000
0000
,
0100
0000
0000
0000
,
0001
0000
0001
0000
,
0010
0000
0000
0000
,
0100
0000
0100
0000
,
1000
0000
0000
0000
,
0010
0000
0010
0000
,
0100
0000
0000
0000
,
0001
0000
1000
0000
,
0001
0000
0000
0000
,
1000
1000
1000
0000
,
0100
0000
0100
0000
,
0010
0000
0010
0000
,
0001
0000
0000
0000
,
0001
0001
0001
0000
,
0100
0000
0100
0000
,
0010
0000
0010
0000
,
0000
1000
0000
1000
,
1000
0000
0000
0000
,
0000
0001
0000
0001
,
0001
0000
0000
0000
,
0000
0010
0000
0010
,
0010
0000
0010
0000
,
0100
0000
0000
0000
,
1000
0000
0001
0000
,
1000
0000
1000
0000
,
0001
0000
0001
0000
,
0100
0000
0100
0000
,
0010
0000
0010
0000
,
0000
0100
0100
0000
,
0000
0000
0010
0000
,
1000
1000
1000
0000
,
0001
0001
0001
0000
,
0000
0010
0000
0010
,
0010
0000
0010
0000
,
0000
0100
0000
0100
,
0100
0000
0100
0000
,
0000
1000
1000
0000
,
0000
0001
0001
0000
,
0100
0100
0100
0000
,
0010
0000
0000
0000
,
1000
0000
0001
0000
,
1000
0000
0100
0000
,
0010
0000
0001
0000
,
1000
0000
0010
0000
,
0100
0000
0001
0000
,
0010
0000
0100
0000
,
1000
0000
0000
0010
,
0010
0000
0010
0000
,
0100
0000
0100
0000
,
0010
0010
0010
0000
,
1000
0000
0001
0000
,
0010
0010
0010
0000
,
0100
0000
1000
0000
,
0001
0001
0001
0000
,
1000
0000
0000
0000
,
0010
0000
0100
0000
,
0110
0000
0000
0000
;

//---------------dance-single - t7r----------------
#NOTES:
     dance-single:
     t7r:
     Easy:
     6:
     :
0000
0000
0000
0000
,
0000
0000
0000
0000
,
0000
0000
0000
0000
,
0000
0000
0000
0000
,
0000
0000
0000
0000
,
0010
0100
0001
0010
,
0200
0000
1300
0000
,
0001
0100
1000
0100
,
0001
1000
0100
0001
,
0100
0000
0010
0000
,
0001
0001
0100
0000
,
0010
0000
1000
0000
,
0001
0001
0010
0000
,
0100
0000
1000
0000
,
0010
0010
0100
0000
,
0010
0000
1000
0000
,
0001
1000
0100
0010
,
0100
1000
0100
1000
,
0001
0100
0010
0000
,
1000
0100
1000
0100
,
0010
0001
1000
0000
,
0001
0100
0001
0100
,
0010
1000
0100
0010
,
0001
0100
1000
0100
,
0001
1000
0100
0010
,
0002
0100
0000
1003
,
0020
1000
0000
0130
,
0002
0010
0000
1003
,
0200
0010
0000
0301
,
0100
1000
0000
1010
,
0010
0100
0000
0101
,
0001
1000
0100
0001
,
0100
1000
0001
0001
,
1000
0010
0100
0000
,
0001
0010
0100
0000
,
1000
0001
0010
0000
,
0001
1000
0010
0000
,
0100
0010
2010
0000
,
3001
0100
0001
0000
,
0010
0100
0110
0000
,
1000
0001
1001
0000
,
0001
0100
0001
0100
,
0010
1000
0100
0000
,
1000
0010
1000
0010
,
0100
0001
0010
0000
,
0100
1000
1010
0000
,
0100
0001
1000
0010
,
0100
0010
0110
0000
,
2002
0000
0000
3003
,
1000
0000
0000
0100
0000
0000
0010
0000
,
0000
0011
0000
0000
0001
0000
1000
0000
,
0001
0000
0000
0100
0000
0000
0010
0000
,
0000
1010
0000
0000
1000
0000
0001
0000
,
1000
0000
0000
0010
0000
0000
0100
0000
,
0000
0101
0000
0000
0001
0000
1000
0000
,
0001
0010
0100
1000
,
0010
0100
0010
1001
,
1000
0100
0000
0001
,
0000
0100
1000
0001
,
1000
0010
0000
0001
,
0010
0100
0001
1000
,
0001
0010
0000
1000
,
0000
0010
0100
1000
,
0001
0100
1000
0100
,
0001
1000
0100
0010
,
1001
0000
0000
0000
;

//---------------dance-single - t7r----------------
#NOTES:
     dance-single:
     t7r:
     Medium:
     10:
     :
0000
0000
0000
0000
,
0000
0000
0000
0000
,
0000
0000
0000
0000
,
0000
0000
0000
0000
,
0000
0000
0000
0000
,
1000
0000
0100
0010
0100
0000
1000
0001
,
2000
0010
3001
0000
,
0001
0200
0000
0310
0100
0000
0001
0020
,
0000
0130
0010
0000
0001
1000
0001
0000
,
0100
0000
0010
0000
0000
0100
0001
0000
,
0010
0000
0100
0000
0000
0010
0001
0000
,
1000
0000
0010
0000
1000
0100
1000
0000
,
0001
0000
0010
0000
0001
0100
0001
0000
,
1000
0000
0010
0000
0000
0100
0010
0000
,
1000
0000
0100
0000
0000
0010
0100
0000
,
1000
0000
0001
0000
0100
0001
0100
0000
,
0001
0000
1000
0100
0010
0100
1000
0000
,
0001
1001
1000
1100
,
1000
0000
0010
0000
0100
0001
0100
0000
,
0001
1001
1000
1100
,
0010
0000
0100
1000
0100
0001
0100
0000
,
1001
0000
0001
0000
0010
0001
0100
0000
,
0010
1000
0010
0000
0100
0000
0001
0000
,
0010
0001
0010
0000
0100
0000
1001
0000
,
0010
1000
0010
0001
0010
0100
0000
0000
,
1001
0000
1000
0000
0100
0010
0100
0000
,
0001
0100
1000
0001
,
0100
0000
0010
0000
0100
1000
0100
0000
,
0001
0000
0010
0100
1000
0000
0010
0000
,
0100
0000
0001
0010
0001
0000
1000
0000
,
0001
0000
1000
0010
1000
0000
0001
0000
,
1000
0000
0100
0010
0000
0100
1000
0000
,
0001
0100
0000
0010
0100
0001
1000
0000
,
0001
0000
1000
0100
1000
0000
0010
1000
,
0010
0000
1000
0100
0000
0010
0000
0100
,
0000
1000
0001
0100
0001
0000
0010
0001
,
0010
0000
0001
0100
0000
0010
0000
0100
,
0001
0010
0120
0000
,
0031
0000
0100
0000
0010
1000
0100
0000
,
1000
0000
0010
0000
1010
0000
0001
0100
,
0001
0010
0001
0000
0011
0000
0001
0000
,
1000
0000
0001
0100
0001
0000
1000
0010
,
1000
0000
0001
0010
0000
0001
1000
0000
,
0001
0000
1000
0100
1000
0000
0001
0010
,
0001
0000
1000
0010
0000
0100
0010
1000
,
0100
0010
0110
0000
,
0100
0000
1000
0000
0010
0100
0001
0000
,
0100
0000
0110
0000
1001
0000
0001
1000
,
0020
0000
0000
0230
,
0301
0000
1000
0100
0000
0010
0100
0000
,
0000
1000
1000
0000
0001
0000
0100
0000
,
0010
0000
0100
0001
0000
0100
0010
0000
,
0000
0100
0100
0000
0001
1000
0001
0001
,
1000
0000
0100
0010
0000
0100
1000
0000
,
0000
0001
0001
0000
1000
0000
0010
0000
,
0100
0000
0001
0010
0100
1000
0010
0000
,
0100
0010
1001
1000
,
0001
0000
0010
0001
0000
0100
0001
0000
,
0000
0010
0001
0000
1000
0000
1001
0000
,
1000
0000
0010
1000
0000
0100
1000
0000
,
0000
0001
1000
0000
0001
0000
1001
0000
,
0001
0000
0000
0100
0000
0000
0210
0000
0000
0000
0000
0000
0301
0000
0000
0000
,
0000
1000
0100
0000
0010
0100
1000
0000
,
0001
0000
0100
1000
0100
0000
0001
0000
,
1000
0000
0100
0001
0100
1000
0001
0000
,
1001
0000
0000
0000
;

//---------------dance-single - t7r----------------
#NOTES:
     dance-single:
     t7r:
     Hard:
     13:
     :
0000
0000
0000
0000
,
0000
0000
0000
0000
,
0000
0000
0000
0000
,
0000
0000
0000
0000
,
0000
0000
0000
0000
,
0001
0100
0010
0100
0001
0100
0010
0100
,
0002
0010
1000
0103
,
0001
0010
0000
1000
0001
0000
0100
1000
,
0000
0001
0100
0000
0010
0000
0100
0001
,
2000
0000
0100
0000
3001
1000
0100
0000
,
1000
0000
0010
0000
0100
0001
1000
0000
,
0002
0000
0100
0000
1003
0001
0100
0000
,
0001
0000
0010
0100
1000
0010
0100
0000
,
0020
0000
1000
0000
0130
0001
0010
0000
,
0100
0000
0010
0000
0001
1000
0010
0000
,
0200
0000
1000
0000
0310
0100
0001
0000
,
0010
0000
1001
0000
0001
0100
0010
1000
,
0100
0001
0100
0000
0100
1000
0100
0000
,
0010
0000
1100
0000
0001
1000
0100
0000
,
1000
0010
1000
0000
0010
0001
0010
0000
,
1000
0000
1001
0000
0001
0100
0010
0100
,
0001
0000
0011
0000
0001
1000
0100
0000
,
0010
1000
0010
0000
0010
0001
0010
0000
,
0001
0100
0010
1000
0001
0010
0100
0000
,
1000
0100
0010
0001
1000
0010
0100
0000
,
2001
0000
0010
0000
3100
0010
0001
0000
,
0100
0000
1000
0100
0001
0100
0010
0000
,
1002
0010
1000
0103
,
0010
0000
1000
0010
0001
0010
0100
0010
,
1000
0000
1100
0000
1000
0001
0100
0001
,
0010
0000
0011
0000
0001
1000
0001
0100
,
0010
0100
0100
0001
0100
0100
1000
0100
,
0100
0000
0010
0000
0110
0000
0000
0000
1001
0000
1000
0001
1000
0001
1000
0000
,
0001
0010
0001
0100
0001
0010
0100
1000
,
0010
0000
1000
0100
0010
0100
1000
0001
,
1000
0010
1000
0100
1000
0010
0100
0001
,
0010
0000
0001
0000
0100
0000
0000
0000
0010
0000
1000
0000
0001
1000
0001
0000
,
1000
0100
1100
0000
0012
0000
1003
0000
,
0001
0100
0010
0000
1000
0100
0010
0100
,
1000
0000
1100
0000
0101
0000
1000
0001
,
0010
0000
0001
0000
0100
0000
0000
0000
0010
0000
0100
0000
0001
0000
1000
0001
,
1000
0100
0010
0100
0001
0100
0010
0000
,
0001
0100
0010
0100
0010
1000
0001
0010
,
0001
0100
0010
0100
1000
0100
0010
0000
,
1000
0000
0100
0000
0010
0000
0100
0000
1000
0000
0001
0000
0010
0000
0001
1000
,
0001
0100
0101
0000
2010
0000
3001
0000
,
1000
0100
0010
0001
0100
0100
0010
0100
,
0001
0010
0100
0001
1000
0010
0100
0100
,
2001
0000
3020
0230
,
0301
0000
0100
1000
0000
0001
0010
0000
,
1000
0001
0001
1000
0100
0000
1100
0000
,
1001
0000
1000
0100
0000
0001
1000
0000
,
0010
0001
1001
0000
0001
0100
0010
0010
,
1000
0000
0100
1000
0100
0000
1000
0000
0001
0100
0001
0000
1000
0000
0010
1000
,
0010
1000
1001
0000
0110
0000
1001
0000
,
0110
0000
0010
0100
0100
0100
0100
0100
,
0001
0000
0010
0000
0011
0000
0000
0000
1000
0000
0000
0100
1000
0000
0001
0000
,
1000
0000
0000
0010
0100
0000
0010
0000
0000
0000
1000
0000
0001
0000
0000
0000
,
0010
0001
0100
0000
0001
0010
0100
1000
,
0001
0000
0000
0100
0010
0000
0100
0000
0000
0000
0001
0000
1000
0000
0000
0000
,
0001
0000
0100
0001
0100
0000
0001
0000
1000
0000
0100
1000
0100
0000
0000
0000
,
1001
0000
0000
0010
1000
0000
1001
0000
0000
0000
0010
0000
0011
0000
0000
0000
,
0001
0100
0010
0001
1000
0100
0001
0100
,
0110
0100
0101
0000
0110
0010
1010
0000
,
1000
0000
0100
0000
0100
0000
0001
0000
0100
0000
0010
0100
0010
0100
0010
0100
,
0010
0000
0000
0000
;

//---------------dance-single - t7r----------------
#NOTES:
     dance-single:
     t7r:
     Challenge:
     15:
     :
0000
0000
0000
0000
,
0000
0000
0000
0000
,
0000
0000
0000
0000
,
0000
0000
0000
0000
,
0000
0000
0000
0000
,
0010
1000
1100
1000
0001
0010
0011
0001
,
0100
0010
0100
0001
0100
0010
0100
1000
,
0100
0001
0010
1000
0001
0100
1000
0001
,
0100
0000
1000
0000
0001
0000
0010
0000
1000
0000
0001
0000
0100
0000
0010
1000
,
0010
0100
0101
0000
0001
0010
0110
0000
,
0100
1000
1010
0000
1000
0010
0110
0100
,
0001
0010
0011
0000
0001
1000
1010
0000
,
1000
0001
0011
0000
0001
0100
1010
0000
,
1001
1000
0100
0000
1100
1000
0010
0000
,
0110
0100
0001
0000
0011
0001
1000
0001
,
0010
0100
1100
0000
0010
0100
0101
0000
,
0001
0000
0100
0000
1010
0000
0100
0000
1001
0000
0001
1000
0001
1000
0001
1000
,
0001
0010
0011
0001
0100
0010
0110
0010
,
1000
0000
0100
0000
0010
0000
0100
0000
0001
0000
0100
0000
1000
0000
0010
0100
,
0010
1000
1100
1000
0001
0010
0011
0001
,
0100
0000
0000
0000
0110
0000
0000
0000
1001
0000
1000
0001
0100
0000
0001
1000
,
0010
0000
1001
0000
1010
0010
0100
0010
,
1000
0000
0100
0000
0001
0000
0100
0010
0100
0000
1000
0000
0001
0000
1000
0000
,
0010
0100
1100
0100
0010
1000
1001
1000
,
0100
0000
0010
0000
0110
0000
0000
0000
1001
0000
0001
1000
0001
1000
0001
1000
,
0001
0000
1010
0000
1000
0100
0110
0100
,
1100
0000
1001
0000
0001
0100
0110
0100
,
0101
0000
1001
0000
1000
0010
0110
0010
,
1010
0000
1001
0001
0010
1000
0001
0100
,
1100
0000
1010
0000
0110
0100
0101
0001
,
0011
0000
1001
0000
1010
0010
0110
0000
,
1001
1000
0100
0001
0100
0100
1000
0100
,
0100
0000
1001
0000
1001
0000
0001
0000
0100
0000
0001
1000
0001
1000
0001
1000
,
0001
0010
1001
0000
1000
0010
1001
0000
,
1100
0100
0010
0100
1000
0010
1010
0000
,
1000
0100
1001
0000
0001
0100
1001
0000
,
0011
0000
0010
0000
0100
0000
0010
0000
0001
0000
0100
0000
0001
0010
0100
1000
,
0010
0100
1001
0000
0100
0010
1001
0000
,
1100
1000
0010
0100
0010
0001
0010
1000
,
0100
0001
0100
0010
0100
1000
0100
0110
,
0100
0000
1000
0000
1001
0000
0000
0000
0101
0000
0001
0010
0100
1000
0010
0100
,
0001
1000
0110
0000
1000
0001
0110
0000
,
0011
0010
0001
0100
1000
0100
0110
0000
,
0010
0100
1010
0000
1000
0100
0011
0000
,
0101
0000
0100
0000
0010
0000
0100
0000
0001
0000
1000
0100
0010
0000
0001
0100
,
0010
0100
1001
0000
0100
0010
1001
0000
,
0011
0001
0100
0010
0100
1000
0100
0001
,
0010
1000
0010
0100
0010
0001
0010
0100
,
0220
0000
0000
0330
,
1001
1000
0100
0110
0010
0001
1001
0001
,
0100
0000
0110
0000
0110
0000
0000
0000
1000
0100
0010
0001
1000
0000
0001
0100
,
0010
1000
0001
1001
0001
0010
0110
0100
,
1000
1010
1010
0000
0110
0010
0110
0010
,
1000
0000
0100
0010
0001
0100
0010
0000
1000
0010
0100
0001
0010
0000
0100
1000
,
0010
0100
0001
0000
0011
0000
0001
0000
1001
0000
0000
0000
1100
0000
0000
0000
,
1020
0000
0130
0100
0100
0100
0100
0100
,
0010
0000
1000
0000
1001
0000
0000
0000
0011
0000
0001
0010
0100
1000
0010
0100
,
0001
0000
1000
0100
0010
0000
0100
0000
0001
0000
0100
0000
0010
0000
0100
0000
,
1000
0010
0110
0010
0001
0010
1000
0001
,
1001
0000
0001
0100
0010
0000
0100
0000
1000
0000
0100
0000
0010
0000
0100
0000
,
0001
0000
0010
0100
1000
0010
0100
0001
1000
0100
0010
0001
0100
0010
1000
0001
,
1000
0000
0001
0100
1000
0000
0110
0000
0000
0000
0100
0000
1001
0000
0000
0000
,
1000
0100
0110
0100
1000
0010
1010
1000
,
1001
1000
0100
0100
1001
0001
0100
0100
,
0010
0000
1000
0000
0010
0000
0001
0000
0100
0000
0010
0100
0010
0100
0010
0100
,
0010
0000
0000
0000
;

//---------------dance-double - t7r----------------
#NOTES:
     dance-double:
     t7r:
     Easy:
     6:
     :
00000000
00000000
00000000
00000000
,
00000000
00000000
00000000
00000000
,
00000000
00000000
00000000
00000000
,
00000000
00000000
00000000
00000000
,
00000000
00000000
00000000
00000000
,
10000000
00100000
01000000
00010000
,
20000000
00000000
31000000
00000000
,
00010000
00000100
00001000
00000001
,
00000100
00001000
00010000
00000000
,
00012000
00103000
00000000
00010000
,
10000000
00100000
00000000
01000000
,
00010000
00000000
00100000
00000000
,
00001000
00010000
00001000
00000000
,
00010000
00000000
00000010
00000000
,
00000100
00000001
00001000
00000000
,
00000001
00000010
00000100
00000000
,
00010000
00001000
01000000
00010000
,
10010000
00000000
10000000
00000000
,
00100000
00010000
00001000
00000000
,
00000010
00000100
00001000
00000001
,
00000100
00001000
00010000
00000000
,
00011000
00000000
00001000
00000000
,
00100000
00010000
10000000
00000000
,
01000000
00010000
00001000
00000000
,
00000100
00000001
00000010
00000000
,
00001002
00000000
00000103
00000000
,
00001000
00010000
00001000
00000000
,
00020000
00000000
01030000
00000000
,
10000000
00100000
01000000
00000000
,
00200000
00000000
10300000
00000000
,
01000000
00100000
00010000
00000000
,
00001000
00000000
00000010
00000000
,
00000100
00000001
00001000
00000000
,
00000100
00000000
00010000
00000000
,
00001000
01000000
00010000
00000000
,
10000000
00000000
01000000
00000000
,
00100000
00001000
00010000
00000000
,
00000100
00002000
00003002
00000003
,
00000100
00000000
00001000
00000000
,
00010000
00001000
00011000
00000000
,
00001000
01000000
01010000
00000000
,
01000000
00000000
00100000
00000000
,
10000000
01000000
00100000
00000000
,
00001000
00000000
00010000
00000000
,
00000010
00001000
00000001
00000000
,
00001000
00000200
00020300
00030000
,
00001000
00000000
00010000
00000000
,
00001000
01000000
00010000
00000000
,
10000000
00000000
00000000
00000000
,
00100000
00000000
00000000
00010000
00000000
00000000
00001000
00000000
,
00000000
00010000
00000000
00000000
00000100
00000000
00001000
00000000
,
00000001
00000000
00000000
00000010
00000000
00000000
00001000
00000000
,
00000000
00010000
00000000
00000000
00001000
00000000
01000000
00000000
,
00010000
00000000
00000000
10000000
00000000
00000000
00100000
00000000
,
00000000
00010000
00000000
00000000
00001000
00000000
00010000
00000000
,
00000100
00000000
00010000
00000000
,
00001000
00000000
01000000
00000000
,
00010000
00100000
01000000
00000000
,
10000000
00000000
00100000
00000000
,
00010000
00001000
00010000
00000000
,
00001000
00000000
00000010
00000000
,
00000100
00001000
00000001
00000000
,
00000100
00000000
00001000
00000000
,
00010000
00000000
01000000
00000000
,
10000000
00100000
01000000
00000000
,
00011000
00000000
00000000
00000000
;

//---------------dance-double - t7r----------------
#NOTES:
     dance-double:
     t7r:
     Medium:
     10:
     :
00000000
00000000
00000000
00000000
,
00000000
00000000
00000000
00000000
,
00000000
00000000
00000000
00000000
,
00000000
00000000
00000000
00000000
,
00000000
00000000
00000000
00000000
,
00010000
00000000
00000100
00001000
00000100
00000000
00001000
00000001
,
00002000
00000010
00003001
00000000
,
00001000
00000200
00000000
00010300
00001000
00000000
00010000
00002000
,
00000000
01003000
00010000
00000000
01000000
00100000
01000000
00000000
,
00100000
00000000
10000000
00000000
00010000
00000000
00000000
10000000
,
01000000
00010000
00001000
00000000
,
00010000
00000010
00001000
00000000
00000001
00000000
00000010
00000000
,
00000100
00000000
00001000
00000001
00000000
00000100
00000000
00001000
,
00010000
00000000
00001000
00000000
00100000
00000000
00000000
00010000
,
10000000
00000000
02000000
00000000
00010000
00000000
03100000
00001000
,
00010000
00000000
00001000
00000000
00000010
00000000
00000001
00001000
,
00000001
00000000
00000100
00001000
00000000
00000000
00010000
00000000
,
00011000
00000000
00001000
00000000
01000000
00000000
00010000
10000000
,
00010000
00000000
01000000
00000000
00010000
00100000
00000000
00000000
,
00001000
00010000
00001000
00000000
00010000
00000000
00000010
00000000
,
00001000
00000000
00000001
00000000
00000100
00000000
00001000
00020000
,
00001000
00000000
00030100
00000000
00000000
00010000
00001000
00000000
,
00010000
00100000
10000000
01000000
,
00010000
00001000
00000010
00000001
,
00000100
00001000
00001000
00000000
00010000
00001000
00010000
00000000
,
00002000
00010000
00103000
00001000
,
00020000
00001000
00030010
00010000
,
00002000
00010000
01003000
00001000
,
00020000
00000000
00001000
00000000
00030100
00010000
00001000
00000000
,
00010000
00000000
00000100
00001000
00000100
00000000
00001000
00000000
,
00000001
00000000
00000100
00000000
00001000
00010000
00001000
00000000
,
01000000
00000000
00010000
10000000
00000000
01000000
00010000
00000000
,
00001000
00000100
00000100
00000000
00000001
00001000
00000001
00001000
,
00000001
00000000
00000010
00000100
00001000
00000000
00000000
00000000
,
00000001
00000000
00000100
00000010
00000000
00010000
00000000
00001000
,
00010000
00000000
00001000
01000000
00010000
00000000
00000000
00000000
,
10000000
00000000
01000000
00100000
00000000
00001000
00000000
00010000
,
00001000
00000200
00000302
00000013
,
00000100
00001000
00000001
00000100
,
00001000
00000000
00011000
00000000
00101000
00000000
00001000
00010000
,
00001000
01000000
01200000
02300000
,
03010000
00000000
10000000
00100000
01000000
00000000
00000000
00000000
,
00001000
00000000
00010000
00001000
00000000
00000100
00000000
00000001
,
00000000
00000000
00001000
00000100
00010000
00000000
00000000
00000000
,
00001000
00000000
00010000
01000000
00000000
10000000
00000000
00100000
,
00000000
20000000
30200000
01300000
,
00010000
00000000
10000000
00000000
01000000
00000000
00010000
00001000
,
00010000
00000000
00011000
00000000
00010010
00000000
00000010
00001000
,
00000200
00000000
00000300
00000000
,
00011000
00000000
00001000
01000000
00000000
00010000
10000000
00000000
,
00000000
00100000
00100000
00000000
00010000
00001000
00010000
00000000
,
00011000
00000000
00010000
00000100
00000000
00001000
00000001
00000000
,
00000000
00000010
00000010
00000000
00001000
00010000
00001000
00000000
,
00011000
00000000
00001000
00100000
00000000
00010000
10000000
00000000
,
00000000
01000000
01000000
00000000
00010000
00001000
00010000
00000000
,
00011000
00001000
00000100
00000001
,
00000010
00000000
00001000
00000000
00010000
00000000
01000000
10000000
,
00200000
00010000
01300000
10100000
,
00000000
10000000
01000000
00000000
00010000
00001000
00010000
00000000
,
00001000
00010000
00000100
00001100
,
00000000
00001000
00000001
00000000
00000100
00001000
00010000
00000000
,
00001000
01000000
00010000
00110000
,
00000000
10000000
01000000
00000000
00010000
00001000
00010000
00000000
,
00011000
00001000
00000010
00000001
,
00000100
00000000
00001000
00000000
00010000
00000000
00100000
10000000
,
01000000
00000000
00000000
00000000
;

//---------------dance-double - t7r----------------
#NOTES:
     dance-double:
     t7r:
     Hard:
     13:
     :
00000000
00000000
00000000
00000000
,
00000000
00000000
00000000
00000000
,
00000000
00000000
00000000
00000000
,
00000000
00000000
00000000
00000000
,
00000000
00000000
00000000
00000000
,
00000001
00000100
00000010
00000100
00000001
00001000
00000100
00010000
,
00002000
00010000
01000000
00013000
,
00001000
00010000
00000000
00100000
20000000
00000000
31000000
00010000
,
00000000
00001000
00000020
00000000
00000031
00001000
00000100
00000000
,
00020000
00000000
00001000
00000000
00030100
00001000
00000001
00000000
,
00000100
00000000
00001000
00000000
00010000
00100000
10000000
01000000
,
00010000
00000000
00001000
00000000
01000000
00010000
10000000
00000000
,
01000000
00000000
00100000
00010000
00000000
00100000
00001000
00020000
,
00001000
00000000
00030100
00000000
00001000
00000001
00000100
00001000
,
00010000
00000000
02000000
00000000
00010000
00000000
03100000
00010000
,
10000000
00100000
01000000
00000000
00010000
00100000
00001000
00000000
,
00010000
00000000
00010010
00000000
00000010
00001000
00000001
00001000
,
00000001
00000010
00000100
00001000
00000001
00000010
00000001
00000100
,
00001000
00000000
00011000
00000000
00001000
01000000
00010000
00000000
,
10000000
00100000
01000000
00000000
00010000
10000000
01000000
00000000
,
00010000
00000000
00011000
00000000
00001000
00010000
00000100
00000020
,
00001000
00000000
00000130
00000000
00001000
00000001
00000100
00000000
,
00001000
00010000
00000010
00000000
00010000
00001000
00100000
00000000
,
00001000
00010000
00100000
00000000
10000000
01000000
00100000
00000000
,
00001000
00010000
00011000
00000000
00001000
00000010
00000100
00001000
,
00000002
00000000
00000100
00000000
00001003
00000001
00000100
00000000
,
00001000
00000000
00010000
00001000
00000100
00001000
00010000
00000000
,
00011000
00000000
00010000
00000000
01000000
10000000
00100000
00000000
,
00010000
00000000
00001000
00010000
01000000
00010000
00001000
00010000
,
00011000
00000000
00000010
00000000
00000100
00000001
00001000
00000000
,
00001001
00000000
00000001
00000100
00001000
00010000
00000100
00020000
,
00001000
00000000
01000000
01000000
00000000
00001000
00001000
00000000
,
00000100
00001000
00031000
00000000
00011000
00000000
00001000
01000000
,
00010000
10000000
00100000
01000000
00010000
10000000
00100000
01000000
,
00010000
00000000
10000000
01000000
00010000
00001000
00010000
00000100
,
00001000
00000001
00000010
00000100
00001000
00000001
00000010
00000100
,
00001000
00000000
00000000
00000000
00000001
00000000
00000100
00000000
00001000
00000000
00010000
00000000
00001000
00010000
00001000
00000000
,
01000000
00010000
00200000
00000000
20300000
00000000
30010000
00000000
,
01000000
01000000
10000000
00000000
00100000
00100000
00010000
00001000
,
00000100
00000010
00000100
00000001
00000010
00001000
00000001
00000100
,
00010000
00000000
00001000
00000000
01001000
00000000
00000000
00000000
01000000
00000000
00010000
00000000
10000000
00010000
10000000
00000000
,
00010000
10000000
01000000
00100000
00010000
10000000
01000000
00100000
,
00010000
00000000
10000000
00100000
00010000
00001000
00010000
00000010
,
00001000
00000001
00000100
00000010
00001000
00000001
00000100
00000010
,
00001000
00000000
00000000
00000000
00000001
00000000
00000010
00000000
00001000
00000000
00010000
00000000
00000100
00000000
00010000
00001000
,
00100000
00010000
02000000
00000000
23000000
00000000
30010000
00000000
,
00100000
00100000
10000000
00000000
01000000
01000000
00010000
00001000
,
00000010
00000100
00010000
00001000
00000010
00001000
00010000
00100000
,
20000000
01000000
00020000
30030000
,
10010000
00000000
10000000
01000000
00000000
00100000
00010000
00000000
,
00001000
00000010
00000110
00000000
00000001
00001000
00000100
00000000
,
00001001
00000000
00000001
00000100
00000000
00000010
00001000
00000000
,
00010000
00100000
01100000
00000000
10000000
00010000
01000000
00010000
,
10010000
00000000
10000000
00100000
00000000
01000000
00010000
00000000
,
00001000
00000100
00000110
00000000
00000001
00001000
00000010
00000100
,
00000002
00000000
00000010
00000000
00001003
00000001
00000100
00001000
,
00010000
00000000
00001000
00000000
00011000
00000000
00000000
00000000
00001000
00000000
00000000
01000000
00010000
00000000
10000000
00000000
,
00010000
00000000
00000000
10000000
00100000
00000000
00020000
00000000
00001000
00000000
00000000
00000000
01030000
00000000
00000000
00000000
,
00100000
00001000
00010000
00000000
00000010
00010000
00001000
00000000
,
00011000
00000000
00000000
00001000
00000010
00000000
00000200
00000000
00000001
00000000
00000000
00000000
00000310
00000000
00000000
00000000
,
00000001
00000100
00000010
00000010
00001000
00000100
00010000
00010000
,
00011000
00000000
00000000
00010000
00100000
00000000
02000000
00000000
10000000
00000000
00000000
00000000
03100000
00000000
00000000
00000000
,
10000000
01000000
00010000
00001000
01000000
00100000
00010000
00001000
,
00010000
00000100
00001000
00000001
00000100
00001000
01000000
00010000
,
10000000
00000000
10000000
00000000
01000000
00000000
01000000
00000000
00010000
00000000
00010000
00000000
00001000
00010000
00001000
00010000
,
00001000
00000000
00000000
00000000
;

//---------------dance-double - t7r----------------
#NOTES:
     dance-double:
     t7r:
     Challenge:
     15:
     :
00000000
00000000
00000000
00000000
,
00000000
00000000
00000000
00000000
,
00000000
00000000
00000000
00000000
,
00000000
00000000
00000000
00000000
,
00000000
00000000
00000000
00000000
,
00001000
00100000
00110000
00010000
10000000
00100000
10100000
10000000
,
01000000
00010000
00001000
00000010
00000100
00001000
00000001
00000100
,
00001000
00020000
00001000
00030200
00000010
00000000
00010300
00002000
,
00010000
00000000
02003000
00000000
00100000
00000000
00000000
00000000
03010000
00000000
10000000
00000000
11000000
00000000
01000000
00100000
,
00010000
10000000
10100000
00000000
10000000
01000000
01100000
00000000
,
00010000
00100000
00101000
00001000
00010000
00001000
00000100
00000001
,
00000010
00000100
00001100
00000000
00001000
00000001
00000101
00000000
,
00000001
00000010
00000110
00000000
00000100
00010000
00011000
00000000
,
01001000
01000000
00100000
00000000
10100000
00100000
10000000
00000000
,
11000000
01000000
00100000
00000000
00101000
00001000
00010000
00001000
,
00000010
00000100
00001100
00000000
00001000
00000001
00000101
00000000
,
00000001
00000000
00000010
00000000
00002000
00000000
00100000
00000000
00013000
00000000
00001000
00010000
00001000
00010000
00001000
00010000
,
00001000
00100000
00110000
00010000
10000000
00100000
10100000
10000000
,
01000000
00000000
00010000
00000000
00001000
00000000
00100000
00000000
00001000
00000000
00010000
00000000
00000100
00000000
00000010
00000001
,
00001000
00000001
00000101
00000001
00001000
00000100
00010100
00000100
,
00010000
00000000
00000000
00000000
00011000
00000000
00000000
00000000
00101000
00000000
00100000
00010000
10000000
00000000
00010000
10000000
,
01000000
00010000
00011000
00010000
00000010
00001000
00001010
00000010
,
00000100
00000000
00001000
00000000
00010000
00000000
00000100
00001000
00000001
00000000
00000100
00000000
00001000
00000000
00100000
00010000
,
10000000
00100000
10100000
10000000
00010000
01000000
01001000
01000000
,
00001000
00000000
00010000
00000000
00010010
00000000
00000000
00000000
00000110
00000000
00000010
00001000
00000001
00001000
00000001
00001000
,
00000100
00000000
00011000
00000000
00001000
01000000
01010000
00010000
,
10010000
00000000
11000000
00000000
10000000
00010000
00110000
00100000
,
00101000
00000000
00011000
00000000
00010000
00000100
00001100
00001000
,
00001001
00000000
00000101
00000001
00000100
00001000
00010000
00100000
,
10100000
00000000
10010000
00000000
01010000
01000000
01001000
00001000
,
00011000
00000000
00010100
00000000
00001100
00000100
00000110
00000000
,
00001001
00000001
00000010
00001000
00010000
01000000
10000000
00100000
,
00100000
00000000
10010000
00000000
10010000
00000000
10000000
00000000
01000000
00000000
00010000
00001000
00010000
00001000
00010000
00001000
,
00010000
00000100
00001001
00000000
00000001
00000100
00001001
00000000
,
00000011
00000010
00000100
00010000
00001000
01000000
01010000
00000000
,
10000000
01000000
10010000
00000000
00010000
01000000
10010000
00000000
,
10100000
00000000
00100000
00000000
01000000
00000000
00001000
00000000
00010000
00000000
00000100
00000000
00001000
00000001
00001000
00000001
,
00000100
00001000
00011000
00000000
01000000
00001000
00011000
00000000
,
00010100
00010000
00001000
00010000
01000000
00100000
01000000
10000000
,
10100000
00000000
10010000
00000000
00110000
00000000
00100000
00001000
,
00011000
00000000
00010000
00000000
00010100
00000000
00000000
00000000
00010000
00000000
00001000
00010000
00001000
00010000
00001000
00010000
,
00001000
00100000
10010000
00000000
10000000
00100000
10010000
00000000
,
11000000
01000000
00100000
00001000
00010000
00000010
00001010
00000000
,
00000001
00000010
00001001
00000000
00001000
00000010
00001001
00000000
,
00000101
00000000
00000100
00000000
00000010
00000000
00010000
00000000
00001000
00000000
00100000
00010000
10000000
00000000
00100000
01000000
,
00001000
00010000
00011000
00000000
00000010
00010000
00011000
00000000
,
00101000
00001000
00010000
00001000
00000010
00000100
00000010
00000001
,
00000100
00001000
00010000
00100000
10100000
10000000
01000000
00010000
,
00020200
00000000
00000000
00030300
,
00011000
00010000
00000100
00001100
00001000
00000001
00000101
00000001
,
00001000
00000000
00001100
00000000
00001100
00000000
00000100
00000000
00010000
00000000
00001000
00010000
00001000
00010000
00001000
00000000
,
00011000
00001000
01000000
01010000
00010000
10000000
11000000
10000000
,
00010000
01010000
01010000
01000000
00001000
00011000
00010010
00010100
,
00011000
00000000
00010000
00000010
00001000
00000000
00000001
00000000
00000010
00000100
00001000
00000001
00000100
00000000
00001000
00010000
,
00001000
00011000
00011000
00001000
01001000
00000000
01100000
00000000
,
20100000
00000000
31000000
01000000
00010000
00010000
00001000
00001000
,
00000100
00000000
00000101
00000000
00001001
00000000
00000000
00000000
00001100
00000000
00000100
00010000
00001000
00010000
00001000
00010000
,
00001000
00000000
01000000
00010000
10000000
00000000
00010000
00000000
10000000
00000000
01000000
00000000
00100000
00000000
01000000
00000000
,
00010000
00001000
00011000
00001000
00000100
00000001
00001000
00000001
,
00001001
00000000
00000001
00000100
00000010
00000000
00000100
00000000
00001000
00000000
00010000
00000000
01000000
00000000
10000000
00000000
,
00010000
00000000
10000000
01000000
00100000
00010000
00100000
00001000
00010000
00000000
00001000
00010000
00000010
00001000
00000001
00000100
,
00000001
00000000
00000100
00001000
00010000
00000000
00011000
00000000
00000000
00000000
01000000
00000000
10010000
00000000
00000000
00000000
,
10000000
01000000
01100000
01000000
00010000
00001000
00011000
00001000
,
00001100
00000100
00000101
00000000
00000011
00000010
00001010
00001000
,
00011000
00000000
00010000
00000000
00100000
00000000
00100000
00000000
10000000
00000000
01000000
00010000
00001000
00010000
00001000
00010000
,
00000010
00000000
00000000
00000000
;
