#TITLE:Agatha All Along;
#ARTIST:Marvel Studios;
#BANNER:Agatha All Along.png;
#BACKGROUND:Agatha All Along-bg.png;
#JACKET:Agatha All Along-jacket.png;
#LYRICSPATH:Agatha All Along.lrc;
#CDTITLE:./CDTITLES/NONE.PNG;
#MUSIC:Agatha All Along.ogg;
#SAMPLESTART:14.594;
#SAMPLELENGTH:15;
#BPMS:0=148;

//---------------dance-single - t7r----------------
#NOTES:
     dance-single:
     t7r:
     Beginner:
     1:
     :
0000
0000
0000
0000
,
0000
0000
0000
0000
,
0000
0000
0000
0000
,
0000
0000
0000
0000
,
0000
0000
0000
0000
,
0001
0000
0000
0000
,
1000
0000
0000
0000
,
0010
0000
0000
0000
,
0100
0000
0000
0000
,
0010
0000
0010
0000
,
0010
0000
0000
1000
,
1000
0000
0000
1000
,
1000
0000
0000
0000
,
0100
0000
0000
0000
,
0010
0000
0010
0000
,
0010
0000
0000
0000
,
0001
0000
0000
0001
,
0001
0000
0000
0000
,
0100
0000
0000
0000
,
0000
0010
0000
0010
,
0010
0000
0010
0000
,
0000
0100
0000
0100
,
0100
0000
0100
0000
,
0000
0001
0000
1000
,
0000
1000
0000
0100
,
0100
0000
0000
0000
,
0010
0000
0010
0000
,
0000
0000
0000
0000
,
0001
0000
0000
0000
,
1000
0000
0000
0000
,
0010
0000
0010
0000
,
0100
0000
0100
0000
,
0001
0000
0001
0000
,
0000
1000
0000
1000
,
1000
0000
0000
0000
,
0000
0000
0000
0000
0000
0000
0000
0110
;

//---------------dance-single - t7r----------------
#NOTES:
     dance-single:
     t7r:
     Easy:
     4:
     :
0000
0000
0000
0000
,
0000
0000
0000
0000
,
0000
0000
0000
0000
,
0000
0000
0000
0000
,
0000
0000
0000
0000
,
1000
0000
0000
0000
,
0001
0001
1000
0000
,
0010
0000
0000
0000
,
0100
0100
0010
0000
,
1000
0000
0100
0000
,
0010
0001
1000
0000
,
0001
0000
0001
0001
,
0001
0000
0100
0000
,
0010
1000
0001
0000
,
0010
0000
0100
0000
,
0010
0000
0001
0000
,
1000
0000
1000
1000
,
1000
0000
0010
0000
,
0100
0000
0001
0000
,
0000
1000
1000
0000
,
0100
0000
0001
0100
,
0100
1000
1000
0000
,
0010
0000
0001
0010
,
0010
0000
0100
0000
,
0001
0000
1000
0000
,
0100
0100
0010
0010
,
0001
0001
1000
1000
,
0010
0000
0000
0000
,
0100
0000
0100
0000
,
0010
0000
1000
0000
,
0002
0000
0013
0001
,
2000
0000
3010
1000
,
0002
0000
0103
0001
,
0100
1001
0000
0110
,
0010
0000
0000
0000
,
0000
0000
0000
0000
0000
0000
0000
1001
;

//---------------dance-single - t7r----------------
#NOTES:
     dance-single:
     t7r:
     Medium:
     7:
     :
0000
0000
0000
0000
,
0000
0000
0000
0000
,
0000
0000
0000
0000
,
0000
0000
0000
0000
,
0000
0000
0000
0000
,
1000
0000
0001
0000
0200
0000
0000
0310
,
0000
0010
0000
1000
0001
0000
0010
0000
,
0001
0000
1000
0000
0200
0000
0000
1300
,
0000
1000
0000
0001
0100
0000
0010
0000
,
1000
0000
0100
0000
1000
0010
1000
0000
,
0001
0100
0000
0001
0000
0000
1000
0000
,
0100
0010
0001
0000
0100
0000
0010
0000
,
1000
0000
0001
0000
0020
0000
0000
0031
,
0000
0001
0000
1000
0010
0000
0100
0000
,
0001
0000
0010
0000
0100
1000
0001
0000
,
0100
0010
0000
1000
0000
0000
0001
1000
,
0100
0010
0100
0000
1000
0000
0010
0000
,
0100
0000
0001
0000
2000
0000
0000
3100
,
0000
0100
0000
0010
0100
0000
1000
0000
,
0010
1000
0002
0000
,
0013
0100
0000
2000
0000
0000
0001
0000
,
3001
0100
0020
0000
,
0130
0001
0000
0020
0000
0130
1000
0000
,
0010
0101
0010
0101
,
0010
1100
0010
1100
,
0010
1000
0001
0000
0010
0001
1000
0000
,
0001
0000
0100
0010
1000
0000
0100
0000
,
0020
0000
0000
0030
,
0001
0100
0000
0001
0000
0000
1000
0000
,
0100
1000
0010
0000
0100
0000
0001
0000
,
0020
0000
1000
0000
0100
0000
0031
1000
,
0020
0000
0001
0000
0100
0000
1030
0001
,
0020
0000
1000
0000
0100
0000
0031
0100
,
0010
1100
0010
0101
,
0010
0000
0000
0000
,
0000
0000
0000
0000
0000
0000
0000
1001
;

//---------------dance-single - t7r----------------
#NOTES:
     dance-single:
     t7r:
     Hard:
     9:
     :
0000
0000
0000
0000
,
0000
0000
0000
0000
,
0000
0000
0000
0000
,
0000
0000
0000
0000
,
0000
0000
0000
0000
,
1000
0000
0100
1000
0200
0000
1300
0001
,
0000
0100
0000
0001
1000
0001
0100
0000
,
0001
0000
0010
0001
0020
0000
0031
1000
,
0000
0010
0000
1000
0001
1000
0100
0000
,
1000
0000
0010
0010
0100
0001
1000
0000
,
0001
0000
0010
0010
0100
1000
0002
2003
,
3002
0203
0320
0000
0032
0000
0023
0000
,
1030
0000
0100
0010
0200
0000
0310
0001
,
0000
1000
0000
0001
0100
0010
1000
0000
,
0001
0000
0010
0010
0100
1000
0001
0100
,
1000
0200
0010
0302
0000
0000
2003
3002
,
2003
3200
0320
0000
2030
0000
3020
0000
,
0031
0000
0100
0010
0200
0000
0310
1000
,
0000
0100
0000
0010
0001
1000
0001
0000
,
1000
1100
0102
1003
,
0001
1100
0000
0202
0000
0000
0000
0000
,
0303
0011
2010
3001
,
1000
0011
0000
2010
0000
3001
0010
0100
,
1000
0100
0010
0000
1000
0100
0001
0000
,
1000
0010
0100
0000
1000
0010
0001
0000
,
1000
0100
0010
0100
0001
0100
1000
0001
,
1000
1000
0010
0010
0100
0100
0001
0001
,
2001
0000
0000
3001
,
1000
0010
0000
0100
0000
1000
0100
0010
,
0100
0001
1000
1000
0100
1000
0001
0000
,
2000
0000
0100
0000
3002
0010
1003
0001
,
0200
0000
1300
0000
0110
0000
0010
1000
,
0100
0001
0200
0000
0320
0000
2030
3020
,
0032
0103
0110
0000
1000
0000
1001
0000
,
0001
0000
0000
1000
0100
0100
0001
0000
0000
0220
0000
0000
,
0000
0000
0000
0000
0330
0000
0000
1001
;

//---------------dance-single - t7r----------------
#NOTES:
     dance-single:
     t7r:
     Challenge:
     13:
     :
0000
0000
0000
0000
,
0000
0000
0000
0000
,
0000
0000
0000
0000
,
0000
0000
0000
0000
,
0000
0000
0000
0000
,
1100
0000
0100
0100
0020
0000
0031
0100
,
1000
0100
0010
0100
0100
0010
0110
0000
,
0101
0000
0100
0100
0020
0000
1030
0100
,
0001
0100
0010
0100
0100
0010
0110
0000
,
2000
0000
3010
0001
0010
0010
0200
0000
,
0301
0010
1000
0010
0100
1000
0010
0100
,
1000
0001
0010
0010
0100
0001
1001
1000
,
1010
0000
0010
0010
0200
0000
0301
0010
,
1000
0010
0100
0010
0010
0100
0110
0000
,
0002
0000
0013
1000
0010
0010
0100
0100
,
1000
0010
0001
0010
0100
0001
0010
0100
,
0001
1000
0010
0010
0100
1000
1001
0001
,
0011
0000
0010
0010
0200
0000
1300
0010
,
0001
0010
0100
0001
0001
1000
1010
0010
,
0100
0000
0101
0001
2000
0000
3001
1000
,
1100
0000
0000
0000
1001
0000
0000
0000
0001
0000
0000
0000
0102
0000
0000
0000
0000
0000
0000
0000
1003
0000
0000
0000
0100
0001
0000
0000
0000
0000
0000
0000
,
0100
1000
0000
0000
0000
0000
0000
0000
0010
0000
0000
0000
0100
0000
0000
0000
0210
0000
0000
0000
0000
0000
0000
0000
0310
0000
0000
0000
0001
0000
0000
0000
,
0011
1010
1000
1002
0000
1003
0010
0100
,
1000
0001
0010
1000
1100
0100
0010
0001
,
1000
0010
0001
1000
1100
0100
0001
1000
,
1100
0100
1100
1000
1001
0001
1001
0001
,
0101
0100
0110
0010
1010
1000
1001
1000
,
2100
0000
0000
0000
0000
0000
0000
0000
0000
0000
0000
0000
0000
0000
0000
3001
1000
0001
0100
0000
0000
0100
0000
0000
,
0001
0010
1000
0010
0100
0100
1000
0010
,
0001
0010
0200
0001
0320
1000
0230
0001
,
0310
1000
1100
0100
0120
1000
0100
0130
,
0010
0000
0000
0000
0001
0000
0000
0000
0101
0000
0000
0000
0100
0000
0000
0000
0010
0100
0000
0000
0000
0000
0000
0000
0001
0000
0000
0000
0010
0000
0000
0000
,
1000
0010
0110
0010
0011
0001
1001
1000
,
1010
0110
0101
0000
0011
0000
0110
0000
,
1100
0000
0000
0000
0000
0000
0000
0000
0000
0000
0000
0000
0001
0000
0000
0000
0100
0000
0000
0000
0100
0000
0000
0000
1000
0000
0000
0000
0000
0000
0000
0000
0000
0000
0000
0000
0110
0000
0000
0000
0000
0000
0000
0000
0001
0000
0000
0010
,
0000
0000
0000
0000
0000
0000
0000
0000
0000
0000
0100
0000
0000
0000
0000
0000
0000
0000
0000
0000
0000
0000
1000
0000
0000
0000
0000
0000
0000
0000
0000
0000
0000
0000
0000
0000
0010
0000
0000
0000
0000
0000
0000
0000
0000
0000
0000
0000
0000
0000
0000
0100
0000
0000
0000
0000
0000
0000
0000
0000
0000
0000
0000
0000
0000
0000
0000
0000
0000
0000
0000
0000
0000
0000
0000
0000
0000
0000
0000
0000
0000
0000
0000
0000
1001
0000
0000
0000
0000
0000
0000
0000
0000
0000
0000
0000
;

//---------------dance-double - t7r----------------
#NOTES:
     dance-double:
     t7r:
     Easy:
     5:
     :
00000000
00000000
00000000
00000000
,
00000000
00000000
00000000
00000000
,
00000000
00000000
00000000
00000000
,
00000000
00000000
00000000
00000000
,
00000000
00000000
00000000
00000000
,
01000000
00010000
10000000
00000000
,
01000000
00100000
00001000
00000000
,
00010000
00000010
00000100
00000000
,
00000010
00001000
00000001
00000000
,
00000010
00000010
00000100
00000100
,
00010000
00001000
00010000
00000000
,
00001000
00010000
01000000
10000000
,
00100000
00000000
10000000
00000000
,
01000000
00000000
10000000
10000000
,
00100000
00100000
01000000
01000000
,
00001000
00010000
00001000
00000000
,
00010000
00001000
00000100
00000001
,
00000010
00000000
00000001
00000000
,
00000100
00000100
00000010
00000000
,
00000000
00010000
00020000
00000000
,
00000100
00000000
00030100
00010000
,
00010000
00001000
00002000
00000000
,
01000000
00000000
01003000
00010000
,
10000000
01000000
00010000
00000000
,
00001000
00000100
00000001
00000000
,
00000010
00000010
00000100
00000100
,
00010000
00010000
00001000
00001000
,
00022000
00000000
00000000
00033000
,
00010000
00000000
01000000
00000000
,
10000000
00000000
00100000
00000000
,
00020000
00000000
00000100
00000000
,
00032000
00000000
01000000
00000000
,
00023000
00000000
00000010
00030000
,
00000000
00000110
00000000
00011000
,
00000000
01000000
01000000
00000000
,
00000000
00000000
00000000
00000000
00000000
00000000
00000000
00011000
;

//---------------dance-double - t7r----------------
#NOTES:
     dance-double:
     t7r:
     Medium:
     7:
     :
00000000
00000000
00000000
00000000
,
00000000
00000000
00000000
00000000
,
00000000
00000000
00000000
00000000
,
00000000
00000000
00000000
00000000
,
00000000
00000000
00000000
00000000
,
00100000
00000000
00001000
00000000
00020000
00000000
00000000
00030010
,
00000000
00000010
00000000
00000100
00000001
00000000
00001000
00000000
,
00000001
00000000
00000010
00000000
00000200
00000000
00000000
00010300
,
00000000
00010000
00000000
00001000
00010000
00000000
01000000
00000000
,
10000000
00000000
00100000
00000000
10000000
01000000
10000000
00000000
,
00010000
01000000
00000000
00001000
00000000
00000000
00010000
00000000
,
00001000
00000100
00000001
00000000
00001000
00000000
00000100
00000000
,
00000010
00000000
00000001
00000000
00000200
00000000
00000000
00000310
,
00000000
00000010
00000000
00001000
00000100
00000000
00010000
00000000
,
00001000
00000000
00010000
00000000
01000000
10000000
01000000
00000000
,
10000000
00100000
00000000
10000000
00000000
00000000
01000000
00000000
,
00010000
00001000
00010000
00000000
00001000
00000000
00000010
00000000
,
00000001
00000000
00000100
00000000
00000020
00000000
00000000
00001030
,
00000000
00001000
00000000
00000100
00010000
00000000
00001000
00000000
,
00010000
00100000
20000000
00000000
,
31000000
00100000
00000000
01000000
00000000
00000000
00010000
00000000
,
00011000
00001000
00000200
00000000
,
00000310
00000100
00000000
00000001
00000000
00000010
00001000
00000000
,
00010000
00001100
00010000
00011000
,
00001000
01010000
00001000
00011000
,
00010000
01000000
10000000
00000000
00010000
01000000
10000000
00000000
,
01000000
00000000
00001000
00001000
00010000
00000000
00000100
00000000
,
00000020
00000000
00000000
00000031
,
00000100
00001000
00000000
00000100
00000000
00000001
00001000
00000000
,
00000100
00010000
00001000
00010000
,
02000000
00000000
00010000
03100000
,
00002000
00000000
00010000
00003100
,
00000020
00000000
00000001
00001030
,
00000100
00011000
01000000
00011000
,
00100000
00001000
00001000
00010000
,
00000000
00000000
00000000
00000000
00000000
00000000
00000000
00011000
;

//---------------dance-double - t7r----------------
#NOTES:
     dance-double:
     t7r:
     Hard:
     9:
     :
00000000
00000000
00000000
00000000
,
00000000
00000000
00000000
00000000
,
00000000
00000000
00000000
00000000
,
00000000
00000000
00000000
00000000
,
00000000
00000000
00000000
00000000
,
00000100
00000000
00001000
00000001
00000200
00000000
00000301
00000010
,
00000000
00001000
00000000
00010000
00001000
00000000
00010000
00000000
,
00100000
00000000
10000000
00010000
00200000
00000000
00310000
01000000
,
00000000
00001000
00000000
00010000
00001000
00000100
00000010
00000000
,
00001000
00000000
00000100
00000100
00000010
00000001
00001000
00000000
,
00000001
00000000
00000100
00000100
00001000
00010000
00002000
00003200
,
00000302
00000023
00000032
00000000
00000023
00000000
00002030
00000000
,
00013000
00000000
00001000
00010000
02000000
00000000
13000000
00100000
,
00000000
01000000
00000000
10000000
01000000
00010000
10000000
00000000
,
01000000
00000000
00010000
00010000
00001000
00010000
00001000
00000100
,
00000001
00000020
00000000
00002030
00000000
00000000
00023000
00230000
,
20300000
32000000
03200000
00000000
00302000
00000000
00023000
00000000
,
00030010
00000000
00000100
00000001
00000200
00000000
00000301
00001000
,
00000000
00000100
00000000
00010000
00001000
00010000
02000000
00000000
,
13000000
10100000
00210000
00301000
,
00010000
00001100
00000000
00002002
00000000
00000000
00000000
00000000
,
00003003
00000001
00000012
00001003
,
00000100
00011000
00000000
00210000
00000000
00310000
01000000
00100000
,
10000000
01000000
00010000
00000000
00001000
00000100
00000001
00001000
,
00000001
00000010
00001000
00000000
00010000
00100000
10000000
01000000
,
10000000
00010000
00001000
00000001
00001000
00010000
10000000
00010000
,
10000000
10000000
00100000
00100000
00010000
00010000
00001000
00001000
,
00000200
00000000
00000000
00000301
,
00000010
00000100
00000000
00001000
00000000
00000001
00000100
00000010
,
00001000
00000100
00010000
00010000
00001000
01000000
00100000
00000000
,
20000000
00000000
01000000
00000000
30010000
00100000
00002000
00000000
,
00003020
00000000
00000032
00000000
00000103
00001000
00020000
00000000
,
00230000
00000000
20300000
00000000
31000000
00010000
00002000
00000000
,
01003000
00011000
00000010
00011000
,
00001000
00000000
00000000
00000100
00001000
00001000
00010000
00000000
00000000
00022000
00000000
00000000
,
00000000
00000000
00000000
00000000
00033000
00000000
00000000
00100010
;

//---------------dance-double - t7r----------------
#NOTES:
     dance-double:
     t7r:
     Challenge:
     13:
     :
00000000
00000000
00000000
00000000
,
00000000
00000000
00000000
00000000
,
00000000
00000000
00000000
00000000
,
00000000
00000000
00000000
00000000
,
00000000
00000000
00000000
00000000
,
00000011
00000000
00000001
00000001
00000200
00000000
00000301
00000010
,
00001000
00010000
00000100
00001000
00001000
00000001
00000100
00001000
,
00011000
00000000
00010000
00100000
20000000
00000000
30010000
00100000
,
10000000
00100000
00010000
10000000
10000000
00100000
00010000
00001000
,
00012000
00000000
00003100
00000001
00000100
00000100
00000020
00000000
,
00001030
00000100
00000001
00000100
00000010
00000001
00000100
00001000
,
00010000
00001000
01000000
01000000
00010000
10000000
10010000
10000000
,
10100000
00000000
00100000
00100000
02000000
00000000
03010000
10000000
,
01000000
00010000
00001000
00000100
00000100
00000010
00001010
00000000
,
00000002
00000000
00000013
00001000
00000010
00000010
00000100
00000100
,
00001000
00000100
00010000
00001000
00010000
01000000
10000000
00100000
,
00010000
00001000
01000000
01000000
00100000
00010000
00011000
00001000
,
00101000
00000000
00100000
00100000
02000000
00000000
13000000
00100000
,
00010000
00100000
01000000
00010000
10000000
00010000
10010000
10000000
,
11000000
00000000
20000000
00000000
30020000
00000000
00031000
00000001
,
00000100
00000000
00000000
00000000
00000100
00000000
00000000
00000000
00001000
00000000
00000000
00000000
00010000
00000000
00000000
00000000
01010000
00000000
00000000
00000000
01000000
00000000
00000000
00000000
10000000
00010000
00000000
00000000
00000000
00000000
00000000
00000000
,
00001000
00000001
00000000
00000000
00000000
00000000
00000000
00000000
00000002
00000000
00000000
00000000
00000000
00000000
00000000
00000000
00002003
00000000
00000000
00000000
00000000
00000000
00000000
00000000
00013000
00000000
00000000
00000000
10000000
00000000
00000000
00000000
,
01000000
01000000
00010000
00001000
00001100
00000100
00000110
00000010
,
00001000
00000100
00011000
00000000
00001000
01000000
00011000
00000000
,
00010000
00000010
00011000
00000000
00001000
00100000
00011000
00000000
,
00010100
00000100
00010100
00010000
00011000
00001000
00011000
00010000
,
01010000
01000000
11000000
10000000
10100000
00100000
00110000
00010000
,
00021000
00000000
00000000
00000000
00000000
00000000
00000000
00000000
00000000
00000000
00000000
00000000
00000000
00000000
00000000
00030100
00001000
00000001
00001000
00000000
00000000
00001000
00000000
00000000
,
00000001
00000010
00001000
00010000
00000100
00001000
00000001
00000100
,
00001000
00010000
00100000
01000000
00001000
00010000
00100000
10000000
,
01000000
00010000
00011000
00001000
00021000
00000000
00030100
00001000
,
00001001
00000000
00000000
00000000
00000001
00000000
00000000
00000000
00000201
00000000
00000000
00000000
00000000
00000000
00000000
00000000
00001300
00010000
00000000
00000000
00000000
00000000
00000000
00000000
01000000
00000000
00000000
00000000
10000000
00000000
00000000
00000000
,
10100000
00100000
01100000
01000000
01010000
00010000
00110000
00100000
,
00101000
00011000
00010100
00000000
00010010
00000000
00011000
00000000
,
01001000
00000000
00000000
00000000
00000000
00000000
00000000
00000000
00000000
00000000
00000000
00000000
00001000
00000000
00000000
00000000
00010000
00000000
00000000
00000000
01000000
00000000
00000000
00000000
10000000
00000000
00000000
00000000
00000000
00000000
00000000
00000000
00000000
00000000
00000000
00000000
00100000
00000000
00000000
00000000
00000000
00000000
00000000
00000000
00010000
00000000
00000000
00001000
,
00000000
00000000
00000000
00000000
00000000
00000000
00000000
00000000
00000000
00000000
00000100
00000000
00000000
00000000
00000000
00000000
00000000
00000000
00000000
00000000
00000000
00000000
00000001
00000000
00000000
00000000
00000000
00000000
00000000
00000000
00000000
00000000
00000000
00000000
00000000
00000000
00000010
00000000
00000000
00000000
00000000
00000000
00000000
00000000
00000000
00000000
00000000
00000000
00000000
00000000
00000000
00000100
00000000
00000000
00000000
00000000
00000000
00000000
00000000
00000000
00000000
00000000
00000000
00000000
00000000
00000000
00000000
00000000
00000000
00000000
00000000
00000000
00000000
00000000
00000000
00000000
00000000
00000000
00000000
00000000
00000000
00000000
00000000
00000000
00011000
00000000
00000000
00000000
00000000
00000000
00000000
00000000
00000000
00000000
00000000
00000000
;
