#TITLE:ANOMIE;
#ARTIST:摩天楼オペラ;
#ARTISTTRANSLIT:Matenrou Opera;
#BANNER:ANOMIE.png;
#BACKGROUND:ANOMIE-bg.png;
#JACKET:ANOMIE-jacket.png;
#CDTITLE:./CDTITLES/NONE.PNG;
#MUSIC:ANOMIE.ogg;
#SAMPLESTART:47.717;
#SAMPLELENGTH:15;
#DISPLAYBPM:115:230;
#BPMS:0=230,172=115,180=230,356=238,360=230,362=220,364=230,370=220,371=230,372=240,375=248,376=230,377=235,378=210,379=225,380=230,381=235,382=225,383=222,384=238;

//---------------dance-single - t7r----------------
#NOTES:
     dance-single:
     t7r:
     Beginner:
     3:
     :
0000
0000
0000
0000
,
0000
0000
0000
0000
,
0000
0000
0000
0000
,
0000
0000
0000
0000
,
0000
0000
0000
0000
,
0000
0000
0000
0000
,
0000
0000
0000
0000
,
0000
0000
0000
0000
,
0000
0000
0000
0000
,
0010
0000
0000
0000
,
0000
0000
0000
0000
,
1000
0000
0000
0000
,
0000
0000
0000
0000
,
0001
0000
0000
0000
,
0000
0000
0000
0000
,
0010
0000
0000
0000
,
0000
0000
0000
0000
,
0100
0000
0000
0000
,
0000
0000
0000
0000
,
1000
0000
0000
0000
,
0000
0000
0000
0000
,
0001
0000
0000
0000
,
0000
0000
0000
0000
,
0100
0000
0000
0000
,
0100
0000
0000
0000
,
0010
0000
0000
0000
,
0000
0000
0000
0000
,
1000
0000
0000
0000
,
0000
0000
0000
0000
,
0001
0000
0000
0000
,
0000
0000
0000
0000
,
0010
0000
0000
0000
,
0010
0000
0000
0000
,
0100
0000
0000
0000
,
0000
0000
0000
0000
,
1000
0000
0000
0000
,
0000
0000
0000
0000
,
0001
0000
0000
0000
,
0000
0000
0000
0000
,
0100
0000
0000
0000
,
0100
0000
0000
0000
,
0010
0000
0000
0000
,
0000
0000
0000
0000
,
1000
0000
0000
0000
,
0000
0000
0000
0000
,
0001
0000
0000
0000
,
0000
0000
0000
0000
,
1000
0000
0000
0000
,
0000
0000
0000
0000
,
0000
0010
0000
0000
,
0000
0010
0000
0000
,
0000
0010
0000
0000
,
0000
0000
0000
0000
,
0100
0000
0000
0000
,
0000
0000
0000
0000
,
0001
0000
0000
0000
,
0000
0000
0000
0000
,
1000
0000
0000
0000
,
1000
0000
0000
0000
,
0100
0000
0000
0000
,
0000
0000
0000
0000
,
0010
0000
0000
0000
,
0000
0000
0000
0000
,
0001
0000
0000
0000
,
0000
0000
0000
0000
,
0000
1000
0000
0000
,
0000
1000
0000
0000
,
0000
1000
0000
0000
,
0000
0000
0000
0000
,
0010
0000
0000
0000
,
0000
0000
0000
0000
,
0100
0000
0000
0000
,
0000
0000
0000
0000
,
0001
0000
0000
0000
,
0000
0000
0000
0000
,
1000
0000
0000
0000
,
0000
0000
0000
0000
,
0010
0000
0000
0000
,
0000
0000
0000
0000
,
0100
0000
0000
0000
,
0001
0000
0000
0000
,
1000
0000
0000
0000
,
0000
0000
0000
0000
,
0100
0000
0000
0000
,
0000
0000
0000
0000
,
0000
0010
0000
0000
,
0010
0000
0000
0000
,
0000
0100
0000
0000
,
0100
0000
0000
0000
,
1000
0000
0000
0000
,
0001
0000
0000
0000
,
0100
0000
0000
0000
,
0100
0000
0000
0000
,
0010
0000
0000
0000
,
0010
0000
0000
0000
,
1000
0000
0000
0000
,
0001
0000
0000
0000
;

//---------------dance-single - t7r----------------
#NOTES:
     dance-single:
     t7r:
     Easy:
     8:
     :
0000
0000
0000
0000
,
0000
0000
0000
0000
,
0000
0000
0000
0000
,
0000
0000
0000
0000
,
0000
0000
0000
0000
,
0000
0000
0000
0000
,
0000
0000
0000
0000
,
0000
0000
0000
0000
,
0000
0000
0000
0000
,
1000
0000
0100
0000
,
1000
0001
0100
0000
,
0001
0000
0010
0000
,
0001
1000
0010
0000
,
1000
0000
0100
0000
,
0010
0000
0100
0000
,
1000
0000
0001
0000
,
0100
0001
1000
0000
,
0001
0000
0010
0000
,
0001
1000
0010
0000
,
1000
0000
0100
0000
,
1000
0001
0100
0000
,
0001
0000
0010
0000
,
0100
0000
0010
0000
,
0001
0000
1000
0000
,
0010
1000
0001
0000
,
2002
0000
3003
0000
,
0000
0000
0000
0000
,
0220
0000
0330
0000
,
0000
0000
0000
0000
,
0202
0000
0303
0000
,
0000
0000
0000
0000
,
1010
0000
0000
0000
,
1000
0001
0100
0000
,
2002
0000
3003
0000
,
0000
0000
0000
0000
,
0220
0000
0330
0000
,
0000
0000
0000
0000
,
2200
0000
3300
0000
,
0000
0000
0000
0000
,
0011
0000
0000
0000
,
0001
1000
0100
0000
,
1000
0000
0010
0000
,
0100
0001
1000
0000
,
0002
0000
0000
2003
,
3020
0000
0030
0000
,
1000
0000
0100
1000
,
0001
0000
1000
0000
,
0001
0000
0100
0001
,
1000
0000
0010
0000
,
0100
0110
0000
0000
,
0001
0100
0000
0000
,
0001
1001
0000
0000
,
1000
0000
0100
0000
,
0010
0000
0001
0000
,
1000
0001
0010
0000
,
0001
0000
1000
0000
,
0010
1000
0001
0000
,
0100
0000
0001
1000
,
0100
0000
1000
0000
,
0001
0000
0000
0010
0000
0000
0100
0000
,
0000
1000
0000
0000
1001
0000
0000
0000
,
0001
0000
0010
0001
,
1000
0000
0001
0000
,
1000
0000
0010
1000
,
0001
0000
0100
0000
,
0010
0110
0000
0000
,
1000
0010
0000
0000
,
1000
1001
0000
0000
,
0001
0000
0010
0000
,
0100
0000
1000
0000
,
0001
1000
0100
0000
,
0020
0000
1000
0000
,
0100
0000
0031
0000
,
1000
0000
0001
0100
,
0001
0100
0001
0000
,
1000
0000
0100
1000
,
0100
1000
0100
0000
,
0010
0000
0001
1000
,
0001
1000
0001
0000
,
0200
0000
1000
0000
,
0010
0000
0301
0000
,
2000
0000
0100
0000
,
0000
0000
3001
0000
,
0002
0000
0010
0000
,
1003
0001
1000
0000
,
0001
0000
0010
0000
0000
0100
0000
0000
,
1000
0000
0000
0010
0000
0000
0200
0000
,
0300
0000
0000
0000
0000
0010
0000
0000
,
1000
0000
0000
0001
0000
0000
0010
0000
,
0100
0000
0000
0001
0000
0000
0100
0000
,
0000
1000
0000
0000
0100
0000
0001
0000
,
0100
0000
0000
0110
0000
0000
1100
0000
,
0000
1001
0000
0000
0101
0000
0101
0000
,
0001
0000
0000
1000
0000
0000
0010
0000
,
0000
0100
0000
0000
0110
0000
0110
0000
,
1001
0000
0000
1100
0000
0000
1001
0000
,
0000
0011
0000
0000
0001
0000
2002
0000
,
3003
0000
0000
0000
;

//---------------dance-single - t7r----------------
#NOTES:
     dance-single:
     t7r:
     Medium:
     11:
     :
0000
0000
0000
0000
,
0000
0000
0000
0000
,
0000
0000
0000
0000
,
0000
0000
0000
0000
,
0000
0000
0000
0000
,
1000
0100
1000
0000
0001
0000
0000
1000
,
0000
0010
0000
1000
0001
0000
1000
0000
,
0001
0100
0001
0000
1000
0001
0000
1001
,
0000
0000
0000
0000
,
1000
0100
0010
0000
,
0001
0000
0000
0100
0000
0001
1000
0000
,
0001
0010
0100
0000
,
1000
0000
0000
0010
0000
1000
0001
0000
,
1000
0000
0100
1000
0000
0000
0001
0000
,
0100
0001
0000
0000
1000
0000
0010
0000
,
1000
0000
0001
0010
0000
0000
0001
0000
,
2000
3020
0230
0302
,
1003
0000
0100
0000
0010
0100
0000
0000
,
0001
0000
0000
0100
0000
1000
0001
0000
,
1000
0000
0010
0000
0001
0010
0000
0000
,
0100
0000
0000
0010
0000
1000
0001
0000
,
0010
0000
0100
1000
0000
0000
0010
0000
,
0100
0001
0000
0000
0010
0000
0001
0000
,
1000
0010
0000
0001
0000
0000
0010
1000
,
0000
0001
0000
0000
0010
0000
0100
0000
,
2001
0000
3100
0000
,
1000
0000
0001
0000
0100
0010
0100
0000
,
0002
0000
0013
0000
,
0100
0000
1000
0000
0010
0100
0010
0000
,
2000
0000
3100
0000
,
0010
0001
1000
0000
,
0001
0000
0100
0010
0000
0100
0002
0000
,
0000
0010
1003
0000
,
1002
0000
0103
0000
,
0001
0000
1000
0000
0100
0010
0100
0000
,
2000
0000
3010
0000
,
0100
0000
0001
0000
0010
0100
0010
0000
,
0002
0000
0103
0000
,
0010
1000
0001
0000
,
1000
0000
0100
0010
0000
0100
1000
0002
,
0000
0100
1003
0001
,
1000
0000
0100
0000
1000
0010
1000
0000
,
0001
0000
0100
0000
0001
0010
0001
0000
,
2000
0000
0000
3002
,
0203
0000
0310
0000
,
1001
0000
1000
0000
0000
0100
1000
0000
,
0001
0000
1000
0000
0000
0001
0100
0000
,
0001
0000
0010
0000
0000
0001
1000
0000
,
0010
0000
1000
0000
0000
0001
1000
0000
,
0100
0000
0011
0000
0000
1000
0001
0000
,
0100
0000
1010
0000
0000
0001
1000
0000
,
0100
0000
1001
0000
0000
0001
1000
0000
,
0010
0000
0100
0000
0001
0010
0001
0000
,
2000
0000
0100
0000
0000
3001
1000
0000
,
0001
0000
0100
0000
0000
0001
1000
0000
,
0002
0010
2003
0010
,
3002
0100
2003
0100
,
3001
0100
0010
1000
,
0000
0100
0001
0100
,
0010
0000
0000
0011
0000
0000
0100
0000
,
0000
1100
0000
0000
1000
0000
1001
0000
,
0001
0000
0100
0001
0100
0000
0000
0000
,
0001
0000
1000
0100
1000
0000
0000
0000
,
0010
0000
0100
0010
0100
0000
0000
0000
,
0001
0000
1000
0001
0100
0000
0001
0000
,
0010
1100
0000
1000
,
0010
0101
0000
0001
,
0010
0110
0000
0001
,
1000
0000
0100
1000
0001
0000
1000
0000
,
0100
0000
0010
0000
0000
0001
1000
0000
,
0010
0000
0100
0000
0000
0001
1000
0000
,
0020
0000
0001
0000
,
0100
0000
1030
0000
,
0200
0000
0301
0100
,
0010
0000
0100
1000
0001
0000
0100
0000
,
0201
0000
1300
0100
,
0010
0000
0100
0001
1000
0000
0100
0000
,
0201
0000
0301
0100
,
0010
0000
0001
1000
0010
0000
0100
0000
,
0210
0000
1300
0100
,
0001
0000
1001
0000
,
2000
0000
0010
0000
,
0000
0000
3001
0000
,
1002
0000
0010
0000
,
1003
0000
0100
0010
0002
0000
0003
0000
,
1000
0000
0010
0000
1000
0001
0000
0000
,
0100
0000
0000
0010
1000
0000
0002
0000
,
0013
0000
0100
0000
1000
0001
0000
0000
,
0010
0000
0000
0001
1000
0000
0020
0000
,
0130
0010
1000
0000
,
0100
0000
0010
0000
0001
1000
0001
0000
,
1000
0000
0000
1100
0000
0000
0011
0000
,
0000
1001
0000
0000
0010
0000
0110
0000
,
0001
1000
0000
0001
0100
0000
1000
0100
,
0000
0001
1000
0000
0100
0000
0110
0000
,
1000
0001
0000
1000
0100
0000
0001
0100
,
0000
1000
0001
0000
1000
0000
2020
0000
,
3030
0000
0000
0000
;

//---------------dance-single - t7r----------------
#NOTES:
     dance-single:
     t7r:
     Hard:
     14:
     :
0000
0000
0000
0000
,
0000
0000
0000
0000
,
0000
0000
0000
0000
,
0000
0000
0000
0000
,
0000
0000
0000
0000
,
0000
0000
0000
0000
,
0000
0000
0000
0000
,
0000
0000
0000
0000
,
0000
0000
0000
0000
,
0100
0000
0001
0000
1000
0010
0000
1000
,
0001
0000
1000
0100
0000
0100
1000
0000
,
0010
0000
1000
0000
0001
0100
0000
0001
,
1000
0000
0001
0010
0000
0010
0001
1000
,
0100
0000
0010
0100
0000
1000
0100
0000
,
0010
0100
0000
0100
1000
0000
0001
0000
,
0100
0000
0010
0100
0000
0001
0100
0001
,
2000
3200
0320
0032
,
1003
0000
0010
0000
1000
0001
0000
0010
,
0001
0000
1000
0100
0000
0100
1000
0000
,
0001
0000
0010
0000
0001
1000
0000
0001
,
0100
0000
0010
1000
0000
1000
0001
0010
,
0001
0000
0100
1000
0000
0100
0010
0000
,
0100
0001
0000
0001
1000
0000
0100
0000
,
1000
0010
0000
0001
0000
0010
1000
0001
,
0000
0010
0000
1000
0010
0100
0010
0000
,
0012
0000
0000
0000
0103
0000
1000
0100
,
0000
0010
0100
0000
1000
0100
0010
0000
,
2010
0000
0000
0000
3100
0000
0001
0100
,
0000
0010
0100
0000
0001
0100
0010
0000
,
0012
0000
0000
0000
0103
0000
1000
0100
,
0000
0010
0100
0000
0001
1000
0100
0000
,
1000
0000
0001
0010
0000
1000
0010
0200
,
0000
1300
0001
0000
0110
0000
0000
0000
,
1020
0000
0000
0000
0130
0000
1000
0100
,
0000
0001
0010
0000
0100
1000
0001
0000
,
0021
0000
0000
0000
0130
0000
0001
0100
,
0000
1000
0010
0000
0100
0010
1000
0000
,
1200
0000
0000
0000
0310
0000
1000
0010
,
0000
0100
0010
0000
0001
0100
0010
0000
,
0001
0000
0010
1000
0000
0001
0010
0200
,
0000
1300
0001
0000
0100
0000
0110
0000
,
0001
0010
0001
0000
1000
0100
0010
0100
,
1000
0010
1000
0000
0001
0100
0010
0100
,
0002
0000
0000
2003
,
3200
0000
1300
0001
,
1000
0000
0100
0010
0100
1000
0001
0000
,
1000
0000
0001
0100
0010
0100
0001
0000
,
0010
0000
0001
1000
0010
1000
0001
0000
,
1000
0000
0100
1000
0001
1000
0010
0000
,
0100
0000
1010
0000
1000
0100
0010
0000
,
0100
0000
0011
0000
0001
0100
0010
0000
,
0100
0000
1001
0000
0001
1000
0100
0000
,
1000
0000
0001
0010
0100
0010
0001
0000
,
2000
0000
0010
0000
3001
0100
0001
0000
,
0010
0000
0100
1000
0001
1000
0100
0000
,
0020
1000
0230
0001
,
0320
0000
0031
0100
0010
1000
0001
0000
,
0200
0000
1300
0100
0001
0000
0200
0000
,
1300
0100
0001
0100
0010
0000
1000
0000
,
1200
0000
0301
0200
0000
1300
0200
0000
,
0301
0200
0000
1300
0001
0000
1001
0000
,
1000
0010
0100
0010
1000
0001
0100
0000
,
0001
0010
0100
0010
0001
1000
0100
0000
,
1000
0010
0100
0010
1000
0001
0010
0000
,
0001
0010
0100
0010
0001
1000
0010
0000
,
0100
0000
1010
0010
0100
0000
1001
0000
,
0100
0000
0011
0010
0100
0000
1001
0000
,
0100
0000
1010
0010
0100
0000
1001
0000
,
0001
1000
0100
1000
0001
1000
0010
0000
,
1000
0100
0010
0100
1000
0001
0010
0000
,
0001
0100
0010
0100
0001
1000
0010
0000
,
2000
0000
3001
1000
0001
1000
0001
1000
,
0001
0010
0100
1000
0001
0100
0010
1000
,
0200
0000
0301
0100
0010
0000
0200
0000
,
0301
0100
1000
0100
0001
0100
1000
0001
,
0200
0000
1300
0100
0010
0000
0200
0000
,
1300
0100
0001
0100
1000
0100
0001
1000
,
0020
0000
1030
0010
0100
0000
0020
0000
,
0031
0010
1000
0010
0001
0010
1000
0001
,
0020
0000
1030
0010
0100
0000
0020
0000
,
1030
0010
0001
0010
0100
0000
1100
0000
,
2000
0000
0000
0100
3001
0000
0100
0000
,
0010
0000
1000
0001
0100
0000
0001
0000
,
1002
0000
0000
0100
1003
0000
0010
0000
,
0100
0010
0100
0000
0010
0000
1001
0000
,
1000
0000
0100
0000
0010
1000
0000
0010
,
0100
0000
0010
1000
0000
1000
0020
0000
,
0031
0000
0100
0000
0010
0001
0000
0010
,
0100
0000
0010
1000
0000
1000
0002
0000
,
0013
0000
1100
0000
1000
0001
0100
0000
,
0110
0000
1000
0001
0010
0001
1000
0000
,
1001
0000
1000
1000
0000
0100
0100
0000
,
0001
0001
0000
0010
0010
0000
1001
0000
,
0001
0001
0000
0100
0100
0000
1000
1000
,
0000
0010
0010
0000
0110
0000
0101
0000
,
1001
0000
1000
1010
0000
0001
0011
0000
,
1000
1100
0000
0001
0101
0000
2002
0000
,
3003
0000
0000
0000
;

//---------------dance-single - t7r----------------
#NOTES:
     dance-single:
     t7r:
     Challenge:
     16:
     :
0000
0000
0000
0000
,
0000
0000
0000
0000
,
0000
0000
0000
0000
,
0000
0000
0000
0000
,
0000
0000
0000
0000
,
1000
0100
1000
0100
0010
0001
0000
0100
,
0000
1000
0000
0100
0010
0000
2000
0000
,
3001
0010
0001
0010
0100
1000
0000
1001
,
0000
0000
0000
0100
,
1001
1000
0100
0010
0100
1000
0001
1000
,
0001
0010
1000
0001
0100
1000
0002
0000
,
1003
0001
0100
0010
0100
0001
1000
0001
,
1000
0010
0001
1000
0100
0001
2000
0000
,
3010
0001
1000
0100
0001
0010
1000
0001
,
0100
1000
0010
0001
1000
0100
0010
0100
,
0001
0010
1000
0001
0100
1000
0001
0100
,
0020
0001
0230
1000
0310
0010
1000
0001
,
1001
0001
0010
0100
0010
0001
1000
0001
,
1000
0100
0001
1000
0010
0001
2000
0000
,
3001
1000
0010
0100
0010
1000
0001
1000
,
0001
0100
1000
0001
0010
1000
0002
0000
,
1003
0100
0010
1000
0001
0100
0010
0001
,
1000
0010
0100
1000
0001
0010
1000
0001
,
1000
0010
0100
1000
0001
0010
0100
0001
,
1000
0100
0010
1000
0001
0100
0100
0010
,
0012
0000
0000
0100
1003
0000
0010
0020
,
0000
0001
0130
0010
1000
0100
0001
0100
,
2100
0000
0000
0010
3001
0000
0100
0100
,
1000
0100
0010
0100
0001
0010
1000
0010
,
0012
0000
0000
1000
0013
0000
0100
0200
,
0000
0001
0310
0001
1000
0010
0001
0010
,
2010
0000
0000
0000
0000
0000
3100
0010
0001
0000
0000
0000
0100
0000
0120
0000
,
0000
0000
0000
0130
0000
0000
0001
0000
0000
1000
0001
0100
0001
0000
0000
0000
0000
0000
0000
0000
0000
0000
0000
0000
,
2100
0000
0000
0010
3001
0000
0100
0200
,
0000
1000
0310
0100
0001
0010
1000
0010
,
0012
0000
0000
0100
1003
0000
0010
0010
,
0001
0010
0100
0010
1000
0100
0001
0100
,
2100
0000
0000
0001
3100
0000
0010
0020
,
0000
1000
0130
1000
0001
0100
1000
0100
,
0102
0000
0000
0000
0000
0000
0010
0000
1003
0000
0100
0010
0001
0000
2001
0000
,
0000
0000
0000
0000
0000
0000
0000
0000
0000
3100
1000
0001
1000
0000
0000
0001
0100
0001
1000
0000
0000
0000
0000
0000
,
0001
0010
0100
0001
1000
0010
0001
0100
,
1000
0100
0010
1000
0001
1000
1000
0001
,
2001
0000
0000
3020
,
0230
0000
0301
1000
,
0001
0010
0100
1000
0010
0100
0001
1000
,
0100
0010
0001
1000
0010
0100
0001
1000
,
0001
0010
0100
1000
0010
0100
0001
1000
,
0100
0010
0001
0100
0010
1000
0001
0100
,
0010
0100
1001
0001
0010
0100
1000
0001
,
0100
0010
1001
1000
0100
0010
0001
0100
,
0010
0100
1001
0001
0010
0001
1000
0010
,
0100
0010
1001
1000
0100
0010
1001
0001
,
1000
0010
0100
0001
0010
0100
1000
0001
,
0100
0010
1000
0001
0010
0100
1000
0001
,
1000
0010
0100
0001
0010
0100
1000
0001
,
0100
0010
0010
1000
1000
0100
0100
0010
,
0012
0000
0103
1000
0200
0000
0310
0000
,
0100
1000
0100
0010
0200
0000
0301
0000
,
1001
1000
0100
1100
1000
0001
1001
0001
,
0100
0101
0001
1000
1001
0000
0110
0000
,
0001
0010
0100
1000
0010
0001
0010
1000
,
0001
1000
0100
0010
0001
1000
0100
0001
,
0100
1000
0010
0100
0001
1000
0010
0001
,
0010
1000
0001
0010
0100
1000
0001
0010
,
0001
0100
1010
0010
1000
0001
1000
0010
,
1000
0100
0011
0010
0100
1000
0001
0100
,
0010
0100
1001
0001
0100
0010
1000
0001
,
1000
0010
0001
0010
1000
0001
0010
1000
,
0010
0100
1000
0010
0100
1000
0100
0010
,
0100
0001
0010
0100
0001
0100
0010
0001
,
0200
0000
1000
1000
0010
0010
0001
0001
,
0010
0010
1000
1000
0010
0010
0301
1000
,
1001
1000
0100
0001
0100
0010
0100
0001
,
0100
1000
0001
0100
1000
0100
0001
1000
,
1001
0001
0100
1000
0100
0010
0100
1000
,
0100
0001
1000
0100
0001
0100
1000
0001
,
1001
1000
0010
0001
0010
0100
0010
0001
,
0010
1000
0001
0010
1000
0010
0001
1000
,
1001
0001
0010
1000
0010
0100
0010
1000
,
0010
0001
1000
0010
0001
0010
0100
0100
,
0002
0000
0003
2000
,
0000
3002
0000
0023
,
0000
0000
0000
0031
,
1000
0000
0100
1000
0100
0000
1000
0001
1000
0000
0000
0000
1001
0000
0000
0000
,
1000
0010
0100
1000
0001
0010
1000
0001
,
1000
0100
0010
1000
0001
0100
2000
0010
,
3001
0010
0100
0001
1000
0010
0001
1000
,
0001
0100
0010
0001
1000
0100
0002
0010
,
1003
0000
1100
0000
0100
0100
0001
0000
,
0101
0000
0100
0100
1000
0000
1100
0000
,
1001
0000
0001
0110
0000
0100
1010
0000
,
1000
0110
0000
0100
0011
0000
1001
0000
,
1000
0100
1000
0000
0001
0000
1000
0100
1000
0000
0001
0000
1000
0010
1000
0000
,
0001
0000
1000
0010
1000
0000
0001
0000
1000
0100
0010
0000
0001
0100
0010
0000
,
1010
0000
0001
1100
0000
1000
0011
0000
,
0100
0000
0000
1010
0000
0000
0000
0000
0000
0100
0000
0000
0011
0000
0000
0001
1000
0100
2000
0000
0000
0000
0000
0000
,
3000
0000
0000
0000
;

//---------------dance-double - t7r----------------
#NOTES:
     dance-double:
     t7r:
     Easy:
     8:
     :
00000000
00000000
00000000
00000000
,
00000000
00000000
00000000
00000000
,
00000000
00000000
00000000
00000000
,
00000000
00000000
00000000
00000000
,
00000000
00000000
00000000
00000000
,
00000000
00000000
00000000
00000000
,
00000000
00000000
00000000
00000000
,
00000000
00000000
00000000
00000000
,
00000000
00000000
00000000
00000000
,
00000001
00000000
00000010
00000000
,
00000100
00001000
00000001
00000000
,
00000100
00000000
00001000
00000000
,
00010000
01000000
10000000
00000000
,
00100000
00000000
10000000
00000000
,
00010000
00000000
00100000
00000000
,
00001000
00000000
00010000
00000000
,
00000020
00002030
00003002
00000203
,
00000310
00000000
00001000
00000000
,
00000100
00010000
00001000
00000000
,
01000000
00000000
00010000
00000000
,
10000000
00100000
01000000
00000000
,
00100000
00000000
00010000
00000000
,
00001000
00000000
00000010
00000000
,
00000100
00000000
00001000
00000000
,
00000001
00000100
00001000
00000000
,
00022000
00000000
00033000
00000000
,
00001000
01000000
00010000
00000000
,
20020000
00000000
30030000
00000000
,
10000000
01000000
00100000
00000000
,
00220000
00000000
00330000
00000000
,
00100000
00000000
00001000
00000000
,
00010000
00000000
00001000
00000000
,
00000010
00000000
00000110
00000000
,
00002002
00000000
00003003
00000000
,
00000001
00000100
00001000
00000000
,
00022000
00000000
00033000
00000000
,
00010000
01000000
10000000
00000000
,
20200000
00000000
30300000
00000000
,
00100000
00010000
00001000
00000000
,
00010000
00000000
00001000
00000000
,
00000010
00000000
00000001
00000000
,
00001000
00000000
00000100
00000000
,
00010000
00001000
00010000
00000000
,
00002000
00000000
00000000
02003000
,
03200000
00000000
00300000
00000000
,
10000000
00000000
01000000
10000000
,
00010000
00000000
00100000
00000000
,
00001000
00000000
00010000
00000100
,
00001000
00000000
00000001
00000000
,
00000100
00000110
00000000
00000000
,
00010000
00011000
00000000
00000000
,
01000000
01100000
00000000
00000000
,
10000000
00000000
00100000
00000000
,
01000000
00000000
00010000
00000000
,
10000000
01000000
00100000
00000000
,
00001000
00000000
00010000
00000000
,
00000010
00000100
00000001
00000000
,
00000020
00000000
00001030
00000000
,
00020000
00000000
00031000
00000000
,
00010000
00000000
00000000
00000000
,
00100000
00000000
01000000
00000000
,
00010000
00000000
10000000
01000000
,
10000000
00000000
01000000
00000000
,
00010000
00000000
00001000
00010000
,
00001000
00000000
00010000
00000000
,
00000100
00000110
00000000
00000000
,
00010000
00011000
00000000
00000000
,
01000000
01100000
00000000
00000000
,
10000000
00000000
00100000
10000000
,
00010000
00000000
00100000
00000000
,
00001000
00000000
00010000
00000010
,
00002000
00000000
00003001
00001000
,
00000001
00001000
00000001
00000000
,
00000100
00000000
00001000
00010000
,
00100000
00000000
10000000
00000000
,
01000000
00000000
00010000
00001000
,
00000010
00000000
00000001
00000000
,
00000100
00000000
00001000
00010000
,
00001000
00000000
00010000
00000000
,
00200000
00000000
01300000
00020000
,
10000000
00000000
01030000
00000000
,
00200000
00000000
00000000
00000000
,
00300000
00000000
10000000
00000000
,
02000000
00000000
00000000
00000000
,
03010000
00001000
00010000
00000000
,
00000000
00000000
00001000
00000000
00000000
00000100
00000000
00000000
,
00000010
00000000
00000000
00001000
00000000
00000000
00000002
00000000
,
00000000
00000000
00000003
00000000
00000000
00000010
00000000
00000000
,
00000100
00000000
00000000
00010000
00000000
00000000
00001000
00000000
,
00010000
00000000
00001000
00000000
,
01000000
00010000
10000000
00000000
,
01000000
00000000
00000000
01000000
00000000
00000000
00010000
00000000
,
00000000
00010000
00000000
00000000
00001000
00000000
00010000
00000000
,
00001000
00000000
00000000
00000100
00000000
00000000
00000001
00000000
,
00000000
00001000
00000000
00000000
00000100
00000000
00010000
00000000
,
00001000
00000000
00000000
00010000
00000000
00000000
01000000
00000000
,
00000000
00100000
00000000
00000000
00001000
00000000
00020000
00000000
,
00030000
00000000
00000000
00000000
;

//---------------dance-double - t7r----------------
#NOTES:
     dance-double:
     t7r:
     Medium:
     11:
     :
00000000
00000000
00000000
00000000
,
00000000
00000000
00000000
00000000
,
00000000
00000000
00000000
00000000
,
00000000
00000000
00000000
00000000
,
00000000
00000000
00000000
00000000
,
00010000
00000000
00000100
00000000
00001000
00000001
00000000
00000010
,
00000000
00000001
00000000
00000000
00000100
00000000
00001000
00000000
,
00010000
00000000
00001000
00000000
01000000
00010000
00000000
10010000
,
00000000
00000000
00000000
00000000
,
10000000
00100000
01000000
00000000
,
00100000
00000000
00000000
00010000
00000000
00001000
00010000
00000000
,
00000100
00001000
00000001
00000000
,
00000010
00000000
00000000
00001000
00000000
00010000
00001000
00000000
,
01000000
00000000
00000000
00010000
00000000
00000000
10000000
00000000
,
00000000
00100000
00000000
00000000
00010000
00000000
00001000
00000000
,
00010000
00000000
00000000
00000100
00000000
00000000
00001000
00000000
,
00000002
00000023
00002030
00023000
,
00031000
00000000
00100000
00000000
00010000
00000000
00000000
10000000
,
00000000
00100000
00000000
10000000
00000000
00010000
00100000
00000000
,
00001000
00000000
00010000
00000000
00000010
00000000
00000000
00001000
,
00000000
00000001
00000000
00000010
00000000
00000001
00001000
00000000
,
00000001
00000000
00000000
00000100
00000000
00000000
00001000
00000000
,
00000000
00010000
00000000
00000000
00100000
00000000
10000000
00000000
,
00010000
00000000
00000000
00100000
00000000
00000000
00001000
00000000
,
00000000
00010000
00000000
00000000
00000010
00000000
00001000
00000000
,
00001002
00000000
00000103
00000000
,
00001000
00000000
00010000
00000000
00001000
00010000
00001000
00000000
,
00012000
00000000
01003000
00000000
,
00010000
00000000
10000000
00000000
01000000
00100000
01000000
00000000
,
01200000
00000000
00301000
00000000
,
00010000
00000000
00001000
00000000
00000100
00000010
00000100
00000000
,
00000001
00000000
00000010
00000200
00000000
00000000
00010300
00002000
,
00000000
01003000
00010000
00000000
,
20010000
00000000
30100000
00000000
,
00010000
00000000
00000010
00000000
00001000
00000001
00001000
00000000
,
00001002
00000000
00000103
00000000
,
00000001
00000000
00000010
00000000
00001000
00010000
00001000
00000000
,
00012000
00000000
01003000
00000000
,
00010000
00000000
00100000
00000000
00010000
10000000
00010000
00000000
,
10000000
00000000
00100000
01000000
00000000
00000000
00000000
00020000
,
00000000
00130000
00001000
00011000
,
00001000
00000010
00000001
00000100
,
00001000
00010000
00100000
10000000
,
02000000
00000000
00000000
03200000
,
00302000
00000000
00013000
00000000
,
00011000
00000000
00010000
00000000
00000000
00000100
00001000
00000000
,
00000001
00000000
00000100
00000000
00000000
00000001
00000010
00000000
,
00000100
00000000
00010000
00000000
00000000
00001000
00010000
00000000
,
00001000
00000000
01000000
00000000
00000000
00010000
10000000
00000000
,
01000000
00000000
00110000
00000000
00000000
00001000
00010000
00000000
,
00000100
00000000
00001010
00000000
00000000
00000001
00001000
00000000
,
00000100
00000000
00011000
00000000
00000000
00001000
00010000
00000000
,
00001000
00000000
00100000
00000000
00010000
10000000
01000000
00000000
,
00020000
00000000
00001000
00000000
,
00030100
00000000
00001000
00000000
00000001
00000100
00000001
00000000
,
00000200
00000000
00002300
00000000
,
00023000
00000000
00230000
00000000
,
10300000
01000000
00010000
00000100
,
00000000
00001000
00000001
00000100
,
00001000
00000000
00000000
01000000
00000000
00000000
01100000
00000000
,
00000000
10010000
00000000
00000000
10000000
00000000
00010000
00000000
,
00100000
00000000
00001000
00000000
00000000
00010000
00001000
00000000
,
00010000
00000000
00000010
00000000
00001000
00000001
00001000
00000000
,
00000001
00000000
00000010
00000000
00000000
00000100
00001000
00000000
,
00000100
00000000
00010000
00000000
00001000
00010000
00001000
00000000
,
01000000
10010000
00000000
10000000
,
01000000
00110000
00000000
00001000
,
00010000
00001010
00000000
00000001
,
00000100
00000000
00000010
00001000
00000001
00000000
00000010
00000000
,
00001000
00000000
00010000
00000000
00000000
00001000
00010000
00000000
,
00001000
00000000
01000000
00000000
00010000
10000000
00010000
00000000
,
00200000
00000000
01000000
00000000
,
00010000
00000000
00301000
00000000
,
00011000
00000000
00001000
00000010
,
00000001
00000000
00000100
00000000
00001000
00010000
00001000
00000000
,
00011000
00000000
00010000
00100000
,
10000000
00000000
01000000
00000000
00010000
00001000
00010000
00000000
,
00011000
00000000
00001000
00000100
,
00000001
00000000
00000010
00000000
00001000
00010000
00001000
00000000
,
00011000
00000000
00010000
01000000
,
10000000
00000000
00100000
00000000
10000000
00010000
10000000
00000000
,
00020000
00000000
01000000
00000000
,
10000000
00000000
00100000
00000000
,
00032000
00000000
00000100
00000000
,
00003001
00000100
00000110
00000001
,
00001000
00000000
00000010
00000000
00000000
00001000
00000001
00000000
,
00000100
00000000
00000000
00001000
00010000
00000000
00002000
00000000
,
00013000
00000000
00001000
00000000
00000000
01000000
00010000
00000000
,
10000000
00000000
00000000
01000000
00010000
00000000
00002000
00000000
,
00013000
00000000
00000100
00000000
00001000
00000001
00001000
00000000
,
00000001
00000100
00000010
00001000
,
00010000
00000000
00000000
10010000
00000000
00000000
10000000
00000000
,
00000000
11000000
00000000
00000000
10000000
00000000
00100000
00000000
,
00010000
00001000
00000000
00010000
00001000
00000000
00010000
00001000
,
00000000
00000100
00000000
00000000
00000001
00000000
00001001
00000000
,
00000001
00000010
00000000
00001000
00010000
00000000
00100000
10000000
,
00000000
01000000
00000000
00000000
00010000
00000000
00022000
00000000
,
00033000
00000000
00000000
00000000
;

//---------------dance-double - t7r----------------
#NOTES:
     dance-double:
     t7r:
     Hard:
     13:
     :
00000000
00000000
00000000
00000000
,
00000000
00000000
00000000
00000000
,
00000000
00000000
00000000
00000000
,
00000000
00000000
00000000
00000000
,
00000000
00000000
00000000
00000000
,
00000000
00000000
00000000
00000000
,
00000000
00000000
00000000
00000000
,
00000000
00000000
00000000
00000000
,
00000000
00000000
00000000
00000000
,
00010000
00000000
00000100
00000000
00001000
00000001
00000000
00001000
,
00000010
00000000
00001000
00000001
00000000
00000000
00000100
00000000
,
00001000
00000000
00010000
00000000
00001000
00100000
00000000
00010000
,
10000000
00000000
00010000
01000000
00000000
00000000
00010000
00000000
,
10000000
00000000
01000000
00100000
00000000
00010000
10000000
00000000
,
00100000
00010000
00000000
00001000
00010000
00000000
00001000
00000000
,
00000010
00000000
00000001
00000100
00000000
00000001
00001000
00000000
,
00000002
00000023
00002030
00023000
,
00031000
00000000
00100000
00000000
00010000
10000000
00000000
00010000
,
01000000
00000000
00010000
10000000
00000000
00000000
00100000
00000000
,
00010000
00000000
00001000
00000000
00010000
00000100
00000000
00001000
,
00000001
00000000
00001000
00000010
00000000
00000000
00001000
00000000
,
00000001
00000000
00000010
00000100
00000000
00001000
00000001
00000000
,
00000100
00001000
00000000
00010000
00001000
00000000
00010000
00000000
,
01000000
00000000
10000000
00100000
00000000
10000000
00010000
10000000
,
00000000
01000000
00000000
00010000
00001000
00010000
00001000
00000000
,
00021000
00000000
00000000
00000000
00030100
00000000
00001000
00000001
,
00000000
00000100
00001000
00000000
00010000
00000100
00001000
00000000
,
00001002
00000000
00000000
00000000
00000013
00000000
00001000
00010000
,
00000000
00001000
01000000
00000000
00010000
10000000
00100000
00000000
,
20100000
00000000
00000000
00000000
30010000
00000000
10000000
01000000
,
00000000
00010000
00001000
00000000
01000000
00010000
10000000
00000000
,
00100000
00000000
00010000
00002000
00000000
00013000
00000100
00002000
,
00000000
00003001
00000100
00000000
00001000
00000000
00000000
00000000
,
00012000
00000000
00000000
00000000
01003000
00000000
00010000
10000000
,
00000000
01000000
00010000
00000000
00001000
01000000
00010000
00000000
,
20010000
00000000
00000000
00000000
30100000
00000000
00010000
00001000
,
00000000
00010000
00000100
00000000
00001000
00000001
00000010
00000000
,
00000012
00000000
00000000
00000000
00001003
00000000
00000001
00000100
,
00000000
00001000
00010000
00000000
00000100
00001000
00000001
00000000
,
00000010
00001000
00000000
00020000
00000000
00031000
01000000
00200000
,
00000000
10300000
00010000
00000000
10000000
00000000
10010000
00000000
,
10000000
00000000
01000000
00000000
00010000
00001000
00010000
00000000
,
00001000
00000000
00000100
00000000
00000001
00000010
00000100
00010000
,
00002000
00000000
00000000
02003000
,
03200000
00000000
10300000
00010000
,
10000000
00000000
01000000
10000000
01000000
00000000
10000000
00000000
,
01000000
00000000
00010000
00001000
00010000
00000000
00001000
00000000
,
00010000
00000000
00001000
00000100
00001000
00000000
00000100
00000000
,
00000001
00000000
00000010
00000001
00000010
00000000
00000001
00000000
,
00000100
00000000
00011000
00000000
00001000
01000000
00010000
00000000
,
00100000
00000000
00011000
00000000
00001000
00010000
00000100
00000000
,
00010000
00000000
00011000
00000000
00001000
01000000
00010000
00000000
,
10000000
00000000
10100000
00000000
00100000
10000000
00010000
00000000
,
10000000
00000000
01000000
00000000
10000000
00100000
10000000
00000000
,
00100000
00000000
00010000
00000000
00001000
00010000
00001000
00000000
,
00010000
00000000
00001000
00000000
00000010
00001000
00000010
00000000
,
00000001
00000000
00001000
00000000
00000001
00000100
00000010
00000000
,
00001000
00000000
00010000
00100000
01000000
00000000
20000000
00000000
,
00100000
30010000
10000000
01000000
,
00010000
00000000
00001000
00000200
00000000
00001300
00020000
00000000
,
01030000
20000000
00000000
30100000
00010000
00000000
00011000
00000000
,
00001000
00000000
00000010
00000001
00000010
00000000
00000001
00000000
,
00000100
00000000
00001000
00010000
00001000
00000000
00010000
00000000
,
00100000
00000000
10000000
00100000
10000000
00000000
01000000
00000000
,
00010000
00000000
00001000
00010000
00001000
00000000
00010000
00000000
,
00000100
00000000
00000011
00000000
00000001
00000100
00001000
00000000
,
01000000
00000000
10100000
00000000
10000000
01000000
00010000
00000000
,
00000100
00000000
00011000
00000000
00001000
00100000
00010000
00000000
,
10000000
00000000
00100000
01000000
00010000
00000000
10000000
00000000
,
00010000
00000000
00100000
00001000
00010000
00000000
00001000
00000000
,
00010000
00000000
00001000
00000010
00000001
00000000
00000100
00000000
,
00002000
00000000
00013000
00001000
00010000
00001000
00010000
00001000
,
00010000
01000000
10000000
00000000
00100000
00010000
00001000
00000000
,
00010000
00000000
00000100
00001000
00000100
00001000
00000100
00000000
,
00001000
00000010
00000100
00000001
00001000
00000000
00000001
00000000
,
00000100
00000000
00001000
00010000
00001000
00010000
00001000
00000000
,
00010000
00100000
01000000
00100000
10000000
00000000
00010000
00000000
,
10000000
00000000
01000000
00010000
01000000
00010000
01000000
00000000
,
00010000
00001000
00000010
00000100
00001000
00000000
00000001
00000000
,
00000100
00000000
00001000
00010000
00000100
00000000
00001000
00000000
,
00001001
00000000
00000001
00000010
00000100
00010000
00001000
00000000
,
00021000
00000000
01030000
00000000
,
10000000
00100000
01000000
00001000
,
00012000
00000000
00003100
00000001
,
00001000
00000100
00010000
00000000
00001000
00000000
00011000
00000000
,
00010000
00000000
00100000
00000000
10000000
01000000
00000000
01000000
,
00100000
00000000
00100000
00010000
00000000
00010000
10000000
00100000
,
00010000
00000000
00001000
00000000
00000010
00000100
00000000
00000100
,
00001000
00000000
00001000
00000001
00000000
00000001
00000100
00001000
,
00010000
00000000
00011000
00000000
00001000
01000000
00010000
00000000
,
10010000
00000000
10000000
01000000
00100000
00010000
00001000
00000000
,
00001001
00000000
00000001
00000001
00000000
00000100
00000100
00000000
,
00001000
00001000
00000000
00010000
00010000
00000000
00011000
00000000
,
00010000
00100000
00000000
10000000
01000000
00000000
00010000
00001000
,
00000000
00000010
00000001
00000000
00000100
00000000
00001000
00000000
,
00011000
00000000
00010000
00010100
00000000
00001000
01001000
00000000
,
00010000
00010010
00000000
00001000
00101000
00000000
00022000
00000000
,
00033000
00000000
00000000
00000000
;

//---------------dance-double - t7r----------------
#NOTES:
     dance-double:
     t7r:
     Challenge:
     16:
     :
00000000
00000000
00000000
00000000
,
00000000
00000000
00000000
00000000
,
00000000
00000000
00000000
00000000
,
00000000
00000000
00000000
00000000
,
00000000
00000000
00000000
00000000
,
10000000
01000000
10000000
01000000
10000000
00100000
00000000
00010000
,
00000000
00001000
00000000
00000100
00000001
00000000
00000010
00000000
,
00000001
00000100
00000001
00000100
00001000
00010000
00000000
00011000
,
00000000
00000000
00000000
00010000
,
00001000
01000000
00010000
10000000
01000000
00100000
00010000
10000000
,
00100000
00010000
00001000
00000100
00000001
00001000
00000100
00000010
,
00000001
00000100
00000010
00001000
00000001
00000010
00000100
00010000
,
00001000
00010000
00100000
10000000
00010000
10000000
00200000
00000000
,
10300000
01000000
00100000
00010000
01000000
00100000
00010000
00001000
,
00100000
00010000
00001000
00000100
00010000
00001000
00000100
00000010
,
00000001
00000100
00000010
00001000
00000100
00000010
00001000
00010000
,
00000020
00000000
00000230
00000000
00001300
00010000
00001000
00001000
,
00010000
00000010
00001000
00000001
00000010
00000100
00001000
00000001
,
00000100
00001000
00010000
00100000
10000000
00010000
00100000
01000000
,
10000000
00100000
01000000
00010000
10000000
01000000
00100000
00001000
,
00010000
00001000
00000100
00000001
00001000
00000001
00000200
00000000
,
00000301
00000010
00000100
00001000
00000010
00000100
00001000
00010000
,
00000100
00001000
00010000
00100000
00001000
00010000
00100000
01000000
,
10000000
00100000
01000000
00010000
00100000
01000000
00010000
00001000
,
01000000
00100000
00010000
00001000
00000010
00000010
00000100
00001000
,
00001200
00000000
00000000
00001000
00010300
00000000
00001000
00002000
,
00000000
00013000
00100000
10000000
01000000
00010000
00001000
00010000
,
00021000
00000000
00000000
00001000
00030100
00000000
00010000
00010000
,
00001000
00000010
00000100
00000010
00000001
00000100
00001000
00010000
,
00012000
00000000
00000000
00010000
01003000
00000000
00010000
00020000
,
00000000
10030000
00100000
01000000
00010000
10000000
01000000
00000000
,
00020000
00000000
00000000
00000000
00000000
00000000
00031000
00010000
00000100
00000000
00000000
00000000
00001000
00000000
00000002
00000000
,
00000000
00000000
00000000
00000103
00000000
00000000
00001000
00000000
00000000
00010000
00001000
00010000
00000100
00000000
00000000
00000000
00000000
00000000
00000000
00000000
00000000
00000000
00000000
00000000
,
02010000
00000000
00000000
00010000
03001000
00000000
00010000
00020000
,
00000000
00031000
00000010
00000001
00000100
00001000
00010000
00001000
,
00012000
00000000
00000000
00010000
01003000
00000000
00001000
00001000
,
00010000
00100000
01000000
00100000
10000000
01000000
00010000
00001000
,
00021000
00000000
00000000
00001000
00030100
00000000
00001000
00002000
,
00000000
00003001
00000010
00000100
00001000
00000001
00000100
00000000
,
00002000
00000000
00000000
00000000
00000000
00000000
00013000
00001000
01000000
00000000
00000000
00000000
00010000
00000000
20000000
00000000
,
00000000
00000000
00000000
31000000
00000000
00000000
00010000
00000000
00000000
00001000
00010000
00001000
01000000
00000000
00000000
00000000
00000000
00000000
01010000
00000000
00000000
00000000
00000000
00000000
,
10000000
01000000
00100000
00010000
01000000
00100000
00010000
00001000
,
00100000
00010000
00001000
00000100
00001000
00000010
00000100
00000001
,
00000020
00000000
00000000
00002030
,
00023000
00000000
00031000
01000000
,
00010000
00100000
01000000
10000000
00010000
01000000
00100000
10000000
,
01000000
00010000
00001000
00000010
00000001
00001000
00000001
00000000
,
00000100
00000010
00001000
00000001
00000010
00000100
00001000
00000001
,
00000100
00001000
00010000
00100000
10000000
01000000
00100000
00000000
,
01000000
00010000
00011000
00000000
00001000
00000100
00000001
00000000
,
00000010
00001000
00011000
00000000
00010000
01000000
10000000
00000000
,
00100000
00010000
00011000
00000000
00010000
01000000
00100000
00001000
,
00010000
00001000
00000100
00000010
00001000
00000001
00000010
00000100
,
00001000
00000010
00000100
00000001
00001000
00000100
00000010
00000001
,
00000100
00001000
00010000
00100000
10000000
00010000
10000000
00000000
,
01000000
00100000
00010000
10000000
00100000
01000000
00010000
10000000
,
01000000
00010000
00001000
00001000
00000010
00000001
00000100
00000100
,
00002000
00000000
00013000
01000000
00100000
00000000
00002000
00000000
,
00013000
00100000
01000000
00010000
10000000
01000000
00100000
00000000
,
00011000
00000000
00000100
00010100
00000000
01000000
01010000
00000000
,
00000100
00011000
00000000
01000000
00011000
00000000
00010010
00000000
,
00000010
00001000
00000001
00000010
00001000
00010000
00000100
00001000
,
00010000
00100000
01000000
10000000
00100000
00010000
00001000
00000000
,
00100000
00010000
10000000
00100000
00010000
00001000
01000000
00010000
,
00001000
00000010
00000100
00000001
00000010
00001000
00010000
00000000
,
00000100
00000010
00001001
00000000
00000001
00001000
00010000
00000000
,
01000000
00100000
10010000
00000000
10000000
00010000
00001000
00000000
,
00000010
00000100
00001001
00000000
00000001
00001000
00010000
00000000
,
10000000
01000000
00010000
00001000
00000100
00000001
00001000
00000000
,
00000001
00000010
00000100
00001000
00000010
00000100
00001000
00010000
,
00000100
00001000
00010000
00100000
00001000
00010000
00100000
01000000
,
00020000
00100000
10000000
01000000
,
00032000
00000010
00000001
00000100
,
00013000
00100000
00010000
00100000
01000000
10000000
01000000
00100000
,
00010000
10000000
00100000
00010000
00001000
00000100
00000001
00001000
,
00000001
00000010
00000001
00000010
00000100
00001000
00000001
00001000
,
00000001
00000100
00001000
00010000
00100000
10000000
00010000
10000000
,
01000000
00100000
01000000
00100000
00001000
00010000
00001000
00010000
,
00001000
00000100
00000001
00001000
00000100
00010000
00001000
00010000
,
00011000
00001000
01000000
00010000
10000000
00000000
01000000
00010000
,
00011000
00001000
00000100
00000001
00000010
00000010
00000100
00010000
,
00002000
00000000
00003000
02000000
,
00000000
03200000
00000000
20300000
,
00000000
00000000
00000000
31000000
,
00010000
00000000
00001000
00010000
00001000
00000000
00010000
00000100
00001000
00000000
00000000
00000000
00001001
00000000
00000000
00000000
,
00000001
00000100
00000010
00000001
00001000
00000100
00000010
00001000
,
00010000
00100000
01000000
00010000
10000000
00100000
01000000
10000000
,
00010000
01000000
00100000
00010000
00001000
00000010
00000100
00001000
,
00000001
00000010
00001000
00010000
01000000
10000000
00100000
00010000
,
00001000
00000000
00011000
00000000
00010000
00010000
00000100
00000000
,
00011000
00000000
00001000
00001000
01000000
00000000
01100000
00000000
,
10010000
00000000
10000000
01100000
00000000
01000000
00011000
00000000
,
00001000
00000110
00000000
00000100
00001001
00000000
00000011
00000000
,
00000001
00000100
00000001
00000000
00000000
00000000
00001000
00000100
00001000
00000000
00000000
00000000
00000100
00010000
00000100
00000000
,
00000000
00000000
00010000
00001000
00010000
00000000
00000000
00000000
01100000
00000000
00000000
00000000
10010000
00000000
00000000
00000000
,
10100000
00000000
00010000
01100000
00000000
00010000
00001100
00000000
,
00000010
00001001
00000000
00000100
00011000
00000000
02200000
00000000
,
03300000
00000000
00000000
00000000
;
