#TITLE:ANEMONE;
#ARTIST:BEMANI Sound Team "HuΣeR × Yvya" feat. 紫村 花澄;
#ARTISTTRANSLIT:HuΣeR × Yvya feat. Kasumi Shimura;
#BANNER:ANEMONE.png;
#BACKGROUND:ANEMONE-bg.png;
#JACKET:ANEMONE-jacket.png;
#CDTITLE:./CDTITLES/BEATMANIA IIDX.PNG;
#MUSIC:ANEMONE.ogg;
#SAMPLESTART:59.31;
#SAMPLELENGTH:15;
#BPMS:0=174;

//---------------dance-single - t7r----------------
#NOTES:
     dance-single:
     t7r:
     Beginner:
     3:
     :
0000
0000
0000
0000
,
0000
0000
0000
0000
,
0000
0000
0000
0000
,
0000
0000
0000
0000
,
0000
0000
0000
0000
,
0000
0000
0000
0000
,
0000
0000
0000
0000
,
0000
0000
1000
0000
,
0000
0000
1000
0000
,
1000
0000
0000
0000
,
0001
0000
0000
0000
,
0100
0000
0000
0000
,
0100
0000
0000
0000
,
0010
0000
0000
0000
,
0010
0000
0000
0000
,
1000
0000
0000
0000
,
0100
0000
0000
0000
,
0010
0000
0000
0000
,
0001
0000
0001
0000
,
0001
0000
0000
0000
,
0000
0000
0000
0000
,
0100
0000
0000
0000
,
0000
0000
0000
0000
,
0010
0000
0000
0000
,
0000
0000
0000
0000
,
1000
0000
0000
0000
,
1000
0000
0000
0000
,
0001
0000
0000
0000
,
0001
0000
0000
0000
,
1000
0000
0000
0000
,
1000
0000
0000
0000
,
0010
0000
0000
0000
,
0010
0000
0000
0000
,
0100
0000
0000
0000
,
0100
0000
0000
0000
,
0010
0000
0000
0000
,
0000
0000
0000
0000
,
1000
0000
0000
0000
,
0000
0000
0000
0000
,
0001
0000
0000
0000
,
0001
0000
0000
0000
,
0010
0000
0000
0000
,
0000
0000
0000
0000
,
0100
0000
0100
0000
,
0100
0000
0000
0000
,
1000
0000
0000
0000
,
0001
0000
0000
0000
,
0100
0000
0000
0000
,
0100
0000
0000
0000
,
0010
0000
0010
0000
,
0010
0000
0000
0000
,
1000
0000
1000
0000
,
1000
0000
0000
0000
,
0100
0000
0000
0000
,
0010
0000
0000
0000
,
0001
0000
0001
0000
,
0001
0000
0000
0000
,
0100
0000
0000
0000
,
0010
0000
0000
0000
,
1000
0000
1000
0000
,
1000
1000
1000
0000
,
0001
0000
0000
0000
,
0001
0000
0001
0000
,
0001
0000
0000
0100
,
0100
0000
0100
0000
,
0010
0000
0000
0000
,
1000
0000
1000
1000
,
1000
0000
0000
0000
,
0001
0000
0000
0000
,
0010
0000
0000
0000
,
0100
0000
0000
0000
,
1000
1000
0000
1000
,
0000
0001
0000
0001
,
0001
0000
0000
0000
,
0100
0000
0000
0000
,
0010
0000
0000
0000
,
0000
0000
0000
0000
,
1000
0000
0000
0000
,
0000
0000
0000
0000
,
0100
0000
0000
0000
,
0000
0000
0000
0000
,
0001
0000
0000
0000
,
0010
0000
0000
0000
;

//---------------dance-single - t7r----------------
#NOTES:
     dance-single:
     t7r:
     Easy:
     7:
     :
0000
0000
0000
0000
,
0000
0000
0000
0000
,
0000
0000
0000
0000
,
0000
0000
0000
0000
,
0000
0000
0000
0000
,
0000
0000
0000
0000
,
0000
0000
0000
0000
,
0001
0000
0100
0000
0010
0000
0000
2000
,
0000
3001
0010
0000
,
0002
1003
0100
0000
,
1000
0000
0010
0010
,
1000
0000
0100
0000
0010
0000
0000
0002
,
0000
1003
0010
0200
,
0300
0001
0010
0000
,
0001
1000
0010
0000
,
1000
0000
0010
0000
0200
0000
0000
0310
,
0000
1000
0001
0000
,
0010
0000
0001
0000
,
0100
0000
0010
0110
,
2000
0000
0000
0000
,
3100
0000
0000
0000
,
0002
0000
0000
0000
,
0013
0000
0000
0000
,
2000
0000
0000
0000
,
3010
0000
0000
0000
,
0001
0000
0000
0000
,
0100
0000
0000
0000
,
0010
0000
1000
0000
,
0001
0000
1001
0000
,
0010
0000
0001
0000
,
1000
0000
1001
0000
,
0001
0000
0100
0000
,
0010
0000
0110
0000
,
1000
0000
0100
0000
,
0001
0000
0100
0000
,
0020
0000
0000
0000
,
0030
0000
0000
0000
,
0002
0000
0000
0000
,
2003
0000
3010
0000
,
2000
0000
3100
0000
,
0010
0001
1000
0020
,
0000
0000
0000
0000
,
0030
0000
0000
0000
,
0100
0000
0001
0000
0010
0000
0000
0002
,
0000
1003
0001
2000
,
3000
0000
0010
0000
0100
0000
0000
0002
,
0000
0103
0010
1000
,
0100
0000
0010
0000
0100
0000
0000
2000
,
0000
3010
0100
0001
,
1000
0010
0001
0010
,
0100
0000
0010
0010
,
1000
0000
0100
0000
0010
0000
0000
0200
,
0000
0301
0100
2000
,
3000
0000
0001
0000
0100
0000
0000
0020
,
0000
0130
1000
0100
,
0001
0000
0010
0000
0100
0000
0000
0020
,
0000
1030
0010
0001
,
1000
0000
0001
0000
,
1001
0100
0110
0110
,
1000
0100
0010
0100
,
0001
0100
0010
0100
,
1000
0020
0000
0031
,
0010
0100
0010
1000
,
0002
0000
1003
0100
,
0020
0000
0031
0100
,
0020
0031
0010
1000
,
0001
0100
0100
1000
,
2002
0000
0000
0000
,
0000
0000
0000
3003
,
0000
0000
0000
0000
,
1000
0000
0100
0000
,
0010
1100
0000
1100
,
0000
0101
0000
0101
,
1002
1000
1000
1003
,
0020
0100
0100
0130
,
0002
0000
0013
0200
,
0000
0000
0000
0300
,
2000
0000
3010
0200
,
0000
0000
0000
0300
,
0002
0000
0013
2000
,
0000
0000
0000
3000
,
0020
0000
0130
1000
,
0010
0000
0100
0100
;

//---------------dance-single - t7r----------------
#NOTES:
     dance-single:
     t7r:
     Medium:
     9:
     :
0000
0000
0000
0000
,
0000
0000
0000
0000
,
0000
0000
0000
0000
,
0000
0000
0000
0000
,
0000
0000
0000
0000
,
0000
0000
0000
0000
,
0000
0000
0000
0000
,
0010
0000
1000
0100
1000
0000
0001
2000
,
0000
3010
0100
0001
,
0020
0000
0130
0000
1000
0000
0001
0100
,
0000
0001
0010
0000
0001
0000
1001
0000
,
1000
0000
0100
0010
0100
0000
1000
0020
,
0000
0130
0001
2000
,
3001
0000
0010
0000
0100
0000
0010
0002
,
0000
0103
0010
0000
0100
0001
0100
0000
,
0001
0000
1000
0100
1000
0000
0100
0020
,
0000
0130
0001
0000
0100
0000
1000
0000
,
0010
0000
0100
0000
0001
0000
1000
0010
,
1000
0001
0010
0100
,
2000
0000
3010
0000
,
1000
0001
0100
0000
,
0002
0000
0013
0000
,
0001
1000
0100
0000
,
2000
0000
3010
0000
,
0100
0010
1000
0100
,
0010
0000
0100
1000
0100
0000
1000
0000
,
0010
0000
0100
0001
0100
0000
0000
0000
,
0010
0100
0101
0000
,
0010
0100
1100
0000
,
1000
0001
0100
0000
0001
0000
1000
0001
,
0010
0000
0001
0000
1000
0000
0000
0001
,
0100
0000
0001
0010
0001
0000
1000
0000
,
0001
1000
0001
0000
0100
0000
0000
0001
,
0100
0100
1000
0110
,
1000
0000
0100
0000
0010
0001
0100
0000
,
0020
0000
0000
0230
,
0000
0000
0301
0000
1000
0100
1000
0000
,
0002
0023
0130
1000
,
0010
0100
0001
0000
0010
0100
1000
0000
,
0020
0000
0000
0000
0130
0001
0010
0000
,
0200
0320
0032
2000
,
0000
0000
0000
0000
,
3003
0000
0000
0000
,
1000
0000
0100
0010
0100
0000
0001
0200
,
0000
1300
0001
0101
,
0001
0000
0010
0000
0100
1000
0010
2000
,
0000
3010
0100
0000
0001
1000
0001
0200
,
0000
0000
0310
0000
1000
0001
1000
0200
,
0000
0000
0310
0000
0001
0100
0001
0000
,
1010
0000
0010
0000
1000
0000
0100
0001
,
0100
1000
0100
0000
1001
0000
1001
0000
,
0001
0000
0100
0010
0100
0000
1000
0200
,
0000
0000
0301
0000
1000
0000
0100
2000
,
0000
3020
0000
0000
0130
0001
0010
0002
,
0000
0013
0100
0000
1000
0001
1000
0100
,
0010
0000
0100
1000
0001
0000
0100
0020
,
0000
0130
1000
0000
0100
0001
0200
0000
,
0301
0010
1100
1000
,
0010
0100
0000
0001
1000
0000
0110
0000
,
0001
0100
0001
0000
1000
0100
1000
0000
,
0001
0010
0001
0000
1000
0000
0010
0000
,
0100
0001
2000
0000
0000
3001
0010
0000
,
0100
1000
0010
0000
0100
0001
0010
0000
,
0200
0000
0300
1000
0010
0000
0100
1000
,
0200
0000
0320
0000
0130
0000
0001
0010
,
0002
0000
0013
0100
1000
0000
0010
0000
,
0001
0010
0100
0000
0001
0010
0100
0000
,
2000
0010
0001
0000
,
0000
0100
0000
3100
0010
0000
0100
1000
,
0002
0010
1000
0000
,
0000
0100
0000
0103
0010
0000
0110
0000
,
0100
0101
0001
0101
,
0100
0110
2010
3001
,
1000
1000
1000
1000
,
0100
0010
0001
0000
0100
0010
0100
0010
,
2000
0010
3001
0200
,
1000
0010
0301
1000
,
0002
0010
1003
0200
,
0001
0010
1300
0001
,
1000
0000
0010
1000
0010
0000
0200
0000
,
0000
1000
0310
0000
,
1000
0000
0001
0010
0001
0000
1000
0000
,
0200
0000
0001
0000
0010
0000
1300
0001
;

//---------------dance-single - t7r----------------
#NOTES:
     dance-single:
     t7r:
     Hard:
     12:
     :
0000
0000
0000
0000
,
0000
0000
0000
0000
,
0000
0000
0000
0000
,
0000
0000
0000
0000
,
0000
0000
0000
0000
,
0000
0000
0000
0000
,
0000
0000
0000
0000
,
1000
0100
0010
0100
1000
0010
0100
0020
,
0000
1030
0010
0100
0001
0000
0010
0000
,
0200
0000
0310
0100
1000
0001
0100
0020
,
0000
0130
0001
1000
0100
0000
0110
0000
,
0001
0100
0010
0100
0001
0010
0100
0020
,
0000
0031
0100
0010
1000
0000
0002
0000
,
1003
0000
0100
0000
0010
0100
1000
0020
,
0000
0130
0001
1000
0001
0010
0100
1000
,
0001
0100
0010
0100
2000
0000
3100
0020
,
0000
0130
0001
1000
0100
0010
0002
0000
,
1003
0010
1000
0000
0001
0000
0010
0100
,
1000
0010
0100
0000
1001
0000
0110
0000
,
2000
0000
3100
0000
,
0010
0001
1000
0000
,
0002
0000
0103
0000
,
0010
1000
0100
0000
,
0020
0000
0130
0000
,
1000
0000
0010
0000
0100
0000
1000
0100
,
0010
0000
1000
0100
0010
0000
0001
0100
,
0010
0000
0001
0010
1000
0000
0000
0100
,
0010
0100
1100
1000
,
0001
0000
0000
0000
0100
0000
0000
0001
1000
0000
0000
0000
0001
0000
0000
0000
,
1000
0100
0010
0001
1000
0000
0001
0100
,
0010
1000
0001
0000
0010
0100
1000
0010
,
0100
0001
0010
0000
0011
0000
0001
1000
,
0010
0100
0001
0000
1001
0000
0000
1000
,
0200
0300
0200
0300
0001
0100
2000
3000
,
0010
0000
0000
0000
0100
0000
0000
0001
0010
0000
0100
0000
1000
0000
0001
0000
,
0200
0000
0000
0310
0000
0000
2000
0000
,
0000
3100
0010
0001
1000
0010
0100
0000
,
0002
0000
0013
0000
0100
1000
0001
0000
,
1000
0010
0100
0000
0001
0010
0100
0000
,
2000
0000
3100
1000
0001
1000
0010
0000
,
0200
0320
2030
0002
,
0000
0000
0000
0000
,
3003
0000
0000
0000
,
1000
0100
0010
0100
1000
0010
0100
0002
,
0000
0013
0001
0100
0001
0010
0100
0020
,
0000
1030
0010
0100
0010
0001
0100
0020
,
0000
0130
0001
0000
1000
0010
0100
0001
,
0010
0001
0100
0010
0100
1000
0100
0020
,
0000
0130
0001
1000
0100
0010
0100
0000
,
0001
0100
1000
0010
0001
0010
0100
0010
,
1000
0100
0010
0000
1001
0000
0110
0000
,
0001
0010
0100
0010
0001
0100
0010
2000
,
0000
3100
1000
0010
1000
0100
0010
0200
,
0000
0301
0100
0010
0100
1000
0010
0200
,
0000
0301
0100
0000
1000
0100
0001
1000
,
0100
0010
0100
0001
0200
0000
1300
0020
,
0000
0031
0010
1000
0001
0010
0200
0000
,
0310
0001
0100
0000
0010
1000
0100
0020
,
0000
0031
1000
0010
0100
0010
1001
0000
,
1000
0000
1100
0000
1000
0100
0010
0100
,
0010
1000
0010
0001
0100
0000
0001
0010
,
0100
1000
0020
0000
0000
0130
0001
0100
,
1000
0100
0001
1000
0100
0010
0001
1000
,
0002
0000
0003
1000
0010
0100
0010
0001
,
0020
0000
0130
1000
0100
0001
0010
0100
,
2000
0000
0000
0000
3010
0100
0010
0000
0001
0000
0010
0000
0100
0000
0010
0000
,
1000
0100
0100
0001
1000
0010
0010
0001
,
2000
0000
3100
0001
0100
0000
0010
0000
,
0100
1000
0010
0100
0001
0000
0010
0010
,
0002
0000
0103
1000
0100
0000
0010
0000
,
0100
0001
0010
0100
1000
0000
0010
0100
,
0101
0010
1100
0010
,
2001
3010
0220
0330
,
0101
0000
0101
0000
1000
0100
0001
0100
,
0010
0001
0001
0001
0001
0001
0001
0001
,
0100
0000
0010
1000
0010
0000
0200
0000
,
1000
0010
0001
0301
,
0010
0000
0100
0010
0100
0000
2000
0000
,
0010
0001
0100
3100
,
1000
0000
0001
0100
0001
0000
0020
0000
,
1000
0100
0001
0031
,
0100
0000
0010
1000
0001
0000
0010
0000
,
0001
0100
0010
1000
0001
0010
0100
1000
;

//---------------dance-single - t7r----------------
#NOTES:
     dance-single:
     t7r:
     Challenge:
     15:
     :
0000
0000
0000
0000
,
0000
0000
0000
0000
,
0000
0000
0000
0000
,
0000
0000
0000
0000
,
0000
0000
0000
0000
,
0000
0000
0000
0000
,
0000
0000
0000
0000
,
1000
0100
0010
0100
0001
0100
1000
0020
,
0000
0031
0010
0100
0010
1000
0001
0010
,
0100
0000
0010
0000
1000
0000
0010
0000
0100
0000
0010
0001
0010
0000
0001
0000
,
0100
1000
0100
0010
1010
0000
1010
1000
,
0001
0010
0100
0010
1000
0010
0100
0020
,
0000
1030
0010
0100
0010
0001
2000
3002
,
1003
0000
0010
0000
0100
0000
0010
0000
0001
0000
0010
0100
0010
0000
2000
0000
,
0000
0000
3100
0000
0010
0000
0100
0000
0001
0000
0100
0010
0001
0000
0100
0000
,
1000
0100
0010
0100
2000
0000
3100
0002
,
0000
0000
0013
0100
0010
0000
1000
0000
0010
0000
0100
0000
0020
0000
0000
0000
,
1030
0000
0010
0100
1000
0000
0010
0100
0001
0000
0100
0000
0010
0000
1000
0000
,
0100
0000
0010
0000
0100
0000
1000
0010
0100
0000
0001
0010
0100
0000
1000
0000
,
0001
0010
0001
0010
1000
0010
0100
0010
,
0001
0100
0001
0100
0010
0100
1000
0100
,
0001
0010
0001
0010
1000
0010
0100
1000
,
0001
0100
0001
0100
0010
0100
1000
0100
,
0010
1000
0010
1000
0001
0010
1000
0010
,
0001
0100
0001
0100
1000
0100
0010
1000
,
0100
0000
0100
0000
0010
0000
0100
1000
0100
1000
0001
0000
1000
0000
0001
0100
,
0010
1000
0010
0000
1000
0001
0010
0001
1000
0010
0100
0000
0001
0010
0100
0000
,
1000
0000
0100
0010
0001
0000
0100
0010
1000
0000
0001
1000
0100
0000
1000
0000
,
0001
0000
0100
0010
1000
0000
0100
0010
0001
0000
1000
0001
0100
0000
0001
0000
,
1000
0000
0100
0010
0100
0000
0001
0100
1000
0000
0001
1000
0100
0000
1000
0000
,
0001
0000
0100
0010
0100
0000
1000
0100
0001
0000
0100
0010
1000
0000
0001
0000
,
1000
0000
0010
1000
0001
0000
0010
1000
0010
0000
0100
1000
0001
0000
1000
0000
,
0001
0000
0010
0001
1000
0000
0010
0001
0010
0000
0100
0001
1000
0000
0100
0001
,
0100
0000
0010
0100
1000
0000
0010
0100
1000
0000
0100
0010
1000
0000
0100
0010
,
0001
0000
0100
0010
1000
0000
0001
0010
0100
0000
0100
0000
1000
0000
0010
0000
,
0100
0001
0010
0001
2000
0000
3100
1000
,
0010
1000
0001
0010
0100
0001
1000
0010
,
0001
1000
0010
0100
0010
1000
0001
0100
,
1000
0001
0010
1000
0001
0010
0100
1000
,
0100
0001
0100
0010
0001
0100
0020
0000
,
2030
0000
0000
0000
0000
0000
0000
0000
3002
0000
0000
0000
0000
0000
0000
0000
0203
0000
0000
0000
0000
0000
0000
0000
0310
2000
0000
0000
0000
0000
0000
0000
,
0000
0000
0000
0000
,
0000
0000
3001
1000
0100
1000
0001
0000
,
1000
0100
0010
0100
0001
0100
1000
0020
,
0000
0031
0010
0100
0010
1000
0001
0100
,
0101
0000
0001
0000
0010
0000
0100
0000
0010
0000
1000
0010
1000
0000
0020
0000
,
0000
0000
0130
0000
0010
0000
0001
0000
0100
0000
1000
0100
0010
0000
0100
0000
,
0001
0100
0010
0100
1000
0100
0001
0020
,
0000
1030
0010
0100
0010
0001
1000
0100
,
1100
1000
0010
0100
0010
0001
0010
0100
,
0001
0000
0010
0100
1000
0000
0010
0000
1010
0000
0010
0000
1010
0000
0010
0000
,
0110
0100
1000
0100
0001
0010
0100
0020
,
0000
0000
1030
0000
0010
0000
0100
0000
0001
0000
0100
0010
0100
0000
0001
0000
,
0101
0000
0100
0000
1000
0000
0010
0000
0100
0000
1000
0100
0010
0000
0200
0000
,
0000
0000
1300
0000
0100
0000
0001
0000
1000
0000
0100
0010
0100
0000
0001
0000
,
1000
0010
0100
0010
0002
0000
0103
0020
,
0000
0000
0031
0010
0100
0000
0010
1000
0001
0000
1000
0000
0020
0000
0100
0000
,
1030
0100
0010
1000
1010
0010
0100
2100
,
0001
3010
0100
0001
0011
0010
0011
0001
,
1001
1000
0100
0010
1000
0001
0100
0010
,
0001
1000
0010
0100
1000
0001
0010
0100
,
0001
0010
0100
1000
0020
0000
0000
0000
0000
0000
0031
0010
0100
0000
0010
0000
,
1000
0100
0010
0001
1000
0000
0100
0000
0001
0000
0100
0000
0010
0000
0100
0000
,
2100
0000
0000
0000
3001
0000
0100
0001
0010
0000
0100
1000
0010
0000
0001
0000
,
0020
0000
1030
0001
0010
1000
0010
0100
,
2000
0000
0000
0000
3001
0100
0010
0000
0001
0000
1000
0100
0010
0000
1000
0000
,
0001
0010
0011
0001
1001
1000
1010
0010
,
0110
0100
1000
0100
0020
0000
0130
0001
,
0010
0001
0012
0000
1003
0100
1100
0100
,
0110
0100
0001
0100
0020
0000
0032
0000
,
0103
1000
0110
0000
1010
0100
1010
0010
,
1000
0100
1100
1000
0001
0100
0101
0001
,
2000
0100
3001
0010
0012
0100
2003
0000
,
3001
0000
0100
0001
1000
0000
0100
1000
0001
0000
1000
0100
0010
0000
0100
1000
,
0010
0010
0010
0010
0100
0100
0100
0100
,
0001
0010
0100
1000
0001
0100
0010
0001
,
0010
0010
0010
1000
1000
1000
0001
0001
,
1000
0100
0010
0001
1000
0010
0100
1000
,
0100
0100
0100
0001
0001
0001
1000
1000
,
0001
0010
1000
0010
0001
1000
0010
0001
,
0010
0010
0010
1000
1000
1000
0001
0001
,
1000
0100
0001
0100
1000
0001
0100
1000
,
0001
0010
0010
1000
1000
0100
0100
0001
;

//---------------dance-double - t7r----------------
#NOTES:
     dance-double:
     t7r:
     Easy:
     7:
     :
00000000
00000000
00000000
00000000
,
00000000
00000000
00000000
00000000
,
00000000
00000000
00000000
00000000
,
00000000
00000000
00000000
00000000
,
00000000
00000000
00000000
00000000
,
00000000
00000000
00000000
00000000
,
00000000
00000000
00000000
00000000
,
01000000
00000000
00010000
00000000
10000000
00000000
00000000
00200000
,
00000000
01300000
00010000
10000000
,
02000000
00000000
03010000
00000000
00001000
00000000
00000000
00000200
,
00000000
00000310
00001000
00001001
,
00000001
00000000
00000010
00000000
00000100
00000000
00000000
00000020
,
00000000
00000031
00000100
00000020
,
00000030
00000000
00001000
00000000
00000001
00000000
00000000
00000020
,
00000000
00001030
00010000
01000000
,
10000000
00000000
00100000
00000000
01000000
00000000
00000000
00200000
,
00000000
10300000
00010000
00000000
,
00100000
00001000
00010000
00000000
,
00000100
00000000
00010000
00011000
,
00002000
00000000
01003000
00000000
,
00100000
00000000
00100000
00000000
,
20000000
00000000
31000000
00000000
,
00100000
00000000
00100000
00000000
,
00002000
00000000
00013000
00000000
,
00000010
00000000
00000010
00000000
,
00000100
00000001
00001000
00000000
,
00000100
00010000
00001000
00000000
,
00010000
00000000
00011000
00000000
,
00001000
00000000
01001000
00000000
,
01000000
00010000
10000000
00000000
,
01000000
00010000
00001000
00000000
,
00010000
00000000
00011000
00000000
,
00001000
00000000
00101000
00000000
,
00001000
00001000
00001000
00000000
,
00010000
00000010
00001000
00000100
,
00000020
00000000
00000000
00000030
,
00000002
00000000
00000000
00000003
,
00000200
00000000
00000000
00000300
,
00002000
00000000
00000000
00003000
,
00020000
00000000
00130000
00000000
,
10000000
00010000
02000000
00200000
,
00000000
00000000
00000000
00000000
,
03300000
00000000
00000000
00000000
,
10000000
00000000
01000000
00000000
00100000
00000000
00000000
02000000
,
00000000
13000000
00010000
02000000
,
03000000
00000000
00010000
00000000
10000000
00000000
00000000
00200000
,
00000000
10300000
01000000
00010000
,
00001000
00000000
00000100
00000000
00000010
00000000
00000000
00000200
,
00000000
00000301
00001000
00000100
,
00010000
00001000
00000010
00000000
,
00000100
00000000
00010000
00011000
,
00001000
00000000
01000000
00000000
00010000
00000000
00000000
00200000
,
00000000
00310000
10000000
00200000
,
00300000
00000000
00010000
00000000
00001000
00000000
00000000
00020000
,
00000000
00031000
00000010
00000100
,
00000010
00000000
00000001
00000000
00001000
00000000
00000000
00000002
,
00000000
00000103
00001000
00010000
,
00100000
01000000
00010000
00000000
,
00100000
00000000
01000000
11000000
,
10000000
01000000
00100000
01000000
,
00010000
01000000
10000000
00100000
,
00010000
00002000
00000000
00013000
,
00001000
00000100
00000001
00000010
,
00000200
00000000
00000310
00000001
,
00002000
00003001
00000100
00000010
,
00002000
00003001
00000010
00001000
,
00010000
01000000
10000000
00100000
,
02000000
00000000
00000000
00000000
,
00000000
03000000
00000000
00000000
,
00100000
00000000
10000000
00000000
,
01000000
01000000
00100000
00000000
,
00001000
00011000
00000000
00011000
,
00000000
00011000
00010000
00000000
,
00000100
00000100
00000100
00000100
,
00000010
00000001
00000100
00001000
,
00020000
00000000
00030100
00002000
,
00000000
00000000
00003000
00000000
,
00000002
00000000
00000103
00000020
,
00000000
00000000
00000030
00000000
,
00002000
00000000
00003100
00020000
,
00000000
00000000
00030000
00000000
,
00002000
00000000
01003000
00010000
,
00000000
10000000
00100000
00010000
;

//---------------dance-double - t7r----------------
#NOTES:
     dance-double:
     t7r:
     Medium:
     10:
     :
00000000
00000000
00000000
00000000
,
00000000
00000000
00000000
00000000
,
00000000
00000000
00000000
00000000
,
00000000
00000000
00000000
00000000
,
00000000
00000000
00000000
00000000
,
00000000
00000000
00000000
00000000
,
00000000
00000000
00000000
00000000
,
00010000
00000000
00000100
00001000
00000100
00000000
00001000
00000020
,
00000000
00001030
00000001
00000100
,
00002000
00000000
00013000
00001000
01000000
00000000
00010000
00200000
,
00000000
00310000
10000000
00000000
00010000
00000000
10010000
00000000
,
10000000
00000000
01000000
00100000
01000000
00000000
10000000
00200000
,
00000000
01300000
00010000
00000000
10000000
00000000
02000000
00000000
,
03010000
00000000
00001000
00000000
00000100
00000000
00000010
00000200
,
00000000
00000301
00001000
00000000
00000001
00000010
00000100
00000000
,
00001000
00000000
00000010
00000000
00020000
00000000
00030100
00002000
,
00000000
00003001
00000010
00000000
00001000
00010000
00002000
00000000
,
01003000
00000000
00010000
00000000
00100000
00000000
00010000
10000000
,
00010000
01000000
00001000
00011000
,
00020000
00000000
00030100
00000000
,
00001000
00000001
00000100
00000000
,
00000002
00000000
00000013
00000000
,
00000100
00010000
00001000
00000000
,
02000000
00000000
03010000
00000000
,
10000000
00100000
01000000
00010000
,
00100000
00000000
00001000
00010000
00001000
00000000
00010000
00000000
,
00000010
00000000
00001000
00000001
00001000
00000000
00000000
00000000
,
00000001
00000100
00000101
00000000
,
00001000
00000100
00001100
00000000
,
00000100
00010000
00011000
00000000
,
00001000
00000000
01000000
00000000
01010000
00000000
00000000
00010000
,
10000000
00000000
00100000
10000000
00100000
00000000
10000000
00000000
,
01000000
00000000
00100000
00000000
00010000
00000000
00000000
00001000
,
00000010
00000010
00000100
00000101
,
00000001
00000000
00000010
00000000
00000100
00010000
00001000
00000000
,
00020000
00000000
00000000
00032000
,
00000000
01003000
00010000
00100000
,
00010000
10000000
00100000
00010000
,
00001000
00000000
00000100
00000010
00000100
00000000
00000001
00000000
,
00000020
00000000
00000130
00001000
,
00010000
00100000
00020000
20000000
,
00000000
00000000
00000000
00000000
,
30030000
00000000
00000000
00000000
,
10000000
00000000
01000000
00100000
01000000
00000000
00010000
02000000
,
00000000
13000000
00010000
00100000
,
00001000
00000000
00010000
00000000
00001000
00000000
00000100
00000002
,
00000000
00001003
00000100
00000000
00001000
00000001
00000010
00000000
,
00000001
00000000
00000100
00000010
00000100
00000000
00001000
00000200
,
00000000
00000301
00000010
00000100
,
00001000
00000000
00010000
00100000
00010000
00000000
10000000
00100000
,
01000000
00010000
10000000
00000000
10010000
00000000
10010000
00000000
,
10000000
00000000
00100000
01000000
00100000
00000000
00010000
00200000
,
00000000
10300000
00010000
01000000
,
00001000
00000000
00010000
00000000
00001000
00000000
00000010
00000002
,
00000000
00001003
00000010
00000000
00001000
00000001
00000100
00000000
,
00000001
00000000
00000010
00000100
00000010
00000000
00001000
00000020
,
00000000
00000031
00000100
00000010
,
00001000
00000000
00010000
01000000
00010000
00000000
10000000
00000000
,
01000000
00100000
00000000
00010000
10000000
00000000
10010000
00000000
,
10000000
00100000
00010000
00001000
,
00000010
00000001
00000010
00001000
,
00010000
00000000
00200000
00000000
00000000
10300000
00010000
00000000
,
10000000
01000000
10000000
00000000
01000000
00000000
00010000
00000000
,
00002000
00000000
00000000
00003100
00000001
00000000
00000010
00000000
,
00000002
00000000
00000013
00000100
00001000
00000000
00010000
00000000
,
00200000
00000000
00310000
10000000
00100000
00000000
01000000
00000000
,
00010000
00100000
00001000
00000000
00011000
00000000
00011000
00000000
,
00020000
01000000
00001000
00000000
,
00000000
00000100
00000000
00030100
00010000
00000000
00001000
00010000
,
00002000
00000100
00010000
00000000
,
00000000
01000000
00000000
01003000
00010000
00000000
10010000
00000000
,
10000000
01000000
00010000
00001000
,
00000010
00000001
00000200
00000000
,
00001300
00011000
00011000
00011000
,
00010000
01000000
10000000
00000000
00100000
01000000
00001000
00000000
,
00010000
00001000
00000100
00000002
,
00000000
00000010
00001003
00000001
,
00000010
00000100
00001000
00020000
,
00000000
00100000
10030000
00010000
,
10000000
01000000
00100000
00020000
,
00000000
00001000
00030010
00001000
,
00000001
00000100
00001000
00010000
,
01000000
00000000
00100000
00000000
00001000
00000000
00010000
00001000
;

//---------------dance-double - t7r----------------
#NOTES:
     dance-double:
     t7r:
     Hard:
     12:
     :
00000000
00000000
00000000
00000000
,
00000000
00000000
00000000
00000000
,
00000000
00000000
00000000
00000000
,
00000000
00000000
00000000
00000000
,
00000000
00000000
00000000
00000000
,
00000000
00000000
00000000
00000000
,
00000000
00000000
00000000
00000000
,
10000000
01000000
00100000
01000000
10000000
00100000
01000000
00020000
,
00000000
00130000
00001000
00010000
00000010
00000000
00000100
00000000
,
00000002
00000000
00000013
00000100
00001000
00000001
00000100
00001000
,
00000000
00010000
00100000
10000000
00100000
00000000
01100000
00000000
,
10000000
01000000
00100000
00010000
10000000
00100000
01000000
00020000
,
00000000
10030000
01000000
00010000
00001000
00000000
00020000
00000000
,
00030010
00000000
00001000
00000000
00000001
00000010
00000100
00000020
,
00000000
00000031
00000100
00000010
00001000
00000100
00010000
00001000
,
01000000
00010000
00100000
01000000
00200000
00000000
00301000
00020000
,
00000000
00031000
00000010
00000001
00000100
00000010
00002000
00000000
,
00003001
00000000
00000100
00000000
00001000
00000000
00010000
00100000
,
01000000
00010000
10000000
00000000
10010000
00000000
01100000
00000000
,
20000000
00000000
31000000
00000000
,
00100000
00001000
00010000
00000000
,
00002000
00000000
00013000
00000000
,
00000010
00000100
00000001
00000000
,
00000020
00000000
00000130
00000000
,
00010000
00000000
00001000
00000000
01000000
00000000
10000000
01000000
,
00100000
00000000
10000000
01000000
00100000
00000000
00001000
00010000
,
00000010
00000000
00001000
00000001
00000100
00000000
00000000
00000001
,
00000010
00000100
00010100
00000000
,
00010000
00000000
00000000
00000000
00001000
00000000
00000000
00010000
00001000
00000000
00000000
00000000
00010000
00000000
00000000
00000000
,
01000000
10000000
00010000
00000000
01000000
00000000
00100000
10000000
,
00010000
10000000
00100000
00000000
00010000
00001000
00010000
00000000
,
00001000
00000000
00000100
00000001
00001000
00000000
00000001
00000000
,
00000010
00000100
00010000
00000000
00001000
00000000
00000000
00010000
,
00000200
00000300
00000200
00000300
00010000
00001000
02000000
03000000
,
00010000
00000000
00000000
00000000
00100000
00000000
00000000
01000000
10000000
00000000
00100000
00000000
01000000
00000000
00010000
00000000
,
00002000
00000000
00000000
00003010
00000000
00000000
00000200
00000000
,
00000000
00000301
00000010
00000100
00001000
00000001
00000100
00000000
,
00002000
00000000
00013000
00000000
00100000
01000000
00010000
00000000
,
10000000
01000000
00100000
00000000
00010000
00100000
00001000
00010000
,
00000020
00000000
00000130
00000001
00001000
00000001
00000010
00000000
,
00002000
00023000
00230000
20000000
,
00000000
00000000
00000000
00000000
,
30300000
00000000
00000000
00000000
,
00010000
00100000
01000000
10000000
00100000
01000000
00010000
20000000
,
00000000
31000000
00100000
00001000
00010000
00000000
00002000
00000000
,
00013000
00000000
00001000
00000010
00000100
00000010
00000001
00000200
,
00000000
00000301
00000010
00000100
00001000
00000001
00000100
00001000
,
00010000
00000100
00001000
00000001
00000100
00000010
00001000
00000200
,
00000000
00010300
00001000
01000000
00010000
00000000
00110000
00000000
,
10010000
00000000
10000000
00000000
00100000
01000000
00010000
00000000
,
10000000
01000000
00010000
00000000
00011000
00000000
00011000
00000000
,
00010000
01000000
00100000
01000000
10000000
00100000
01000000
00020000
,
00000000
10030000
00100000
00010000
00001000
00000000
00020000
00000000
,
00031000
00000000
00010000
00000000
01000000
10000000
00100000
02000000
,
00000000
03010000
00100000
00001000
00010000
00000010
00001000
00000001
,
00000100
00000010
00001000
00000001
00000020
00000000
00000130
00020000
,
00000000
00031000
00010000
00100000
10000000
00010000
00200000
00000000
,
00310000
00000000
10000000
00000000
00100000
00000000
00010000
00002000
,
00000000
00003010
00000001
00000100
00000001
00000000
00001001
00000000
,
00000001
00000000
00000101
00000000
00000001
00000010
00000100
00000010
,
00000001
00000100
00000010
00000100
00000001
00000010
00000100
00001000
,
00010000
00100000
02000000
00000000
00000000
03100000
00010000
00000000
,
10000000
00100000
01000000
00010000
00001000
00000010
00000100
00000001
,
00000020
00000000
00000000
00000031
00001000
00000100
00000010
00000001
,
00000200
00000000
00000301
00000010
00001000
00000010
00000001
00000100
,
00002000
00000000
00013000
01000000
10000000
00100000
01000000
00010000
,
10000000
01000000
00010000
00001000
00000010
00000001
00000100
00000010
,
00020000
00000000
00000100
00031000
,
00000000
00010000
00000000
00010000
00001000
00000000
00010000
00010000
,
00002000
00000000
01000000
00013000
,
00000000
00001000
00000000
00001000
00010000
00000000
00011000
00000000
,
00000100
00001001
00000100
00011000
,
00100000
10010000
02200000
03300000
,
10000000
11000000
11000000
11000000
,
10000000
01000000
00010000
00010000
00010000
00010000
00001000
00000100
,
00000001
00000000
00000010
00000100
00001000
00000000
00000002
00000000
,
00000100
00001000
00000010
00001003
,
00000001
00000000
00000100
00001000
00010000
00000000
00002000
00000000
,
01000000
00000000
00010000
00000000
00103000
00010000
10000000
00000000
,
01000000
00000000
10000000
00100000
01000000
00000000
00020000
00000000
,
00100000
10000000
01000000
10030000
,
01000000
00000000
00010000
00001000
00000100
00000000
00000010
00000000
,
00000100
00000001
00000000
00001000
00000001
00000010
00001000
00010000
;

//---------------dance-double - t7r----------------
#NOTES:
     dance-double:
     t7r:
     Challenge:
     15:
     :
00000000
00000000
00000000
00000000
,
00000000
00000000
00000000
00000000
,
00000000
00000000
00000000
00000000
,
00000000
00000000
00000000
00000000
,
00000000
00000000
00000000
00000000
,
00000000
00000000
00000000
00000000
,
00000000
00000000
00000000
00000000
,
10000000
01000000
00100000
01000000
00010000
01000000
00100000
00020000
,
00000000
10030000
00100000
00010000
00001000
00000000
00000100
00000100
,
00000001
00000010
00000100
00001000
00000001
00000010
00001000
00020000
,
00000000
00000000
00030100
00000000
00001000
00000000
00000001
00000000
00000100
00000000
00001000
00010000
00001000
00000000
00010000
00000000
,
00001000
00000100
00000001
00000010
00000100
00001000
00010000
00200000
,
00000000
00310000
01000000
00100000
10000000
01000000
00100000
00100000
,
01000000
00010000
01000000
00100000
00010000
00001000
00000010
00000200
,
00000000
00000000
00000301
00000000
00000010
00000000
00000100
00000000
00010000
00000000
00000010
00001000
00000010
00000000
00001000
00000000
,
00000001
00000100
00000010
00000100
00002000
00000000
00013000
00200000
,
00000000
00000000
01300000
00010000
01000000
00000000
00010000
00000000
00100000
00000000
10000000
00000000
00020000
00000000
00000000
00000000
,
01030000
00100000
00010000
10000000
00100000
00010000
00001000
00000010
,
00000100
00000000
00010000
00000000
00001000
00000000
01000000
00010000
10000000
00000000
01000000
00000000
00010000
00000000
00001000
00000000
,
00010000
01000000
00010000
01000000
00100000
01000000
10000000
01000000
,
00100000
00010000
00001000
00000010
00000200
00000000
00000301
00001000
,
00000001
00000010
00000001
00000010
00000100
00001000
00000100
00001000
,
00010000
00100000
01000000
10000000
00200000
00000000
00310000
00000000
,
00001000
00000100
00001000
00000100
00000010
00000100
00000010
00000100
,
00001000
00000100
00000001
00001000
00000200
00000000
00010300
00001000
,
00100000
00000000
00100000
00000000
01000000
00000000
10000000
00010000
10000000
00010000
01000000
00000000
00010000
00000000
00100000
00000000
,
00001000
00010000
00001000
00000000
00010000
00000100
00001000
00000000
00000010
00000100
00000001
00000000
00000010
00000100
00010000
00001000
,
00010000
00000000
00000100
00001000
00000001
00000000
00000100
00000000
00000010
00000000
00001000
00000000
00010000
00000000
01000000
00000000
,
00010000
00000000
00100000
01000000
10000000
00000000
00100000
00000000
01000000
00000000
00010000
00000000
00001000
00000000
00000010
00000000
,
00000100
00000000
00000001
00001000
00000100
00000000
00001000
00000100
00010000
00000000
00001000
00000000
00010000
00000000
01000000
00000000
,
00100000
00000000
00001000
00010000
00001000
00000000
01000000
00010000
10000000
00000000
00100000
00000000
00010000
00000000
00001000
00000000
,
01000000
00000000
00100000
00000000
00010000
00000000
00001000
01000000
00010000
00000000
00100000
00000000
01000000
00000000
00010000
00000000
,
00001000
00000000
00000010
00000000
00000100
00000000
00001000
00000001
00000100
00000000
00000001
00000000
00000010
00000000
00000100
00000000
,
00002000
00023000
20030000
30020000
,
00031000
00000000
00000001
00000100
00000010
00000000
00000100
00000001
00001000
00000000
00000100
00000000
00010000
00000000
00001000
00000000
,
00010000
01000000
10000000
00100000
02000000
00000000
13000000
01000000
,
00010000
10000000
01000000
00010000
00001000
00000010
00000100
00000010
,
00001000
00000010
00000001
00000100
00000020
00000000
00000031
00000010
,
00001000
00010000
01000000
00100000
00010000
00100000
10000000
01000000
,
00010000
01000000
00100000
00001000
00010000
00001000
00000020
00000000
,
00000230
00000000
00000000
00000000
00000000
00000000
00000000
00000000
00020300
00000000
00000000
00000000
00000000
00000000
00000000
00000000
00032000
00000000
00000000
00000000
00000000
00000000
00000000
00000000
01003000
00200000
00000000
00000000
00000000
00000000
00000000
00000000
,
00000000
00000000
00000000
00000000
,
00000000
00000000
10300000
00010000
01000000
00010000
10000000
00000000
,
00010000
01000000
00100000
01000000
10000000
01000000
00010000
00200000
,
00000000
00301000
00010000
00001000
00000100
00000001
00001000
00000100
,
00001100
00000000
00000100
00000000
00000001
00000000
00000100
00000000
00000010
00000000
00000001
00001000
00000001
00000000
00000200
00000000
,
00000000
00000000
00001300
00000000
00010000
00000000
01000000
00000000
10000000
00000000
00100000
01000000
00010000
00000000
10000000
00000000
,
01000000
00010000
01000000
00100000
00001000
00010000
00001000
00000200
,
00000000
00000310
00001000
00000001
00000010
00000100
00001000
00000001
,
00000101
00000100
00001000
00010000
00000100
00001000
00000001
00000010
,
00001000
00000000
00010000
00001000
00010000
00000000
00001000
00000000
00010000
00000000
00100000
00000000
10000000
00000000
00010000
00000000
,
10010000
10000000
00100000
00010000
00001000
00100000
00001000
00020000
,
00000000
00031000
00000010
00000100
00001000
00000001
00000100
00000001
,
00001001
00000000
00000001
00000000
00000010
00000000
00001000
00000000
00010000
00000000
00000010
00001000
00000010
00000000
00000200
00000000
,
00000000
00000000
00001300
00000000
00010000
00000000
00001000
00000000
00100000
00000000
00010000
10000000
00010000
00000000
10000000
00000000
,
01000000
00010000
00001000
00000010
00000002
00000000
00000103
00000020
,
00000000
00000000
00000031
00000010
00001000
00000000
00000001
00000000
00000010
00000000
00001000
00000000
00020000
00000000
00001000
00000000
,
00030100
00010000
00001000
01000000
01010000
00010000
10000000
21000000
,
00010000
00000000
30100000
00000000
10000000
00000000
01000000
00100000
00010000
00000000
00001000
00000000
00000010
00000000
00000100
00000000
,
00000001
00000010
00001000
00000001
00000100
00001000
00000001
00000010
,
00001000
00010000
00100000
10000000
00100000
00010000
00001000
01000000
,
00010000
00100000
01000000
10000000
00020000
00000000
00000000
00000000
00000000
00000000
01030000
00010000
10000000
00000000
01000000
00000000
,
00100000
00001000
00010000
00001000
00100000
00000000
00001000
00000000
00010000
00000000
00001000
00000000
00000010
00000000
00000001
00000000
,
00000102
00000000
00001003
00000001
00000100
00001000
00000001
00000010
,
00002000
00000000
00003100
00010000
00001000
00010000
00100000
10000000
,
02000000
00000000
00000000
00000000
03010000
01000000
00100000
00000000
00001000
00000000
00010000
00000100
00001000
00000000
00000001
00000000
,
00000100
00001000
00010000
00100000
10000000
00010000
00100000
00001000
,
00020000
00000000
01000000
01000000
00031000
00000000
00011000
00000000
,
00010000
00000100
00002100
00000000
00003001
00000100
00001000
00010000
,
00002000
00000000
00000100
00000100
00013000
00000000
00011000
00000000
,
00010000
01000000
10000000
00100000
10100000
01000000
10100000
00000000
,
10000000
01000000
00100000
00010000
00001000
00000100
00000010
00000001
,
00000100
00000010
00001000
00010000
01000000
00100000
10000000
00010000
,
10000000
00000000
00100000
01000000
00010000
00000000
00100000
00001000
00010000
00000000
00000010
00001000
00000001
00000000
00000010
00000100
,
00010000
00010000
00010000
00010000
00001000
00001000
00001000
00001000
,
00010000
00000100
00001000
00000001
00000100
00000010
00001000
00000100
,
00010000
00010000
00010000
00001000
00001000
00001000
01000000
01000000
,
00010000
00100000
01000000
10000000
00100000
01000000
00010000
00001000
,
00000100
00000100
00000100
00001000
00001000
00001000
00000001
00000001
,
00000010
00000001
00000100
00001000
00010000
01000000
10000000
00100000
,
10000000
10000000
10000000
01000000
01000000
01000000
00010000
00010000
,
00001000
00000010
00000001
00001000
00000010
00000001
00000010
00000100
,
00000001
00000010
00000100
00001000
00010000
00100000
10000000
00100000
;
