#TITLE:ALTERNATOR;
#ARTIST:BEMANI Sound Team "dj Hellix";
#ARTISTTRANSLIT:dj Hellix;
#BANNER:ALTERNATOR.png;
#BACKGROUND:ALTERNATOR-bg.png;
#JACKET:ALTERNATOR-jacket.png;
#CDTITLE:./CDTITLES/BEATMANIA IIDX.PNG;
#MUSIC:ALTERNATOR.ogg;
#SAMPLESTART:54.486;
#SAMPLELENGTH:15;
#DISPLAYBPM:93:185;
#BPMS:0=185,140=370,141=185,204=92.5,220=185,284=370,285=185;
#STOPS:140=0.16216216216216216216216216216216,284=0.16216216216216216216216216216216;

//---------------dance-single - t7r----------------
#NOTES:
     dance-single:
     t7r:
     Beginner:
     5:
     :
0000
0000
0000
0000
,
0000
0000
0000
0000
,
0000
0000
0000
0000
,
0000
0000
0000
0000
,
0000
0000
0000
0000
,
1000
0000
0000
0000
,
0100
0000
0000
0000
,
0010
0000
0001
0000
,
0100
0000
0010
0000
,
1000
0000
0000
0000
,
1000
0000
0000
0000
,
0001
0000
0000
0000
,
0001
0000
0000
0000
,
0010
0000
0000
0000
,
0010
0000
0000
0000
,
0100
0000
0000
0000
,
0100
0000
0000
0000
,
1000
0000
0001
0000
,
1000
0000
1000
0000
,
0001
0000
1000
0000
,
0001
0000
0001
0000
,
0100
0000
0010
0000
,
0100
0000
0100
0000
,
0001
0000
0010
0000
,
0100
0000
0000
0000
,
1000
0000
0000
0000
,
0001
0000
0000
0000
,
1000
0000
1000
0000
,
1000
0000
1000
0000
,
0001
0000
0001
0000
,
0001
0000
0001
0000
,
0100
0000
0100
0000
,
0100
0000
0100
0000
,
0010
0000
0010
0000
,
0010
0000
0000
0000
,
0000
1000
1000
1000
,
1000
0000
1000
0000
,
0000
0001
0001
0001
,
0001
0000
0001
0000
,
0000
0010
0010
0010
,
0010
0000
0010
0000
,
0000
0100
0100
0100
,
0100
0000
0000
0000
,
1000
0000
0001
0000
,
1000
1000
1000
0000
,
0001
0000
0100
0000
,
0010
0010
0010
0000
,
1000
0000
0100
0000
,
0010
0010
0010
0000
,
0001
0000
1000
0000
,
0010
0010
0010
0000
,
0100
0000
0000
0000
,
0000
0000
0000
0000
,
0001
0000
0010
0000
,
0100
0000
1000
0000
,
0010
0000
0100
0000
,
0010
0000
0000
0000
,
1000
0000
0001
0000
,
1000
0000
0000
0000
,
0100
0000
0010
0000
,
0100
0000
0000
0000
,
1000
0000
0010
0000
,
0100
0000
0001
0000
,
0010
0000
0000
0000
,
0010
0000
0000
0000
,
0001
0000
0000
0000
,
0001
0000
0000
0000
,
1000
0000
1000
0000
,
0001
0000
0001
0000
,
0100
0100
0100
0000
,
0010
0000
0000
0000
,
1000
1000
0000
1000
,
1000
0000
1000
0000
,
0000
0001
0000
0001
,
0001
0000
0001
0000
,
0000
0010
0000
0010
,
0010
0000
0010
0000
,
0000
0100
0000
0100
,
0100
0000
0100
0000
,
1000
0000
0001
0000
,
1000
0000
0010
0000
,
0100
0000
0001
0000
,
0010
0000
0100
0000
,
1000
0000
0001
0000
,
0100
0000
0010
0000
,
1000
0000
0100
0000
,
0010
0000
0001
0000
,
1001
0000
0000
0000
;

//---------------dance-single - t7r----------------
#NOTES:
     dance-single:
     t7r:
     Easy:
     12:
     :
0000
0000
0000
0000
,
0000
0000
0000
0000
,
0000
0000
0000
0000
,
0000
0000
0000
0000
,
0000
0000
0000
0000
,
0001
0000
0010
0000
0001
0000
0000
1000
,
0000
0010
0000
1000
0000
1000
0000
1000
,
0002
0023
0230
2300
,
3001
0100
0010
1000
,
0001
0001
0001
0001
,
0001
0001
0001
0001
,
1000
0100
0000
0000
1000
0010
0000
0000
,
1000
0001
0000
0020
0000
0031
1000
0001
,
1000
1000
1000
1000
,
1000
1000
1000
1000
,
0001
0100
0000
0000
0001
0010
0000
0000
,
0001
1000
0000
0020
0000
1030
0001
1000
,
0001
0000
0100
0000
0010
0100
0010
0000
,
1000
0000
0100
0000
0010
0100
0010
0000
,
0001
0000
1000
0000
0010
0100
0010
0000
,
1000
0000
0001
0000
0100
0010
0200
0000
,
0301
0000
0001
0010
0100
0000
0100
0000
,
1000
0000
1000
0010
0100
0000
0100
0000
,
0001
1000
0001
1000
0001
1000
0001
0000
,
2000
0010
3001
2002
,
3003
0000
0000
0000
,
0100
0100
0100
0000
,
1001
0000
1000
0100
1000
0000
1000
0100
,
1000
0000
1000
0100
1000
0000
0001
0100
,
0001
0000
0001
0100
0001
0000
0001
0100
,
0001
0000
0001
0100
0001
0000
1000
0010
,
0010
0000
1000
0010
1000
0000
1000
0010
,
1000
0000
1000
0010
1000
0000
0001
0010
,
0001
0000
0001
0010
0001
0000
0001
0010
,
0002
0000
0103
0010
0000
0010
0000
1000
,
0002
2003
3100
0001
,
0100
0000
1000
0100
0010
0000
0001
0100
,
0010
2000
3001
0100
,
1000
0000
0100
0010
0100
0000
0001
1000
,
0001
0020
1030
0010
,
0001
0000
0010
0100
1000
0000
0010
0100
,
0001
2000
3010
0001
,
0010
0000
0100
0001
1000
0000
1100
0000
,
0100
0000
0100
0100
0100
0000
0100
0000
,
0100
0000
1000
0010
1000
0010
1000
0010
,
1000
0002
0013
1000
,
0010
0000
0001
0100
0001
0100
0001
0100
,
0001
2000
3010
0001
,
0010
0000
1000
0100
1000
0100
1000
0100
,
1000
0000
0001
0100
0010
0000
1000
0100
,
0020
0000
0031
1000
0000
1000
0000
0000
,
0220
0000
0000
0000
,
0330
0000
0000
0000
,
2000
3000
0000
0000
0100
0000
0000
0010
0000
0010
0000
0001
1000
0000
0010
0000
,
0200
0300
0000
0000
0001
0000
0000
0010
0002
0003
0002
0003
0002
0003
0002
0003
,
1000
0000
0010
0000
0002
0000
0013
0100
,
0000
0100
0000
0100
0000
0100
0000
0100
,
0002
0023
0230
2300
,
3001
0100
1000
0001
,
0010
0000
1000
0000
0200
0000
0310
0001
,
0000
0001
0000
0001
0000
0001
0000
0001
,
2000
3200
0320
0032
,
1003
0100
0001
1000
,
0010
0000
0000
0001
0100
0001
0000
1000
,
0001
0000
0000
1000
0100
1000
0000
0001
,
1000
0000
0000
0010
1000
0010
0000
0100
,
0001
0000
0000
0010
0100
0000
2000
0000
,
3001
0000
0001
0001
0001
0000
0001
0000
,
1000
0000
1000
1000
1000
0000
1000
0000
,
0010
0000
0010
0010
0010
0000
0010
0000
,
0200
0310
1000
0001
,
0100
0000
1020
0000
1030
0100
1000
0100
,
1000
0100
1000
0100
1000
0100
1000
0001
,
1000
0000
0002
0000
0103
0001
0100
0001
,
0100
0001
0100
0001
0200
0000
0310
0010
,
1000
0000
0001
0010
0001
0010
0001
0010
,
0001
0010
0001
0010
0001
0010
0001
1000
,
0001
0000
1000
0010
1000
0010
1000
0010
,
1000
0000
0100
0010
0001
0000
2000
0000
,
3010
0000
0010
0010
0010
0000
0010
0000
,
0010
0000
1000
0100
1000
0100
0001
0100
,
1000
0020
0230
0302
,
1003
0000
0001
0100
0001
0100
1000
0100
,
0001
0200
0320
2030
,
3001
0000
1000
0010
1000
0010
0001
0010
,
1000
0000
0100
0010
0001
0000
0100
0010
,
2000
0000
3001
0010
0100
0000
0010
0000
,
0110
0000
0000
0000
;

//---------------dance-single - t7r----------------
#NOTES:
     dance-single:
     t7r:
     Medium:
     14:
     :
0000
0000
0000
0000
,
0000
0000
0000
0000
,
0000
0000
0000
0000
,
0000
0000
0000
0000
,
0000
0000
0000
0000
,
1000
0000
0010
0000
0200
0000
0301
0010
,
0000
0010
0000
0010
0000
0010
1000
0010
,
0002
0203
2300
3200
,
0301
0000
0000
0010
0100
0000
0000
1000
0010
0000
0000
0100
0001
0000
1000
0000
,
0001
0100
0000
0010
1000
0001
0000
0010
,
0001
1000
0000
0200
0300
0100
0000
0100
,
1000
0001
0000
0100
0001
1000
0000
0100
,
1000
0000
0000
0010
0100
0000
0000
0001
1000
0000
0000
0100
0010
0000
0001
0000
,
1000
0010
0000
0100
0001
1000
0000
0100
,
1000
0001
0000
0020
0030
0010
0000
0010
,
0001
1000
0000
0010
1000
0001
0000
0010
,
0001
0000
0100
0000
0000
0000
0001
0000
1000
0000
0000
0010
0100
0000
0001
0000
,
1000
0000
0100
0001
0100
0001
0100
0000
,
1000
0000
0000
0001
0000
0000
0100
0000
1000
0000
0100
0000
1000
0000
0100
0000
,
0001
0000
0000
0010
0000
0000
1000
0000
0010
0000
1000
0000
0010
0000
0001
0000
,
1000
0000
0000
0010
0000
0000
0001
0000
0010
0000
0000
0000
2000
0000
0000
0000
,
3001
0001
0010
0100
1000
1000
0010
0100
,
0001
0001
0100
0010
1000
1000
0100
0010
,
0001
0001
1000
1000
0010
0010
0100
0100
,
0002
0010
1003
0210
,
0301
0100
0100
0010
,
1000
0000
0100
0000
0100
0010
0001
0000
,
1000
0000
0000
0001
0100
0000
0001
0000
0010
0000
0000
0001
0100
0000
0001
0000
,
0010
0000
0000
0001
0100
0000
0001
0000
0010
0000
0000
0001
0100
0000
0001
0000
,
1000
0000
0000
0100
0010
0000
0100
0000
1000
0000
0000
0100
0010
0000
0100
0000
,
1000
0000
0000
0100
0010
0000
0100
0000
1000
0000
0000
0000
0001
0000
1000
0000
,
0001
0000
0000
1000
0100
0000
1000
0000
0010
0000
0000
1000
0100
0000
1000
0000
,
0010
0000
0000
1000
0100
0000
1000
0000
0010
0000
0000
0100
0001
0000
0010
0000
,
0001
0000
0000
0100
0010
0000
1000
0000
0001
0000
0000
0010
0100
0000
1000
0000
,
0020
0000
0130
0001
1000
0100
0010
0100
,
1000
0000
0020
0000
0031
0010
0100
0010
,
1000
0010
0100
0010
0001
0010
0100
0010
,
1000
0000
0200
0000
0301
0100
0010
0100
,
1000
0100
0010
0100
0001
0100
1000
0001
,
0001
0000
0020
0000
1030
0010
0100
0010
,
0001
0010
0100
0010
1000
0010
0100
0010
,
0001
0000
0200
0000
1300
0100
0010
0100
,
0001
0001
0010
0100
1000
1000
0001
0000
,
0100
0100
0100
0100
0100
0000
0010
1000
,
0001
0000
0010
0100
1000
0100
0010
0001
,
0100
0000
0020
0000
0031
0010
0100
0010
,
1000
0000
0100
0001
0100
0010
0100
1000
,
0001
0000
0200
0000
1300
0100
0010
0100
,
0001
0000
0010
0100
0010
1000
0010
0100
,
0010
0001
1000
1000
0010
1000
0001
0001
,
0200
0000
0310
1000
0001
0010
0100
1000
,
0020
0000
0000
0000
,
0030
0000
0000
0000
,
2000
3000
0000
0001
0100
0001
0000
0010
0000
0100
0000
1000
0010
0100
0001
1000
,
0020
0000
0030
0000
0000
0000
1000
0000
0100
0000
0010
0000
0001
0000
0100
0000
0010
0000
0000
1000
0100
0000
0000
0010
0001
0000
0000
0100
0010
0000
1000
0000
,
0002
0000
0023
0000
1030
0000
0001
0200
,
0000
2300
0000
3020
0000
0032
0000
1003
,
0200
0320
0230
0302
,
0013
1000
0001
0100
,
2000
0000
3020
0000
0031
0000
1000
0200
,
0000
0302
0000
0023
0000
2030
0000
3001
,
0200
0320
0230
2300
,
3001
0000
0000
0100
0010
0000
0000
1000
0100
0000
0000
0010
0001
0000
1000
0000
,
0010
0100
0000
1000
0100
0010
0000
1000
,
0100
0000
0000
0001
0100
0010
0000
0001
,
0100
0000
0000
1000
0100
0010
0000
1000
,
0001
0000
0000
0010
0100
1000
0020
0000
,
1030
1000
0100
0010
0001
0001
0100
0010
,
1000
1000
0010
0100
0001
0001
0010
0100
,
1000
0000
1000
0000
0001
0000
0001
0000
0100
0000
0100
0000
0001
1000
0001
0000
,
2000
0010
3001
1001
,
0100
0000
2010
0000
3001
0010
1000
0010
,
0001
0010
1000
0010
0001
0010
0100
1000
,
0010
0000
0001
0010
1000
0010
0001
0010
,
1000
0010
0001
0010
1000
0010
0100
0001
,
1000
0000
0100
0001
0100
0010
0100
1000
,
0100
0010
0100
0001
0100
0010
0100
1000
,
0010
0000
0100
0010
0100
1000
0100
0001
,
0010
0100
0100
1000
0010
0100
0102
0000
,
1003
0000
0100
1000
0100
0000
1000
0000
0001
0000
0100
0000
0010
0000
1000
0000
,
0100
0000
0001
0100
1000
0001
0100
1000
,
0100
0000
0020
0000
0031
0010
0100
0010
,
1000
0000
0100
0001
1000
0010
0001
1000
,
0001
0000
0200
0000
1300
0100
0010
0100
,
0001
0000
0010
1000
0001
0100
1000
0010
,
0100
0001
1000
1000
0010
1000
0001
0001
,
0010
0000
0100
0010
0100
0000
1000
0000
0001
0000
0100
0010
0100
0000
0001
0000
,
1000
0000
0000
0000
;

//---------------dance-single - t7r----------------
#NOTES:
     dance-single:
     t7r:
     Hard:
     16:
     :
0000
0000
0000
0000
,
0000
0000
0000
0000
,
0000
0000
0000
0000
,
0000
0000
0000
0000
,
0000
0000
0000
0000
,
0010
1000
0000
0001
0100
0010
0000
1000
,
0100
0010
0000
0200
0300
0100
0000
1000
,
0002
0203
2300
3002
,
0013
0000
1000
0100
0010
0000
0001
0100
0010
1000
0001
0010
0100
1000
0001
1000
,
0010
0100
0000
1000
0100
0001
0000
1000
,
0100
0010
0000
0200
0300
0100
0000
0001
,
0100
0010
0000
0001
0100
1000
0000
0001
,
0010
0000
1000
0100
0010
0000
0001
0100
0010
1000
0001
0010
0100
1000
0001
1000
,
0010
0100
0000
1000
0100
0010
0000
1000
,
0100
0001
0000
0200
0300
0100
0000
0001
,
0100
1000
0000
0001
0100
0010
0000
1000
,
0001
0000
0100
0000
1000
0000
0100
0000
0010
0000
1000
0100
0010
0001
0100
0010
,
1000
0100
0010
0100
1000
0001
0100
0000
,
0001
0000
0010
0001
0010
0000
0001
0000
0100
0000
0010
0000
1000
0000
0001
0000
,
1000
0000
0100
1000
0000
0100
0010
0000
0100
0000
1000
0000
0010
0000
0100
0000
,
0001
0000
1000
0010
1000
0000
0001
0000
0100
0000
0010
0000
2000
0000
0000
0000
,
3001
0001
0010
0010
0100
0100
1000
1000
,
0001
0001
0100
0100
0010
0010
1000
1000
,
0001
0010
0001
0010
0001
0010
0001
0010
0100
1000
0100
1000
0100
1000
0100
1000
,
0002
0103
1000
0120
,
1030
0100
0100
0001
,
0100
0000
0100
0000
0010
0100
1001
0000
,
1100
0000
0000
0000
1000
0001
1000
0000
0100
0000
0000
0000
1000
0001
1000
0000
,
0100
0000
0000
0000
1000
0001
1000
0000
0100
0000
0000
0000
1000
0000
0001
0000
,
0100
0000
0000
0000
0001
1000
0001
0000
0100
0000
0000
0000
0001
1000
0001
0000
,
0100
0000
0000
0000
0001
1000
0001
0000
0100
0000
0000
0000
0001
0000
1000
0000
,
1010
0000
0000
0000
1000
0001
1000
0000
0010
0000
0000
0000
1000
0001
1000
0000
,
0010
0000
0000
0000
1000
0001
1000
0000
0010
0000
0000
0000
1000
0000
0001
0000
,
0010
0000
0000
0000
0001
1000
0001
0000
0010
0000
0000
0000
0001
1000
0001
0000
,
0200
0000
1300
0100
0010
0100
0001
0001
,
0010
0000
1200
0000
0301
0100
1000
0010
,
0001
0010
0100
1000
0100
0010
0100
0001
,
1000
0000
0201
0000
1300
0100
0001
0010
,
1000
0010
0100
0001
0100
0010
0100
0100
,
0120
0000
1030
0010
0001
0100
1000
0100
,
0010
0001
0010
0100
0010
1000
0001
0010
,
2010
0000
3001
0100
1000
0010
0001
0010
,
0100
0000
1000
0100
0010
0000
1000
0100
0010
0000
0100
0000
1001
0000
0000
0000
,
1100
0000
0100
0000
0100
0000
0100
0000
1100
0000
1000
0001
0100
0000
0001
1000
,
0100
1000
0010
1000
1010
0010
1010
1000
,
1001
0000
1200
0000
0301
0100
0010
0100
,
1000
0010
0110
0010
0110
0010
1010
1000
,
1001
0000
0201
0000
1300
0100
0010
0100
,
0001
0010
0110
0010
0011
0010
0011
0001
,
1001
1000
0100
0100
0001
1000
0010
0010
,
0001
0000
0100
0010
1000
0000
0100
0010
0001
1000
0010
0100
0001
0000
0010
0100
,
2000
0000
0000
0000
,
3000
0000
0000
0000
,
0002
0000
0003
0000
0000
0000
1000
0100
1000
0000
0001
0000
0000
0000
0100
0000
0000
0000
0010
0000
0000
0000
0100
0000
0001
0000
0100
0000
1000
0000
0100
0000
,
0020
0000
0030
0000
0000
0000
1000
0001
1000
0000
0010
0000
1000
0000
0100
0000
0010
0000
0001
0100
0010
0000
1000
0100
0010
0001
0100
0010
1000
0001
0010
0100
,
2000
0000
0000
0000
3100
0000
1000
0010
1000
0000
0010
0000
0100
0000
2000
0000
,
3100
0002
0103
0020
0130
2000
3100
0010
,
0200
0000
0000
0000
0302
0000
0013
0001
0010
0000
1000
0000
0001
0000
0100
0000
,
2000
3010
0200
1300
0200
0000
0310
0100
,
0002
0000
0000
0000
0013
0000
0001
0100
0001
0000
0100
0000
0010
0000
0002
0000
,
0013
2000
3010
0200
0310
0002
0013
0100
,
0020
0000
0000
0000
2030
0000
3100
1000
0100
0000
0001
0000
1000
0000
0010
0000
,
0200
0000
0301
0100
0010
0000
0001
0100
0010
1000
0100
0010
0001
1000
0010
0100
,
0002
0000
0010
0000
0000
0000
1003
0100
1000
0000
0001
0000
0000
0000
0001
0000
,
2000
0000
0010
0000
0000
0000
3001
0100
0001
0000
1000
0000
0000
0000
1000
0000
,
0200
0000
0001
0000
0000
0000
0310
0100
0010
0000
0001
0000
0000
0000
0001
0000
,
0200
0000
0010
0000
0000
0000
1300
0100
1000
0000
0100
0000
0020
0000
0000
0000
,
1030
0000
0010
0100
0010
0000
0001
0000
1000
0000
0100
0010
0100
0000
0001
0000
,
1000
0000
0100
0010
0100
0000
0001
0000
1000
0000
0010
0100
0010
0000
0001
0000
,
1000
0100
1000
0100
1000
0100
1000
0100
0010
0001
0010
0001
0010
0001
0010
0001
,
0200
0000
0000
0000
1300
0000
0100
0001
1000
0100
0010
0001
0100
0000
0000
0000
,
0010
0000
1001
0000
1100
0100
0101
0100
,
1100
0100
0101
0100
1100
0100
0101
0100
,
0020
0000
0031
0100
1100
0100
0101
0100
,
1100
0100
0101
0100
1100
0100
0110
0010
,
1010
0000
1100
0100
0110
0010
1010
0010
,
0011
0010
1010
0010
0011
0010
1010
0010
,
0011
0000
0101
0100
0110
0010
0011
0010
,
0100
0000
1000
0100
0010
0000
1000
0100
0010
0001
1000
0001
0020
0000
0000
0000
,
0031
0100
0001
0100
0001
1000
0001
1000
0001
0000
0100
0000
0010
0000
0100
0000
,
1000
0100
0010
1000
1010
0010
1010
0010
,
1010
0000
1200
0000
0301
0100
0010
0100
,
1000
0010
0110
0010
0110
0100
0101
0001
,
1001
0000
0201
0000
1300
0100
0010
0100
,
0001
0010
0110
0010
0110
0100
1100
1000
,
1001
1000
0100
0100
0001
1000
0010
0010
,
0001
0000
0100
0010
1000
0000
0100
0010
0001
1000
0010
0100
0001
0000
1000
0001
,
0100
0000
0000
0000
;

//---------------dance-single - t7r----------------
#NOTES:
     dance-single:
     t7r:
     Challenge:
     18:
     :
0000
0000
0000
0000
,
0000
0000
0000
0000
,
0000
0000
0000
0000
,
0000
0000
0000
0000
,
0000
0000
0000
0000
,
2000
0000
3100
0000
0001
0000
1000
0010
,
0000
0001
0000
0100
0000
1000
0100
0010
,
0200
0302
0023
2030
,
3001
0100
0001
0100
1000
0100
1000
0100
1000
0010
1000
0010
0001
0010
0001
0010
,
2000
0000
0000
3001
2000
0000
0000
3100
2000
0000
0000
3010
2000
0000
0000
3001
,
2000
0000
0000
3100
2000
0000
0000
3010
2000
0000
0000
3001
1000
0000
0100
0000
,
1000
1000
0000
0001
0100
1000
0000
0100
,
1000
0100
1000
0100
0001
0100
0001
0100
0001
0010
0001
0010
1000
0010
1000
0010
,
0002
0000
0000
1003
0002
0000
0000
0103
0002
0000
0000
0013
0002
0000
0000
1003
,
0002
0000
0000
0103
0002
0000
0000
0013
0002
0000
0000
1003
0001
0000
0100
0000
,
0001
0001
0000
1000
0010
0001
0000
1000
,
0100
0000
0001
0000
0100
0000
0010
0000
0001
0010
0001
0010
1000
0100
0010
0001
,
1000
0000
0100
1000
0100
0000
1000
0010
1000
0000
0001
0010
0001
0000
1000
0000
,
0001
0000
1000
0100
0000
0100
0001
0000
1000
0000
0010
0000
0100
0000
0001
0000
,
0010
0000
0001
0100
0000
0100
1000
0000
0001
0000
0010
0000
0100
0000
1000
0000
,
0010
0000
1000
0100
0000
0100
0001
0000
0100
0000
0010
0000
1020
0000
0000
0000
,
1030
0000
0001
1000
0100
0000
0100
0000
0001
0000
1000
0001
0100
0000
0100
0000
,
1000
0000
0001
1000
0010
0000
0010
0000
0001
0000
1000
0001
0010
0000
0010
0000
,
1000
0100
1000
0100
1000
0100
1000
0100
0010
0100
0010
0001
0100
0010
1000
0001
,
0010
1001
0100
2010
,
3001
0000
0100
1000
0000
0001
0000
0010
,
1000
0100
0011
0000
0001
0100
1010
0000
,
1001
0000
0000
0000
1000
0100
0010
0001
1000
0000
0000
0000
1000
0100
0010
0001
,
1000
0000
0000
0000
1000
0100
0010
0001
1000
0000
0000
0000
1000
0100
0010
0001
,
1000
0000
0000
0000
1000
0100
0010
0001
1000
0000
0000
0000
1000
0100
0010
0001
,
1000
0000
0000
0000
1000
0100
0010
0001
1000
0000
0000
0000
0010
0000
0100
0000
,
0101
0000
0000
0000
0001
0010
0100
1000
0001
0000
0000
0000
0001
0010
0100
1000
,
0001
0000
0000
0000
0001
0010
0100
1000
0001
0000
0000
0000
0001
0010
0100
1000
,
0001
0000
0000
0000
0001
0010
0100
1000
0001
0000
0000
0000
0001
0010
0100
1000
,
0020
0000
0130
0001
0100
1000
0100
0010
,
0200
0000
0000
0000
0320
0000
0000
0000
1030
0000
0100
0010
0001
0000
0100
0000
,
1100
0100
0110
0100
0101
0001
1001
0001
,
0020
0000
0000
0000
0230
0000
0000
0000
1300
0000
0010
0100
0001
0000
0010
0000
,
1010
0010
0110
0010
0011
0001
1001
1001
,
1200
0000
0000
0000
0320
0000
0000
0000
0031
0000
0010
0001
1000
0000
0010
0000
,
1010
0010
0110
0010
0011
0010
1010
0010
,
0021
0000
0000
0000
0230
0000
0000
0000
0301
0000
0100
0001
1000
0000
0100
0000
,
0001
0100
0001
0100
0010
0100
0010
0100
1000
0010
0100
0001
1000
0000
0100
0100
,
0001
0100
0101
0101
0101
0001
1001
0001
,
0011
0010
0110
0010
1010
0010
0110
0010
,
0012
0000
0000
0000
0103
0001
1000
0010
1000
0001
0100
0001
1000
0100
1000
0001
,
0010
0001
1000
0000
1010
0000
0010
0000
0011
0000
0010
0000
0110
0000
0110
0000
,
0201
0000
0000
0000
0310
1000
0001
0010
0001
1000
0010
1000
0001
0100
0001
1000
,
0100
1000
0001
0000
0011
0000
0010
0000
0110
0000
0010
0000
1010
0000
0010
0000
,
0110
0100
0010
0010
0001
0001
0100
0100
,
1000
0100
1000
0100
0001
0010
0001
0010
1000
0010
0100
0010
0001
0000
1000
0001
,
2000
0000
0000
0000
,
3020
0000
0000
0000
0000
0000
0000
0000
0000
0000
0000
0000
0000
0000
0000
0000
0000
0000
0000
0000
0000
0000
0000
0000
0000
0000
0000
0000
0000
0000
0000
0000
0230
0000
0000
0000
0000
0000
0000
0000
0000
0000
0000
0000
0000
0000
0000
0000
0302
0010
0000
0000
0000
0000
0000
0000
1003
0000
0000
0000
0001
0000
0000
0000
,
0200
0000
0300
0000
0000
0000
1000
0100
1000
0000
0100
0000
0000
0000
0010
0000
0000
0000
0100
0000
0000
0000
0001
0000
0010
0000
0100
0000
0010
0000
1000
0000
,
0020
0000
0030
0000
0000
0000
0001
1000
0001
0000
0100
0000
0010
0000
0001
0000
1000
0100
1000
0100
0001
0010
0001
0010
1000
0010
0100
0010
0001
0100
0010
1000
,
0002
0000
0000
0000
0103
0000
0001
1000
0010
0000
1000
0000
0100
0000
2000
0000
,
0000
3001
2000
0000
0000
3010
2000
0000
0000
3001
1000
0000
0100
0000
0010
0000
,
2000
0000
3001
0100
2000
0000
3001
0100
2000
0000
3001
0010
2000
0000
3100
0000
,
0002
0000
1003
0010
0002
0000
1003
0010
0002
0000
1003
0100
0002
0000
0013
0000
,
0100
0000
0000
0000
1100
0000
1000
0001
0100
0000
0001
0000
0010
0000
0002
0000
,
0000
1003
0002
0000
0000
0103
0002
0000
0000
1003
0001
0000
0010
0000
0100
0000
,
0002
0000
1003
0010
0002
0000
1003
0010
0002
0000
1003
0100
0002
0000
0013
0000
,
1000
0010
1000
0010
0001
0100
0001
0100
1000
0100
1000
0100
0001
0010
0001
0010
,
0001
0000
0100
0000
0010
0000
0100
1000
0100
0000
0010
0000
0200
0000
0001
0000
,
0310
0000
1000
0100
0000
0010
0100
0001
0100
0000
0001
0000
0200
0000
0010
0000
,
1300
0000
0010
0100
0000
0010
0001
0010
0100
0000
0010
1000
0001
0000
0010
0000
,
0001
0000
0010
0100
0000
0010
1000
0010
0100
0000
0010
0001
2000
0000
0000
0000
,
3001
0000
0100
0001
0100
0000
0100
0000
1000
0000
0100
1000
0100
0000
0100
0000
,
0001
0000
0010
0001
0010
0000
0010
0000
1000
0000
0010
1000
0010
0000
0010
0000
,
1000
0010
1000
0010
0001
0100
0001
0100
1000
0100
1000
0100
0001
0010
0001
0010
,
0200
0000
0000
0000
0310
0000
0001
0000
0100
0001
1000
0001
0100
0000
0000
0000
,
0010
0000
0000
0000
1001
0000
0000
0000
1000
0100
0001
0100
1000
0100
0001
0100
,
1000
0100
0001
0100
1000
0100
0001
0100
1000
0100
0001
0100
1000
0000
0100
0000
,
0110
0000
0000
0000
0001
0100
1000
0100
0001
0100
1000
0100
0001
0100
1000
0100
,
0001
0100
1000
0100
0001
0100
1000
0100
0001
0100
1000
0100
0001
0000
0010
0000
,
0110
0000
0000
0000
1000
0010
0001
0010
1000
0010
0001
0010
1000
0010
0001
0010
,
1000
0010
0001
0010
1000
0010
0001
0010
1000
0010
0001
0010
1000
0000
0010
0000
,
0110
0000
0000
0000
0001
0010
1000
0010
0001
0010
1000
0010
0001
0010
1000
0010
,
0001
0100
0010
1000
0001
0010
0100
1000
0001
0100
0010
1000
0200
0000
0000
0000
,
1300
0001
0100
1000
0100
0001
1000
0100
0010
0000
0100
0000
0110
0000
0010
0000
,
0011
0001
1010
0010
1010
0010
1010
0010
,
1010
0000
0010
0000
1000
0100
0100
0001
1000
0100
0100
0001
1000
0100
0100
0001
,
1000
0001
0110
0010
0110
0010
1010
1010
,
1001
0000
1000
0000
0001
0100
0100
1000
0001
0100
0100
1000
0001
0100
0100
1000
,
0001
1000
0011
0010
0011
0010
0011
0010
,
0001
0000
0100
0000
1000
0100
0010
0100
0001
0000
1000
0000
0001
0010
0100
0010
,
1000
0010
1000
0010
0001
0100
0001
0100
1000
0100
1000
0100
0001
0010
1000
0010
,
0110
0000
0000
0000
;

//---------------dance-double - t7r----------------
#NOTES:
     dance-double:
     t7r:
     Easy:
     12:
     :
00000000
00000000
00000000
00000000
,
00000000
00000000
00000000
00000000
,
00000000
00000000
00000000
00000000
,
00000000
00000000
00000000
00000000
,
00000000
00000000
00000000
00000000
,
00000010
00000000
00001000
00000000
00000001
00000000
00000000
00000010
,
00000000
00000100
00000000
00000010
00000000
00000010
00000000
00000010
,
00000002
00000203
00000320
00002030
,
00003100
00000000
00010000
00000000
00001000
00010000
00001000
00000000
,
00010000
00010000
00010000
00010000
,
00010000
00010000
00010000
00010000
,
01000000
00000000
00000000
00000000
10000000
00100000
00000000
00000000
,
10000000
00010000
00000000
20000000
00000000
00000000
31000000
00000000
,
00010000
00010000
00010000
00010000
,
00010000
00010000
00010000
00010000
,
00001000
00000000
00000000
00000000
00000100
00000001
00000000
00000000
,
00000010
00000100
00000000
00020000
00000000
00000000
00031000
00000000
,
00010000
00000000
01000000
00000000
10000000
00010000
10000000
00000000
,
00010000
00100000
01000000
10000000
,
00100000
00000000
01000000
00000000
00001000
00010000
00001000
00000000
,
00010000
00000100
00001000
00000020
,
00001030
00000000
00001000
00000100
00000010
00000000
00000010
00000000
,
00000001
00000000
00000001
00000100
00000010
00000000
00000010
00000000
,
00001000
00000000
00010000
00100000
01000000
00000000
10000000
00000000
,
00200000
00310000
00001000
00022000
,
00033000
00000000
00000000
00000000
,
01000000
01000000
01000000
00000000
,
10010000
00000000
10000000
01000000
10000000
00000000
10000000
01000000
,
10000000
00000000
10000000
01000000
10000000
00000000
01000000
00000000
,
00010000
00000000
00001000
00010000
00001000
00000000
00001000
00010000
,
00001000
00000000
00001000
00010000
00001000
00000000
00010000
00000000
,
00001000
00000000
00000100
00000001
00000100
00000000
00000100
00000001
,
00000100
00000000
00000100
00000001
00000100
00000000
00000001
00000000
,
00001000
00000000
00000001
00000010
00000001
00000000
00000001
00000010
,
00000002
00000000
00000103
00000010
00000000
00000010
00000000
00000000
,
00020000
00032000
00013000
01000000
,
10000000
00000000
01000000
00000000
00010000
00000000
00001000
00010000
,
00001000
00020000
00031000
00000100
,
00000001
00000000
00000100
00000000
00001000
00000000
00010000
00001000
,
00001000
00020000
00130000
10000000
,
00100000
00000000
00010000
00000000
00001000
00000000
00010000
00001000
,
00010000
00002000
00003010
00000001
,
00000010
00000000
00000100
00001000
00000100
00000000
00010000
00000000
,
00001000
00000000
00001000
00001000
00001000
00000000
00001000
00000000
,
00001000
00000000
00010000
00001000
00010000
00001000
00010000
00001000
,
00010000
00002000
00013000
01000000
,
10000000
00000000
00100000
01000000
00100000
01000000
00100000
01000000
,
00100000
20000000
30100000
01000000
,
00010000
00000000
00001000
00000010
00001000
00000010
00001000
00000010
,
00001000
00000000
00000001
00000010
00000100
00000000
00001000
00000000
,
00020000
00000000
10030000
00100000
00000000
00100000
00000000
00000000
,
20020000
00000000
00000000
00000000
,
30030000
00000000
00000000
00000000
,
00100000
00000000
00000000
00000000
00001000
00000000
00000000
00010000
00000000
00001000
00000000
00000100
00000000
00000000
00000000
00000000
,
00000001
00000000
00000000
00000000
00000010
00000000
00000000
00000100
00020000
00030000
00020000
00030000
00020000
00030000
00020000
00030000
,
00001000
00000000
00010000
00000000
02000000
00000000
03100000
00010000
,
00000000
00010000
00000000
00010000
00000000
00010000
00000000
00010000
,
20000000
30200000
02300000
03010000
,
00001000
00000010
00000001
00001000
,
00000100
00000000
00000001
00000000
00000010
00000000
00000100
00010000
,
00000000
00010000
00000000
00010000
00000000
00010000
00000000
00010000
,
00002000
00023000
02030000
03200000
,
00310000
10000000
00100000
00010000
,
00001000
00000000
00000000
00010000
00000100
00010000
00000000
00001000
,
00010000
00000000
00000000
00001000
01000000
00001000
00000000
00010000
,
00001000
00000000
00000000
00010000
00000010
00010000
00000000
00001000
,
00010000
00000000
00000000
00001000
00100000
00000000
00020000
00000000
,
10030000
00000000
10000000
10000000
10000000
00000000
10000000
00000000
,
01000000
00000000
01000000
01000000
01000000
00000000
01000000
00000000
,
00010000
00000000
00010000
00010000
00010000
00000000
00010000
00000000
,
00002000
00003100
00000010
00001000
,
00000100
00000000
00000011
00000000
00000001
00000100
00000001
00000100
,
00000001
00000100
00000001
00000100
00000001
00000100
00000001
00000000
,
00000010
00000000
00002000
00000000
00013000
00001000
00010000
00001000
,
00010000
00001000
00010000
00001000
00010000
00000000
00001000
00001000
,
00100000
00000000
00020000
00000000
10030000
00010000
10000000
00010000
,
10000000
00010000
10000000
00010000
10000000
00010000
10000000
00100000
,
10000000
00000000
00200000
00000000
00310000
00001000
00010000
00001000
,
00010000
00000000
01000000
00100000
00010000
00000000
20000000
00000000
,
30100000
00000000
00100000
00100000
00100000
00000000
00100000
00000000
,
00100000
00000000
00010000
00001000
00010000
00001000
00010000
00001000
,
00000100
00000000
00000002
00000000
00000023
00000000
00000130
00001000
,
00000001
00000000
00000100
00000000
00001000
00010000
00001000
00010000
,
00001000
00000000
00010000
00000000
01000000
00000000
00100000
00010000
,
10000000
00000000
00100000
00010000
00001000
00010000
00001000
00010000
,
00001000
00000000
00000010
00000100
00001000
00000000
00000001
00000100
,
00002000
00000000
00013000
00001000
01000000
00000000
00100000
00000000
,
10010000
00000000
00000000
00000000
;

//---------------dance-double - t7r----------------
#NOTES:
     dance-double:
     t7r:
     Medium:
     14:
     :
00000000
00000000
00000000
00000000
,
00000000
00000000
00000000
00000000
,
00000000
00000000
00000000
00000000
,
00000000
00000000
00000000
00000000
,
00000000
00000000
00000000
00000000
,
00001000
00000000
00100000
00000000
00020000
00000000
10030000
00100000
,
00000000
00100000
00000000
00100000
00000000
00100000
01000000
00100000
,
20000000
32000000
03200000
00302000
,
00013000
00000000
00000000
00001000
00000010
00000000
00000100
00000000
00001000
00000000
00000001
00000000
00000100
00000000
00000010
00000000
,
00001000
00000100
00000000
00010000
00001000
01000000
00000000
00001000
,
00010000
00000100
00000000
00020000
00030000
00010000
00000000
00010000
,
00001000
00100000
00000000
00001000
00010000
00000010
00000000
00010000
,
00001000
00000000
00000000
00010000
01000000
00000000
10000000
00000000
00100000
00000000
01000000
00000000
00020000
00000000
00000000
00000000
,
10030000
00100000
00000000
00010000
00001000
00010000
00000000
00001000
,
00000010
00000100
00000000
00002000
00003000
00001000
00000000
00001000
,
00000001
00000100
00000000
00001000
00010000
00001000
00000000
00010000
,
01000000
00100000
00000000
00020000
00000000
10030000
00100000
01000000
,
00010000
00000000
10000000
01000000
10000000
01000000
00010000
00000000
,
00001000
00000000
00000000
00010000
00000000
00000000
00001000
00000000
00000100
00000000
00000001
00000000
00000100
00000000
00000001
00000000
,
00001000
00000000
00000000
00000001
00000000
00000000
00000010
00000000
00001000
00000000
00000010
00000000
00001000
00000000
00010000
00000000
,
00001000
00000000
00000000
00010000
00000000
00000000
00100000
00000000
10000000
00000000
01000000
00000000
00200000
00000000
00000000
00000000
,
00310000
00010000
01000000
01000000
00100000
00100000
10000000
10000000
,
01000000
01000000
00010000
00010000
00001000
00001000
00000100
00000100
,
00000001
00000001
00000010
00000010
00000100
00000100
00010000
00010000
,
00001000
00012000
01003000
02100000
,
03010000
10000000
00010000
00001000
,
00000001
00000000
00000010
00000000
00000100
00010000
00001000
00000000
,
00011000
00000000
00000000
00001000
01000000
00000000
00010000
00000000
00100000
00000000
00000000
00001000
01000000
00000000
00010000
00000000
,
00100000
00000000
00000000
00001000
01000000
00000000
00010000
00000000
00100000
00000000
00000000
00000000
00001000
00000000
00010000
00000000
,
00001000
00000000
00000000
00010000
00000100
00000000
00001000
00000000
00000010
00000000
00000000
00010000
00000100
00000000
00001000
00000000
,
00000010
00000000
00000000
00010000
00000100
00000000
00001000
00000000
00000010
00000000
00000000
00000000
00010000
00000000
00001000
00000000
,
00010000
00000000
00000000
00001000
00100000
00000000
00010000
00000000
01000000
00000000
00000000
00001000
00100000
00000000
00010000
00000000
,
01000000
00000000
00000000
00001000
00100000
00000000
00010000
00000000
01000000
00000000
00000000
00000000
00001000
00000000
00010000
00000000
,
00001000
00000000
00000000
00010000
00000010
00000000
00001000
00000000
00000100
00000000
00000000
00010000
00000010
00000000
00001000
00000000
,
00000200
00000000
00000310
00000001
00000100
00000010
00001000
00000100
,
00010000
00000000
00002000
00000000
00013000
01000000
00100000
01000000
,
00010000
01000000
10000000
00100000
01000000
00010000
10000000
00100000
,
00010000
00000000
00002000
00000000
00023000
00000000
00031000
00000010
,
00000100
00000010
00000001
00000100
00000010
00001000
00000100
00010000
,
00010000
00000000
00002000
00000000
00013000
00100000
01000000
00100000
,
00010000
00100000
10000000
01000000
00100000
00010000
10000000
01000000
,
00010000
00000000
00002000
00000000
00023000
00000000
00031000
00000100
,
00000010
00000010
00000100
00000001
00001000
00000010
00010000
00000000
,
00001000
00001000
00001000
00001000
00001000
00000000
00010000
00100000
,
01000000
00000000
00010000
00100000
01000000
10000000
01000000
00100000
,
00001000
00000000
00020000
00000000
00032000
00000000
00013000
00001000
,
00000010
00000000
00000100
00001000
00000001
00000100
00001000
00010000
,
00001000
00000000
00020000
00000000
00031000
00000010
00000100
00000010
,
00000001
00000000
00000100
00001000
00010000
00100000
01000000
00001000
,
00010000
00010000
01000000
01000000
10000000
10000000
00010000
00010000
,
00200000
00000000
00301000
00010000
00000010
00001000
00000001
00000000
,
00002002
00000000
00000000
00000000
,
00003003
00000000
00000000
00000000
,
02000000
03000000
00000000
00010000
00100000
00010000
00000000
10000000
00000000
00100000
00000000
01000000
00010000
10000000
01000000
00100000
,
00002000
00000000
00003000
00000000
00000000
00000000
00010000
00000000
00001000
00000000
00010000
00000000
00000010
00000000
00001000
00000000
00000001
00000000
00000000
00000010
00000100
00000000
00000000
00001000
00000010
00000000
00000000
00010000
00001000
00000000
00000000
00100000
,
00020000
00000000
02030000
00000000
03200000
00000000
10300000
02000000
,
00000000
03020000
00000000
00032000
00000000
00003200
00000000
00000301
,
00000020
00000230
00002300
00003002
,
00000103
00001000
00010000
00100000
,
20000000
00000000
32000000
00000000
03200000
00000000
00310000
20000000
,
00000000
30200000
00000000
00320000
00000000
00032000
00000000
00003010
,
00000002
00002003
00003020
00020030
,
00031000
00000000
00000000
00000010
00000001
00000000
00000000
00000100
00000010
00000000
00000000
00001000
00000100
00000000
00010000
00000000
,
00001000
00000000
00000000
00010000
01000000
10000000
00000000
00010000
,
01000000
00000000
00000000
00001000
00000100
00000001
00000000
00001000
,
00000100
00000000
00000000
00010000
00100000
10000000
00000000
00010000
,
00100000
00000000
00000000
00001000
00000010
00000001
00002000
00000000
,
00003001
00000001
00000010
00000010
00000100
00000100
00001000
00001000
,
00010000
00010000
01000000
01000000
00100000
00100000
10000000
10000000
,
01000000
00000000
01000000
00000000
00100000
00000000
00100000
00000000
00001000
00000000
00001000
00000000
00010000
00001000
00010000
00000000
,
00002000
00010000
01003000
00100000
,
01100000
00000000
01020000
00000000
10030000
01000000
00010000
01000000
,
10000000
01000000
00010000
00001000
00000100
00000001
00000100
00001000
,
00000100
00000000
00000002
00000000
00000013
00001000
00000010
00000001
,
00000010
00001000
00010000
00100000
10000000
00100000
00010000
00100000
,
01000000
00000000
00200000
00000000
10300000
00100000
00010000
00100000
,
10000000
01000000
00010000
00001000
00000010
00000001
00000100
00000010
,
00001000
00000000
00000002
00000000
00000013
00001000
00010000
01000000
,
10000000
00100000
00100000
01000000
00010000
10000000
10020000
00000000
,
10030000
00000000
01000000
10000000
01000000
00000000
10000000
00000000
00100000
00000000
01000000
00000000
00010000
00000000
10000000
00000000
,
01000000
00000000
00010000
00001000
01000000
00010000
00001000
00000100
,
00001000
00000000
00000002
00000000
00000013
00000100
00001000
00000001
,
00000100
00000000
00001000
00010000
00000010
00001000
00010000
00100000
,
00010000
00000000
20000000
00000000
30100000
10000000
00010000
01000000
,
00100000
00000000
00010000
00001000
00100000
00010000
00001000
00000010
,
00001000
00001000
00000001
00000010
00000100
00000100
00010000
00001000
,
00010000
00000000
00001000
01000000
00001000
00000000
00010000
00000000
01000000
00000000
00100000
00010000
00100000
00000000
00000000
00000000
,
00011000
00000000
00000000
00000000
;

//---------------dance-double - t7r----------------
#NOTES:
     dance-double:
     t7r:
     Hard:
     16:
     :
00000000
00000000
00000000
00000000
,
00000000
00000000
00000000
00000000
,
00000000
00000000
00000000
00000000
,
00000000
00000000
00000000
00000000
,
00000000
00000000
00000000
00000000
,
10000000
01000000
00000000
10000000
00010000
01000000
00000000
00010000
,
00100000
00001000
00000000
00020000
00030000
00010000
00000000
00001000
,
00000200
00000302
00000023
00002030
,
00013000
00000100
00010000
00000000
00000100
00010000
00000100
00000000
00010000
00000010
00000100
00000001
00001000
00000100
00000010
00000001
,
00000100
00000010
00000000
00000001
00000010
00001000
00000000
00000001
,
00000010
00001000
00000000
00020000
00030000
00010000
00000000
01000000
,
10000000
00100000
00000000
00010000
00100000
10000000
00000000
00010000
,
00100000
01000000
00100000
00000000
00010000
00100000
00010000
00000000
00100000
00001000
00010000
00001000
00010000
00000010
00000100
00000001
,
00001000
00000100
00000000
00000001
00000100
00001000
00000000
00000001
,
00000100
00001000
00000000
00020000
00030000
00010000
00000000
00100000
,
01000000
00010000
00000000
00100000
01000000
00010000
00000000
00001000
,
00010000
00000000
00001000
00000000
00000100
00000000
00000010
00000000
00001000
00000100
00000010
00000001
00001000
00000010
00000100
00000001
,
00000010
00000001
00000100
00000001
00001000
00000100
00000010
00000000
,
00000001
00000000
00000100
00000001
00000100
00000000
00000001
00000000
00001000
00000000
00000100
00000000
00010000
00000000
00001000
00000000
,
01000000
00000000
00010000
00100000
00010000
00000000
10000000
00000000
00100000
00000000
01000000
00000000
00010000
00000000
10000000
00000000
,
01000000
00000000
10000000
00100000
10000000
00000000
00100000
00000000
01000000
00000000
00001000
00000000
00020000
00000000
00000000
00000000
,
00030100
00000100
00010000
00010000
00001000
00001000
00010000
00010000
,
00001000
00001000
01000000
01000000
00010000
00010000
10000000
10000000
,
01000000
00100000
01000000
00100000
01000000
00100000
01000000
00100000
00001000
00010000
00001000
00010000
00001000
00010000
00001000
00010000
,
00001000
00001020
00000031
00000201
,
00000301
00001000
00000001
00001000
,
00010000
00000000
10000000
00000000
00010000
01000000
10100000
00000000
,
11000000
00000000
00000000
00000000
10000000
01000000
10000000
00000000
00010000
00000000
00000000
00000000
10000000
01000000
10000000
00000000
,
00010000
00000000
00000000
00000000
10000000
01000000
10000000
00000000
00010000
00000000
00000000
00000000
10000000
00000000
01000000
00000000
,
00010000
00000000
00000000
00000000
00001000
00010000
00001000
00000000
01000000
00000000
00000000
00000000
00001000
00010000
00001000
00000000
,
01000000
00000000
00000000
00000000
00001000
00010000
00001000
00000000
01000000
00000000
00000000
00000000
00001000
00000000
00000100
00000000
,
00000110
00000000
00000000
00000000
00000001
00000010
00000001
00000000
00001000
00000000
00000000
00000000
00000001
00000010
00000001
00000000
,
00001000
00000000
00000000
00000000
00000001
00000010
00000001
00000000
00001000
00000000
00000000
00000000
00000001
00000000
00000100
00000000
,
00000010
00000000
00000000
00000000
00001000
00000100
00001000
00000000
00000100
00000000
00000000
00000000
00010000
00001000
00010000
00000000
,
00002000
00000000
00013000
01000000
10000000
00010000
01000000
01000000
,
00100000
00000000
20000000
00000000
31000000
00010000
00001000
00000010
,
00000001
00000100
00001000
00010000
00100000
10000000
01000000
00010000
,
00002000
00000000
00003200
00000000
00000301
00000010
00001000
00000001
,
00000100
00001000
00000001
00000100
00001000
00010000
00100000
01000000
,
01200000
00000000
20300000
00000000
30100000
00010000
00001000
00000100
,
00000001
00000010
00001000
00010000
01000000
10000000
00100000
00010000
,
00002000
00000000
00003020
00000000
00001030
00000010
00000001
00001000
,
00000010
00000000
00000001
00000010
00000100
00000000
00000001
00000010
00000100
00000000
00000010
00000000
00001001
00000000
00000000
00000000
,
00001100
00000000
00000100
00000000
00000100
00000000
00000100
00000000
00010100
00000000
00010000
00001000
01000000
00000000
00001000
00010000
,
00000100
00001000
00000010
00001000
00001010
00000010
00001010
00001000
,
00001001
00000000
00001200
00000000
00000301
00000100
00000010
00000001
,
00000100
00001000
00011000
00010000
00011000
00001000
00011000
00010000
,
00010100
00000000
00012000
00000000
01003000
00010000
00100000
10000000
,
00010000
01000000
10000000
00100000
10100000
00100000
10100000
10000000
,
10010000
00010000
01000000
01000000
10000000
00010000
00100000
00100000
,
10000000
00000000
01000000
00100000
00010000
00000000
00001000
00000010
00000100
00000001
00000100
00000001
00001000
00000000
00000000
00000000
,
00002020
00000000
00000000
00000000
,
00003030
00000000
00000000
00000000
,
00000002
00000000
00000003
00000000
00000000
00000000
00001000
00000100
00001000
00000000
00000001
00000000
00000000
00000000
00000100
00000000
00000000
00000000
00001000
00000000
00000000
00000000
00010000
00000000
00100000
00000000
10000000
00000000
00010000
00000000
00100000
00000000
,
02000000
00000000
03000000
00000000
00000000
00000000
10000000
00100000
10000000
00000000
00010000
00000000
10000000
00000000
01000000
00000000
00100000
00000000
00001000
00010000
00000010
00000000
00001000
00000001
00001000
00000100
00000010
00000001
00000100
00000010
00001000
00000001
,
00000020
00000000
00000000
00000000
00000031
00000000
00000100
00000001
00000100
00000000
00000001
00000000
00000010
00000000
00000200
00000000
,
00000301
00000200
00010300
00002000
01003000
00020000
01030000
10000000
,
02000000
00000000
00000000
00000000
03020000
00000000
00130000
00010000
00100000
00000000
00010000
00000000
10000000
00000000
00100000
00000000
,
00020000
00031000
00000200
00000310
00002000
00000000
00003100
00001000
,
00020000
00000000
00000000
00000000
00130000
00000000
00010000
01000000
00010000
00000000
10000000
00000000
00100000
00000000
02000000
00000000
,
13000000
02000000
03001000
00020000
00030100
00002000
00003100
00000001
,
00000200
00000000
00000000
00000000
00002300
00000000
00003010
00001000
00000010
00000000
00001000
00000000
00000001
00000000
00000010
00000000
,
00002000
00000000
00013000
01000000
00100000
00000000
00010000
01000000
00100000
10000000
01000000
00100000
00010000
00000000
00001000
00000010
,
00000200
00000000
00000001
00000000
00000000
00000000
00000310
00000100
00000010
00000000
00001000
00000000
00000000
00000000
00000001
00000000
,
00000020
00000000
00000100
00000000
00000000
00000000
00000031
00001000
00000001
00000000
00000100
00000000
00000000
00000000
00001000
00000000
,
00020000
00000000
00000100
00000000
00000000
00000000
00031000
00010000
00001000
00000000
00010000
00000000
00000000
00000000
00001000
00000000
,
00200000
00000000
00010000
00000000
00000000
00000000
01300000
00100000
01000000
00000000
10000000
00000000
00200000
00000000
00000000
00000000
,
10300000
10000000
01000000
01000000
00100000
00100000
00010000
00010000
,
00001000
00001000
00000010
00000010
00000100
00000100
00000001
00000001
,
00000010
00000100
00000010
00000100
00000010
00000100
00000010
00000100
00010000
00001000
00010000
00001000
00010000
00001000
00010000
00001000
,
00200000
00000000
00000000
00000000
01300000
00000000
00100000
00010000
10000000
00000000
00100000
00000000
00010000
00000000
00000000
00000000
,
00001000
00000000
00012000
00000000
00003100
00000001
00000011
00000010
,
00000110
00000100
00001100
00000100
00010100
00010000
00011000
00001000
,
01001000
00000000
02010000
00000000
03100000
10000000
10100000
10000000
,
11000000
01000000
01100000
00100000
00101000
00001000
00011000
00010000
,
00010100
00000000
00021000
00000000
00031000
00000100
00000101
00000100
,
00001100
00001000
00011000
00010000
01010000
01000000
11000000
10000000
,
10100000
00000000
20010000
00000000
30100000
00010000
00011000
00001000
,
00000010
00000000
00001000
00000010
00000100
00000000
00001000
00000010
00000100
00000001
00001000
00000000
00000200
00000000
00000000
00000000
,
00001300
00000100
00010000
00001000
00010000
00001000
00010000
00001000
00010000
00000000
01000000
00000000
00100000
00000000
01000000
00000000
,
10000000
00100000
01000000
00010000
01010000
01000000
01001000
00001000
,
00011000
00000000
00010200
00000000
00001300
00000010
00000100
00000010
,
00000001
00000010
00001010
00001000
00001100
00000100
00010100
00010000
,
00011000
00000000
00201000
00000000
00310000
00100000
10000000
00100000
,
01000000
00100000
00101000
00001000
00011000
00010000
00010010
00000010
,
00001010
00001000
00000100
00000100
00000001
00001000
00000010
00000010
,
00000001
00000000
00000100
00000010
00001000
00000000
00010000
00100000
01000000
10000000
00010000
01000000
00100000
00000000
10000000
00010000
,
10000000
00000000
00000000
00000000
;

//---------------dance-double - t7r----------------
#NOTES:
     dance-double:
     t7r:
     Challenge:
     18:
     :
00000000
00000000
00000000
00000000
,
00000000
00000000
00000000
00000000
,
00000000
00000000
00000000
00000000
,
00000000
00000000
00000000
00000000
,
00000000
00000000
00000000
00000000
,
00000002
00000000
00000103
00000000
00000010
00000000
00001000
00000100
,
00000000
00000010
00000000
00000001
00000000
00000100
00001000
00010000
,
00002000
02003000
03020000
20030000
,
30010000
00100000
00010000
00100000
01000000
10000000
01000000
10000000
00010000
00100000
00001000
00010000
00000010
00001000
00000001
00000010
,
00000002
00000000
00000000
00001003
00000002
00000000
00000000
00000103
00000002
00000000
00000000
00000013
00000002
00000000
00000000
00001003
,
00000002
00000000
00000000
00000103
00000002
00000000
00000000
00000013
00000002
00000000
00000000
00001003
00000001
00000000
00000100
00000000
,
00000001
00000001
00000000
00001000
00000100
00010000
00000000
00000100
,
00010000
00000100
00010000
00000100
00010000
00001000
00010000
00001000
01000000
00010000
10000000
00100000
01000000
00010000
10000000
00100000
,
20000000
00000000
00000000
30010000
20000000
00000000
00000000
31000000
20000000
00000000
00000000
30100000
20000000
00000000
00000000
30010000
,
20000000
00000000
00000000
31000000
20000000
00000000
00000000
30100000
20000000
00000000
00000000
30010000
10000000
00000000
01000000
00000000
,
10000000
10000000
00000000
01000000
10000000
00100000
00000000
00010000
,
00001000
00000000
00010000
00000000
00000000
00000000
00001000
00000000
00000100
00000001
00000100
00000001
00000010
00000100
00010000
00001000
,
00010000
00000000
00001000
01000000
00001000
00000000
00010000
00001000
00010000
00000000
01000000
10000000
00010000
00000000
01000000
00000000
,
00100000
00000000
10000000
01000000
00000000
01000000
00010000
00000000
10000000
00000000
00100000
00000000
00010000
00000000
00001000
00000000
,
00000100
00000000
00000001
00000010
00000000
00000010
00001000
00000000
00000001
00000000
00000100
00000000
00001000
00000000
00010000
00000000
,
01000000
00000000
10000000
00100000
00000000
00100000
00010000
00000000
10000000
00000000
01000000
00000000
00020000
00000000
00000000
00000000
,
00031000
00000000
00000100
00000010
00000100
00000000
00000001
00000000
00001000
00000000
00000100
00010000
00000100
00000000
00010000
00000000
,
00001000
00000000
00010000
01000000
00010000
00000000
01000000
00000000
00100000
00000000
00010000
10000000
00010000
00000000
10000000
00000000
,
00100000
01000000
00100000
01000000
00100000
01000000
00100000
01000000
00010000
00100000
00001000
00010000
00000010
00001000
00000001
00000010
,
00000100
00011000
01000000
20100000
,
30010000
10000000
10010000
00011000
,
00000001
00000000
00001000
00000000
00011000
01000000
10100000
00000000
,
11000000
00000000
00000000
00000000
10000000
01000000
00100000
00010000
10000000
00000000
00000000
00000000
10000000
01000000
00100000
00010000
,
10000000
00000000
00000000
00000000
10000000
01000000
00100000
00010000
10000000
00000000
00000000
00000000
10000000
00000000
00010000
00000000
,
00001000
00000000
00000000
00000000
00000001
00000010
00000100
00001000
00000001
00000000
00000000
00000000
00000001
00000010
00000100
00001000
,
00000001
00000000
00000000
00000000
00000001
00000010
00000100
00001000
00000001
00000000
00000000
00000000
00000001
00000000
00001000
00000000
,
00010000
00000000
00000000
00000000
10000000
00100000
01000000
00010000
10000000
00000000
00000000
00000000
10000000
00100000
01000000
00010000
,
10000000
00000000
00000000
00000000
10000000
00100000
01000000
00010000
10000000
00000000
00000000
00000000
10000000
00000000
00010000
00000000
,
00001000
00000000
00000000
00000000
00000001
00000100
00000010
00001000
00000001
00000000
00000000
00000000
00000001
00000100
00000010
00001000
,
00000002
00000000
00000013
00001000
00010000
00000100
00001000
00010000
,
00200000
00000000
00000000
00000000
00320000
00000000
00000000
00000000
10030000
00000000
00100000
01000000
00010000
00000000
10000000
00000000
,
01000000
00010000
00011000
00001000
00001100
00000100
00000101
00000001
,
00001001
00000000
00000000
00000000
00002000
00000000
00000000
00000000
00003001
00000000
00000010
00000100
00001000
00000000
00000001
00000000
,
00000100
00001000
00011000
00010000
01010000
01000000
11000000
11000000
,
10010000
00000000
00000000
00000000
10200000
00000000
00000000
00000000
10300000
00000000
01000000
00100000
00010000
00000000
10000000
00000000
,
00100000
00010000
00011000
00001000
00001010
00000010
00000011
00000001
,
00001001
00000000
00000000
00000000
00002010
00000000
00000000
00000000
00003001
00000000
00000010
00000100
00001000
00000000
00000001
00000000
,
00000100
00000000
00001000
00010000
00001000
00000000
00010000
00001000
01000000
00000000
00010000
10000000
00010000
00000000
01000000
01000000
,
10000000
10000000
10010000
10010000
10010000
10000000
11000000
01000000
,
01010000
00000000
00011000
00001000
01001000
00001000
00011000
00010000
,
00010100
00000000
00000000
00000000
00012000
00000000
00000000
00000000
00003100
00000000
00000001
00000010
00000100
00000000
00001000
00000000
,
00001001
00000001
00000101
00000100
00001100
00001000
00011000
00011000
,
00110000
00000000
00000000
00000000
20100000
00000000
00000000
00000000
30010000
00000000
00100000
01000000
10000000
00000000
00100000
01000000
,
00001000
00010000
00011000
00010000
00010010
00010000
00011000
00001000
,
00101000
00100000
00010000
00010000
01000000
01000000
00100000
00100000
,
10000000
01000000
10000000
01000000
00100000
00010000
00100000
00001000
00010000
00000100
00010000
00000100
00001000
00000010
00000100
00000001
,
00002000
00000000
00000000
00000000
,
00003020
00000000
00000000
00000000
00000000
00000000
00000000
00000000
00000000
00000000
00000000
00000000
00000000
00000000
00000000
00000000
00000000
00000000
00000000
00000000
00000000
00000000
00000000
00000000
00000000
00000000
00000000
00000000
00000000
00000000
00000000
00000000
00000230
00000000
00000000
00000000
00000000
00000000
00000000
00000000
00000000
00000000
00000000
00000000
00000000
00000000
00000000
00000000
00000302
00000010
00000000
00000000
00000000
00000000
00000000
00000000
00001003
00000000
00000000
00000000
00000001
00000000
00000000
00000000
,
00000200
00000000
00000300
00000000
00000000
00000000
00000001
00000010
00000001
00000000
00001000
00000000
00000000
00000000
00000001
00000000
00000000
00000000
00000100
00000000
00000000
00000000
00001000
00000000
00010000
00000000
00100000
00000000
10000000
00000000
00010000
00000000
,
00200000
00000000
00300000
00000000
00000000
00000000
00010000
10000000
00010000
00000000
10000000
00000000
00100000
00000000
01000000
00000000
00010000
00100000
01000000
10000000
00010000
00100000
00001000
00010000
00000010
00001000
00000001
00000010
00000100
00001000
00000001
00001000
,
00000002
00000000
00000000
00000000
00000103
00000000
00000001
00001000
00000010
00000000
00001000
00000000
00000100
00000000
00020000
00000000
,
00000000
00031000
00020000
00000000
00000000
00030100
00020000
00000000
00000000
00031000
00010000
00000000
01000000
00000000
10000000
00000000
,
00100000
00000000
00010000
00100000
01000000
00000000
00010000
00100000
01000000
00000000
00010000
01000000
00100000
00000000
00010000
00000000
,
10000000
00000000
00100000
00010000
00001000
00000000
01000000
00010000
10000000
00000000
01000000
00100000
00001000
00000000
00010000
00000000
,
02000000
00000000
00000000
00000000
13000000
00000000
00100000
10000000
00010000
00000000
10000000
00000000
01000000
00000000
00020000
00000000
,
00000000
00031000
00020000
00000000
00000000
00030010
00020000
00000000
00000000
00030100
00010000
00000000
00001000
00000000
00000100
00000000
,
00000010
00000000
00000001
00000010
00000100
00000000
00000001
00000010
00000100
00000000
00000001
00000100
00000010
00000000
00000001
00000000
,
00001000
00000001
00000010
00000001
00001000
00000100
00010000
00001000
00100000
00010000
10000000
00100000
01000000
00010000
10000000
00010000
,
10000000
00000000
01000000
00000000
00100000
00000000
01000000
00010000
01000000
00000000
00010000
00000000
00001000
00000000
00000100
00000000
,
00000010
00000000
00000100
00000001
00000000
00000100
00000010
00000100
00000001
00000000
00000010
00000000
00001000
00000000
00010000
00000000
,
00001000
00000000
01000000
00010000
00000000
01000000
00100000
10000000
00010000
00000000
10000000
00000000
01000000
00000000
00010000
00000000
,
00001000
00000000
00000010
00000100
00000000
00010000
00000100
00001000
00000001
00000000
00000100
00000000
00002000
00000000
00000000
00000000
,
00013000
00000000
00001000
00010000
00000100
00000000
00000100
00000000
00000001
00000000
00001000
00000001
00000100
00000000
00000100
00000000
,
00010000
00000000
00001000
10000000
01000000
00000000
01000000
00000000
00001000
00000000
00010000
00000001
00000100
00000000
00000100
00000000
,
00001000
00000100
00001000
00000100
00000010
00000001
00000010
00000001
00001000
00000100
00010000
00001000
01000000
00010000
10000000
01000000
,
00200000
00000000
00000000
00000000
00310000
00000000
10000000
00000000
00100000
10000000
00010000
10000000
00100000
00000000
00000000
00000000
,
01000000
00000000
00000000
00000000
10010000
00000000
00000000
00000000
10000000
01000000
00010000
01000000
10000000
01000000
00010000
01000000
,
10000000
01000000
00010000
00000000
00001000
00010000
01000000
00010000
00001000
00010000
01000000
00010000
00001000
00000000
00010000
00000000
,
00011000
00000000
00000000
00000000
00001000
00000100
00000001
00000100
00001000
00000100
00000001
00000100
00001000
00000100
00000001
00000000
,
00000010
00001000
00010000
00001000
00000010
00001000
00010000
00001000
00000010
00000000
00000100
00000000
00001000
00000000
00000001
00000000
,
00000101
00000000
00000000
00000000
00000001
00000010
00001000
00000010
00000001
00000010
00001000
00000010
00000001
00000010
00001000
00000000
,
00010000
00001000
00000010
00001000
00010000
00001000
00000010
00001000
00010000
00001000
00000010
00001000
00010000
00000000
00001000
00000000
,
00011000
00000000
00000000
00000000
00010000
00100000
10000000
00100000
00010000
00100000
10000000
00100000
00010000
00100000
10000000
00000000
,
00100000
01000000
00010000
00100000
00001000
00010000
00000010
00001000
00000100
00000010
00000001
00001000
00000002
00000000
00000000
00000000
,
00000103
00001000
00000100
00000001
00000100
00001000
00000100
00000001
00000100
00000000
00001000
00000000
00011000
00000000
00010000
00000000
,
00110000
00100000
10100000
10000000
10010000
10000000
11000000
01000000
,
01100000
00000000
00000000
00000000
10000000
01000000
01000000
00010000
10000000
01000000
01000000
00010000
10000000
01000000
01000000
00010000
,
10000000
01000000
01010000
00010000
00011000
00001000
00001010
00001010
,
00000110
00000000
00000000
00000000
00000001
00000100
00000100
00001000
00000001
00000100
00000100
00001000
00000001
00000100
00000100
00001000
,
00000001
00000100
00001100
00001000
00011000
00010000
00110000
00100000
,
10100000
00000000
00100000
00000000
10000000
01000000
00100000
01000000
00010000
00000000
00001000
00000000
00000100
00000001
00000010
00000100
,
00000001
00000100
00000001
00000100
00010000
00001000
00010000
00001000
01000000
10000000
01000000
10000000
01000000
00000000
00001000
00010000
,
00011000
00000000
00000000
00000000
;
