#TITLE:5.8.8.;
#ARTIST:dj nagureo;
#BANNER:5.8.8..png;
#BACKGROUND:5.8.8.-bg.png;
#JACKET:5.8.8.-jacket.png;
#CDTITLE:./CDTITLES/BEATMANIA IIDX.PNG;
#MUSIC:5.8.8..ogg;
#SAMPLESTART:22.736;
#SAMPLELENGTH:15;
#BPMS:0=95,148=47.5;
#BGCHANGES:0=../../../BGAs/10am.mp4=1=0=0=1=====;

//---------------dance-single - t7r----------------
#NOTES:
     dance-single:
     t7r:
     Beginner:
     1:
     :
0000
0000
0000
0000
,
0000
0000
0000
0000
,
0000
0000
0000
0000
,
1000
0000
0000
0000
,
0000
0000
0000
0000
,
0010
0000
0000
0000
,
0100
0000
0000
0000
,
0001
0000
0000
0000
,
0001
0000
0000
0000
,
1000
0000
0000
0000
,
0010
0000
0000
0000
,
0100
0000
0100
0000
,
0100
0000
0000
0000
,
0001
0000
0000
0000
,
0010
0000
0000
0000
,
0100
0000
0100
0000
,
0100
0000
0000
0000
,
1000
0000
1000
0000
,
1000
0000
1000
0000
,
0001
0000
0001
0000
,
0001
0000
0001
0000
,
0100
0000
0100
0000
,
0100
0000
0100
0000
,
0010
0000
0010
0000
,
0010
0000
0010
0000
,
1000
0000
0000
0000
,
0001
0000
0000
0000
,
0010
0000
0000
0000
,
0100
0000
0000
0000
,
1000
0000
0000
0000
,
0001
0000
0000
0000
,
0100
0000
0000
0000
,
0010
0000
0000
0000
,
1000
0000
0000
0000
,
0100
0000
0000
0000
,
0001
0000
0000
0000
,
0010
0000
0100
0000
,
0110
0000
0001
0000
,
1000
1000
1000
0000
,
0100
0000
0010
0000
,
0001
0001
0001
0000
,
0100
0100
0010
0010
;

//---------------dance-single - t7r----------------
#NOTES:
     dance-single:
     t7r:
     Easy:
     4:
     :
0000
0000
0000
0000
,
0000
0000
0000
0000
,
0000
0000
0000
0000
,
0100
0000
0000
0000
,
0010
0000
0000
0000
,
1000
0000
1000
0000
,
1000
0000
1000
0000
,
1000
1000
1000
1000
,
1000
1000
1000
1000
1000
1000
1000
1000
,
0001
0000
1000
0000
,
0100
0000
0010
0000
,
0001
1000
0001
0000
,
0100
0010
0100
0000
,
0010
0000
1000
0000
,
0001
0000
1000
0000
,
0100
0010
0100
0000
,
0010
0001
1000
0000
,
1001
0000
0001
0000
,
1000
0000
0010
0000
,
0100
0000
0000
0001
0001
0000
0000
0000
,
0010
0100
1000
0000
,
0010
0000
0100
0000
,
0001
0000
0010
0000
,
0001
1000
0001
0000
,
0100
0010
0100
0000
,
1001
0000
0000
1000
1000
0000
0000
0000
,
0100
0010
0001
0000
,
1001
0000
0000
0001
0001
0000
0000
0000
,
0100
0010
1000
0000
,
1001
0000
0000
1000
1000
0000
0000
0000
,
0100
1000
1100
0000
,
1001
0000
0000
0001
0001
0000
0000
0000
,
0100
0001
0101
0000
,
1010
0000
1000
0000
,
0100
0000
0010
1001
,
0110
0000
0100
0000
,
0010
1000
0001
0000
,
0011
0000
1000
0000
,
0100
0010
0001
1000
0010
0000
0100
0000
,
1010
0000
0010
0000
,
0100
0001
0010
1000
0010
0001
0100
1000
,
0100
0000
0010
0000
1000
0000
0001
1000
;

//---------------dance-single - t7r----------------
#NOTES:
     dance-single:
     t7r:
     Medium:
     7:
     :
0000
0000
0000
0000
,
0000
0000
0000
0000
,
0000
0000
0000
0000
,
1000
0000
0010
0000
0000
0010
0000
0000
0010
0000
0000
0010
0000
0000
0020
0000
,
0030
0000
0100
0000
0000
0100
0000
0000
0100
0000
0100
0000
0100
0000
0100
0000
,
0001
0010
0000
0000
0001
1000
0000
0000
,
0010
0100
0000
0000
0001
1000
0100
0000
,
1000
0010
0001
0010
1000
0010
0001
0010
,
1000
0000
1000
0000
0001
0000
0001
0000
1000
0001
1000
0001
1000
0001
1000
0000
,
0001
0010
0100
1000
0002
0000
0103
0010
,
2000
3100
0002
0103
,
1000
0010
0100
0010
0001
0010
0100
0010
,
0010
1000
0001
0010
0100
0010
0001
0000
,
1000
0010
0100
0001
2000
0000
3100
0010
,
0002
0103
2000
3100
,
0001
0010
0100
0010
1000
0010
0100
0010
,
0110
1001
0110
1001
,
1000
0100
1100
0000
0001
0100
0101
0000
,
1000
0010
1010
0000
0001
0010
0011
0000
,
0001
0100
0000
0010
0010
0000
1000
0100
,
0001
0100
0010
0100
1000
0100
0010
0001
,
0100
1000
0200
0000
0310
1000
0200
0000
,
0301
0100
0020
0000
0031
1000
0020
0000
,
0130
0001
0100
1000
0100
0010
0100
0001
,
1001
0110
1001
0110
,
2000
0100
0000
0001
3001
0000
1001
0000
,
0001
0010
1000
0010
0001
0100
0010
0100
,
0002
0010
0000
1000
1003
0000
1001
0000
,
1000
0010
0001
0010
1000
0100
0010
0100
,
2000
0001
0000
3100
1100
0000
1001
0000
,
0001
0100
0010
0001
1000
0100
0010
1000
,
0002
0010
0000
1003
1010
0000
1001
0000
,
1000
0100
0010
1000
0001
0100
0010
0001
,
1000
0010
0100
0001
2000
0100
3001
1000
,
0001
0010
0100
1000
0001
0100
1001
0000
,
0001
0100
1000
0100
0010
1000
0100
0001
,
0100
0110
1001
0110
,
1000
0000
0010
0100
0002
0000
0013
0100
2000
0000
3010
0000
0002
0000
0013
0000
,
1000
0100
0010
0100
0001
0100
0010
0100
0100
1000
0001
0100
0010
0100
0001
1000
,
0001
0000
0010
0100
1000
0000
0010
0100
0002
0000
0013
0000
2000
0000
3010
0000
,
0001
0100
0010
0100
1000
0100
0010
0100
0001
0010
0100
0010
1000
0010
0100
0010
,
0001
0000
0000
0000
1000
0000
0000
0000
0010
0000
0000
0000
0100
0000
0001
2000
,
3000
0000
0000
0000
;

//---------------dance-single - t7r----------------
#NOTES:
     dance-single:
     t7r:
     Hard:
     12:
     :
0000
0000
0000
0000
,
0000
0000
0000
0000
,
0000
0000
0000
0000
,
0001
0000
0010
0000
0000
0010
0000
0000
0010
0000
0000
0010
0001
0000
0020
0000
,
0031
0000
1000
0000
0010
1000
0000
0000
0001
0000
0001
0000
1000
0001
1000
0001
,
1000
1100
0000
1000
0001
0101
0000
0001
,
1000
1010
0000
1000
0001
0011
0002
0000
,
1003
0000
1000
0000
0010
0100
0010
0000
0100
0000
0100
0000
0001
1000
0001
0000
,
1000
0001
1000
0001
1000
0001
1000
0001
1000
0001
1000
0001
1000
1000
1000
1000
,
0001
0010
0001
0100
0020
0000
1030
0001
,
0020
1000
0130
0000
2000
0010
3002
0000
,
1003
0100
0010
0100
0001
0100
0010
0100
,
0100
1000
0020
0001
0130
0001
2000
0100
,
3001
0000
0010
0000
0100
1000
0000
0000
0010
0000
0000
0010
1000
0000
0002
0000
,
0023
0001
0130
0000
2000
0010
3001
1000
,
0001
0010
0100
0010
1000
0010
0100
0010
,
1001
0100
1001
0100
1001
0100
0110
0000
,
0002
0013
0011
0000
2000
3010
1010
0000
,
0002
0103
0101
0000
2000
3100
1100
0100
,
0020
0031
0101
0001
0002
0013
1001
0001
,
1000
0100
0010
0100
0001
0100
1000
0010
,
0100
0000
1000
0100
0000
0010
0100
0000
1000
0100
0000
0001
0010
0000
0001
0000
,
0010
0100
0010
0000
1000
0010
0000
0100
0010
0000
1000
0010
0000
0001
1000
0000
,
0001
0000
0100
0010
0000
0001
0010
0000
1000
0100
0000
0001
0100
0000
0010
0000
,
1001
0000
0000
0100
0000
0000
1001
0000
0000
0100
0000
0010
0100
0000
0000
0110
0000
0000
0202
0000
0000
0303
0000
0000
,
2001
0100
0001
3010
2020
3030
2002
3003
,
0001
0010
1000
0001
0100
1000
0010
0100
,
1002
0100
1000
0013
0022
0033
2002
3003
,
1000
0010
0001
1000
0100
0001
0010
0100
,
1100
1100
0000
0000
0100
0100
2001
0000
,
3001
0010
0100
0001
1000
0010
0100
1000
,
1020
0001
0100
1030
1001
1000
0200
0300
,
1001
0000
0100
0000
1001
0000
0100
0010
0100
0000
0010
0000
0110
0000
1000
0000
,
0101
0101
0001
0010
0200
0001
0310
0001
,
1001
1001
1000
0010
0100
1000
0220
0330
,
1010
1010
1000
0100
0001
0100
0010
0100
,
1001
0000
0000
0000
0000
0000
0100
0000
0000
0000
0000
0000
1001
0000
0000
0000
0000
0000
0100
0000
0000
0000
0010
0000
0100
0000
0000
0000
0000
0000
0110
0000
0000
0000
0000
0000
1000
0000
0000
0001
0000
0000
0100
0000
0000
0000
0000
0000
,
0001
0010
0100
1000
0020
0000
1030
0001
2000
0000
0100
0000
3002
0000
0100
0000
,
1003
0010
0100
0010
0001
0010
0100
0010
0010
1000
0100
0001
0100
1000
0001
1001
,
1000
0000
0100
0010
0000
0100
0001
0000
0100
0010
0000
0100
1000
0000
0001
0000
0100
0010
0100
0000
0001
0010
0000
1000
0010
0000
0100
0010
0000
0001
1000
0000
,
0001
0000
0100
0001
0000
0100
0010
0000
0100
1000
0000
0100
0001
0000
1000
0000
0100
0000
0001
0100
0000
0010
0001
0000
1000
0010
0000
0100
1000
0000
0001
0000
,
0010
0000
1000
0100
0010
0100
1000
0000
0001
0100
0010
0100
0001
0000
1000
0100
0010
0001
1000
0000
0001
0010
0100
1000
0001
0000
0100
0010
1000
0001
0020
0000
,
0030
0000
0000
0000
;

//---------------dance-single - t7r----------------
#NOTES:
     dance-single:
     t7r:
     Challenge:
     15:
     :
0000
0000
0000
0000
,
0000
0000
0000
0000
,
0000
0000
0000
0000
,
1000
0000
0100
0000
0010
0100
0010
0000
0001
0000
1000
0001
0100
0000
0002
0000
,
1003
0000
0010
0000
0100
0010
1000
0000
0001
0000
0001
0000
0001
0001
0001
0001
,
0101
0000
0001
0010
0000
0100
1000
0000
0001
0010
0000
1000
0010
0000
0001
1000
,
0001
0100
0010
0000
1000
0010
0000
0100
0001
0000
1000
0100
0010
0001
2000
0000
,
3001
0010
0001
0010
1000
0010
1000
0010
0001
0010
1000
0010
0001
0010
1000
0010
,
0001
0001
0010
0010
1000
1000
0010
0010
0001
0001
1000
1000
0001
0001
0001
0001
,
1000
0100
1100
0000
1002
0000
1003
0000
0001
0100
0101
0000
1001
0000
0012
0000
,
1003
0010
1010
0000
1002
0000
1003
0000
0001
0010
0011
0000
2001
0000
3001
0000
,
1000
0100
2100
0000
3001
0100
0102
0000
1003
0010
0210
0000
0301
0010
0110
0000
,
1100
0100
1000
0000
1200
0000
1300
0000
0101
0100
0001
0000
0101
0001
1000
0000
,
0011
0001
1000
0010
0100
2000
3100
0010
0200
0301
1000
0020
1030
0001
2001
0000
,
3100
0010
0110
0000
0011
0000
0001
0000
0100
0010
0110
0000
1010
0000
1000
0000
,
1001
1000
0002
0013
0100
0002
0103
0010
0200
1300
0001
0020
0031
1000
1002
0000
,
0103
0010
0110
0000
1020
0000
1030
0000
0100
0010
0110
0010
0011
0001
1000
0000
,
0200
0310
0100
1000
0010
0100
0001
1000
0200
0310
0100
0001
1000
0010
0001
1000
,
0020
0130
0010
1000
0100
0010
0001
1000
0020
0130
0010
0001
1000
0100
0001
1000
,
0002
0013
0001
1000
0100
0010
2000
3010
2000
3010
0100
0010
0002
0103
0020
1030
,
0200
0310
0100
0001
2000
3010
0100
0010
0002
0103
0020
1030
0002
0013
0200
0000
,
2300
3100
0010
1000
0001
0100
0010
0000
0002
0103
0010
0001
1000
0000
0100
0010
,
2000
3100
0001
1000
0020
0031
1000
0010
0002
0000
1003
0100
0020
1030
0001
0000
,
0020
1030
0001
0100
2000
3010
0001
0000
2000
3100
0001
0010
0200
1300
0001
0100
,
0101
0000
0000
0100
0000
0000
0001
0000
0000
0010
0000
0000
0011
0000
0000
0001
0000
0000
1000
0000
0000
0000
0100
0000
1000
0000
0000
0010
0000
0000
1000
0000
0000
0001
0000
0000
1001
0000
0000
0001
0000
0000
0200
0000
0000
0000
0000
0000
,
0310
1000
0100
0010
0001
1000
1010
0000
1010
1000
0100
0010
0011
0001
0100
0000
,
0101
0100
0101
0001
1001
1000
1001
1000
1100
0100
1100
0100
0110
0010
0011
0001
,
0101
0001
0010
0100
1000
0001
0101
0000
0101
0001
0010
0100
1100
1000
0010
0000
,
1010
0010
1010
1000
1001
0001
1001
0001
0011
0010
0011
0010
0110
0100
1100
1000
,
1020
0000
0001
0000
0100
0000
1030
0000
0110
0000
0110
0100
0002
0000
1003
0000
,
1010
0010
1010
1000
1001
0001
1001
1000
1100
0100
0101
0100
0110
0010
0011
0001
,
0101
0100
1000
0100
0010
1000
1010
0000
1010
0010
1000
0001
1001
1000
0100
0000
,
1100
0100
0101
0100
0110
0010
0011
0001
1001
1000
1010
0010
0110
0010
0011
0010
,
0110
0000
0210
0000
0301
1000
1100
0000
0011
0000
0012
0000
1003
0001
0101
0000
,
0110
0000
0210
0000
0301
1000
1010
0000
0110
0000
0110
0100
1001
1000
0100
0010
,
0110
0100
1100
1000
0010
0100
0010
1000
1010
0010
0110
0100
0001
0010
0001
1000
,
1001
0000
0000
1000
0000
0000
0100
0000
0000
0001
0000
0000
0101
0000
0000
0100
0000
0000
1000
0000
0000
0000
0001
0000
1001
0000
0000
1000
0000
0000
0010
0000
0000
0001
0000
0000
0010
0000
0100
0000
0001
0000
1000
0000
0000
0100
0000
0000
,
0010
0000
0001
0000
0100
0000
1000
0000
0200
0000
0000
0000
0310
1000
0001
0100
0002
0000
0010
0000
2003
0000
0000
0000
3020
0000
0001
0000
0230
0000
0000
0000
,
0310
0000
0101
0000
0010
0000
0101
0000
0010
0000
1100
0000
0010
0000
1100
0000
0110
0000
1000
0000
0110
0000
0001
0000
0110
0000
1000
0000
1001
1000
0100
0010
,
0001
0100
0020
0230
1300
0200
0302
1003
0200
0302
1003
0020
0032
1003
0001
0100
0001
0020
0230
0301
2000
3020
0031
2000
3020
0031
2000
3200
0310
2000
3002
1003
,
0002
0010
1000
0100
2003
0010
0001
0100
3002
0100
0010
1000
0203
1000
0010
0001
0320
0001
0100
1000
0230
0001
0010
1000
0302
0010
1000
0100
2003
0010
0001
0100
,
3001
0010
0001
0101
0000
1000
1100
0100
1000
0010
0100
0010
1010
0000
0001
0010
1000
0010
0011
0001
1000
0010
0001
0010
1010
1000
0100
0001
0010
0100
0110
0000
;

//---------------dance-double - t7r----------------
#NOTES:
     dance-double:
     t7r:
     Easy:
     4:
     :
00000000
00000000
00000000
00000000
,
00000000
00000000
00000000
00000000
,
00000000
00000000
00000000
00000000
,
00000100
00000000
00000000
00000000
,
00010000
00000000
00000000
00000000
,
00001000
00000000
00001000
00000000
,
00001000
00000000
00001000
00011000
,
00010000
00100000
10000000
01000000
,
00010000
00001000
00000010
00000001
,
00000100
00000000
00001000
00000000
,
00010000
00000000
00001000
00000000
,
00100000
00010000
10000000
00000000
,
00100000
00010000
00001000
00000000
,
00010000
00000000
00000100
00000000
,
00000010
00000000
00000001
00000000
,
00000100
00001000
00010000
00000000
,
01000000
10000000
00100000
00000000
,
10010000
00000000
10000000
00000000
,
01000000
00000000
00010000
00000000
,
00001000
00000000
00000000
00000100
00000100
00000000
00000010
00000000
,
00001000
00000001
00000010
00001000
,
00010000
00000000
00000100
00000000
,
00010000
00000000
00001000
01000000
,
00100000
10000000
01000000
00100000
,
00001000
00011000
00010000
00011000
,
00001000
00000000
00000000
00010000
00010000
00000000
00000000
00000000
,
00000100
00000010
00000001
00000100
,
00001000
00000000
00000000
00010000
00010000
00000000
00000000
00000000
,
00001000
01000000
00100000
10000000
,
01000000
00000000
00000000
00010000
00010000
00000000
00000000
00000000
,
00001000
00000010
00000100
00001000
,
00000001
00000000
00000000
00000100
00000100
00000000
00000000
00000000
,
00001000
00010000
01000000
00100000
,
10010000
00000000
10000000
00000000
,
01000000
00000000
00100000
00001000
,
00010000
00010000
00000000
00000000
00000100
00000100
00000000
00000000
,
00001000
00000001
00000100
00001000
,
00010000
00000000
00000100
00000000
,
00000010
00000000
00000001
00000000
00001000
00000000
00000100
00010000
,
00001000
00000000
01000000
00000000
,
00100000
10000000
00010000
00000000
00100000
00001000
00010000
00000000
,
00001000
00000000
00000010
00000000
00000001
00000000
00000100
00001000
;

//---------------dance-double - t7r----------------
#NOTES:
     dance-double:
     t7r:
     Medium:
     7:
     :
00000000
00000000
00000000
00000000
,
00000000
00000000
00000000
00000000
,
00000000
00000000
00000000
00000000
,
00001000
00000000
00100000
00000000
00000000
00100000
00000000
00000000
00100000
00000000
00000000
00100000
00000000
00000000
00200000
00000000
,
00300000
00000000
00001000
00000000
00000000
00001000
00000000
00000000
00001000
00000000
00001000
00000000
00001000
00000000
00001000
00000000
,
00010000
00000100
00000000
00000000
00001000
00000001
00000000
00000000
,
00000100
00001000
00000000
00000000
00010000
00001000
02000000
00000000
,
03100000
00100000
10000000
10000000
00010000
00010000
00100000
00100000
,
00001000
00000000
00001000
00000000
00010000
00000000
00010000
00000000
00001000
00010000
00001000
00010000
00001000
00010000
00001000
00000000
,
00010000
00000100
00001000
00000001
00000200
00000000
00000310
00001000
,
00000200
00010300
00002000
01003000
,
00010000
00100000
01000000
00100000
00020000
00000000
00130000
00001000
,
00010000
00000010
00000100
00000010
00002000
00000000
00003001
00000000
,
00000010
00000100
00001000
00000001
00000200
00000000
00001300
00010000
,
00002000
01003000
00020000
00130000
,
00010000
10000000
00100000
00000000
00010000
00001000
00000010
00000000
,
00001001
00000000
00000110
00000000
00000001
00001000
00000100
00000000
,
00010000
00001000
00011000
00000000
00001000
01000000
01010000
00000000
,
10000000
00100000
00010000
00001000
00010000
00000100
00001100
00000000
,
00001000
00000001
00000011
00000000
00000001
00000100
00002000
00000000
,
00013000
00100000
01000000
00000000
00010000
00100000
01000000
10000000
,
01000000
00100000
00110000
00000000
00001000
00010000
00011000
00000000
,
00000010
00000100
00000110
00000000
00000001
00001000
00001100
00000000
,
00001000
00000001
00000200
00000000
00001300
00010000
00002000
00000000
,
00013000
01000000
10000000
01100000
,
20000000
00100000
00000000
00010000
30010000
00000000
10000000
00000000
,
01000000
00000000
00010000
00001000
00000100
00000000
00000001
00000000
,
00002000
00000100
00000000
00000001
00003001
00000000
00001001
00000000
,
00000001
00000000
00000100
00001000
00010000
00000000
01000000
00000000
,
20000000
00100000
00000000
00010000
30010000
00000000
10010000
00000000
,
10000000
00000000
00100000
00010000
00001000
00000000
00000010
00000000
,
00000002
00000010
00000000
00001000
00001003
00000000
00001001
00000000
,
00000001
00000100
00011000
01000000
,
10010000
10000000
01000000
00000000
00100000
00001000
00010000
00000000
,
00001000
00001000
00010000
00000100
00001000
00000000
00001001
00000000
,
00000001
00000010
00000100
00000000
00020000
00000000
00031000
00000000
,
01000000
00010000
10000000
00000000
00200000
00000000
01300000
00000000
,
10010000
00000000
10000000
01000000
00100000
00000000
00001000
00010000
00020000
00000000
00030100
00000000
00002000
00000000
00003001
00000000
,
00000100
00000000
00001000
00010000
01000000
00000000
00100000
01000000
01000000
00000000
00100000
00001000
00010000
00000000
00000010
00000100
,
00000001
00000000
00001000
00000100
00010000
00000000
00001000
00010000
00020000
00000000
00031000
00000000
00200000
00000000
00310000
10000000
,
00100000
00010000
00001000
00000000
00000010
00000001
00001000
00000000
00000001
00000100
00001000
00000000
00010000
01000000
10000000
00000000
,
00100000
00000000
00000000
00000000
01000000
00000000
00000000
00000000
00001000
00000000
00000000
00000000
00010000
00000000
00001000
00020000
,
00030000
00000000
00000000
00000000
;

//---------------dance-double - t7r----------------
#NOTES:
     dance-double:
     t7r:
     Hard:
     12:
     :
00000000
00000000
00000000
00000000
,
00000000
00000000
00000000
00000000
,
00000000
00000000
00000000
00000000
,
00010000
00000000
00000010
00000000
00000000
00000010
00000000
00000000
00000010
00000000
00000000
00000010
00001000
00000000
00000020
00000000
,
00000130
00000000
00000001
00000000
00000000
00000010
00000000
00000000
00001000
00000000
00001000
00000000
00010000
00001000
00010000
00001000
,
00010000
00011000
00000000
00000000
01000000
01010000
00000000
00000000
,
00001000
00011000
00000000
00000000
00000100
00001100
00010000
00000000
,
00001000
00000000
00001000
00000000
00010000
00001000
00010000
00000000
00001000
00000000
00001000
00000000
01000000
00010000
01000000
00000000
,
00001000
00010000
00001000
00010000
00001000
00010000
00001000
00010000
00001000
00010000
00001000
00010000
00001000
00000000
00010000
00000000
,
00001000
00000100
00000001
00000010
00000002
00000100
00001003
00000001
,
00000001
00000010
00002000
00000000
00013000
00100000
20000000
00000000
,
31000000
00010000
00001000
00000100
00001000
00010000
01000000
00010000
,
00010000
00001000
00000100
00000010
00000100
00000001
00000010
00000100
,
00010000
00000000
00001000
00000000
00000010
00000001
00000000
00000000
00001000
00000000
00000000
00001000
00000001
00000000
00000200
00000000
,
00002300
00010000
01003000
00000000
00020000
00100000
10030000
00010000
,
10000000
00100000
00010000
00001000
00000010
00000100
00000010
00000001
,
00000100
00000000
00001000
00000000
00010000
00001000
00011000
00000000
,
00020000
00030100
00001100
00000000
00000200
00010300
00011000
00000000
,
00002000
01003000
01010000
00000000
20000000
30100000
10100000
10000000
,
00020000
00130000
00110000
00100000
00002000
00013000
00010010
00000010
,
00001000
00000100
00010000
00001000
01000000
00010000
10000000
01000000
,
00010000
00000000
00001000
00010000
00000000
00001000
01000000
00000000
00100000
10000000
00000000
00010000
10000000
00000000
00100000
00000000
,
00010000
00000000
00001000
00010000
00000000
00000010
00001000
00000000
00000001
00001000
00000000
00000001
00000010
00000000
00000100
00000000
,
00001000
00000000
00000001
00000100
00000000
00001000
00010000
00000000
00001000
01000000
00000000
00010000
10000000
00000000
00100000
00000000
,
00010000
00000000
00000000
00000000
00000000
00000000
00011000
00000000
00000000
00000000
00000000
00000100
00001000
00000000
00000000
00000001
00000000
00000000
00001001
00000000
00000000
00000000
00000000
00000000
,
00000002
00000010
00001000
00000103
00000101
00000001
00002000
00000000
,
00003100
00001000
00010000
00100000
00001000
00010000
00100000
01000000
,
01020000
01000000
10000000
00130000
00110000
00100000
00002000
00000000
,
00103000
00010000
00001000
00000100
00010000
00001000
00000100
00000010
,
00000101
00000101
00000000
00000000
00000100
00000100
00011000
00000000
,
00001000
00010000
00100000
10000000
01000000
00010000
00001000
00000010
,
00000011
00000011
00000001
00001000
00001100
00001100
00020200
00030300
,
00011000
00000000
00001000
00000000
00000010
00000000
00001000
00010000
00100000
00000000
00010000
00000000
00011000
00000000
00001000
00000000
,
00010000
01000000
10000000
00100000
02000000
10000000
00100000
03010000
,
10010000
10010000
10000000
01000000
00010000
00011000
00020020
00030030
,
00000110
00000110
00000100
00000001
00000011
00000010
00001000
00010000
,
00011000
00000000
00000000
00000100
00000000
00000000
00011000
00000000
00000000
01000000
00000000
00001000
00010000
00000000
00000000
00001000
00000000
00000000
00011000
00000000
00000000
00010000
00000000
00000000
,
00001000
00010000
01000000
10000000
00200000
00000000
01300000
00010000
20000000
00000000
31000000
00000000
00020000
00000000
00031000
00000000
,
00000100
00000010
00000100
00000001
00000100
00001000
00010000
01000000
01000000
00010000
00001000
00000010
00000100
00000010
00001000
00010000
,
00001000
00000000
00100000
00010000
00000000
00100000
00001000
00000000
00010000
00001000
00000000
00010000
00000100
00000000
00010000
00000000
00001000
00000000
00010000
00000000
00000010
00001000
00000000
00000010
00000100
00000000
00000001
00000010
00000000
00001000
00010000
00000000
,
00001000
00010000
00100000
10000000
01000000
00010000
00001000
00000010
00000002
00000103
00002000
00013000
02000000
13000000
00200000
01300000
,
00010000
00000000
10000000
01000000
00000000
00010000
00001000
00000000
01000000
00100000
00000000
00010000
00001000
00000000
00010000
00000000
00001000
00000000
00000010
00000000
00000100
00000010
00000000
00000001
00001000
00000000
00000001
00000100
00000000
00001000
00010000
00000000
;

//---------------dance-double - t7r----------------
#NOTES:
     dance-double:
     t7r:
     Challenge:
     16:
     :
00000000
00000000
00000000
00000000
,
00000000
00000000
00000000
00000000
,
00000000
00000000
00000000
00000000
,
10000000
00000000
01000000
00000000
00100000
01000000
00100000
00000000
00010000
00000000
01000000
00001000
00010000
00000000
00002000
00000000
,
00013000
00000000
00000100
00000000
00001000
00000010
00000100
00000000
00000001
00000000
00000001
00000000
00000001
00000001
00000001
00000001
,
00000010
00000000
00001000
00010000
00000000
00100000
01000000
00000000
00010000
10000000
00000000
01000000
00010000
00000000
00001000
00010000
,
00000100
00001000
00000001
00000000
00000100
00001000
00000000
00010000
00100000
00000000
10000000
01000000
00100000
00010000
20000000
00000000
,
30010000
00100000
00010000
00100000
00001000
00010000
00001000
00010000
00000100
00001000
00000100
00001000
00000100
00010000
00001000
00010000
,
00001000
00001000
00000100
00000100
00000001
00000001
00000010
00000010
00001000
00001000
00010000
00010000
01000000
01000000
10000000
10000000
,
00010000
01000000
01010000
00000000
20010000
00000000
30010000
00000000
01000000
00001000
00011000
00000000
00010100
00000000
00001200
00000000
,
00001300
00000010
00001010
00000000
00001002
00000000
00001003
00000000
00000001
00000010
00000011
00000000
00002001
00000000
00003100
00000000
,
00010000
00001000
02000000
00000000
03001000
00010000
00000200
00000000
00010300
00001000
00200000
00000000
00301000
00010000
00000010
00000000
,
00001010
00000010
00001000
00000000
00001200
00000000
00010300
00000000
00011000
00010000
01000000
00000000
10000000
00100000
00010000
00000000
,
00001000
00000100
00000010
00001000
00000100
00000020
00000031
00000100
00002000
00013000
00000100
00020000
00031000
00010000
00012000
00000000
,
01003000
00100000
01100000
00000000
10100000
00000000
10000000
00000000
01000000
00100000
00110000
00000000
00101000
00000000
00001000
00000000
,
00010000
01000000
00100000
00010000
01000000
00200000
10300000
01000000
00020000
00031000
01000000
00002000
00013000
00001000
00021000
00000000
,
00030100
00000010
00000110
00000000
00002000
00000000
00003100
00000000
00010000
00001000
00000100
00000001
00001000
00000100
00010100
00000000
,
00020000
00031000
01000000
00010000
10000000
01000000
00100000
00010000
20000000
30100000
01000000
00010000
10000000
01000000
00010000
00001000
,
00020000
00030100
00001000
00000001
00000100
00000010
00001000
00000001
00000020
00000130
00001000
00000001
00000100
00001000
00010000
00000100
,
00020000
00031000
01000000
00010000
10000000
00100000
00020000
00130000
00020000
00130000
01000000
00001000
00020000
00030100
00000020
00000130
,
00002000
00003001
00000100
00000010
00002000
00003100
00010000
00001000
02000000
03010000
10000000
01000000
00020000
00031000
01000000
00000000
,
00020000
00130000
01000000
00010000
00001000
00000100
00000010
00000000
00002000
00003010
00000100
00001000
00010000
01000000
00100000
00000000
,
00020000
01030000
00100000
00010000
00002000
00003010
00000100
00000000
00002000
00003100
00000010
00001000
00010000
00100000
01000000
00000000
,
00020000
00130000
00010000
10000000
00200000
00310000
00001000
00000010
00000200
00001300
00000001
00000100
00002000
01003000
00010000
10000000
,
10010000
00000000
00000000
10000000
00000000
00000000
00010000
00000000
00000000
00100000
00000000
00000000
00101000
00000000
00000000
00001000
00000000
00000000
00010000
00000000
00000000
00000000
00001000
00000000
01000000
00000000
00000000
00100000
00000000
00000000
10000000
00000000
00000000
00010000
00000000
00000000
01010000
00000000
00000000
00010000
00000000
00000000
00200000
00000000
00000000
00000000
00000000
00000000
,
00301000
00010000
00000100
00001000
00000001
00000100
00000101
00000000
00000101
00000001
00000100
00001000
00010000
00100000
10000000
00000000
,
11000000
01000000
00010000
00001000
01000000
00100000
00010000
00001000
00000100
00000001
00000010
00000100
00010000
00001000
00010000
01000000
,
11000000
10000000
00100000
01000000
00010000
10000000
11000000
00000000
11000000
10000000
00100000
01000000
01010000
00010000
00100000
00000000
,
00101000
00001000
00010000
00001000
00000010
00000001
00000100
00001000
00010000
00100000
10000000
01000000
00010000
00001000
01000000
00010000
,
00210000
00000000
10000000
00000000
01000000
00000000
00310000
00000000
10010000
00000000
10010000
10000000
00200000
00000000
00310000
00000000
,
00011000
00010000
00010100
00000100
00000110
00000010
00000011
00000001
00000101
00000100
00001000
00010000
01000000
10000000
00100000
01000000
,
01010000
01000000
00001000
00010000
00000100
00010000
00011000
00000000
00011000
00010000
00000010
00000100
00000101
00000001
00000010
00000000
,
00000011
00000010
00000110
00000100
00010100
00010000
00011000
00001000
01001000
01000000
01100000
00100000
10100000
10000000
10010000
00010000
,
01010000
00000000
02010000
00000000
03100000
10000000
11000000
00000000
00110000
00000000
00102000
00000000
00013000
00001000
00011000
00000000
,
00010100
00000000
00020100
00000000
00030100
00001000
00001001
00000000
00000101
00000000
00000101
00000001
00000100
00001000
00010000
01000000
,
10000000
00100000
00010000
00001000
00100000
01000000
00010000
00001000
00000010
00000001
00000100
00000010
00001000
00010000
01000000
00010000
,
10010000
00000000
00000000
10000000
00000000
00000000
01000000
00000000
00000000
00010000
00000000
00000000
00011000
00000000
00000000
00010000
00000000
00000000
00000100
00000000
00000000
00000000
00001000
00000000
00001001
00000000
00000000
00000001
00000000
00000000
00000010
00000000
00000000
00001000
00000000
00000000
00010000
00000000
00000100
00000000
00010000
00000000
00001000
00000000
00000000
01000000
00000000
00000000
,
00100000
00000000
00010000
00000000
00001000
00000000
00000100
00000000
00000020
00000000
00000000
00000000
00000130
00000001
00001000
00000100
00020000
00000000
00000100
00000000
00032000
00000000
00000000
00000000
00203000
00000000
00010000
00000000
02300000
00000000
00000000
00000000
,
03100000
00000000
00011000
00000000
00100000
00000000
00011000
00000000
00000010
00000000
00011000
00000000
00000010
00000000
00011000
00000000
01001000
00000000
01000000
00000000
01100000
00000000
00010000
00000000
01100000
00000000
10000000
00000000
10010000
10000000
01000000
00100000
,
00010000
01000000
00002000
00023000
00030100
00020000
00032000
00013000
00000200
00002300
00003001
00000200
00002300
01003000
00010000
10000000
00010000
00200000
02300000
03010000
00002000
00003020
00000031
00000200
00002300
00013000
00200000
20300000
31000000
20000000
30020000
00130000
,
00020000
10030000
01000000
00010000
00002000
00003100
00000001
00001000
00000002
00000013
00001000
00010000
00200000
10300000
00010000
00100000
00002000
00013000
00001000
00000100
00000020
00001030
00000100
00010000
00002000
00013000
01000000
00100000
00020000
01030000
00100000
10000000
,
00010000
00100000
00010000
01010000
00000000
00001000
00011000
00010000
00000100
00001000
00000001
00000100
00000101
00000000
00000001
00000010
00001000
00010000
00011000
00001000
00010000
00100000
10000000
00100000
00010000
00000000
00001000
00010000
00000100
00001000
00000020
00000000
,
00000030
00000000
00000000
00000000
;
