#TITLE:[ ]DENTITY;
#ARTIST:BEMANI Sound Team "HuΣeR";
#TITLETRANSLIT:;
#ARTISTTRANSLIT:HuΣeR;
#BANNER:[ ]DENTITY.png;
#BACKGROUND:[ ]DENTITY-bg.png;
#JACKET:[ ]DENTITY-jacket.png;
#CDTITLE:./CDTITLES/BEATMANIA IIDX.PNG;
#MUSIC:[ ]DENTITY.ogg;
#SAMPLESTART:87;
#SAMPLELENGTH:15;
#DISPLAYBPM:100:200;
#BPMS:0=100,12=200,108=100,132=200,204=100,213=200,244=400,245=200,359=400,361=200,363=400,365=200,369=400,373=100;
#STOPS:244=0.15,359=0.1,359.66666=0.1,360.33334=0.1,363=0.1,363.66666=0.1,364.33334=0.1,369=0.15,370=0.15,371=0.15,372=0.15;
#BGCHANGES:0=../../../BGAs/20dr.mp4=1=0=0=1=====;

//---------------dance-single - t7r----------------
#NOTES:
     dance-single:
     t7r:
     Beginner:
     5:
     :
0000
0000
0000
0000
,
0000
0000
0000
0000
,
0000
0000
0000
0000
,
1000
0000
0000
0000
,
0001
0000
0000
0000
,
0100
0000
0000
0000
,
0010
0000
0000
0000
,
1000
0000
0000
0000
,
0100
0000
0000
0000
,
0010
0000
0000
0000
,
0001
0000
0000
0000
,
1000
0000
0010
0010
,
0010
0000
0000
0000
,
0100
0000
0001
0001
,
0001
0000
0000
0000
,
0010
0000
0100
0100
,
0100
0000
0000
0000
,
1000
0000
0001
0001
,
0001
0000
0000
0000
,
1000
0000
1000
0000
,
0100
0000
0100
0000
,
0010
0000
0010
0000
,
0001
0000
0001
0000
,
1000
0000
1000
0000
,
0010
0000
0010
0000
,
0100
0000
0100
0000
,
0001
0000
0001
0000
,
1000
0000
0000
0100
,
0000
0000
0001
0000
,
0000
0010
0000
0000
,
0100
0000
0000
1000
,
0000
0000
0010
0000
,
0000
0001
0000
0000
,
0100
0000
0000
0100
,
0000
0000
0010
0000
,
0000
0010
0000
0000
,
1000
0000
0000
1000
,
0000
0000
0001
0001
,
0001
0001
0000
0000
,
1000
0000
0000
1000
,
0000
0000
0100
0000
,
0000
0100
0000
0000
,
0010
0000
0000
0010
,
0000
0000
0100
0100
,
0100
0100
0000
0000
,
0010
0000
0000
0000
,
1001
0000
0000
0000
,
0001
0000
0000
0000
,
0100
0000
0000
0000
,
1001
0000
0000
0000
,
1000
0000
0000
0000
,
0100
0000
0010
0000
,
0000
0001
0000
1000
,
0000
0001
0000
0001
,
0000
0001
0001
0001
,
0000
0100
0000
0100
,
0000
0100
0100
0100
,
0000
0010
0000
0010
,
0000
0010
0010
0010
,
0000
1000
1000
1000
,
0000
0001
0000
0001
,
0000
1000
0000
1000
,
0000
0100
0100
0100
,
0000
0100
0000
0010
,
0010
0010
0000
0010
,
0000
0001
0001
0001
,
0000
0001
0000
1000
,
0000
0010
0000
0010
,
0010
0010
0000
0100
,
0000
0100
0100
0100
,
0000
0001
0000
0001
,
0001
0001
0000
1000
,
0000
0001
0001
0001
,
0000
0010
0000
0100
,
0100
0100
0000
1000
,
0000
0001
0001
0001
,
0000
0100
0000
0010
,
0010
0010
0000
1000
,
1000
1000
1000
1000
,
1000
1000
0000
0001
,
0001
0001
0001
0001
,
0000
0010
0010
0010
,
0010
0010
0000
0100
,
0100
0100
0100
0100
,
0000
0000
0010
0000
,
0000
1001
0000
0000
,
0000
0110
0000
0000
,
0000
1001
0000
0000
,
0000
0110
0000
0000
,
0000
1000
0000
0000
,
0000
0001
0000
0000
,
0000
0100
0100
0100
,
0100
0010
0010
0010
,
0010
1001
0000
0000
;

//---------------dance-single - t7r----------------
#NOTES:
     dance-single:
     t7r:
     Easy:
     10:
     :
0000
0000
0000
0000
,
0000
0000
0000
0000
,
0000
0000
0000
0000
,
2000
0000
0000
3200
0000
0000
0320
0000
,
0100
0000
0031
0001
0000
0000
1000
0000
,
0001
0100
0010
1000
,
0002
0000
0000
0023
0000
0000
0032
0000
,
2003
0000
0000
3020
0000
0000
0230
0000
,
0010
0000
0301
0000
1000
1000
0000
0001
,
1000
0010
0100
0001
,
2000
0000
0000
3200
0000
0000
2300
0000
,
3002
0000
0000
0203
0000
0000
0320
0000
,
0100
0000
1030
1000
0000
0000
0001
0000
,
1000
0100
0010
0001
,
2000
0000
0000
3020
0000
0000
2030
0000
,
3002
0000
0010
0000
1000
0000
0103
0001
,
2000
0000
0100
0000
0001
0000
3010
1000
,
0002
0000
0010
0010
0000
0000
1003
0000
,
0020
0230
0320
0230
,
0301
0010
1000
0010
,
0002
0103
1000
0100
,
0010
0200
0301
1000
,
0200
0310
0002
2003
,
3100
0001
0100
0010
,
0100
2000
0000
0000
3010
0000
0010
0000
,
0200
0302
0203
2300
,
3200
0320
2030
3200
,
0310
0000
0000
0001
0100
0010
0010
1000
,
0100
0010
0001
1000
0010
0000
0000
0100
,
0001
1000
0001
0010
1000
0010
0001
1000
,
0001
0000
0000
0100
0100
0010
1000
0100
,
0100
0001
0100
0010
0001
1000
1000
0010
,
0100
0100
0001
0100
1000
0100
0001
1000
,
0100
0000
0000
0100
0010
0000
0001
0000
,
1000
0000
0001
0000
0100
0000
0000
0100
,
0010
0000
1000
0000
0001
0000
1000
0100
,
1000
0000
0000
1000
0001
0000
0010
0000
,
0001
0100
1000
0100
,
0010
0100
0001
1000
,
0100
0000
0000
0100
0010
0000
0100
0000
,
0001
0000
0100
0000
0010
0000
0000
0010
,
0001
1000
0010
0100
,
0110
2000
0100
3001
,
1000
0001
1000
0100
,
0020
0000
0031
0000
1000
0010
0100
0001
,
1000
0000
0000
1100
0000
0000
0012
0000
,
2003
3002
0203
0320
,
1030
0000
0020
0000
0130
0001
1000
0000
,
1001
0000
0000
0011
0000
0000
1001
0000
,
0002
0000
0023
0000
0230
0000
1300
0010
,
0100
0001
1000
0000
0001
0010
0100
1000
,
0020
0000
0030
1000
1000
0002
0000
0003
,
0010
0010
0200
0000
0000
0300
0020
0000
,
0000
0031
0100
1000
,
0100
0020
0001
0100
,
1030
0001
0010
1000
,
0010
0200
0301
0110
,
1000
0001
0100
1000
,
0100
0001
0010
1000
,
0010
0002
0103
2000
,
3001
0020
2030
3200
,
0310
0000
1001
0000
1000
0100
1000
0000
,
1100
1001
1010
1001
,
0001
0100
0001
0000
1000
0000
0001
0000
,
0010
0001
1000
0000
0100
0010
0100
0000
,
0010
0001
1000
1001
,
1010
1100
1001
0011
,
0101
0000
1001
0000
0001
0100
0001
0000
,
1000
0000
0001
0010
0100
0000
1100
0000
,
1000
0010
1000
0000
0001
0000
1001
0000
,
1010
0000
1001
0000
0001
0010
0100
0000
,
0010
0000
0001
1000
0010
0000
0100
0000
,
0001
0001
1000
0000
0100
0000
0010
0100
,
1000
0000
0001
0000
1000
0010
1000
0000
,
1010
0110
0101
0011
,
0001
0010
0001
0000
1001
0000
0001
0000
,
0100
0010
1000
0000
0100
0010
0001
0000
,
1001
1100
0110
0011
,
1001
0101
1010
1001
,
1100
0000
0110
0000
0010
0100
1000
0000
,
0002
0010
1003
0110
,
0010
0100
0001
0000
2000
0000
0010
0000
,
3001
0000
1001
0000
1000
0100
0010
0000
,
0001
0000
0100
0010
1000
0000
0001
0000
,
0010
0010
0100
0000
0110
0000
0001
0100
,
0010
1000
0001
0000
0100
0000
1010
0000
,
0100
0011
0100
1001
,
0010
0101
0010
1100
,
0010
1001
0010
1100
,
0010
0000
0000
2001
0000
0000
0000
0000
0000
3001
0000
0001
,
0000
0001
0000
1002
0000
0000
0000
0000
0000
1003
0000
1000
,
0000
0000
1000
0000
0000
0000
0100
0000
0000
0010
0000
0000
0001
0000
0000
0000
0000
0000
0100
0000
0000
0010
0000
0000
,
1000
0010
0100
0001
,
1000
0000
0000
0000
2002
0003
0000
0000
0000
0000
0000
0020
0000
0000
0000
0000
,
3030
0000
0000
0000
;

//---------------dance-single - t7r----------------
#NOTES:
     dance-single:
     t7r:
     Medium:
     15:
     :
0000
0000
0000
0000
,
0000
0000
0000
0000
,
0000
0000
0000
0000
,
2000
0000
0000
3200
0000
0000
0320
0000
,
1000
0000
0100
0100
0000
0000
0031
0000
,
1000
0000
1000
0010
0000
0010
0100
0000
0100
0001
0000
0001
,
2000
0000
0000
3002
0000
0000
0203
0000
,
0302
0000
0000
0023
0000
0000
0230
0000
,
0001
0000
0010
0000
1000
1300
0000
0010
,
0100
0000
0100
0001
0000
0001
1000
0000
1000
0010
0000
0010
,
2000
0000
0000
3200
0000
0000
0320
0000
,
0032
0000
0000
0203
0000
0000
0320
0000
,
0001
0000
0100
0100
0000
0000
1030
0000
,
0001
0000
0001
0010
0000
0010
0100
0000
0100
1000
0000
1000
,
0002
0000
0000
2003
0000
0000
3200
0000
,
0320
0000
1000
0000
0130
0000
1000
0001
,
0020
0000
0001
0000
0130
0000
1000
0001
,
2000
0000
0010
0010
0000
0000
0001
0000
,
3100
0000
0100
1000
0000
1000
0001
1000
0001
1000
0001
1000
,
0001
0000
0001
0010
0000
0010
0100
0000
0100
1000
0000
1000
,
0010
0000
0000
0000
0200
0300
0002
0000
0000
0000
0000
0000
0013
0000
0000
0000
0100
0000
1000
0000
0000
0000
0001
0000
,
1000
0000
0000
0000
1000
0000
0200
0300
0000
0000
0100
0000
0010
0000
0000
0000
0010
0000
0001
0000
0000
0000
0001
0000
,
0200
0300
0000
0000
0100
0000
0010
0000
0000
0000
0010
0000
1000
0000
0010
0000
1000
0000
0001
0000
0010
0000
0001
0000
,
1000
0000
1000
0100
0000
0100
0010
0000
0010
0001
0000
0001
,
1000
0000
0000
0000
2000
3000
0010
0000
0000
0000
0010
0000
0100
0000
0000
0000
0100
0000
0001
0000
0000
0000
0001
0000
,
2000
0000
3100
0020
0000
0031
0200
0000
0310
2000
0000
3001
,
0020
0000
0130
2000
0000
3001
0200
0000
0310
0200
0000
0301
,
1000
0000
0000
0000
0220
0330
0000
0000
0220
0330
0000
0000
0001
0000
0000
0000
0010
0000
0000
0000
0100
0000
0000
0000
0010
0000
0000
0000
2002
3003
0000
0000
,
2002
3003
0000
0000
0001
0000
0000
0000
0100
0000
0000
0000
0001
0000
1000
0000
0010
0000
0000
0000
0220
0330
0000
0000
0220
0330
0000
0000
1000
0000
0000
0000
,
0100
0000
0000
0000
0010
0000
0000
0000
0011
0000
0000
0000
0220
0330
0000
0000
2200
3300
0000
0000
1010
0000
0000
0000
0220
0330
0000
0000
0202
0303
0000
0000
,
1001
0000
0000
0000
0220
0330
0000
0000
0220
0330
0000
0000
0001
0000
1000
0000
0010
0000
0000
0000
1010
0000
0000
0000
1001
0000
0000
0000
2200
3300
0000
0000
,
2200
3300
0000
0000
1000
0000
0000
0000
0001
0000
0000
0000
0010
0000
0000
0000
0011
0000
0000
0000
2002
3003
0000
0000
2002
3003
0000
0000
0001
0000
0000
0000
,
0100
0000
0000
0000
0110
0000
0000
0000
1010
0000
0000
0000
0220
0330
0000
0000
0202
0303
0000
0000
1100
0000
0000
0000
0220
0330
0000
0000
0022
0033
0000
0000
,
1000
0000
0000
0100
0010
0000
0100
0000
1000
0000
1000
0000
0001
0000
0000
0000
,
0100
0000
0001
0000
2000
0000
0000
0000
3001
0000
0000
0100
0001
0000
1000
0000
,
0100
0100
0010
0001
0200
0000
0310
0100
,
0001
0000
0000
0010
0200
0000
0000
0000
1300
0000
0010
0000
1000
0000
0100
0000
,
0010
0010
0002
0000
1003
0100
0001
0100
,
2000
0000
3001
0100
1000
0100
0001
1000
,
0001
0000
0000
0100
0010
0000
0100
0000
0001
0000
0001
0000
1000
0000
0000
0000
,
0100
0000
1000
0000
0002
0000
0000
0000
1003
0000
0000
0100
1000
0000
0001
0000
,
0100
0100
0010
1000
0200
0000
0310
0100
,
1000
0000
0000
0010
0200
0000
0000
0000
0301
0000
0010
0000
0001
0000
0100
0000
,
0010
0010
2000
0000
3001
0100
1000
0100
,
0002
0000
0000
0000
1003
0000
0001
0010
0001
0000
1000
0010
1000
0000
0000
0000
,
1001
0000
0000
0101
0000
0000
1100
2000
,
0000
0000
0000
3000
0002
0000
0000
0000
0000
0000
0023
0000
0000
0000
0000
0031
0000
0000
1000
0000
0000
0001
0000
0000
,
0100
0000
0010
0000
1000
0100
1000
0000
0001
0000
0010
0000
0001
0000
0000
0000
,
1001
0000
0000
1010
0000
0000
0011
0002
,
0000
0000
0000
0000
0000
0000
0000
0000
2003
0000
0000
0000
0000
0000
0000
0000
0000
0000
0000
0000
3020
0000
0000
0000
0000
0000
0000
0000
0000
0000
1030
0000
0000
0000
0000
0000
0001
0000
0000
0000
0000
0000
0010
0000
0000
0100
0000
0000
,
1000
0000
0001
0000
1000
0000
0010
0100
0001
0000
0100
0000
0010
0000
1000
0000
,
0002
0000
0000
0010
0000
0000
1003
0000
1001
0000
2000
0000
0000
0100
0000
0000
,
3001
0000
0000
0000
0001
0000
0010
0000
0000
0000
0010
0000
0001
0000
0000
0000
0000
0000
0100
0000
0000
0001
0000
0000
1000
0000
0000
0010
0000
0000
0100
0000
0000
0000
0000
0000
0001
0000
0010
0000
0001
0000
1000
0000
0010
0000
1000
0000
,
0001
1000
0001
2000
0000
0000
3001
0000
0000
0000
0001
0000
0100
0000
0000
0000
0100
0000
0001
0000
1000
0000
0001
0000
,
0100
0000
0100
0001
2000
3002
0013
0000
0010
0001
1000
0001
,
0100
0000
0001
1000
0000
1000
0200
0300
1000
0001
1000
0001
,
0100
0000
0100
0002
0023
0230
1300
0000
0000
1001
0000
0000
,
0001
0010
0001
1000
0010
1000
0010
0100
0001
0100
0001
1000
,
0001
0000
1000
0001
0010
0001
0010
0100
1000
0100
1000
0001
,
1000
0000
0001
0100
0001
0000
1000
0000
0100
0000
0000
0000
1000
0000
0001
0000
,
0100
0002
0010
1000
,
0103
0000
1001
0000
1000
0100
1100
0000
,
1010
0000
0110
0100
0001
0000
1001
0000
,
0011
0001
1000
0000
1001
0000
1000
0100
,
0010
0100
1100
0000
1000
0010
0100
0000
,
0001
1000
0100
1000
0001
0000
1010
0000
,
1100
0100
1000
0000
0011
0000
0101
0100
,
0001
0000
1001
0000
0001
0010
0011
0000
,
0101
0000
0110
0010
1000
0000
1001
0000
,
1100
1000
0001
0000
1001
0000
0001
0010
,
0100
0010
0011
0000
0001
0100
0010
0000
,
1000
0001
0010
0001
1000
0000
0101
0000
,
1010
0000
0010
0000
1010
0000
0000
0000
1001
0000
0000
0000
1000
0000
0100
0010
,
0001
1000
0001
0100
0010
0100
0001
0010
,
0200
0000
0001
0000
0310
0000
0001
0100
,
0010
1000
0100
0010
0001
1000
0010
1000
,
0001
1000
0010
0100
0001
1000
0010
0000
,
2000
0000
0100
3001
1000
0000
0002
0000
,
0100
1003
0001
0000
0011
0000
1001
0001
,
0100
0000
1010
0010
0100
0010
1000
0100
,
0020
0000
1000
0000
0130
0000
1000
0010
,
0100
0001
0010
0100
1000
0001
0100
0001
,
1000
0100
0010
0001
0100
0010
1000
0000
,
0002
0000
0010
1003
0001
0000
2000
0000
,
0010
0000
3001
0000
1000
0000
0000
0000
1100
0000
0000
0000
1000
0001
1000
0001
,
1000
0000
0000
0001
0000
0000
0200
0000
0000
0000
0000
0000
1300
0000
0000
0000
0100
0000
0001
0000
0000
0000
0000
0000
,
1000
0001
1000
0001
0000
0000
0010
0100
0010
0100
0000
0000
,
1000
0001
1000
0020
0000
0000
0031
0000
0010
1000
0000
0000
,
0001
0010
0100
1000
0000
0000
0010
0100
0001
1000
0000
0100
,
0000
0010
0000
0210
0000
0001
0000
0010
0000
1300
0000
1010
,
0000
1010
0000
0210
0000
1000
0000
0010
0000
0301
0000
0011
,
0000
0000
0000
0000
0011
0000
0000
0000
0000
0000
0000
0000
0110
0000
0000
0000
0000
0000
0000
0000
0000
0100
0000
0000
0001
0000
0000
0000
0000
0000
0000
0000
0000
0100
0000
0000
1000
0000
0000
0000
0000
0000
0000
0000
0000
0100
0000
0000
,
0010
0000
0000
0100
0001
0000
0000
0000
0100
0000
0000
0000
1000
0000
0000
0000
,
0010
0000
0000
0000
2001
0000
0000
0000
0000
0000
0000
0020
0000
0000
0000
0000
,
3030
0000
0000
0000
;

//---------------dance-single - t7r----------------
#NOTES:
     dance-single:
     t7r:
     Hard:
     17:
     :
0000
0000
0000
0000
,
0000
0000
0000
0000
,
0000
0000
0000
0000
,
2000
0000
0000
3002
0000
0000
0203
0000
,
1000
0000
0000
0000
0000
0000
0010
0000
0000
0010
0000
0000
0000
0000
0000
0301
0000
0000
1000
0000
0000
0000
1000
0000
,
0001
0010
0001
1000
0010
1000
0001
0100
0001
1000
0100
1000
,
0001
0000
0001
0100
0000
0100
0010
1000
0001
0010
0001
1000
,
0002
0000
0000
2003
0000
0000
3200
0000
,
0001
0000
0000
0000
0000
0000
0010
0000
0000
0010
0000
0000
0000
0000
0000
1300
0000
0000
0001
0000
0000
0000
0001
0000
,
1000
0010
1000
0001
0010
0001
1000
0100
1000
0001
0100
0001
,
1000
0000
1000
0100
0000
0100
0010
0001
1000
0010
1000
0001
,
0020
0000
0000
0230
0000
0000
2300
0000
,
0010
0000
0000
0000
0000
0000
0001
0000
0000
0001
0000
0000
0000
0000
0000
3100
0000
0000
0010
0000
0000
0000
0010
0000
,
0001
1000
0001
0100
0001
1000
0100
1000
0001
1000
0100
1000
,
0001
0000
0001
0100
0000
0100
0010
1000
0001
0010
0001
1000
,
0200
0000
0000
0000
0001
0000
0000
0000
0310
0000
0000
0000
0001
1000
0001
1000
,
0020
0000
0000
0000
0001
0000
0000
0000
0130
0000
0000
0000
1000
0001
1000
0001
,
0020
1000
0100
0031
,
2000
3002
2003
3002
2003
3002
2003
3002
2003
3002
2003
3002
,
1003
0000
0100
1000
0100
0000
1000
0000
0001
0000
0100
0000
0100
0000
0000
0000
,
0001
0000
0010
0100
2000
0000
0010
0000
3001
0000
0100
0000
0001
1000
0001
1000
,
0001
0000
0100
0010
2000
0000
0100
0000
3001
0000
0100
0000
0010
0000
0000
0000
,
1000
0001
1000
0001
1000
0000
0000
0000
0001
0000
0010
0000
0001
1000
0001
1000
,
0001
0000
0100
0001
0100
0000
0001
0000
1000
0000
0100
0000
0100
0000
0000
0000
,
1000
0000
0010
0100
0002
0000
0010
0000
1003
0000
0100
0000
1000
0001
0100
0010
,
2000
3200
0302
0203
2300
3020
0230
0320
,
0032
0023
2030
3200
0302
0203
2300
3020
,
1030
0000
0200
0310
0002
0000
0103
0000
0020
1030
0002
0000
1003
0000
0020
0130
,
0002
0000
1003
0000
0200
0310
0200
0000
1300
0000
0020
0130
0002
0000
0013
0000
,
0002
0103
0020
0000
2030
0000
3200
0000
0320
0130
2000
0000
3002
0103
0020
1030
,
0001
0000
0020
0130
2000
0000
3010
0000
0200
0301
2000
0000
3001
0000
0020
0031
,
2000
0000
3001
0000
0020
0130
0020
0000
0031
0000
0200
0310
2000
0000
3100
0000
,
2000
0000
3010
0000
0200
0000
0000
0000
0302
0000
0000
0000
0023
0000
0000
0000
0230
0000
0310
0000
0001
0000
0000
0100
0001
0000
0100
0000
0010
0000
0010
0000
,
1000
0000
0100
0000
0010
0000
0001
1000
0100
0000
1000
0000
0001
0000
0100
0000
,
0010
0000
1000
0001
2000
0000
0000
0000
3001
0000
0010
0000
0100
0000
1000
0001
,
0010
0000
0001
1000
0100
0000
1000
0000
0020
0000
0000
0000
0130
0000
0010
0000
,
1000
0000
0100
0010
0002
0000
0000
0000
0103
0000
0010
0000
1000
0000
0001
0010
,
0001
1000
0020
0000
0031
0010
1000
0100
,
0002
0000
1003
0010
0001
0100
1000
0100
,
0001
0000
0010
0000
0100
0000
1000
0001
0010
0000
0001
0000
1000
0000
0010
0000
,
0100
0000
0001
1000
0002
0000
0000
0000
1003
0000
0100
0000
0010
0000
0001
1000
,
0100
0000
1000
0001
0010
0000
0001
0000
0200
0000
0000
0000
0310
0000
0100
0000
,
0001
0000
0010
0100
2000
0000
0000
0000
3010
0000
0100
0000
0001
0000
1000
0100
,
1000
0001
0200
0000
1300
0100
0001
0010
,
2000
0000
0000
0000
3001
0000
0100
0000
1000
0000
0010
0100
0001
0000
0010
0100
,
1000
0000
0000
0000
0000
0000
0000
0000
0000
1001
0000
0000
0000
0000
0000
0000
0000
0000
0101
0000
0000
0001
0020
0000
,
0000
0000
0000
0000
0000
0000
0130
0000
2000
0000
0000
0000
0000
0000
0000
0000
0000
0000
0001
0000
3200
0000
0000
0000
0000
0000
0000
0000
0000
0000
0310
0000
0000
0000
0000
0000
1000
0000
0000
0000
0000
0000
0001
0000
0000
1000
0000
0000
,
0001
0000
0100
0000
1000
0000
0100
0000
0001
0000
1000
0100
0020
0000
0000
0000
,
0031
0000
0000
0000
0000
0000
0000
0000
0000
1001
0000
0000
0000
0000
0000
0000
0000
0000
1100
0000
0000
1000
0020
0000
,
0000
0000
0000
0000
0000
0000
0130
0000
0002
0000
0000
0000
0000
0000
0000
0000
0000
0000
1000
0000
0203
0000
0000
0000
0000
0000
0000
0000
0000
0000
0310
0000
0000
0000
0000
0000
0001
0000
0000
0000
0000
0000
1000
0000
0000
0001
0000
0000
,
1000
0000
0010
0100
0001
0000
0010
0000
1000
0000
0010
0000
0001
0000
1000
0000
,
0002
0000
0000
0203
0000
0000
0310
0000
1010
0000
2001
0000
0000
3200
0000
0000
,
0310
0001
0010
0001
1000
0001
0200
0000
0000
1000
0000
0000
0010
0000
0000
0301
0000
0000
1000
0010
1000
0001
0010
0001
,
2000
0000
0000
0100
0000
0000
3001
0000
0010
0000
0100
0000
0010
0000
0000
0000
0010
0000
0001
0000
0010
0000
0100
0000
,
0010
0000
0010
0001
0010
0100
0010
0000
0010
0001
0010
0100
,
1000
0001
1000
0010
0100
0001
0100
0000
0100
0010
0100
0001
,
0100
0000
0000
0000
0000
0000
0000
0000
0100
0000
0000
0000
0010
0000
0000
1000
0000
0000
0010
0000
0000
1000
0000
0000
0001
0000
0000
0000
0000
0000
0000
0000
0000
0000
0000
0000
1001
0000
0000
0000
0000
0000
0000
0000
0000
0000
0000
0000
,
0110
0000
0000
1000
0010
0100
0010
0000
0010
1000
0010
0100
,
0010
0000
0010
1000
0010
0100
0010
0000
0010
1000
0001
0100
,
0001
0000
1000
0001
0100
0000
0001
0000
1000
0000
0100
1000
0001
0000
0100
0000
,
0001
0000
0010
0001
2000
0000
0000
0000
0010
0000
0000
0000
0001
0000
0000
0000
,
3100
0000
1001
0000
1100
0100
1000
0000
,
1010
0010
0110
0100
0001
0000
0011
0000
,
1001
0001
1000
0000
1100
0100
0010
0100
,
1000
0010
1010
0000
0110
0100
0001
0000
,
0011
0001
1000
0010
1010
0000
1100
0100
,
0001
0000
0100
0000
1100
0000
0000
0000
1010
0000
0010
0100
0001
0000
1000
0000
,
1001
0000
0000
0000
0011
0000
0000
0000
0110
0000
0010
0000
0001
0100
0010
1000
,
0001
0100
0110
0010
1010
0000
1001
0000
,
1100
0000
0100
0000
0010
0000
0100
1000
0001
0000
0100
0000
0010
0000
0100
0000
,
0101
0000
1010
0000
0101
0001
1001
0000
,
0011
0000
1100
1000
1001
0000
1000
0010
,
0011
0000
0010
0000
1010
0000
0000
0000
0101
0000
0100
0000
0001
0010
0100
1000
,
0001
0100
0010
1000
0001
0000
0100
0001
0100
0000
0001
1000
0001
0000
1000
0010
,
2000
0000
0000
0000
0100
0000
0000
0000
3001
0000
0000
0000
1000
0000
0100
1000
,
0100
0000
1000
0001
1000
0000
0001
0000
0100
0000
0001
1000
0001
0000
0010
0001
,
0010
0000
0001
0000
1000
0000
0100
0010
0100
0000
0010
0001
0010
0000
0001
0000
,
1000
0000
0001
0100
0001
0000
0100
0010
0100
0000
0010
0000
1000
0000
0010
0000
,
1010
0010
0110
0000
0001
0010
0011
0010
,
0110
0000
0000
0000
1000
0000
0100
1000
0100
0000
1000
0001
1000
0000
0001
0010
,
0002
0000
0000
0000
0100
0000
0000
0000
1003
0000
0000
0000
0001
0000
0100
0001
,
0100
0000
0001
1000
0001
0000
1000
0000
0100
0000
1000
0001
1000
0000
0010
1000
,
0010
0000
1000
0000
0001
0000
0100
0010
0100
0000
0010
1000
0010
0000
1000
0000
,
0001
0000
1000
0100
1000
0000
0100
0010
0100
0000
0010
0000
0001
0000
0010
0000
,
0011
0000
0010
0000
1010
0000
0000
0000
1000
0000
0010
0000
0100
0010
0100
0010
,
0100
0000
0000
0010
0000
0000
0002
0000
0000
0000
0000
0000
0103
0000
0010
0000
0001
0000
0020
0000
0000
0000
0000
0000
,
1030
0100
0010
2000
0000
0000
3010
0100
1000
0020
0000
0000
,
0031
0010
1000
0002
0000
0000
0013
1000
0001
0200
0000
0000
,
1300
0010
0001
2000
0000
0000
3100
0001
0010
0100
0000
0110
,
0000
0011
0000
2000
3002
2003
3002
2003
3002
1003
0000
1100
,
0000
1100
0000
0002
2003
3002
2003
3002
2003
3001
0000
0101
,
0000
0000
0000
0000
0101
0000
0000
0000
0000
0000
0000
0000
0100
0000
0000
0000
0000
0000
1000
0000
0000
0100
0000
0000
0010
0000
0000
0000
0000
0000
1000
0000
0000
0100
0000
0000
0010
0000
0000
0000
0000
0000
1000
0000
0000
0010
0000
0000
,
0100
0000
0010
0001
1000
0000
0000
0000
0110
0000
0000
0000
1001
0000
0000
0000
,
1010
0000
0000
0000
2001
0000
0000
0000
0000
0000
0000
0020
0000
0000
0000
0000
,
3030
0000
0000
0000
;

//---------------dance-single - t7r----------------
#NOTES:
     dance-single:
     t7r:
     Challenge:
     18:
     :
0000
0000
0000
0000
,
0000
0000
0000
0000
,
0000
0000
0000
0000
,
2000
0000
0000
3002
0000
0000
0203
0000
,
1000
0000
0000
0000
0000
0000
0010
0000
0000
0010
0000
0000
0000
0000
0000
0301
0000
0000
1000
0000
0010
0000
1000
0000
,
0001
0010
0001
1000
0010
1000
0001
0100
0001
1000
0100
1000
,
0002
0000
0000
0000
1003
0100
0010
0001
0100
0010
1000
0001
0010
0100
1000
0000
,
0002
0000
0000
2003
0000
0000
3200
0000
,
0001
0000
0010
0000
1000
1000
0000
0310
,
0001
0010
0001
1000
0010
1000
0001
0100
0001
1000
0100
1000
,
0002
0000
0000
0000
0103
0010
1000
0100
0010
0001
1000
0010
0100
0001
1000
0000
,
0002
0000
0000
2003
0000
0000
3020
0000
,
0001
0000
0000
0000
0000
0000
0100
0000
0000
0100
0000
0000
0000
0000
0000
1030
0000
0000
0001
0000
0100
0000
0001
0000
,
1000
0100
1000
0001
0100
0001
1000
0010
1000
0001
0010
0001
,
2000
0000
0000
0000
3001
0010
0100
1000
0010
0100
0001
1000
0100
0010
0001
0000
,
2000
0000
0000
0000
3010
0000
0100
0000
0001
0000
0000
0000
0010
0001
1000
0010
,
2000
0000
0000
0000
0001
0000
0000
0000
3100
0000
0000
0000
1000
0100
0010
0001
,
0020
0000
1000
1000
0100
0000
0001
0000
,
0230
2300
3002
2003
3002
2003
3020
2030
3020
2030
3002
2003
,
3001
0010
0100
0010
0100
1000
0001
0010
0100
0010
0100
1000
,
0001
0000
0000
0000
0000
0000
0100
0000
0000
0001
0000
0000
2000
0000
0000
0000
0000
0000
0100
0000
0000
0000
0000
0000
3001
0000
0000
0000
0100
0000
0000
0000
0010
0000
0000
0000
1000
0000
0000
0000
0100
0000
0000
0000
0010
0000
0000
0000
,
0001
0000
0000
0000
0000
0000
0100
0000
0000
0010
0000
0000
2000
0000
0000
0000
0000
0000
0100
0000
0000
0000
0000
0000
3001
0000
0000
0000
0010
0000
0000
0000
0100
0000
0000
0000
0010
0000
0000
0000
0001
0000
0000
0000
1000
0000
0000
0000
,
0010
0000
0000
0100
0000
0000
0010
0000
0000
0100
0000
0000
0010
0000
0000
0000
0000
0000
1000
0000
0000
0000
0000
0000
0001
0000
0000
0000
0000
0000
0000
0000
0000
0000
0000
0000
0010
0000
0000
0000
0010
0000
0000
0000
0001
0000
0000
0000
,
1000
0010
0100
0010
0100
0001
1000
0010
0100
0010
0100
0001
,
1000
0000
0000
0000
0000
0000
0100
0000
0000
1000
0000
0000
0002
0000
0000
0000
0000
0000
0100
0000
0000
0000
0000
0000
1003
0000
0000
0000
0100
0000
0000
0000
0010
0000
0000
0000
0001
0000
0000
0000
0100
0000
0000
0000
0010
0000
0000
0000
,
2000
3200
0320
0230
0320
0032
2003
3200
0320
0230
0320
0032
,
2003
3020
0230
0320
0230
0302
2003
3020
0230
0320
0230
0302
,
2003
0000
3200
0310
0002
0103
0010
1000
0002
0013
0200
0310
0002
0000
0203
0310
,
2000
3100
0010
0001
2000
3010
0200
0310
2000
0000
3020
0130
0002
0013
0100
1000
,
0002
0103
0020
0130
0002
0000
0023
1030
0020
0031
2000
0000
3020
0031
0020
1030
,
0002
0000
0203
0310
2000
3100
0010
0001
2000
3010
0200
0301
2000
0000
3200
0310
,
0002
0103
0010
1000
0002
0013
0200
1300
0002
0000
0023
0130
2000
3010
0100
0001
,
2000
0000
3100
0000
0020
0000
0031
0000
2000
0000
0000
0000
3020
0000
0031
0000
0020
0000
1030
0000
0001
0000
1000
0100
1000
0000
0001
0000
1000
0000
1000
0000
,
0001
0000
0010
0100
0010
0000
0001
0100
0010
0000
0100
0000
0101
0000
0001
0000
,
1000
0000
0100
0010
0002
0100
0000
1003
0001
0000
0100
0010
0100
0000
0001
0010
,
0100
0000
0010
0001
1000
0000
0001
0000
2000
0010
0000
3001
1000
0000
0100
0000
,
1100
0000
0000
0000
0200
0001
0000
0310
0100
0000
0010
0001
1000
0000
0010
0100
,
0001
0100
0001
0100
0010
0000
0100
0000
1000
0000
0100
0010
0100
0000
0001
0000
,
1000
0000
0100
0000
0001
0000
0100
0010
0200
1000
0000
0310
0100
0000
0010
0001
,
1000
0000
0010
0100
0010
0000
1000
0100
0010
0000
0100
0000
1100
0000
1000
0000
,
0001
0000
0100
0010
2000
0100
0000
3001
1000
0000
0100
0010
0100
0000
1000
0010
,
0100
0000
0010
1000
0001
0000
1000
0000
0002
0010
0000
1003
0001
0000
0100
0000
,
0101
0000
0000
0000
0200
1000
0000
0310
0100
0000
0010
1000
0001
0000
0010
0100
,
1000
0100
1000
0100
0010
0000
0100
0000
0001
0000
0100
0010
0100
0000
1000
0000
,
1100
0000
0000
0000
0001
0100
0010
1000
0001
0010
0100
1000
0001
0010
0100
1000
,
0002
0000
0000
0000
0000
0000
1003
0000
0000
1100
0000
0000
0000
0000
0000
0001
0000
0000
0011
0000
0000
0001
0200
0000
,
0000
0000
0000
0000
0000
0000
0310
0000
2000
0000
0000
0000
0000
0000
0000
0000
0000
0000
0001
0000
3020
0000
0000
0000
0000
0000
0000
0000
0000
0000
0130
0000
0000
0000
0000
0000
1000
0000
0000
0010
0000
0000
0100
0000
0000
0010
0000
0000
,
2000
0000
0100
0000
3001
0000
0020
0000
1030
0010
0100
0010
0001
0000
0100
0000
,
0110
0000
0000
0000
0000
0000
0001
0000
0000
0101
0000
0000
0000
0000
0000
1000
0000
0000
1010
0000
0000
1000
0200
0000
,
0000
0000
0000
0000
0000
0000
0310
0000
0002
0000
0000
0000
0000
0000
0000
0000
0000
0000
1000
0000
0023
0000
0000
0000
0000
0000
0000
0000
0000
0000
0130
0000
0000
0000
0000
0000
0001
0000
0000
0010
0000
0000
0100
0000
0000
0010
0000
0000
,
1000
0000
0020
0000
0031
0100
0010
1000
0001
0000
0100
0000
1000
0000
0100
0000
,
0020
0000
0000
1000
0000
0000
0130
0000
0110
0000
0002
0000
0000
0010
0000
0000
,
1003
0000
0010
0000
1000
0000
0001
0000
0010
0000
0001
0000
1000
0000
0000
0000
0000
0000
0100
0000
0000
0001
0000
0000
0100
0000
0000
1000
0000
0000
0010
0000
0000
0000
0000
0000
0001
0000
0010
0000
0001
0000
0010
0000
1000
0000
0001
0000
,
0010
0100
0010
0100
1000
0001
1000
0000
0010
0000
0100
0000
0010
0000
0100
0000
0001
0000
1000
0000
0010
0000
0100
0000
,
0010
0000
0000
0000
0100
0000
0000
0000
0001
0000
0000
0000
1000
0000
0000
0000
0000
0000
0100
0000
0000
0010
0000
0000
0001
0000
0000
1000
0000
0000
0001
0000
0000
0000
0000
0000
0100
0000
0000
0000
0010
0000
0000
0000
1000
0000
0000
0000
,
0001
0000
0000
0100
0000
0000
0001
0000
0000
0100
0000
0000
0001
0000
0000
0000
0010
0000
0000
0000
0100
0000
0000
0000
0010
0000
0000
0100
0000
0000
1000
0000
0000
0001
0000
0000
0100
0000
0000
0000
0010
0000
0000
0000
0100
0000
0000
0000
,
0010
0000
0000
0000
1000
0000
0000
0000
0001
0000
0000
0000
0100
0000
0000
0010
0000
0000
0100
0000
0000
1000
0000
0000
0100
0000
0000
0000
0000
0000
0010
0000
0000
0000
0000
0000
0110
0000
0000
0000
0000
0000
0100
0000
0000
0001
0000
0000
,
1000
0000
0000
0100
0000
0000
0010
0000
0000
0001
0000
0000
1000
0000
0000
0000
0010
0000
0000
0000
1000
0000
0000
0000
0010
0000
0000
0000
0001
0000
0000
0000
0010
0000
0000
0000
1000
0000
0000
0000
0010
0000
0000
0000
1000
0000
0000
0000
,
0010
0000
0000
0100
0000
0000
0001
0000
0000
1000
0000
0000
0001
0000
0000
0000
0010
0000
0000
0000
0001
0000
0000
0000
0010
0000
0000
0000
1000
0000
0000
0000
0010
0000
0000
0000
0001
0000
0000
0000
0010
0000
0000
0000
0001
0000
0000
0000
,
0010
0100
1000
0001
0100
0000
1000
0000
0100
0010
0100
0001
0100
0000
0001
0000
,
0010
0100
0010
1000
0020
0000
0032
0000
0203
0000
0320
0000
2030
0000
3002
0000
,
1003
0000
0000
0000
1001
0000
1000
0100
1000
0000
0001
0100
0001
0000
1000
0010
,
0100
0000
0010
0100
0001
0000
0010
0100
1000
0000
0010
0100
0001
0000
0100
0001
,
0100
0000
0001
0010
0001
0000
1000
0001
1000
0000
0001
0100
0001
0000
1000
0001
,
1000
0000
0001
0010
0001
0000
0010
0100
1000
0000
0010
0100
0001
0000
0100
0010
,
1000
0000
0100
0010
0001
0000
0010
0001
1000
0000
0010
0100
0001
0000
0100
1000
,
0100
0000
0010
0100
0010
0000
0100
0001
1000
0000
0100
0010
0100
0000
0001
0100
,
0001
0000
0100
1000
0001
0000
1000
0010
1000
0000
0001
0010
0001
0000
1000
0100
,
0010
0000
0100
0010
0001
0000
0100
0010
1000
0000
0100
0010
0001
0000
0010
0001
,
0010
0000
0001
0100
0001
0000
1000
0001
1000
0000
0001
0010
0001
0000
1000
0001
,
1000
0000
0001
0100
0001
0000
0100
0010
1000
0000
0100
0010
0001
0000
0010
0100
,
1000
0000
0010
0100
0001
0000
0100
0001
1000
0000
0100
0010
0001
0000
0000
0000
,
0011
0000
0010
0000
0210
0000
0000
0000
0301
0100
0001
0100
1000
0010
1000
0010
,
0100
0000
0010
1000
0001
0000
0100
0000
1000
0100
1000
0100
0010
0100
0010
0100
,
0002
0000
0010
1003
1001
0000
1100
0100
,
0001
0100
0110
0010
0011
0001
1001
1000
,
1010
0000
0010
0000
0210
0000
1300
0100
0010
0000
0100
0000
0101
0000
0000
0000
,
0021
0000
1030
0010
0100
0000
0010
0000
0011
0000
0000
0000
1001
0000
1000
0000
,
1100
0100
0101
0000
0110
0010
0011
0001
,
0102
0000
0000
0000
1003
0000
0010
0000
0001
0010
0001
0010
0100
0010
0100
0010
,
2000
0000
0100
3001
1001
0000
0201
0000
,
1000
0010
0301
1000
1200
0000
0001
0010
,
1300
0010
1010
0010
0011
0010
1010
0000
,
1100
0100
0101
0100
1100
0000
1010
0010
,
0110
0000
0010
0000
0110
0000
0000
0000
1200
0000
0000
0000
1300
0100
1000
0100
,
0001
0000
0000
0010
0000
0000
0210
0000
0000
0000
0000
0000
0301
0000
0100
0000
0010
0000
0012
0000
0000
0000
0000
0000
,
1003
0010
0100
1200
0000
0000
0301
0010
0100
0201
0000
0000
,
1300
0010
0100
2100
0000
0000
3001
0010
0100
0201
0000
0000
,
1300
0100
0001
0021
0000
0000
1030
0010
0001
1001
0000
1010
,
0000
0000
0000
0000
0000
0000
0000
0000
1001
0000
0000
0000
0000
0000
0000
0000
0000
0000
0000
0000
0000
0000
0000
0000
1000
0000
0000
0000
0000
0000
0000
0000
0200
0300
0000
0000
0000
0000
0000
0000
0200
0300
0000
0000
0000
0000
0000
0000
0001
0000
0000
0000
0000
0000
0000
0000
1000
0000
0000
0000
0000
0000
0000
0000
0010
0000
0000
0000
0000
0000
0000
0000
0110
0000
0000
0000
0000
0000
0000
0000
0000
0000
0000
0000
0000
0000
0000
0000
1001
0000
0000
0000
0000
0000
0000
0000
,
0000
0000
0000
0000
0000
0000
0000
0000
2010
0000
0000
0000
0000
0000
0000
0000
0000
0000
0000
0000
0000
0000
0000
0000
3001
0000
0000
0000
0000
0000
0000
0000
0200
0300
0000
0000
0000
0000
0000
0000
0200
0300
0000
0000
0000
0000
0000
0000
1000
0000
0000
0000
0000
0000
0000
0000
0001
0000
0000
0000
0000
0000
0000
0000
0010
0000
0000
0000
0000
0000
0000
0000
0110
0000
0000
0000
0000
0000
0000
0000
0000
0000
0000
0000
0000
0000
0000
0000
1001
0000
0000
0000
0000
0000
0000
0000
,
0000
0000
0000
0000
0012
0000
0000
0000
0000
0000
0000
0000
0103
0000
0000
1000
0000
0000
0100
0000
0000
1000
0000
0000
0001
0000
0000
0010
0000
0000
0001
0000
0000
0010
0000
0000
1000
0000
0000
0100
0000
0000
1000
0000
0000
0100
0000
0000
,
0001
0100
0001
0100
0010
0000
0000
0000
0110
0000
0000
0000
0100
0000
0000
0000
,
1001
0000
0000
0000
2010
0000
0000
0000
0000
0000
0000
0002
0000
0000
0000
0000
,
3003
0000
0000
0000
;

//---------------dance-double - t7r----------------
#NOTES:
     dance-double:
     t7r:
     Easy:
     11:
     :
00000000
00000000
00000000
00000000
,
00000000
00000000
00000000
00000000
,
00000000
00000000
00000000
00000000
,
20000000
00000000
00000000
32000000
00000000
00000000
03200000
00000000
,
00010000
00000000
00001000
00301000
00000000
00000000
00010000
00000000
,
00001000
00000100
00000010
00000100
,
00000002
00000000
00000000
00000023
00000000
00000000
00000032
00000000
,
00002003
00000000
00000000
00003020
00000000
00000000
00000230
00000000
,
00000001
00000000
00000301
00000000
00001000
00001000
00000000
00000001
,
00000010
00001000
00010000
00100000
,
02000000
00000000
00000000
03020000
00000000
00000000
10030000
00000000
,
02000000
00000000
00000000
10000000
00000000
00000000
03200000
00000000
,
00010000
00000000
00001000
00301000
00000000
00000000
00010000
00000000
,
00001000
00000010
00000100
00000010
,
00000002
00000000
00000000
00000203
00000000
00000000
00001300
00000000
,
00020000
01000000
00031000
00010000
,
00002000
00000100
00013000
00001000
,
00020000
00100000
00001000
00000000
,
01030000
01000000
01000000
01000000
,
00010000
00001000
00000100
00000010
,
00001000
00000200
00000310
00000001
,
00000100
00002000
00013000
01000000
,
00200000
00310000
20000000
30200000
,
10300000
01000000
00100000
00010000
,
00001000
00000200
00000310
00000001
,
00000200
00002300
00023000
02030000
,
23000000
30200000
02300000
03002000
,
00013000
00000000
00000000
00001000
01000000
00100000
00100000
00000000
,
00000000
10000000
01000000
00010000
00001000
00000000
00000000
00000100
,
00000010
00001000
00000001
00000010
00000100
00001000
00010000
00100000
,
00010000
00000000
00000000
10000000
00100000
01000000
01000000
00000000
,
00000000
00100000
10000000
00010000
00100000
00001000
00001000
00010000
,
00000010
00000010
00000100
00000001
00001000
00000100
00000000
00010000
,
00011000
00000000
00000000
00010000
00000100
00000000
00001000
00000000
,
00000001
00000000
00000100
00000000
00000010
00000000
00000000
00000010
,
00001000
00000001
00000010
00001000
,
00010000
00000000
00000000
00010000
00001000
00000000
01000000
00000000
,
00010000
00100000
00010000
10000000
,
00100000
00010000
00001000
00000010
,
00000100
00000000
00000000
00000100
00000010
00000000
00000001
00000000
,
00000100
00000000
00000010
00000000
00001000
00000000
00000000
00001000
,
00000100
00010000
00001000
01000000
,
00010000
00200000
00000000
00301000
,
00010000
00001000
00000100
00000001
,
00001000
00000000
00000100
00000000
00010000
00001000
00010000
00000000
,
00011000
00000000
00000000
00010100
00000000
00000000
00012000
00000000
,
00023000
02030000
23000000
00000000
,
30100000
00000000
01000000
00010000
00100000
00000000
00001000
00000000
,
00011000
00000000
00000000
00101000
00000000
00000000
00021000
00000000
,
00032000
00003020
00000032
00000000
,
00000103
00000000
00000010
00001000
00000100
00000000
00010000
00000000
,
00002000
00000000
00003000
00010000
00010000
02000000
00000000
03000000
,
10000000
10000000
00200000
00000000
00300000
00000000
10000000
01000000
,
00020000
00031000
00000100
00000001
,
00001000
00000200
00000001
00000010
,
00001300
00000001
00000100
00001000
,
00010000
00002000
00003000
00011000
,
00000000
00010000
01000000
10000000
,
00010000
02000000
10000000
00100000
,
03010000
10000000
01000000
00010000
,
00001000
00020000
00032000
00023000
,
00030000
00000000
00011000
00000000
00001000
00000100
00000000
00000000
,
00000001
00000011
00001001
00000011
,
00000001
00001000
00000000
00000000
00000100
00000000
00010000
00000000
,
00001000
00010000
00001000
00000000
01000000
00010000
00000000
00000000
,
01000000
00100000
10000000
10100000
,
10010000
11000000
01000000
00010000
,
00001000
00000000
00011000
00000000
00010000
00100000
00000000
00000000
,
10000000
01000000
01100000
00110000
,
00100000
00001000
00000000
00000000
00010000
00000000
00011000
00000000
,
00010010
00000000
00001010
00000000
00000010
00000100
00000000
00000000
,
00000001
00000010
00001000
00011000
,
00101000
00000000
00011000
00000000
01001000
00000000
01000000
00010000
,
10000000
00000000
01000000
00000000
10000000
00100000
00000000
10000000
,
02000000
00010000
00100000
13000000
,
00100000
00010000
00000000
00000000
00001000
00000000
00000100
00000000
,
00000010
00001000
00000010
00000000
00000100
00000001
00000100
00000000
,
00000001
00000010
00001000
00020000
,
01000000
00000100
00031000
00001000
,
00010000
00011000
00001000
00000010
,
00000200
00000001
00000010
00001300
,
00000001
00000100
00000001
00000000
00000100
00000000
00001000
00000000
,
00011000
00000000
00101000
00000000
00001000
00100000
00010000
00000000
,
10000000
00000000
00010000
10000000
01000000
00000000
00020000
00000000
,
00000010
00000000
00130000
00000000
00011000
00000000
00001000
00000100
,
00000010
00001000
00001100
00000100
,
00010100
00010000
00011000
00001000
,
01001000
01000000
01100000
00100000
,
10100000
00000000
00000000
10000000
00000000
00000000
11000000
00000000
00000000
01000000
00000000
00010000
,
00000000
00001000
00000000
00020000
00000000
00000000
00000000
00000000
00000000
00030100
00000000
00000100
,
00000000
00010000
00000000
00002000
00000000
00000000
00000000
00000000
00000000
01003000
00000000
01000000
,
00000000
00010000
00000000
10000000
00000000
00000000
01000000
00000000
00000000
00010000
00000000
00000000
,
00001000
00000010
00000001
00000100
,
00001000
00000000
00000000
00000000
00021000
00000000
00000000
00000000
00000000
00000000
00000000
00002000
00000000
00000000
00000000
00000000
,
00033000
00000000
00000000
00000000
;

//---------------dance-double - t7r----------------
#NOTES:
     dance-double:
     t7r:
     Medium:
     14:
     :
00000000
00000000
00000000
00000000
,
00000000
00000000
00000000
00000000
,
00000000
00000000
00000000
00000000
,
00000020
00000000
00000000
00002030
00000000
00000000
00003200
00000000
,
00000001
00000000
00000010
00000310
00000000
00000000
00000001
00000000
,
00000010
00000000
00000010
00000100
00000000
00000100
00001000
00000000
00000000
00010000
00000000
00010000
,
00100000
00000000
00100000
00010000
00000000
00010000
10000000
00000000
10000000
00100000
00000000
00100000
,
20000000
00000000
00000000
30020000
00000000
00000000
02030000
00000000
,
10000000
00000000
00100000
00000000
00010000
03010000
00000000
10000000
,
00100000
00000000
00100000
01000000
00000000
01000000
00010000
00000000
00010000
10000000
00000000
00000000
,
01000000
00000000
01000000
00010000
00000000
00010000
00001000
00000000
00001000
00000010
00000000
00000010
,
00000200
00000000
00000000
00002300
00000000
00000000
00003020
00000000
,
00000001
00000000
00000100
00000130
00000000
00000000
00000001
00000000
,
00000100
00000000
00000100
00000010
00000000
00000010
00001000
00000000
00000000
00010000
00000000
00010000
,
01000000
00000000
01000000
00010000
00000000
00010000
10000000
00000000
10000000
01000000
00000000
01000000
,
20000000
00000000
01000000
00000000
30010000
00000000
10000000
01000000
,
00200000
00000000
00001000
00000000
00310000
00000000
01000000
00001000
,
00020000
00000000
01000000
01000000
00000000
00000000
00030100
00000000
,
00010000
00000000
00010000
00001000
00000000
00001000
00010000
00001000
00010000
00001000
00010000
00001000
,
00010000
00000000
00010000
00001000
00000000
00001000
00000100
00000000
00000100
00000010
00000000
00000010
,
00001000
00000000
00000000
00000000
00000200
00000300
00000020
00000000
00000000
00000000
00000000
00000000
00000031
00000000
00000000
00000000
00000100
00000000
00000010
00000000
00000000
00000000
00001000
00000000
,
00000100
00000000
00000000
00000000
00000100
00000000
00020000
00030000
00000000
00000000
00010000
00000000
00001000
00000000
00000000
00000000
00001000
00000000
01000000
00000000
00000000
00000000
01000000
00000000
,
00200000
00300000
00000000
00000000
00100000
00000000
10000000
00000000
00000000
00000000
10000000
00000000
00010000
00000000
10000000
00000000
00010000
00000000
00100000
00000000
00010000
00000000
00100000
00000000
,
00010000
00000000
00010000
01000000
00000000
01000000
00100000
00000000
00100000
10000000
00000000
10000000
,
01000000
00000000
01000000
00100000
00000000
00100000
00010000
00000000
00000000
00001000
00000000
00000000
,
00000010
00000000
00000010
00000100
00000000
00000100
00000001
00000000
00000001
00000010
00000000
00000010
,
00000200
00000000
00010300
00002000
00000000
01003000
00020000
00000000
00130000
00002000
00000000
00013000
,
00001000
00010000
02010000
13000000
00100000
00010000
00001000
00010000
,
00021000
00000000
00031000
00000000
00000100
00000000
00000001
00000010
00000001
00000000
00001000
00000000
00001200
00000000
00010300
00000000
,
00001000
00000000
00000000
00000000
00010000
00000000
00000000
00000000
01000000
00000000
00000000
00000000
22000000
33000000
00000000
00000000
22000000
33000000
00000000
00000000
00010000
00000000
00000000
00000000
00220000
00330000
00000000
00000000
00100000
00000000
00001000
00000000
,
00010000
00001000
00001200
00000301
00000010
00001000
00010000
00001000
,
00012000
00000000
00013000
00000000
01000000
00000000
10000000
00100000
10000000
00000000
00010000
00000000
02010000
00000000
03001000
00000000
,
00010000
00000000
00000000
00000000
00001000
00000000
00000000
00000000
00000100
00000000
00000000
00000000
00000202
00000303
00000000
00000000
00000220
00000330
00000000
00000000
00020010
00000000
00000000
00000000
00031000
00000000
01000000
00000000
00010000
00000000
00000000
00000000
,
10000000
00000000
00000000
01000000
00100000
00000000
01000000
00000000
10000000
00000000
10000000
00000000
00010000
00000000
00000000
00000000
,
10000000
00000000
01000000
00000000
00020000
00000000
00000000
00000000
00031000
00000000
00000000
00010000
00000100
00000000
00001000
00000000
,
00000001
00000001
00000100
00000010
00002000
00000000
00003001
00000100
,
00001000
00000000
00021000
00000000
00031000
00010000
00100000
01000000
,
00010000
00010000
20000000
00000000
31000000
00100000
00001000
00010000
,
00002000
00000000
00003100
00000001
00000010
00000100
00001000
00000001
,
00001000
00000000
00000000
00000100
00010000
00000000
00001000
00000000
00010000
00000000
00010000
00000000
01000000
00000000
00000000
00000000
,
10000000
00000000
00100000
00000000
20000000
00000000
00000000
00000000
30010000
00000000
00000000
01000000
00010000
00000000
10000000
00000000
,
01000000
01000000
00100000
00001000
00020000
00000000
00031000
00000010
,
00000001
00000000
00000000
00000100
00000020
00000000
00000000
00000000
00001030
00000000
00000001
00000000
00000100
00000000
00000010
00000000
,
00001000
00001000
00000002
00000000
00000103
00000010
00010000
00001000
,
00020000
00000000
00000000
00000000
00031000
00000000
00010000
00000000
01000000
00000000
10000000
00000000
00100000
01000000
00100000
00000000
,
10000000
00000000
00000000
10100000
00000000
00000000
10010000
20000000
,
00000000
00000000
00000000
30000000
00020000
00000000
00000000
00000000
00000000
00000000
00032000
00000000
00000000
00000000
00000000
00003001
00000000
00000000
00000100
00000000
00000000
00000001
00000000
00000000
,
00000010
00000100
00001000
00000001
00000100
00001000
00010000
00000010
,
00001000
00000000
00000000
00001010
00000000
00000000
00001001
00000002
,
00000000
00000000
00000000
00000003
00002000
00000000
00000000
00000000
00000000
00000000
00023000
00000000
00000000
00000000
00000000
10030000
00000000
00000000
01000000
00000000
00000000
10000000
00000000
00000000
,
00100000
01000000
00010000
10000000
01000000
00010000
00001000
00100000
,
00020000
00000000
00000000
00100000
00000000
00000000
10030000
00000000
10010000
00000000
20000000
00000000
00000000
01000000
00000000
00000000
,
30010000
00000000
00000000
00000000
00010000
00000000
00100000
00000000
00000000
00000000
00100000
00000000
00001000
00000000
00000000
00000000
00000000
00000000
00010000
00000000
00000000
00000010
00000000
00000000
00001000
00000000
00000000
00000001
00000000
00000000
00000100
00000000
00000000
00000000
00000000
00000000
00000001
00000000
00000000
00000000
00000010
00000000
00000100
00000000
00010000
00000000
00000100
00000000
,
00010000
00001000
00010000
00001000
00000000
00000000
00010000
00000000
00000000
00000000
00001000
00000000
00000100
00000000
00000000
00000000
00000100
00000000
00000001
00000000
00000000
00000000
00000001
00000000
,
00000010
00000000
00000010
00000100
00020000
00032000
00013000
00000000
00000000
00001000
00000000
00001000
,
00010000
00000000
00010000
00001000
00000000
00010000
01000000
00000000
01000000
10000000
00000000
10000000
,
00100000
00000000
00100000
01000000
00002000
00023000
00031000
00000000
00000000
00011000
00000000
00000000
,
00001000
00000000
00000100
00000001
00000010
00000001
00000010
00000000
00000100
00010000
00001000
00010000
,
00001000
00000000
01000000
00010000
10000000
00010000
10000000
00000000
00100000
10000000
01000000
00100000
,
01000000
00000000
10000000
00100000
10000000
00000000
00010000
00000000
01000000
00000000
00000000
00000000
00010000
00000000
00100000
00000000
,
00001000
00020000
00030020
00000230
,
00000301
00000000
00001001
00000000
00000001
00000100
00000101
00000000
,
00000011
00000000
00001001
00001000
00000100
00000000
00010100
00000000
,
00011000
00001000
01000000
00000000
01010000
00000000
00010000
00100000
,
01000000
10000000
10100000
00000000
11000000
01000000
10000000
00000000
,
00100000
10000000
00010000
00100000
00001000
00000000
00010000
00001000
,
00000010
00000001
00000100
00000000
00001000
00010000
00100000
10000000
,
01000000
00000000
10010000
00000000
10000000
00100000
10100000
00000000
,
11000000
00000000
10010000
00010000
00100000
00000000
00101000
00000000
,
00011000
00010000
00000010
00000000
00001010
00000000
00001000
00000100
,
00000010
00000001
00000101
00000000
00000011
00000010
00000001
00000000
,
00000100
00000001
00001000
00000100
00010000
00000000
00001000
00010000
,
01000000
00000000
01000000
00000000
00100000
00000000
00000000
00000000
00001000
00000000
00010000
00000000
00000010
00001000
00000010
00000000
,
00000100
00000001
00000010
00000001
00000100
00000010
00001000
00000100
,
00020000
00000000
01000000
00000000
00030100
00000000
00010000
00001000
,
01000000
00100000
10000000
00010000
10000000
00100000
00010000
00001000
,
00010000
00001000
00000010
00000100
00001000
00000010
00000100
00000000
,
00000002
00000000
00000010
00001003
00000001
00000000
00002000
00000000
,
00000010
00003001
00001000
00000000
00000001
00000100
00001000
00010000
,
00000100
00000000
00001100
00001000
00000001
00000100
00000010
00010000
,
00002000
00000010
00103000
00011000
,
00001000
00010000
00100000
01000000
00010000
00100000
01000000
10000000
,
00010000
10000000
01000000
00100000
00001000
00010000
00011000
00000000
,
00020000
00000000
00000100
00031000
00010000
00000000
00020000
00000000
,
00000010
00000000
00031000
00000000
00010000
00000000
00000000
00000000
00011000
00000000
00000000
00000000
00010000
00000000
00100000
01000000
,
00100000
00000000
00000000
10000000
00000000
00000000
00020000
00000000
00000000
00000000
00000000
00000000
10030000
00000000
00000000
00000000
01000000
00000000
00010000
00000000
00000000
00000000
00000000
00000000
,
00001000
00010000
00001000
00020000
00000000
00000000
00031000
00000000
00000100
00000001
00000000
00000000
,
00000010
00000100
00000010
00000200
00000000
00000000
00010300
00001000
00010000
00002000
00000000
00000000
,
01003000
00100000
01000000
00200000
00000000
00000000
10300000
00010000
10000000
00010000
00000000
10000000
,
00000000
01000000
00000000
00020000
00000000
01000000
00000000
00000100
00000000
00031000
00000000
00011000
,
00000000
00011000
00000000
00002000
00000000
00000100
00000000
01000000
00000000
00013000
00000000
00011000
,
00000000
00000000
00000000
00000000
00011000
00000000
00000000
00000000
00000000
00000000
00000000
00000000
00001000
00000000
00000000
00000000
00000000
00000000
00000000
00000000
00000000
00000010
00000000
00000000
00000001
00000000
00000000
00000000
00000000
00000000
00000000
00000000
00000000
00000100
00000000
00000000
00001000
00000000
00000000
00000000
00000000
00000000
00000000
00000000
00000000
00010000
00000000
00000000
,
00100000
00000000
00000000
10000000
01000000
00000000
00000000
00000000
00010000
00000000
00000000
00000000
00001000
00000000
00000000
00000000
,
00000100
00000000
00000000
00000000
00000210
00000000
00000000
00000000
00000000
00000000
00000000
00000020
00000000
00000000
00000000
00000000
,
00000330
00000000
00000000
00000000
;

//---------------dance-double - t7r----------------
#NOTES:
     dance-double:
     t7r:
     Hard:
     17:
     :
00000000
00000000
00000000
00000000
,
00000000
00000000
00000000
00000000
,
00000000
00000000
00000000
00000000
,
00020000
00000000
00000000
00032000
00000000
00000000
02003000
00000000
,
00100000
00000000
00000000
00000000
00000000
00000000
00010000
00000000
00000000
00010000
00000000
00000000
00000000
00000000
00000000
03100000
00000000
00000000
10000000
00000000
00000000
00000000
10000000
00000000
,
00010000
00000000
00010000
00100000
00010000
00100000
00001000
00000000
00001000
00010000
00000000
00010000
,
00000010
00000000
00000010
00001000
00000001
00001000
00000001
00000000
00000001
00000010
00000001
00001000
,
00000002
00000000
00000000
00000203
00000000
00000000
00000320
00000000
,
00000001
00000000
00000000
00000000
00000000
00000000
00000100
00000000
00000000
00000100
00000000
00000000
00000000
00000000
00000000
00001030
00000000
00000000
00000001
00000000
00000000
00000000
00000001
00000000
,
00000010
00000000
00000010
00000100
00001000
00000100
00010000
00000000
00010000
00001000
00000000
00001000
,
00010000
00000000
00010000
00100000
00000000
00100000
10000000
00010000
00100000
01000000
10000000
00010000
,
20000000
00000000
00000000
30020000
00000000
00000000
02030000
00000000
,
10000000
00000000
00000000
00000000
00000000
00000000
00100000
00000000
00000000
00100000
00000000
00000000
00000000
00000000
00000000
03010000
00000000
00000000
10000000
00000000
00000000
00000000
10000000
00000000
,
01000000
00000000
01000000
00010000
00001000
00010000
00000100
00000000
00000100
00001000
00000000
00001000
,
00000001
00000000
00000001
00000100
00001000
00000100
00000010
00000000
00000010
00001000
00000000
00001000
,
00000200
00000000
00000000
00000000
00001000
00000000
00000000
00000000
00010300
00000000
00000000
00000000
00001000
00000000
00010000
00001000
,
00020000
00000000
00000000
00000000
00001000
00000000
00000000
00000000
00030010
00000000
00000000
00000000
00010000
00000000
00001000
00010000
,
00002000
00000100
00010000
00000000
,
01000000
00000000
00000000
01000000
00000000
00000000
00023000
00032000
00023000
00032000
00023000
00032000
,
00013000
00000000
01000000
00000000
10000000
00000000
01000000
00100000
01000000
00000000
00100000
00000000
00100000
00000000
00000000
00000000
,
00010000
00000000
10000000
00000000
00200000
00000000
00000000
00000000
00310000
00000000
00001000
00000000
00000100
00000000
00000010
00001000
,
00000001
00000000
00000010
00000100
00002000
00000000
00000010
00000000
00003001
00000000
00000100
00000000
00001000
00000000
00000000
00000000
,
00010000
00001000
00010000
00000100
00010000
00000000
00000000
00000000
00001000
00000000
00010000
00000000
00100000
00000000
10000000
00000000
,
00020000
00000000
00100000
00100000
10000000
00000000
01000000
00000000
,
00032000
00000000
00000010
00000010
00000001
00000000
00000100
00000000
,
00023000
00230000
02300000
23000000
30200000
00320000
00032000
02003000
,
03020000
00032000
00003200
00002300
00003002
00000023
00000032
00000203
,
00001300
00000000
00000200
00000301
00002000
00000000
00003100
00000000
00000020
00000031
00002000
00000000
00003001
00000000
00000020
00001030
,
00020000
00000000
00030100
00000000
00020000
00031000
00200000
00000000
00310000
00000000
02000000
03100000
20000000
00000000
31000000
00000000
,
00200000
00310000
20000000
00000000
30100000
00000000
00020000
00031000
00000020
00000000
00000031
00000000
00000200
00001300
00020000
00000000
,
00031000
00000000
00020000
01030000
20000000
00000000
30100000
00000000
02000000
03010000
20000000
00000000
30100000
00000000
02000000
03010000
,
00200000
00000000
00301000
00000000
00020000
00030010
00000200
00000000
00000301
00000000
00000020
00000031
00002000
00000000
00003001
00000000
,
00000200
00000000
00001300
00000000
00020000
00000000
00000000
00000000
00031000
00000000
00000000
00000000
00020000
00000000
00031000
00000000
02000000
00000000
00000000
00000000
03100000
00000000
00000000
10000000
00100000
00000000
10000000
00000000
00010000
00000000
00010000
00000000
,
10000000
00000000
01000000
00000000
00100000
00000000
00010000
10000000
01000000
00000000
10000000
00000000
00100000
00000000
00010000
00000000
,
00001000
00000000
00010000
00000100
00002000
00000000
00000000
00000000
00003001
00000000
00000010
00000000
00000100
00000000
00001000
00000001
,
00000100
00000000
00001000
00010000
00001000
00000000
01000000
00000000
00020000
00000000
00000000
00000000
00130000
00000000
00010000
00000000
,
10000000
00000000
00100000
01000000
00020000
00000000
00000000
00000000
10030000
00000000
01000000
00000000
00100000
00000000
00010000
10000000
,
00010000
10000000
00200000
00000000
00310000
00001000
00000100
00000001
,
00000020
00000000
00001030
00010000
01000000
10000000
00100000
01000000
,
00010000
00000000
00100000
00000000
01000000
00000000
10000000
00010000
00100000
00000000
00010000
00000000
10000000
00000000
00100000
00000000
,
00010000
00000000
00001000
00010000
00002000
00000000
00000000
00000000
00013000
00000000
00001000
00000000
00000010
00000000
00000100
00001000
,
00000001
00000000
00000100
00000001
00001000
00000000
00000001
00000000
00000200
00000000
00000000
00000000
00001300
00000000
00010000
00000000
,
00001000
00000000
00100000
00010000
20000000
00000000
00000000
00000000
30100000
00000000
01000000
00000000
00010000
00000000
10000000
01000000
,
10000000
01000000
00020000
00000000
00031000
00000010
00000001
00000100
,
00002000
00000000
00000000
00000000
00013000
00000000
00100000
00000000
10000000
00000000
01000000
00000000
00100000
00010000
00100000
00001000
,
00010000
00000000
00000000
00000000
00000000
00000000
00000000
00000000
00000000
00011000
00000000
00000000
00000000
00000000
00000000
00000000
00000000
00000000
00010100
00000000
00000000
00000100
00002000
00000000
,
00000000
00000000
00000000
00000000
00000000
00000000
00003001
00000000
00000200
00000000
00000000
00000000
00000000
00000000
00000000
00000000
00000000
00000000
00000310
00000000
00002000
00000000
00000000
00000000
00000000
00000000
00000000
00000000
00000000
00000000
00003001
00000000
00000000
00000000
00000000
00000000
00000010
00000000
00000000
00000000
00000000
00000000
00000100
00000000
00000000
00001000
00000000
00000000
,
00000100
00000000
00001000
00000000
00000001
00000000
00000100
00000000
00001000
00000000
00010000
00001000
00200000
00000000
00000000
00000000
,
00301000
00000000
00000000
00000000
00000000
00000000
00000000
00000000
00000000
00011000
00000000
00000000
00000000
00000000
00000000
00000000
00000000
00000000
01001000
00000000
00000000
01000000
00020000
00000000
,
00000000
00000000
00000000
00000000
00000000
00000000
10030000
00000000
02000000
00000000
00000000
00000000
00000000
00000000
00000000
00000000
00000000
00000000
03100000
00000000
00020000
00000000
00000000
00000000
00000000
00000000
00000000
00000000
00000000
00000000
10030000
00000000
00000000
00000000
00000000
00000000
00100000
00000000
00000000
00000000
00000000
00000000
01000000
00000000
00000000
00010000
00000000
00000000
,
10000000
00000000
01000000
10000000
00010000
00000000
10000000
00000000
00100000
00000000
00010000
00000000
00001000
00000000
00000010
00000000
,
00000002
00000000
00000000
00000203
00000000
00000000
00001300
00000000
00011000
00000000
00020000
00000000
00000000
00230000
00000000
00000000
,
10300000
00010000
10000000
00010000
01000000
00001000
00020000
00000000
00000000
01000000
00000000
00000000
00030100
00000000
00000000
00000000
00000000
00000000
00010000
00001000
00010000
00000100
00001000
00000001
,
00000200
00000000
00000000
00001000
00000000
00000000
00000310
00000000
00001000
00000000
00000001
00000000
00001000
00000000
00000000
00000000
00000001
00000000
00000010
00000000
00000000
00000000
00001000
00000000
,
00010000
00000000
00001000
00100000
00010000
10000000
00010000
00000000
01000000
00010000
10000000
00100000
,
01000000
00000000
00100000
10000000
00010000
10000000
00100000
00000000
00010000
00001000
00000000
00000100
,
00000010
00000000
00001000
00000100
00010000
00000100
00010000
00000000
00001000
00010000
00000000
00001000
,
00000010
00000000
00000001
00000100
00001000
00010000
00000100
00000000
00010000
00001000
00000000
00010000
,
01000000
00000000
10000000
00100000
00010000
00001000
01000000
00000000
00010000
10000000
00000000
01000000
,
00010000
00000000
00001000
00010000
00000100
00000000
00001000
00000001
00001000
00000000
00000001
00000000
00000100
00000000
00001000
00010000
,
00001000
00000000
00100000
00001000
00020000
00000000
00000000
00000000
00100000
00000000
00000000
00000000
00000010
00000000
00000000
00000000
,
00030000
00000000
00011000
00000000
00001000
00010000
00100000
01000000
,
00010000
00100000
00110000
00010000
10000000
00000000
11000000
00000000
,
10000000
01000000
00010000
00001000
01000000
00100000
00010000
00001000
,
00000010
00000100
00001100
00000000
00001000
00000001
00000100
00000010
,
00000001
00001000
00000100
00000001
00001000
00000100
00010100
00000100
,
00010100
00000000
00010000
00000000
00011000
00000000
00000000
00000000
01001000
00000000
01000000
00001000
00010000
00000000
00001000
00000000
,
00011000
00000000
00000000
00000000
00101000
00000000
00000000
00000000
00011000
00000000
00010000
00000000
01000000
10000000
00100000
01000000
,
00010000
10000000
00100000
00010000
00001000
00000010
00000011
00000000
,
00000101
00000000
00000100
00000000
00000001
00000000
00000010
00000100
00010000
00000000
00001000
00000000
00000100
00000000
00000001
00000000
,
00000011
00000000
00001001
00000000
00000101
00000100
00001100
00000000
,
00011000
00000000
01010000
01000000
11000000
00000000
10100000
00000000
,
01100000
00000000
00100000
00000000
00110000
00000000
00000000
00000000
00011000
00000000
00000000
00000000
00001000
00010000
00000100
00010000
,
00001000
00010000
00011000
00010000
01000000
10000000
00100000
00010000
,
00002000
00000000
00000000
00000000
00010000
00000000
00000000
00000000
01003000
00000000
00000000
00000000
00010000
00000000
10000000
00100000
,
10000000
00000000
00010000
10000000
00010000
00000000
00100000
00010000
00100000
00000000
00010000
00000000
10000000
00000000
01000000
00000000
,
00100000
00000000
00010000
00000000
00001000
00000000
00000010
00001000
00000010
00000000
00001000
00000001
00001000
00000000
00000001
00000000
,
00000010
00000001
00000100
00001000
00010000
00100000
20000000
00000000
,
01000000
00000000
30010000
00000000
10000000
01000000
01010000
00010000
,
00011000
00000000
00011000
00001000
00000100
00000001
00000010
00001000
,
00020000
00000000
00000000
00000000
00001000
00000000
00000000
00000000
00030100
00000000
00000000
00000000
00001000
00000000
00000001
00000010
,
00000001
00000000
00001000
00000001
00001000
00000000
00000010
00001000
00000010
00000000
00001000
00000000
00000001
00000000
00000100
00000000
,
00000010
00000000
00001000
00000000
00010000
00000000
00100000
00010000
00100000
00000000
00010000
10000000
00010000
00000000
10000000
00000000
,
00100000
10000000
01000000
00010000
00001000
00000010
00000002
00000000
,
00000100
00000000
00000100
00000000
00001003
00000000
00000000
00000000
00000001
00000000
00000100
00000000
00001000
00010000
00000100
00010000
,
00001000
00000000
00000000
00010000
00000000
00000000
00011000
00000000
00000000
00000000
00000000
00000000
00010000
00000000
00100000
00000000
01000000
00000000
00020000
00000000
00000000
00000000
00000000
00000000
,
00031000
00000010
00000100
00002000
00000000
00000000
00013000
01000000
00100000
00020000
00000000
00000000
,
00031000
00000100
00000010
00002000
00000000
00000000
00013000
01000000
10000000
00020000
00000000
00000000
,
00031000
00000100
00000001
00002000
00000000
00000000
00013000
01000000
10000000
00100000
00000000
00010000
,
00000000
00011000
00000000
00002000
00003200
00002300
00003200
00002300
00003200
00001300
00000000
00011000
,
00000000
00011000
00000000
00020000
02030000
03020000
02030000
03020000
02030000
03010000
00000000
00011000
,
00000000
00000000
00000000
00000000
00011000
00000000
00000000
00000000
00000000
00000000
00000000
00000000
00001000
00000000
00000000
00000000
00000000
00000000
00000100
00000000
00000000
00000001
00000000
00000000
00001000
00000000
00000000
00000000
00000000
00000000
00000100
00000000
00000000
00000000
00000000
00000000
00010000
00000000
00000000
00000000
00000000
00000000
00001000
00000000
00000000
01000000
00000000
00000000
,
00010000
10000000
00010000
00000000
00001000
00000000
00000010
00000000
,
00001001
00000000
00000000
00000000
00020100
00000000
00000000
00000000
00000000
00000000
00000000
00002000
00000000
00000000
00000000
00000000
,
00033000
00000000
00000000
00000000
;

//---------------dance-double - t7r----------------
#NOTES:
     dance-double:
     t7r:
     Challenge:
     18:
     :
00000000
00000000
00000000
00000000
,
00000000
00000000
00000000
00000000
,
00000000
00000000
00000000
00000000
,
20000000
00000000
00000000
30020000
00000000
00000000
02030000
00000000
,
10000000
00000000
00000000
00000000
00000000
00000000
00100000
00000000
00000000
00100000
00000000
00000000
00000000
00000000
00000000
03010000
00000000
00000000
10000000
00000000
01000000
00000000
10000000
00000000
,
00010000
00100000
00010000
10000000
00100000
10000000
00010000
01000000
00001000
00010000
00000100
00001000
,
00000002
00000000
00000000
00000000
00001003
00000100
00000010
00000001
00000100
00000010
00001000
00000001
00000010
00000100
00001000
00000000
,
00000002
00000000
00000000
00000203
00000000
00000000
00000320
00000000
,
00000001
00000000
00000100
00000000
00001000
00001000
00000000
00000130
,
00000001
00000010
00000001
00001000
00000010
00001000
00000001
00000100
00000001
00001000
00000100
00010000
,
00002000
00000000
00000000
00000000
01003000
00010000
10000000
01000000
00100000
00010000
10000000
00100000
01000000
00010000
10000000
00000000
,
00020000
00000000
00000000
20030000
00000000
00000000
30200000
00000000
,
00010000
00000000
00000000
00000000
00000000
00000000
01000000
00000000
00000000
01000000
00000000
00000000
00000000
00000000
00000000
10300000
00000000
00000000
00010000
00000000
01000000
00000000
00010000
00000000
,
10000000
01000000
10000000
00010000
00100000
00010000
00100000
00001000
00010000
00000010
00001000
00000001
,
00002000
00000000
00000000
00000000
00003100
00000010
00000001
00000100
00000010
00001000
00000001
00000010
00000100
00010000
00001000
00000000
,
00020000
00000000
00000000
00000000
01030000
00000000
10000000
00000000
00010000
00000000
00000000
00000000
10000000
00100000
01000000
00001000
,
00020000
00000000
00000000
00000000
01000000
00000000
00000000
00000000
00031000
00000000
00000000
00000000
00010000
00000100
00001000
00000010
,
00000200
00000000
00001000
00001000
00000010
00000000
00000001
00000000
,
00000320
00020030
00032000
02003000
03002000
00023000
00030200
00020300
00032000
02003000
03020000
20030000
,
30010000
00100000
01000000
00100000
01000000
10000000
00010000
00100000
01000000
00100000
01000000
10000000
,
00100000
00000000
00000000
00000000
00000000
00000000
00010000
00000000
00000000
00001000
00000000
00000000
00020000
00000000
00000000
00000000
00000000
00000000
00001000
00000000
00000000
00000000
00000000
00000000
00030100
00000000
00000000
00000000
00001000
00000000
00000000
00000000
00000001
00000000
00000000
00000000
00000100
00000000
00000000
00000000
00000010
00000000
00000000
00000000
00001000
00000000
00000000
00000000
,
00000001
00000010
00000100
00000010
00000100
00001000
00000001
00000010
00000100
00000010
00000100
00001000
,
00000002
00000000
00000000
00000000
00000000
00000000
00000103
00000000
00000000
00001000
00000000
00000000
00020000
00000000
00000000
00000000
00000000
00000000
00000000
00000000
00000000
00000000
00000000
00000000
00031000
00000000
00000000
00000000
00000000
00000000
00000000
00000000
00000000
00000000
00000000
00000000
00100000
00000000
00000000
00000000
00100000
00000000
00000000
00000000
00010000
00000000
00000000
00000000
,
10000000
00100000
01000000
00100000
01000000
00010000
10000000
00100000
01000000
00100000
01000000
00010000
,
00001000
00000010
00000100
00000010
00000100
00000001
00001000
00000010
00000100
00000010
00000100
00000001
,
00000020
00002030
00023000
00030200
00002300
00003002
00000203
00002300
00023000
00030020
00002030
00003002
,
00000203
00002300
00023000
02030000
23000000
30200000
02300000
03002000
00023000
00030200
00020300
00032000
,
00013000
00000000
00002000
00003100
00000020
00001030
00000100
00000010
00000002
00000103
00002000
00013000
00001000
00000000
00020000
01030000
,
00200000
00310000
01000000
00100000
20000000
31000000
00020000
00031000
00010000
00000000
00002000
00003010
00000200
00001300
00000010
00000100
,
00000002
00000013
00002000
00013000
00001000
00000000
00020000
00130000
02000000
03010000
00100000
01000000
20000000
30100000
00020000
00031000
,
00010000
00000000
00002000
00003100
00000002
00000013
00001000
00010000
00002000
00003010
00000200
00010300
00001000
00000000
00020000
01030000
,
20000000
30100000
00010000
00001000
00020000
00130000
02000000
03001000
00010000
00000000
00002000
00003010
00000002
00000103
00001000
00010000
,
00002000
00000000
00003100
00000000
00000020
00000000
00010030
00000000
00001000
00000000
00000000
00000000
00020000
00000000
00130000
00000000
20000000
00000000
31000000
00000000
00010000
00000000
00001000
00010000
00001000
00000000
00010000
00000000
01000000
00000000
01000000
00000000
,
00100000
00000000
00010000
01000000
00010000
00000000
10000000
01000000
00100000
00000000
01000000
00000000
11000000
00000000
10000000
00000000
,
00100000
00000000
01000000
00001000
00020000
00000100
00000000
00031000
00010000
00000000
00000100
00001000
00000100
00000000
00001000
00000010
,
00000100
00000000
00000010
00001000
00000001
00000000
00001000
00000000
00000002
00000010
00000000
00001003
00000001
00000000
00000100
00000000
,
00000101
00000000
00000000
00000000
00000200
00001000
00000000
00000310
00000100
00000000
00000010
00001000
00000001
00000000
00000010
00000100
,
00010000
00000100
00010000
00000100
00001000
00000000
00000001
00000000
00000100
00000000
00001000
00010000
00001000
00000000
00010000
00000000
,
01000000
00000000
00100000
00000000
00010000
00000000
01000000
00100000
02000000
10000000
00000000
03100000
01000000
00000000
00100000
10000000
,
00010000
00000000
10000000
01000000
10000000
00000000
01000000
00100000
00010000
00000000
10000000
00000000
10010000
00000000
00010000
00000000
,
01000000
00000000
00001000
00010000
00000200
00001000
00000000
00010300
00000100
00000000
00001000
00000010
00001000
00000000
00000010
00000100
,
00000001
00000000
00000010
00000001
00001000
00000000
00000001
00000000
00002000
00000100
00000000
00003001
00001000
00000000
00000100
00000000
,
00001100
00000000
00000000
00000000
00000200
00000001
00000000
00000310
00000100
00000000
00000010
00000001
00001000
00000000
00000100
00010000
,
00000100
00010000
00001000
00010000
00001000
00000000
00010000
00000000
00100000
00000000
10000000
01000000
10000000
00000000
00010000
00000000
,
00110000
00000000
00000000
00000000
00100000
00001000
00010000
00001000
00010000
00000010
00000100
00000001
00001000
00000100
00000010
00000001
,
00002000
00000000
00000000
00000000
00000000
00000000
00003100
00000000
00000000
00010100
00000000
00000000
00000000
00000000
00000000
00010000
00000000
00000000
00011000
00000000
00000000
00001000
00020000
00000000
,
00000000
00000000
00000000
00000000
00000000
00000000
00031000
00000000
00000200
00000000
00000000
00000000
00000000
00000000
00000000
00000000
00000000
00000000
00000301
00000000
00000020
00000000
00000000
00000000
00000000
00000000
00000000
00000000
00000000
00000000
00000130
00000000
00000000
00000000
00000000
00000000
00010000
00000000
00000000
00000100
00000000
00000000
00010000
00000000
00000000
00001000
00000000
00000000
,
00020000
00000000
01030000
00000000
10000000
00000000
00200000
00000000
10300000
01000000
00100000
00010000
10000000
00000000
00100000
00000000
,
01100000
00000000
00000000
00000000
00000000
00000000
01000000
00000000
00000000
01001000
00000000
00000000
00000000
00000000
00000000
00001000
00000000
00000000
00011000
00000000
00000000
00010000
00002000
00000000
,
00000000
00000000
00000000
00000000
00000000
00000000
00013000
00000000
00200000
00000000
00000000
00000000
00000000
00000000
00000000
00000000
00000000
00000000
10300000
00000000
02000000
00000000
00000000
00000000
00000000
00000000
00000000
00000000
00000000
00000000
03100000
00000000
00000000
00000000
00000000
00000000
00010000
00000000
00000000
01000000
00000000
00000000
00100000
00000000
00000000
10000000
00000000
00000000
,
00010000
00000000
20000000
00000000
31000000
00100000
00001000
00010000
00001000
00000000
00010000
00000000
00001000
00000000
00000010
00000000
,
00000200
00000000
00000000
00000001
00000000
00000000
00000310
00000000
00000110
00000000
00000002
00000000
00000000
00000100
00000000
00000000
,
00001003
00000000
00000010
00000000
00001000
00000000
00000001
00000000
00000010
00000000
00000001
00000000
00000100
00000000
00000000
00000000
00000000
00000000
00001000
00000000
00000000
00010000
00000000
00000000
00100000
00000000
00000000
01000000
00000000
00000000
00010000
00000000
00000000
00000000
00000000
00000000
10000000
00000000
01000000
00000000
10000000
00000000
01000000
00000000
00010000
00000000
00001000
00000000
,
00010000
00001000
00010000
00001000
00000100
00000001
00001000
00000000
00000010
00000000
00000100
00000000
00000010
00000000
00000100
00000000
00000001
00000000
00001000
00000000
00000010
00000000
00000100
00000000
,
00000010
00000000
00000000
00000000
00000100
00000000
00000000
00000000
00000001
00000000
00000000
00000000
00001000
00000000
00000000
00000000
00000000
00000000
00000100
00000000
00000000
00000010
00000000
00000000
00000001
00000000
00000000
00001000
00000000
00000000
00000001
00000000
00000000
00000000
00000000
00000000
00000100
00000000
00000000
00000000
00001000
00000000
00000000
00000000
00010000
00000000
00000000
00000000
,
00001000
00000000
00000000
01000000
00000000
00000000
00001000
00000000
00000000
01000000
00000000
00000000
00010000
00000000
00000000
00000000
00100000
00000000
00000000
00000000
01000000
00000000
00000000
00000000
00100000
00000000
00000000
01000000
00000000
00000000
10000000
00000000
00000000
00010000
00000000
00000000
01000000
00000000
00000000
00000000
00100000
00000000
00000000
00000000
01000000
00000000
00000000
00000000
,
00100000
00000000
00000000
00000000
10000000
00000000
00000000
00000000
00010000
00000000
00000000
00000000
20000000
00000000
00000000
00000000
00000000
00000000
31000000
00000000
00000000
00010000
00000000
00000000
00001000
00000000
00000000
00000000
00010000
00000000
00000000
00000000
00001000
00000000
00000000
00000000
00011000
00000000
00000000
00000000
00000000
00000000
00000000
00000000
00000000
00000000
00000000
00000000
,
00010000
00000010
00001000
00000001
00000010
00000100
00000010
00000100
00001000
00010000
00100000
01000000
,
00100000
00000000
00000000
01000000
00000000
00000000
10000000
00000000
00000000
00010000
00000000
00000000
10000000
00000000
00000000
00000000
00100000
00000000
00000000
00000000
01000000
00000000
00000000
00000000
00100000
00000000
00000000
00000000
01000000
00000000
00000000
00000000
00010000
00000000
00000000
00000000
00001000
00000000
00000000
00000000
00000010
00000000
00000000
00000000
00000100
00000000
00000000
00000000
,
00000010
00000100
00000001
00001000
00000001
00000000
00000010
00000000
00001000
00010000
00001000
00100000
00010000
00000000
10000000
00000000
,
00100000
00010000
00001000
00010000
00002000
00000000
00000000
00000000
00000010
00000000
00000000
00000000
00100000
00000000
00000000
00000000
,
00013000
00000000
00000000
00000000
00011000
00000000
00001000
01000000
00001000
00000000
01000000
00010000
10000000
00000000
01000000
10000000
,
00010000
00000000
10000000
00100000
10000000
00000000
00010000
10000000
00010000
00000000
10000000
00000000
01000000
00000000
00010000
00001000
,
00010000
00000000
00001000
00010000
00000100
00000000
00001000
00000001
00001000
00000000
00000001
00000100
00000010
00000000
00000100
00000001
,
00001000
00000000
00000100
00000000
00010000
00000000
00001000
00010000
00001000
00000000
00100000
00010000
10000000
00000000
00100000
01000000
,
00010000
00000000
10000000
01000000
00100000
00000000
00001000
00000000
00010000
00000000
00000000
00000000
00001000
00000000
00000100
00000001
,
00001000
00000000
00000100
00010000
00001000
00000000
00000000
00000000
00010000
00000000
01000000
10000000
00010000
00000000
01000000
00010000
,
10000000
00000000
00100000
00000000
00010000
00000000
00001000
00100000
00001000
00000000
00010000
00001000
00010000
00000000
00000010
00001000
,
00000001
00000000
00000100
00000000
00001000
00000000
00010000
00000000
00000010
00000000
00001000
00000001
00001000
00000000
00000001
00000010
,
00000001
00000000
00000010
00000100
00001000
00000000
00010000
00001000
00010000
00000000
00001000
01000000
00010000
00000000
00100000
00010000
,
10000000
00000000
00000000
00000000
00100000
00000000
00010000
00001000
00010000
00000000
00000100
00000000
00010100
00000000
00000000
00000000
,
00010000
00000000
00000100
00001000
00000100
00000000
00001000
00000000
00001001
00000000
00000000
00000000
00000001
00000000
00000100
00001000
,
00010000
00000000
01000000
00000000
00100000
00000000
00000000
00000000
00011000
00000000
00000000
00000000
00001000
00010000
00000100
01000000
,
00001000
00000000
00010000
00000000
00011000
00000000
00000000
00000000
00001000
00000100
00001000
00000100
00000010
00000100
00000010
00000100
,
00000002
00000000
00000000
00000000
00000010
00000000
00001003
00000000
00001001
00000000
00000000
00000000
00000001
00000000
00000100
00000010
,
00001000
00000000
00000100
00010000
00001000
00000000
01000000
00010000
00100000
00000000
00010000
00000000
10010000
00000000
10000000
00000000
,
11000000
00000000
01000000
00000000
01010000
00000000
00000000
00000000
00010000
00000000
00000010
00001000
00000001
00000000
00000010
00000001
,
00002000
00000000
00003001
00000100
00000010
00000000
00001000
00000000
00001001
00000000
00000000
00000000
00000011
00000000
00000010
00000000
,
00001010
00001000
00011000
00000000
00110000
00100000
10100000
10000000
,
10010000
00000000
00000000
00000000
11000000
00000000
00000000
00000000
01000000
00010000
01000000
00010000
00001000
00010000
00001000
00010000
,
00002000
00000000
00000100
00013000
00011000
00000000
01002000
00000000
,
00100000
00010000
00003100
00000010
00020010
00000000
00000100
00001000
,
00130000
01000000
01100000
00100000
10100000
10000000
11000000
00000000
,
01010000
00010000
00011000
00001000
00001100
00000000
00000110
00000010
,
00001010
00000000
00000010
00000000
00010010
00000000
00000000
00000000
00011000
00000000
00000000
00000000
00001000
00010000
00000010
00100000
,
00001000
00000000
00000000
00001000
00000000
00000000
00012000
00000000
00000000
00000000
00000000
00000000
00013000
00000000
01000000
00000000
10000000
00000000
20100000
00000000
00000000
00000000
00000000
00000000
,
30100000
00010000
00001000
00021000
00000000
00000000
00031000
00000100
00000001
00000012
00000000
00000000
,
00000013
00001000
00010000
00012000
00000000
00000000
00013000
00100000
10000000
21000000
00000000
00000000
,
31000000
00010000
00001000
00021000
00000000
00000000
00031000
00000010
00000001
00000101
00000000
00000110
,
00000000
00000000
00000000
00000000
00000000
00000000
00000000
00000000
00001010
00000000
00000000
00000000
00000000
00000000
00000000
00000000
00000000
00000000
00000000
00000000
00000000
00000000
00000000
00000000
00001000
00000000
00000000
00000000
00000000
00000000
00000000
00000000
00000200
00000300
00000000
00000000
00000000
00000000
00000000
00000000
00000200
00000300
00000000
00000000
00000000
00000000
00000000
00000000
00000001
00000000
00000000
00000000
00000000
00000000
00000000
00000000
00001000
00000000
00000000
00000000
00000000
00000000
00000000
00000000
00000100
00000000
00000000
00000000
00000000
00000000
00000000
00000000
00010000
00000000
00000000
00000000
00000000
00000000
00000000
00000000
00000000
00000000
00000000
00000000
00000000
00000000
00000000
00000000
01000100
00000000
00000000
00000000
00000000
00000000
00000000
00000000
,
00000000
00000000
00000000
00000000
00000000
00000000
00000000
00000000
02000100
00000000
00000000
00000000
00000000
00000000
00000000
00000000
00000000
00000000
00000000
00000000
00000000
00000000
00000000
00000000
03010000
00000000
00000000
00000000
00000000
00000000
00000000
00000000
02000000
03000000
00000000
00000000
00000000
00000000
00000000
00000000
02000000
03000000
00000000
00000000
00000000
00000000
00000000
00000000
10000000
00000000
00000000
00000000
00000000
00000000
00000000
00000000
00100000
00000000
00000000
00000000
00000000
00000000
00000000
00000000
01000000
00000000
00000000
00000000
00000000
00000000
00000000
00000000
00001000
00000000
00000000
00000000
00000000
00000000
00000000
00000000
00000000
00000000
00000000
00000000
00000000
00000000
00000000
00000000
00100010
00000000
00000000
00000000
00000000
00000000
00000000
00000000
,
00000000
00000000
00000000
00000000
00100020
00000000
00000000
00000000
00000000
00000000
00000000
00000000
00010030
00000000
00000000
00000000
00000000
00000000
00001000
00000000
00000000
00000100
00000000
00000000
00000010
00000000
00000000
00000000
00000000
00000000
00001000
00000000
00000000
00000100
00000000
00000000
00000010
00000000
00000000
00000000
00000000
00000000
00000001
00000000
00000000
00000100
00000000
00000000
,
00001000
00000000
00010000
00100000
10000000
00000000
00000000
00000000
00010000
00000000
00000000
00000000
00001000
00000000
00000000
00000000
,
00000001
00000000
00000000
00000000
00000210
00000000
00000000
00000000
00000000
00000000
00000000
00000020
00000000
00000000
00000000
00000000
,
00000330
00000000
00000000
00000000
;
