#TITLE:X-TREME 6;
#ARTIST:元祖ボーイズ男子ボーイズ;
#ARTISTTRANSLIT:GANSO BOYS DANSHI BOYS;
#CREDIT:t7r VS forcednature;
#BANNER:X-TREME 6.png;
#BACKGROUND:X-TREME 6-bg.png;
#JACKET:X-TREME 6-jacket.png;
#CDTITLE:./CDTITLES/REFLEC BEAT.PNG;
#MUSIC:X-TREME 6.ogg;
#SAMPLESTART:90;
#SAMPLELENGTH:15;
#BPMS:0=200;

//---------------dance-single - t7r----------------
#NOTES:
     dance-single:
     t7r:
     Beginner:
     5:
     :
0000
0000
0000
0000
,
0000
0000
0000
0000
,
0000
0000
0000
0000
,
0000
0000
0000
0000
,
0000
0000
0000
0000
,
0000
0000
0000
0000
,
0000
0000
0000
0000
,
0000
0000
0000
0000
,
0000
0000
0000
0000
,
0010
0000
0010
0000
,
0010
0000
0000
0000
,
0100
0000
0100
0000
,
0100
0000
0000
0000
,
0001
0001
0001
0000
,
1000
1000
1000
0000
,
1001
0000
0000
0000
,
0000
0000
0000
0000
,
1000
0000
1000
0000
,
1000
0000
0000
0000
,
0000
0001
0000
0001
,
0001
0000
0001
0000
,
0000
0010
0000
0010
,
0010
0000
0010
0000
,
0000
0100
0000
0100
,
0100
0000
0100
0000
,
1000
0000
1000
1000
,
0000
1000
1000
0000
,
0001
0001
0001
0001
,
0001
0000
0001
0000
,
1000
1000
1000
1000
,
1000
0000
1000
0000
,
0010
0000
0010
0000
,
0010
0000
0010
0000
,
0100
0000
0100
0000
,
0100
0000
0000
0000
,
0010
0000
0010
0000
,
0110
0000
0000
0000
,
0001
0000
0001
0000
,
1001
0000
0000
0000
,
1000
0000
1000
0000
,
1001
0000
0000
0000
,
0100
0000
0100
0000
,
0110
0000
0000
0000
,
1000
1000
1000
0000
,
0001
0000
0000
0000
,
0001
0001
0001
0000
,
1000
0000
0000
0000
,
0010
0010
0010
0000
,
0100
0100
0100
0000
,
0010
0010
0010
0010
,
0010
0000
0000
0000
,
1000
0000
0000
0000
,
1000
0000
0000
0000
,
0001
0000
0000
0000
,
0001
0000
0000
0000
,
0010
0000
0000
0000
,
0010
0000
0000
0000
,
0100
0000
0000
0000
,
0100
0000
0000
0000
,
1000
0000
1000
0000
,
0001
0000
0001
0000
,
0100
0000
0100
0000
,
0010
0000
0010
0000
,
1000
0000
0000
0000
,
0000
0000
0000
0000
,
1001
0000
0000
0000
,
0000
0000
0000
0000
,
0001
0000
0001
0000
,
0001
0000
0000
0000
,
0010
0000
0010
0000
,
0010
0000
0000
0000
,
0100
0000
0100
0000
,
0100
0000
0000
0000
,
1000
0000
1000
0000
,
1000
0000
0000
0000
,
0001
0001
0001
0000
,
0001
0000
0001
0000
,
1000
1000
1000
0000
,
1000
0000
1000
0000
,
0010
0010
0010
0000
,
0010
0000
0010
0000
,
0100
0100
0100
0000
,
0100
0000
0100
0000
,
0001
0000
0000
0000
,
1000
0000
0000
0001
,
0001
0000
0001
0000
,
0010
0000
0010
0000
,
0100
0000
0000
0000
,
0100
0000
0000
1000
,
1000
0000
0001
0000
,
1000
0000
0000
0000
,
0001
0001
0001
0000
,
0010
0010
0010
0000
,
0100
0100
0100
0000
,
1000
1000
1000
0000
,
0010
0010
0010
0010
,
0010
0000
0000
0000
,
0100
0100
0100
0100
,
0100
0000
0000
0000
,
0001
0001
0001
0001
,
1000
1000
1000
1000
,
1001
0000
0000
0000
;

//---------------dance-single - forcednature----------------
#NOTES:
     dance-single:
     forcednature:
     Easy:
     8:
     :
0000
0000
0000
0000
,
0000
0000
0000
0000
,
0000
0000
0000
0000
,
0000
0000
0000
0000
,
0000
0000
0000
0000
,
1000
0000
0001
0000
1000
0000
0000
0010
,
0000
0100
0001
0000
,
0001
0000
1000
0000
0001
0000
0000
0010
,
0000
0100
1000
0000
,
0002
0000
0003
0200
0000
0300
0020
0000
,
0030
2000
0000
3000
1001
0000
1001
0000
,
2000
0000
3000
0200
0000
0300
0020
0000
,
0030
0002
0000
0003
1001
0000
1001
0000
,
0100
0100
0010
0010
,
0100
0010
0220
0330
,
0001
0000
1000
0000
0001
0000
1000
0000
0001
0000
1000
0000
,
0002
0000
0000
1003
,
1001
0000
0110
0000
,
1001
0100
0010
0000
,
1000
0100
1000
0010
,
0100
0001
0010
0000
,
0001
1000
0010
0100
,
0001
0000
1000
0000
0010
0100
0000
0000
,
0001
0010
0100
1000
,
0001
1000
0010
0000
,
2000
0000
3200
0000
,
0320
0000
0032
2003
,
3001
0001
0100
0010
,
1000
0100
0010
0001
,
0100
0010
1000
0001
,
0010
0100
1000
0000
,
0001
0001
0001
0001
,
1000
1000
1000
1000
,
0010
0010
0100
0100
,
0001
0000
1000
0000
0001
1000
0001
0000
,
1000
0000
0000
0000
0010
0000
0000
1000
0000
0000
0010
0000
0000
0000
0000
0000
,
0100
0000
0000
0000
0001
0000
0000
0100
0000
0000
0001
0000
0000
0000
0000
0000
,
1000
0000
0000
0000
0100
0000
0000
1000
0000
0000
0100
0000
0000
0000
0000
0000
,
0010
0000
0000
0000
0001
0000
0000
0010
0000
0000
0001
0000
0000
0000
0000
0000
,
1000
0000
0001
0000
1000
0000
0001
1000
,
0001
0000
0000
0000
1000
0000
0000
0001
0000
0000
1000
0000
0000
0000
0000
0000
,
0010
0000
0000
0000
0100
0000
0000
0010
0000
0000
0100
0000
0000
0010
0000
0000
,
0100
0100
0100
0000
,
0001
0000
0000
1000
0000
0000
0001
0000
0000
1000
0000
0000
0001
0000
1000
0000
,
0000
0000
0000
0000
,
0010
0000
0000
1000
0000
0000
0010
0000
0000
1000
0000
0000
0010
0000
1000
0000
,
0000
0000
0000
0000
,
0001
0000
0000
0100
0000
0000
0001
0000
0000
0100
0000
0000
0001
0000
0000
0000
,
1000
0000
0000
0100
0000
0000
1000
0000
0000
0100
0000
0000
1000
0000
0000
0000
,
0010
0010
0100
0100
,
0220
0000
0000
0330
,
1001
0000
0000
0100
0000
0000
1001
0000
,
0000
0010
0000
0000
1001
0000
0000
0000
,
0110
0000
0000
0001
0000
0000
0110
0000
,
0000
1000
0000
0000
0110
0000
0000
0000
,
1010
0000
0000
0100
0000
0000
0011
0000
,
0000
0100
0000
0000
0110
0000
0000
0000
,
2002
3003
0000
0220
,
0330
0000
1001
0000
,
1100
0000
0000
0001
0000
0000
0101
0000
,
0000
1000
0000
0000
0110
0000
0000
0000
,
1010
0000
0000
0001
0000
0000
0011
0000
,
0000
0100
0000
0000
0110
0000
0000
0000
,
1100
0000
0000
0001
0000
0000
0101
0000
,
0000
1000
0000
0000
0110
0000
0000
0000
,
2002
0000
0000
0000
,
0000
0000
0000
3003
,
0001
0100
0010
1000
,
0100
0010
0001
1001
,
1000
0010
1000
0100
,
0010
0000
0001
0000
0100
0010
0100
0000
,
0001
1000
0100
1000
,
0001
0000
0010
0000
0001
0000
1000
0010
,
2000
3001
0002
1003
,
0100
0000
0000
0100
0000
0000
0100
0000
0000
0100
0000
0000
0100
0000
0000
0000
,
1000
1000
0010
0100
,
0001
0010
0100
1000
,
0001
1000
0001
0001
,
0100
0100
1000
0100
,
0010
1000
0100
0010
,
0001
1000
0010
0100
,
0001
0100
0001
0000
1000
0000
0010
0000
,
1000
0000
0000
0001
0000
0000
1000
0000
0000
0001
0000
0000
1000
0000
0000
0000
,
2002
0000
0000
0000
0000
3003
0000
0000
,
0220
0000
0000
0330
0000
0000
0001
0000
,
0100
0000
0001
0000
0100
0001
0000
0000
,
1000
0000
0010
0000
1000
0010
0000
0000
,
2002
0000
0000
0000
0000
3003
0000
0000
,
0220
0000
0000
0330
0000
0000
1000
0000
,
0100
0010
0001
0200
,
0000
0010
0310
0000
,
2002
0000
0000
0000
0000
3003
0000
0000
,
0220
0000
0000
0330
0000
0000
0001
0000
,
1000
0000
0100
0000
1000
0100
0000
0000
,
0010
0000
0001
0000
0010
0001
0000
0000
,
2002
0000
0000
0000
0000
0000
0000
3003
,
0000
0001
0100
0010
,
2002
0000
0000
0000
0000
3003
0000
0000
,
1000
0100
0010
0001
,
0100
0001
0100
0000
0010
0000
0010
0000
,
1000
0100
1000
0000
0001
0000
0001
0000
,
2002
0000
0000
0000
,
0000
0000
0000
0000
,
3003
0000
0000
0000
;

//---------------dance-single - forcednature----------------
#NOTES:
     dance-single:
     forcednature:
     Medium:
     13:
     :
0000
0000
0000
0000
,
0000
0000
0000
0000
,
0000
0000
0000
0000
,
0000
0000
0000
0000
,
0000
0000
0000
0000
,
0001
1000
0001
0000
0110
0000
1000
0010
,
0000
0100
0001
0000
0110
0000
0010
0000
,
1000
0100
0000
0010
0100
0000
1000
0001
,
0000
0100
0001
0000
0110
0000
1000
0000
,
0001
0100
0001
1000
0010
1000
0001
0010
,
0001
1000
0100
1000
0010
0000
0010
0000
,
1000
0001
1000
0010
0100
0010
1000
0001
,
1000
0100
0010
0100
1000
0000
1000
0000
,
1001
0001
0100
0010
,
1000
0000
0001
0000
0010
0100
0010
0100
,
0010
0000
0001
0000
0100
0000
0010
0000
1000
0000
0100
0000
,
1001
0000
0000
0110
,
0101
0001
1100
1000
,
0010
0100
0001
1000
0010
0000
1001
0000
,
1000
0100
1100
0000
0010
0000
0001
0000
,
0100
0000
0010
0000
1000
0001
2000
0000
,
3001
0100
0010
1000
,
0100
0000
0010
0000
0001
1000
1001
0000
,
0001
0100
0101
0000
1000
0000
0010
0000
,
1000
0000
0100
0000
0010
0001
0200
0000
,
0310
2000
3200
0302
,
0203
0000
0320
0000
0031
1000
1001
0000
,
0001
0100
0000
0000
0110
0000
0000
0000
0010
0000
0000
0000
1000
0000
0000
0000
,
0100
0000
0010
0000
0001
1000
0001
0000
,
1000
0010
1010
0000
0001
0000
1000
0000
,
0010
0000
0100
0000
0001
1000
0100
0000
,
0110
0110
1001
1001
,
1100
0001
0101
1000
,
0110
0110
1001
1001
,
0001
1000
0001
0100
0010
0000
1001
0000
,
0001
0000
0000
0000
0100
0000
0000
1000
0000
0000
0100
0000
0000
0000
0001
0000
,
0010
0000
0000
0000
0100
0000
0000
1000
0000
0000
0010
0000
0110
0000
0000
0000
,
1000
0000
0000
0000
0001
0000
0000
0010
0000
0000
0001
0000
0000
0000
0100
0000
,
1000
0000
0000
0000
0100
0000
0000
0001
0000
0000
0010
0000
0200
0000
0000
0000
,
1300
0000
0010
0000
1000
0000
0001
0100
,
0001
0000
0000
0000
0010
0000
0000
1000
0000
0000
0010
0000
0100
0000
0010
0000
,
0001
0000
0000
0000
0100
0000
0000
0010
0000
0000
1000
0000
0000
0100
0000
0000
,
0010
0100
0000
0000
0010
0100
0000
0000
0020
0000
0030
0000
1001
0000
0000
0000
,
0101
0000
0000
0001
0000
0000
1000
0000
0000
0010
0000
0000
1000
0000
0001
0000
,
0020
0000
0000
0000
0000
0000
0130
1000
,
1010
0000
0000
0010
0000
0000
0001
0000
0000
0010
0000
0000
1000
0000
0100
0000
,
0020
0000
0000
0000
0000
0000
0031
1000
,
1100
0000
0000
1000
0000
0000
0001
0000
0000
0010
0000
0000
0001
0000
0100
0000
,
0101
0000
0000
0001
0000
0000
1000
0000
0000
0010
0000
0000
1000
0000
0100
0000
,
0010
0001
0000
0000
1000
0010
0000
0000
1000
0000
0001
0000
0100
0000
0010
0000
,
0200
0010
0010
0300
,
0101
0000
0001
1000
0000
1000
0100
0000
,
0100
0010
0000
0000
0001
1001
0000
0000
,
0011
0000
0010
0100
0000
0100
1000
0000
,
1000
0010
0000
0000
0100
0110
0000
0001
,
0100
0000
1000
0100
0000
0001
0010
0000
,
1000
0010
0000
0100
1000
1100
0000
0000
,
1001
0000
0001
0100
0010
1000
1100
0000
,
1000
0100
0010
0001
0100
0101
0000
0000
,
0001
1000
0100
1000
0001
0100
0010
0000
,
1000
0100
0010
0001
0100
0100
0000
0000
,
0010
1000
0001
0010
0100
1000
0010
0000
,
0100
0001
1000
0100
0010
0010
0000
0000
,
0001
0100
0010
1000
0100
0010
0001
1000
,
0010
0100
0001
0010
0100
0100
0000
0000
,
0020
0100
0100
0100
,
0200
0000
0330
0000
,
1001
0000
0000
0001
0000
0000
1000
0000
0000
0100
0000
0000
0001
0000
0100
0000
,
0010
0000
0000
1000
0000
0000
0010
0000
0000
0001
0000
0000
1000
0000
0010
0000
,
0110
0000
0000
0100
0000
0000
1000
0000
0000
0100
0000
0000
0001
0000
0010
0000
,
0100
0000
0000
1000
0000
0000
0001
0000
0100
0001
0100
0000
0001
0000
0000
0000
,
1100
0000
0000
1000
0000
0000
0010
0000
0000
0001
0000
0000
0010
0000
0100
0000
,
0001
0000
0000
0010
0000
0000
0100
0000
0000
1000
0000
0000
0010
0000
0000
0000
,
1000
0100
1000
0000
0001
0000
0000
0000
0001
0100
0001
0000
1000
0000
0000
0000
,
1000
0000
0000
0100
0000
0000
0001
0000
0000
0100
0000
0000
1000
0000
0001
0000
,
0100
0001
0000
1000
0010
0000
1000
0001
,
0010
0000
0000
0100
0000
0000
1000
0000
0001
0000
0000
0000
0100
0000
0010
0000
,
1000
0000
0000
1000
0000
0000
0100
0000
0000
0100
0000
0000
0001
0000
0001
0000
,
1000
0000
0000
1000
0000
0000
0010
0000
0000
0010
0000
0000
0001
0000
0001
0000
,
0100
0000
0010
1000
0001
0000
0100
0010
,
1000
0000
0000
0100
0000
0000
1000
0000
0000
0010
0000
0000
0001
0000
0010
0000
,
0100
0001
0010
0100
1000
0010
0100
0000
,
0010
0000
0000
0001
0000
0000
0010
0000
0000
1000
0000
0000
0010
0000
0000
0000
,
0110
0110
0110
0110
,
1001
0000
1001
0000
1001
0000
1000
0100
,
1000
0010
0100
0001
0010
0001
0000
0100
,
0001
0100
0010
1000
0010
0100
0000
0000
,
1001
1001
1001
1001
,
0110
0000
0110
0000
0110
0000
0001
0010
,
0001
1000
0010
1000
0001
0100
0001
1000
,
0100
0010
0001
0100
0010
0000
0000
0000
,
1010
1001
1010
1001
,
0011
0000
1001
0000
0011
0000
1000
0001
,
0100
0001
1000
0100
1000
0010
0000
0100
,
0001
0010
0100
1000
0010
0100
0000
0000
,
0001
0100
0001
0100
0001
0100
0001
0100
,
0001
0001
0010
0100
,
1000
0100
1000
0100
1000
0100
1000
0100
,
1000
0010
0100
0001
,
0010
0100
1000
0010
0001
0010
1000
0100
,
0001
0100
0010
0001
1000
0010
0100
0000
,
2002
0000
0000
0000
,
0000
0000
0000
0000
,
3003
0000
0000
0000
;

//---------------dance-single - forcednature----------------
#NOTES:
     dance-single:
     forcednature:
     Hard:
     16:
     :
0000
0000
0000
0000
,
0000
0000
0000
0000
,
0000
0000
0000
0000
,
0000
0000
0000
0000
,
0000
0000
0000
0000
,
1000
0001
1000
0001
1000
0000
0000
0000
0010
0000
0000
0000
0100
0000
0001
0000
,
0000
0001
0010
0000
0110
0000
0000
0000
,
0001
0000
1000
0001
1000
0000
0010
0000
0100
0001
0100
0000
0010
0000
0100
0000
,
0000
0000
1000
0001
1000
0000
0000
0000
1001
0000
0000
0000
0002
0000
0000
0000
,
1003
0100
1000
0000
0100
0000
0010
0001
0010
0000
0001
0000
1000
0010
1000
0000
,
0010
0000
0100
0001
0100
0000
0001
0000
0100
0000
0000
0000
0100
0000
0000
0000
,
0001
1000
0001
0000
1000
0000
0100
0010
0100
0000
0010
0000
0001
0100
0001
0000
,
0100
0000
0001
1000
0001
0000
1000
0000
0100
0000
0000
0000
0100
0000
0000
0000
,
2001
0001
0001
0001
,
0001
0000
0000
0000
3001
0000
1000
0000
0001
0000
1000
0000
0001
1000
0001
1000
,
0001
0000
0100
0000
0010
0000
1000
0000
0100
0000
0010
0001
,
0020
0000
0000
0000
0130
0000
1000
0000
0001
1000
0001
1000
0200
0000
0300
0000
,
1001
0000
0001
0100
0101
0000
1000
0100
,
1000
0000
0001
0100
0001
0000
1000
0000
0010
0100
0010
0000
0000
0000
0000
0000
,
0100
0000
0001
0100
0000
0000
0010
0000
1000
0010
0000
0000
1000
0000
0001
0000
,
0010
0000
0001
1000
0000
0000
0100
0000
0010
0100
0000
0000
2000
0000
0000
0000
,
3001
0000
1000
0010
0000
0000
1000
0000
0001
0010
0000
0000
0100
0000
0001
0000
,
0100
0000
1000
0100
0000
0000
0010
0000
0001
1000
0001
0000
0100
0000
0000
0000
,
0001
0000
0100
0010
0000
0000
1000
0000
0100
1000
0000
0000
0010
0000
0100
0000
,
0001
0000
1000
0100
0000
0000
0001
0000
0100
0010
0000
0000
0002
0000
1003
0001
,
1000
1100
1001
0011
,
0001
0000
0100
0010
0100
0000
0010
0000
1000
0001
1000
0001
0200
0000
0000
0000
,
0301
1000
0001
0010
0100
1000
0010
0100
,
1000
0100
0001
1000
0100
0010
0001
0010
,
0110
0100
1000
0010
0100
0010
0001
1000
,
0100
0010
0100
0001
0010
0100
1000
0000
,
0001
0100
1000
0000
1100
0000
0101
0000
,
0110
0000
0000
0000
0110
0000
0000
0000
0110
0000
0000
0000
0001
0000
1000
0010
,
1000
0000
1010
0000
0101
0000
0101
0001
,
0100
0000
0010
1000
0010
0000
0100
0000
0001
1000
0001
1000
0200
0000
0300
0000
,
0110
0000
0000
0000
1000
0000
0000
0001
0000
0000
1001
0000
0000
0000
0001
0000
,
0101
0000
0000
0000
1000
0000
0000
0010
0000
0000
1010
0000
1000
0000
0000
0000
,
0011
0000
0000
0000
0100
0000
0000
1000
0000
0000
1001
0000
0000
0000
1000
0000
,
1010
0000
0000
0000
0001
0000
0000
0100
0000
0000
0010
0000
1000
0100
1000
0100
,
0010
0000
0110
0000
0011
0000
0001
0100
,
0101
0000
0000
0000
1000
0000
0000
0010
0000
0000
0110
0000
0100
0000
0001
0100
,
0001
0000
0000
0000
0010
0000
0000
0100
0000
0000
0110
0000
0000
1001
0000
0000
,
0001
0000
0010
0000
0100
1000
0100
1000
0200
0000
0300
0000
1001
0000
0000
0000
,
0001
0000
0000
0101
0000
0000
1000
0000
0000
1100
0000
0000
0010
0000
0110
0000
,
0000
0000
0000
0000
0000
0000
0001
0100
,
0001
0000
0000
0011
0000
0000
1000
0000
0000
1100
0000
0000
0001
0000
1001
0000
,
0000
0000
0000
0000
0000
0000
1000
0100
,
1000
0000
0000
1010
0000
0000
0001
0000
0000
0101
0000
0000
1000
0000
1100
0000
,
0100
0000
0000
0110
0000
0000
0001
0000
0000
1001
0000
0000
1000
0000
1010
0000
,
0020
0000
0030
0000
0200
0000
0300
0000
0001
0010
0100
1000
0100
0010
0001
0000
,
0200
0020
0000
0330
,
0001
0100
1000
0100
0010
1000
0001
0010
,
0100
1000
0010
1000
1100
2200
3300
0000
,
1000
0001
0010
0100
0001
0100
1000
0010
,
0100
0000
0001
0000
1000
0000
0001
0000
0101
0000
0202
0000
0303
0000
0001
1000
,
0001
0000
0000
0010
0100
0000
1000
0000
0010
0100
0010
0000
1000
0000
0000
0001
,
0010
0000
0100
0000
1000
0001
1000
0000
1010
0000
2020
0000
3030
0000
0000
0000
,
0202
0000
0000
0000
0000
0000
0000
0000
0000
0000
0000
0000
0000
0000
0000
0000
0000
0000
0000
0303
0000
0000
0000
0000
0000
0000
0000
0000
0000
0000
0000
0000
0000
0000
0000
0000
0000
0000
0000
0000
0000
0000
0000
0000
0000
0000
0000
0000
0001
0000
0000
0000
0000
0000
0000
0000
0000
0000
0000
0000
0000
0000
0000
0000
0000
0000
0000
0000
0000
0000
0000
0000
0010
0000
0000
0000
0000
0000
0000
0000
0000
0000
0000
0000
0000
0000
0000
0000
0000
0000
0000
0000
0000
0000
0000
0000
0100
0000
0000
0000
0000
0000
0000
0000
0000
0000
0000
0000
0000
0000
0000
0000
0000
0000
0000
0000
0000
0000
0000
0000
1000
0000
0000
0000
0000
0000
0000
0000
0000
0000
0000
0000
0000
0000
0000
0000
0000
0000
0000
0000
0000
0000
0000
0000
2200
0000
0000
0000
0000
0000
0000
0000
0000
0000
0000
0000
0000
0000
0000
0000
0000
0000
0000
3300
0000
0000
0000
0000
0000
0000
0000
0000
0000
0000
0000
0000
0000
0000
0000
0000
0000
0000
0000
0000
0000
0000
0000
0000
0000
0000
0000
0000
,
1000
0001
0100
0010
1001
1001
2000
0000
,
3001
0000
0100
0000
0010
0000
1000
0000
0001
0000
0010
0000
0100
0000
1000
0001
,
1000
0000
0010
0000
0100
0000
0001
0000
0010
0000
0010
0000
0100
1000
0100
1000
,
0100
0000
0000
0000
0010
0001
0010
0000
0000
0000
0001
1000
0001
0000
0000
0100
,
0000
0001
0100
0000
0010
0000
1000
0000
0001
1000
0001
0000
0010
0000
0100
0000
,
1000
0010
0001
0010
0100
1000
0100
0001
,
0010
0100
0001
0100
0010
0010
0100
1000
,
0002
0100
0100
0100
,
0020
0000
0000
0000
0033
0001
1001
0000
,
0101
0000
0000
0001
1000
0000
0100
0000
0010
0001
0000
0000
0010
0000
0100
0000
,
1000
0000
0000
0001
0100
0000
0010
0000
1000
0001
0000
0000
0020
0000
0031
0000
,
0011
0000
0000
0001
1000
0000
0010
0000
0100
0001
0000
0000
0010
0000
1000
0000
,
0010
0000
0000
0100
1000
0000
0001
0000
0010
0001
0010
0000
0100
0000
1000
0010
,
2000
0000
3000
0002
0000
0003
0200
0000
0300
2000
0000
3000
0200
0000
0320
0000
,
2030
0000
3000
0200
0000
0300
0002
0000
0003
0200
0000
0300
2000
0000
3002
0000
,
1003
0100
1000
0100
0010
0000
0000
0000
0001
0100
0001
0100
0010
0000
0000
0000
,
1010
0000
0000
1100
0000
0000
0011
0000
0000
0101
0000
0000
1001
0000
1000
0000
,
0010
0100
0000
0001
1000
0000
0100
0010
,
0001
0000
0000
0010
0100
0000
1000
0000
0001
0000
0000
0000
0100
0001
0100
0000
,
0010
0000
0000
1000
0001
0000
0010
0000
0000
0001
1000
0000
0010
0000
0100
0000
,
0001
0000
0000
0010
0100
0000
1000
0000
0010
0100
0010
0100
0010
0000
1000
0001
,
1000
0000
0000
0001
0000
0000
0010
0000
0100
1000
0000
0000
0001
0000
0010
0000
,
1000
0000
0000
0001
0000
0000
1000
0000
0000
0001
0000
0000
0100
0000
1000
0000
,
0001
0000
0100
0000
0010
0000
1000
0000
0010
1000
0010
1000
0001
0100
0001
0000
,
0011
0000
0000
1100
0000
0000
1010
0000
0000
0101
0000
0000
1001
0000
0000
0000
,
1000
0100
0010
1000
0010
0001
0100
0010
,
0100
1000
0100
0001
0100
0010
1000
0001
,
1000
0010
0100
0001
0010
0011
0000
0100
,
1000
0001
0100
0010
1000
1001
0000
0000
,
0001
1000
0100
1000
0010
0001
0010
1000
,
0100
0001
0100
0010
0001
1000
0010
1000
,
0001
0010
0100
1000
0010
0100
0001
0020
,
0000
0000
1000
0000
0031
0000
0000
0010
,
0100
1000
0010
0100
0001
0100
1000
0100
,
0010
1000
0001
0100
0010
0001
0010
1000
,
0100
0001
0100
0010
0001
1001
0000
1000
,
0010
0000
0100
0000
1000
0000
0100
0000
0001
0000
0101
0000
0000
0000
1000
0001
,
1000
1000
1000
1000
1000
1000
1000
1000
,
1000
0000
0000
0000
1000
0000
0000
0000
0100
0000
0000
0000
0010
0000
0001
0010
,
0001
0001
0001
0001
0001
0001
0001
0001
,
0001
0001
1000
0010
,
1000
0010
1000
0000
0001
0000
0100
0000
0001
0010
0001
0000
1000
0000
0100
0000
,
1000
0001
1000
0000
0010
0000
0100
0000
0001
1000
0001
0000
0020
0000
0000
0000
,
0200
0000
0000
0000
,
0000
0000
0000
0000
,
0330
0000
0000
0000
;

//---------------dance-single - t7r----------------
#NOTES:
     dance-single:
     t7r:
     Challenge:
     19:
     :
0000
0000
0000
0000
,
0000
0000
0000
0000
,
0000
0000
0000
0000
,
0000
0000
0000
0000
,
0000
0000
0000
0000
,
0000
0000
0000
0000
,
0000
0000
0000
0000
,
0000
0000
0000
0000
,
0000
0000
0000
0000
,
0001
0100
0001
0010
0001
0000
1000
0100
1000
0010
1000
0000
0001
0010
0001
0100
,
0001
0000
1000
0100
1000
0010
1000
0000
0010
1000
0001
0100
0020
0000
0000
0000
,
1030
0010
1000
0100
1000
0000
0001
0010
0001
0100
0001
0000
1000
0100
1000
0010
,
1000
0000
0001
0100
0001
0010
0001
0000
0100
0001
1000
0010
0200
0000
0000
0000
,
0302
0000
0013
0100
2000
0000
3100
0010
0002
0000
0103
0010
2000
0000
3010
1000
,
0002
0000
0013
0001
0200
0000
0310
1000
0200
0000
0310
0001
2000
0000
3001
0100
,
0010
0000
1100
0000
0101
0000
0011
0000
1001
0000
0110
0010
,
0200
0000
0000
0000
0301
0000
0010
0000
0100
1000
0001
1000
0020
0000
0030
0000
,
1001
0000
0010
0100
1000
0000
1000
0000
1001
0000
0010
0100
0001
0000
0001
0000
,
1001
0000
1000
0100
0010
0000
0001
0100
0010
0100
0001
1000
0002
0000
0000
0000
,
1003
0000
1100
0000
1100
0000
1000
0010
0100
0000
0001
0010
0100
0000
1000
0010
,
1000
0000
0001
0010
0001
0000
1000
0100
0010
0001
1000
0010
1000
0000
0001
0000
,
0010
0000
0001
0000
0101
0000
0001
0010
0100
0000
1000
0010
0100
0000
0010
1000
,
0001
0000
0100
0001
1000
0000
0010
1000
0100
1000
0010
1000
0002
0000
0000
0000
,
1003
0000
1010
0000
1010
0000
1000
0100
0010
0000
0001
0100
0010
0000
1000
0010
,
0100
0000
0010
1000
0001
0000
0010
0001
0100
0001
0010
0001
2000
0000
3000
0000
,
1001
0000
0001
1000
0100
0000
1100
0000
1100
0000
1000
0001
0010
0000
0001
0100
,
0010
0000
1000
0100
0010
0000
0001
0100
0010
1000
0001
0010
0100
1000
0001
0010
,
0001
0000
0100
0000
0001
0000
1000
0000
0000
0001
0000
0000
1000
0000
0000
0000
0000
0000
0001
0000
0000
0000
0000
0000
0001
0000
0000
0000
0000
0000
0001
0000
0000
0000
0000
0000
0100
0000
0000
0000
0000
0000
0100
0000
0000
0000
0000
0000
,
0100
0010
0010
0010
1000
0100
0010
0110
,
1000
1001
1001
0010
0010
0010
0100
0100
,
0100
0001
0001
0001
1000
0110
0202
0303
,
0110
0010
1010
1000
1100
0100
0101
0001
,
0011
0000
0010
0000
1010
0000
1000
0000
1001
0000
1000
0000
1001
0000
0001
0100
,
0010
1000
1010
1000
1100
0100
0110
0110
,
0011
0000
0001
1000
0100
0000
1000
0001
0010
0001
1000
0100
0020
0000
0000
0000
,
0031
0100
0001
0010
0001
0000
1000
0100
0000
0010
0100
0000
1000
0010
0100
0001
,
1000
0100
1000
0010
1000
0000
0001
0010
0000
0100
0010
0000
2002
0000
3003
0000
,
0010
1000
0010
0100
0010
0000
0100
0001
0000
0100
0010
0000
1000
0100
0010
0001
,
0100
0001
0100
0010
0100
0000
0001
0010
0000
0100
1000
0000
0001
1000
0001
1000
,
0001
0010
0100
0010
0001
0000
1000
0100
0000
0001
0100
0000
1000
0010
0100
0001
,
1000
0100
0010
0100
1000
0000
0001
0010
0000
1000
0010
0000
1001
0000
0001
0000
,
1000
0100
0010
0001
1000
0000
0001
0100
0000
0010
1000
0000
0001
0010
0001
1000
,
0001
0000
0110
0000
0001
0010
1000
0010
0001
0000
0100
0000
2020
0000
3030
0000
,
1100
0000
0000
0110
0000
0000
0011
0000
0000
1001
0000
0000
0110
0000
1001
0000
,
0001
0000
0100
0000
1000
0000
0100
0010
1000
0001
1000
0000
0001
0000
0010
0001
,
1000
0000
0000
0101
0000
0000
1010
0000
0000
0110
0000
0000
1001
0000
0110
0000
,
1000
0000
0100
0000
0001
0000
0100
0010
0001
1000
0001
0000
1000
0000
0001
1000
,
0010
0000
0000
1100
0000
0000
0101
0000
0000
1010
0000
0000
0011
0000
1001
0000
,
1100
0000
0000
0011
0000
0000
1010
0000
0000
0101
0000
0000
1100
0000
1001
0000
,
0010
1000
0100
0000
0010
0001
0100
0000
0010
1000
0010
1000
0001
0100
0001
0010
,
0001
0000
1000
0000
0100
0000
1000
0001
0010
0001
1000
0000
0001
1000
0001
1000
,
0001
0000
0100
0001
1000
0000
0011
0000
0100
1000
0001
0000
1010
0000
0100
0001
,
1000
0000
0011
0000
0100
1000
0001
0000
1010
0000
1001
0000
0220
0000
0330
0000
,
1000
0000
0100
1000
0001
0000
1010
0000
0100
0001
1000
0000
0011
0000
0100
0010
,
1000
0000
0101
0000
0010
0100
1000
0000
0011
0000
1100
0000
1001
0000
0001
1000
,
0010
0000
1000
0100
0010
0100
1000
0000
0001
0100
0010
0100
0001
0000
1000
0010
,
0100
0010
1000
0000
0001
0010
0100
0010
0001
0000
1001
0000
0110
0000
0001
0000
,
1100
0000
0001
0010
0100
0000
0010
0001
1000
0001
0100
0000
0001
1000
0010
0000
,
1000
0100
0010
0000
0100
1000
0001
0010
0001
1000
0001
0000
0010
0001
0100
0001
,
0010
0000
0001
0000
0100
0000
1000
0000
0100
0000
0001
0000
0010
0000
1000
0010
,
0001
0000
1000
0000
0100
0000
0001
0000
0100
0010
0001
0010
1000
0010
0100
1000
,
0001
0000
0100
0001
1000
0000
0110
0000
0001
0010
0100
0000
0011
0000
1000
0100
,
0010
0000
1100
0000
0001
0100
0010
0000
1001
0000
0110
0000
0202
0000
0303
0000
,
1000
0100
1000
0100
0010
0100
0010
0100
0010
0001
0010
0001
1000
0010
1000
0010
,
0100
0010
0100
0010
1000
0100
0010
0001
1000
0100
0010
0001
1000
0010
0100
0001
,
1000
0000
0001
0000
0100
0001
0010
0001
0100
0000
0001
1000
0100
0000
1000
0001
,
0010
0001
0100
1000
0100
0000
0001
0000
1000
0000
0100
0000
0022
0000
0033
0000
,
1001
0000
0001
0100
0000
0100
0010
0000
0001
0100
0000
0100
0010
0000
1000
0000
,
0001
0000
1000
0100
0000
0100
0010
0000
1000
0100
0000
0100
0010
0000
0001
0000
,
1000
0000
0010
0100
0000
0100
0001
0000
0010
0100
0000
0100
0001
0000
1000
0000
,
0001
0000
0010
0100
0000
0100
1000
0000
0010
0100
0010
0000
1001
0000
0010
0001
,
1000
0000
0100
0001
0000
0100
0010
0000
0100
1000
0000
0010
0100
0000
0001
0000
,
1000
0000
0010
0001
0000
0010
1000
0000
0010
0100
0000
0010
1000
0000
0001
0000
,
0100
0010
1000
0100
0002
0000
0000
0000
0013
0100
0001
0010
2000
0000
0000
0000
,
3001
0000
0000
0011
0000
0000
1001
0000
0000
1100
0000
0000
1000
0100
0010
0001
,
1000
0000
0001
0100
0000
0100
1000
0000
0001
0010
0000
0010
1000
0000
0001
0000
,
1000
0000
0100
0001
0000
0100
0010
0000
0001
0010
0100
1000
0001
0000
1000
0000
,
0010
0000
1000
0100
0000
0100
0001
0000
1000
0010
0000
0010
0001
0000
1000
0000
,
0010
0000
0001
0100
0000
0100
1000
0000
0001
0010
0100
1000
0001
0000
1000
0001
,
0100
0000
0010
0001
0000
0001
0100
0000
0010
0000
0100
1000
0000
1000
0010
0000
,
0001
0000
1000
0010
0000
0001
0010
0000
0100
0010
0000
1000
0100
0000
1000
0001
,
1000
0000
1100
0000
0110
0000
0110
0000
1000
0100
1000
0100
0001
0100
0001
0100
,
1000
0000
0000
1100
0000
0000
0011
0000
0000
1001
0000
0000
0110
0000
0010
0000
,
1000
0101
1000
0101
1000
0101
1000
0101
,
1000
0011
1000
0011
1000
0011
1000
0011
,
1000
0100
0001
0100
0010
0001
0010
1000
,
0010
0100
1000
0010
0100
0001
1010
0010
,
0001
1100
0001
1100
0001
1100
0001
1100
,
0001
1010
0001
1010
0001
1010
0001
1010
,
0001
0100
0001
0100
0001
0100
0001
0100
0010
1000
0010
1000
0010
1000
0010
1000
,
0001
0010
0001
0010
0100
1000
0100
1000
0010
0000
0100
0000
2002
0000
3003
0000
,
1000
0000
0100
1000
0010
0000
1100
0000
0010
0000
0100
0001
0010
0000
0101
0000
,
1000
0000
0010
1000
0100
0000
1010
0000
0100
0000
0010
0001
0100
0000
0011
0000
,
1000
0010
0001
0010
0100
0001
0100
1000
,
0100
0000
0010
0000
1000
0000
0100
0010
0001
0000
0100
0000
1001
0000
0001
1000
,
0001
0100
0010
0110
1010
0110
0101
1010
,
2001
0000
0000
0000
0010
0000
0000
0000
0100
0000
0000
0000
3001
0000
1000
0001
,
1000
0100
1000
1100
0110
0011
1001
0110
,
0001
0010
0001
0010
0100
1000
0100
1000
0001
0100
0010
1000
0001
0000
1000
0001
,
1000
0100
1000
0100
0001
0100
0001
0100
1000
0010
1000
0010
0001
0010
0001
0010
,
1000
0100
0001
0100
1000
0010
0001
0010
1000
0100
0001
1000
0010
0001
1000
0001
,
2000
0000
0000
0000
,
0000
0000
0000
0000
,
3000
0000
0000
0000
;

//---------------dance-double - forcednature----------------
#NOTES:
     dance-double:
     forcednature:
     Easy:
     9:
     :
00000000
00000000
00000000
00000000
,
00000000
00000000
00000000
00000000
,
00000000
00000000
00000000
00000000
,
00000000
00000000
00000000
00000000
,
00000000
00000000
00000000
00000000
,
00001000
00000000
00010000
00000000
00010000
00000000
00000000
01000000
,
00000000
10000000
00010000
00000000
,
01000000
00000000
01000000
00000000
00001000
00000000
00000000
00010000
,
00000000
00000100
00001001
00000000
,
00000001
00000000
00000100
00000100
00000000
00000000
00001000
00000000
,
00000100
00000100
00000000
00000000
00000010
00000000
00010000
00000000
,
00001000
00000000
00100000
00100000
00000000
00000000
01000000
00000000
,
00100000
00100000
00000000
00000000
00010000
00000000
10000000
00000000
,
00100000
00100000
01000000
01000000
,
00001000
00001000
00010000
00010000
,
00000100
00000000
00001000
00000000
00000100
00000000
00000010
00000000
00000001
00000000
00000010
00000000
,
00000200
00000000
00000000
00000310
,
00001001
00000000
00000110
00000000
,
00000100
00000000
00010000
00001000
00010000
00000000
00000000
00000000
,
00100000
10000000
01000000
00100000
,
00010000
00000000
01000000
00000000
00100000
10000000
00000000
00000000
,
00010000
00100000
00001000
00010000
,
00000010
00000000
00001000
00000000
00000001
00000100
00000000
00000000
,
00000010
00001000
00000100
00000010
,
00000001
00000000
00001000
00000000
00000010
00010000
00000000
00000000
,
00001000
00010000
00010000
00100000
,
02000000
00010000
10000000
03000000
,
00000000
10010000
10000000
00010000
,
01000000
00000000
00001000
00000000
00010000
00001000
00010000
00000000
,
00000100
00001000
00000001
00000010
,
00000001
00000000
00001000
00000000
00000010
00000100
00000000
00000000
,
00000001
00001000
00000001
00001000
,
00000010
00000100
00000010
00000100
,
00001000
00010000
01000000
00100000
,
00001000
00001000
00010000
00011000
,
00100000
00000000
00000000
00000000
00010000
00000000
00000000
10000000
00000000
00000000
01000000
00000000
00000000
00000000
00000000
00000000
,
00100000
00000000
00000000
00000000
00001000
00000000
00000000
00010000
00000000
00000000
00000010
00000000
00000000
00000000
00000000
00000000
,
00001000
00000000
00000000
00000000
00000001
00000000
00000000
00000100
00000000
00000000
00000010
00000000
00000000
00000000
00000000
00000000
,
00001000
00000000
00000000
00000000
00000100
00000000
00000000
00010000
00000000
00000000
00001000
00000000
00000000
00000000
00000000
00000000
,
00100000
00000000
00010000
00000000
01000000
00000000
00001000
00010000
,
00001000
00000000
00000000
00000000
00010000
00000000
00000000
00000100
00000000
00000000
00001000
00000000
00000000
00000000
00000000
00000000
,
00000010
00000000
00000000
00000000
00000100
00000000
00000000
00000001
00000000
00000000
00000010
00000000
00000000
00000100
00000000
00000000
,
00001000
00000000
00000001
00001000
00000001
00000000
00000100
00000000
,
00000010
00000000
00000000
00001000
00000000
00000000
00000010
00000000
00000000
00001000
00000000
00000000
00000010
00000000
00001000
00000000
,
00000000
00000000
00000000
00000100
,
00010000
00000000
00000000
00001000
00000000
00000000
00010000
00000000
00000000
00001000
00000000
00000000
00010000
00000000
00001000
00000000
,
00000000
00000000
00000000
00100000
,
00010000
00000000
00000000
10000000
00000000
00000000
00010000
00000000
00000000
10000000
00000000
00000000
00010000
00000000
00000000
00000000
,
01000000
00000000
00000000
00001000
00000000
00000000
01000000
00000000
00000000
00001000
00000000
00000000
01000000
00000000
00000000
00000000
,
00001000
00000000
00000000
00010000
00000000
00000000
00001000
00000000
00000000
00010000
00000000
00000000
00001000
00000000
00000000
00000000
,
00000200
00000000
00000000
00000300
,
00000110
00000000
00000000
00000001
00000000
00000000
00000110
00000000
,
00000000
00001000
00000000
00000000
00010000
00010000
00000000
00000000
,
10010000
00000000
00000000
01000000
00000000
00000000
10010000
00000000
,
00000000
00100000
00000000
00000000
00010000
00010000
00000000
00000000
,
00000100
00000000
00010000
00001000
00000000
00000000
01000000
00000000
,
00001000
00010000
00000000
00000000
00000010
00000010
00000000
00000000
,
00001001
00000010
00000000
00000110
,
00001000
00000000
00011000
00000000
,
00110000
00000000
00000000
00100000
00000000
00000000
11000000
00000000
,
00000000
01000000
00000000
00000000
00010000
00100000
00000000
00000000
,
00011000
00000000
00000000
00000100
00000000
00000000
00011000
00000000
,
00000000
00000010
00000000
00000000
00001000
00000001
00000000
00000000
,
00000110
00000000
00000000
00001000
00000000
00000000
00000110
00000000
,
00000000
00010000
00000000
00000000
00001000
00100000
00000000
00000000
,
00020000
01000000
01000000
10000000
,
00200000
00000000
00330000
00000000
00000000
00010000
10000000
00000000
,
00100000
01000000
00001000
00010000
,
00000100
00010000
00001000
00100000
,
00001000
00010000
00000010
00001000
,
00000001
00000000
00000010
00000000
00000100
00001000
00000100
00000000
,
00001001
00000001
00000100
00000010
,
00010000
00000100
00010000
00001000
,
00100000
00010000
00100000
00000000
01000000
10000000
01000000
00000000
,
00100000
00000000
00000000
01000000
00000000
00000000
00100000
00000000
00000000
01000000
00000000
00000000
00100000
00000000
00000000
00000000
,
00001000
00000000
00001000
00000000
00010000
00000000
00010000
00000100
,
00010000
00000010
00001000
00000001
,
00000010
00000000
00000010
00000000
00000100
00000000
00000100
00001000
,
00000100
00000000
00010000
00000000
00001000
00010000
00001000
00000000
,
01010000
00000000
10000000
00000000
10000000
00000000
00010000
00100000
,
00010000
00000000
01000000
00000000
01000000
00000000
00001000
00010000
,
00001000
00010000
00001000
00000000
00000020
00000000
00000000
00000000
,
00000031
00000000
00000000
00001000
00000000
00000000
00000001
00000000
00000000
00001000
00000000
00000000
00000001
00000000
00000000
00000000
,
00000200
00001000
00000010
00000001
,
00000020
00000000
00000330
00000100
,
00000010
00000000
00010000
00000000
00001000
00010000
00000000
00000000
,
01000000
00000000
10000000
00000000
00010000
01000000
00000000
00000000
,
00002000
00010000
00100000
00010000
,
02000000
00000000
03003000
00001000
,
00010000
00000000
00000100
00000000
00001000
00000001
00001000
00000002
,
00000000
00000100
00000013
00000000
,
00002000
00000100
00000001
00000010
,
00000001
00000001
00000100
00003100
,
00001000
00000000
00000010
00000000
00010000
00001000
00000000
00000000
,
00100000
00000000
00010000
00000000
10000000
00100000
00000000
00000000
,
02000000
10000000
00100000
00010000
,
03001000
00000000
00000000
00000000
,
00000200
00000001
00000010
00001000
,
00010300
00000100
00010000
00001000
,
01000000
00010000
01000000
00000000
00001000
00100000
00001000
00000000
,
00010000
00001000
00010000
00000000
00000100
00001000
00000100
00000000
,
00002002
00000000
00000000
00000000
,
00000000
00000000
00000000
00000000
,
00003003
00000000
00000000
00000000
;

//---------------dance-double - forcednature----------------
#NOTES:
     dance-double:
     forcednature:
     Medium:
     14:
     :
00000000
00000000
00000000
00000000
,
00000000
00000000
00000000
00000000
,
00000000
00000000
00000000
00000000
,
00000000
00000000
00000000
00000000
,
00000000
00000000
00000000
00000000
,
00001000
00010000
00001000
00000000
00110000
00000000
10000000
00010000
,
00000000
01000000
00100000
00000000
10010000
00000000
00000000
00000000
,
10000000
01000000
00100000
00010000
01000000
00100000
10000000
00010000
,
00000000
00100000
00001000
00000000
00011000
00000000
00000000
00000000
,
00000100
00001000
00000100
00000010
00000001
00000010
00000100
00001000
,
00000100
00000010
00000001
00000010
00000100
00000000
00000100
00000000
,
00010000
00001000
01000000
00010000
01000000
00001000
00010000
00001000
,
01000000
00010000
01000000
00001000
00010000
00000000
00010000
00000000
,
00012000
00023000
00032000
00023000
,
00032000
00000000
00023000
00000000
00031000
00010000
00001000
00010000
,
00000100
00000000
00010000
00000000
00001000
00000000
01000000
00000000
00001000
00000000
00010000
00000000
,
00022000
00000000
00000000
00033000
,
00011000
00000000
00000110
00000000
,
00000001
00000100
00000001
00001000
00000100
00000010
00000000
00000000
,
00000100
00000100
00000100
00000000
00010000
00000000
00001000
00000000
,
01000000
00000000
00010000
00000000
10000000
00100000
02000000
00000000
,
03010000
00100000
00001000
00010000
,
00000100
00000000
00000000
00000000
00001000
00000000
00000000
00000000
00000001
00001000
00000001
00000000
00002000
00000000
00000000
00000000
,
00003100
00000100
00000100
00000000
00010000
00000000
00001000
00000000
,
01000000
00000000
00100000
00000000
10000000
00010000
02000000
03100000
,
10000000
02000000
03020000
00032000
,
00003200
00000000
00000302
00000000
00000013
00000100
00000110
00000000
,
00000001
00000100
00001000
00000000
00000100
00000000
00000010
00000000
,
00001000
00000000
00000100
00000000
00010000
00001000
01000000
00000000
,
00010000
10000000
00100000
00000000
10000000
00000000
00010000
00000000
,
00100000
00000000
01000000
00000000
10000000
00100000
00020000
00000000
,
00031000
01000000
00001000
00100000
,
00011000
00000000
00000100
00000000
00010000
00000000
00000010
00001000
,
00000010
00000110
00001001
00000110
,
00001000
00000100
00001000
00000100
00001000
00000010
00010000
00000000
,
00001000
00000000
00000000
00000000
01000000
00000000
00000000
00100000
00000000
00000000
00010000
00000000
00000000
00000000
00100000
00000000
,
10000000
00000000
00000000
00000000
01000000
00000000
00000000
00010000
00000000
00000000
00001000
00000000
00000010
00000000
00000000
00000000
,
00000001
00000000
00000000
00000000
00000100
00000000
00000000
00001000
00000000
00000000
00000100
00000000
00000000
00000000
00000010
00000000
,
00001000
00000000
00000000
00000000
00000100
00000000
00000000
00000010
00000000
00000000
00000001
00000000
00000100
00000000
00000010
00000000
,
00001000
00000000
00000100
00000000
00010000
00000000
00001000
01000000
,
00010000
00000000
00000000
00000000
10000000
00000000
00000000
00100000
00000000
00000000
00010000
00000000
00100000
00000000
00100000
00000000
,
01000000
00000000
00000000
00000000
00001000
00000000
00000000
00010000
00000000
00000000
00000100
00000000
00000000
00000010
00000000
00000000
,
00001000
00010000
00001000
00010000
00002000
00003000
00011000
00000000
,
00000001
00000000
00000000
00000100
00000000
00000000
00001000
00000000
00000000
00100000
00000000
00000000
01000000
00000000
10000000
00000000
,
00000000
00000000
00000000
00000000
00000000
00000000
10000000
00010000
,
10000000
00000000
00000000
01000000
00000000
00000000
00010000
00000000
00000000
00000010
00000000
00000000
00000100
00000000
00000001
00000000
,
00000000
00000000
00000000
00000000
00000000
00000000
00000001
00001000
,
00000100
00000000
00000000
00000010
00000000
00000000
00001000
00000000
00000000
00010000
00000000
00000000
01000000
00000000
10000000
00000000
,
00100000
00000000
00000000
01000000
00000000
00000000
00010000
00000000
00000000
00001000
00000000
00000000
00000010
00000000
00000100
00000000
,
00000001
00001000
00000100
00000010
,
00002002
00000000
00000000
00003003
,
00000101
00000000
00000100
00000001
00000000
00000000
00000110
00000000
,
00000100
00001000
00000000
00000000
00010000
00011000
00000000
00000000
,
01100000
00000000
10000000
00010000
00000000
00000000
00110000
00000000
,
00001000
00010000
00000000
00000000
00000100
00000110
00000000
00000001
,
00000100
00000000
00001000
00010000
00000000
00000100
00000010
00000000
,
00001000
00010000
00000000
00100000
01000000
01100000
00000000
00000000
,
01020000
00000100
00030000
00002100
,
01000000
00000000
00003000
00000000
00010000
00011000
00000000
00000000
,
00000001
00001000
00000100
00000010
00001000
00010000
00100000
00000000
,
10000000
01000000
00100000
00010000
01000000
01000000
00000000
00000000
,
00100000
00010000
00001000
00100000
01000000
10000000
00010000
00000000
,
01000000
00001000
00010000
00100000
00001000
00001000
00000000
00000000
,
00000010
00001000
00000100
00000010
00000001
00000100
00001000
00010000
,
01000000
10000000
00100000
00010000
00001000
00100000
00001000
00000010
,
00000200
00000000
00000000
00000000
,
00000000
00000000
00000000
00000000
00000000
00001300
00000100
00000000
,
00010000
00000000
00000000
00001000
00000000
00000000
01000000
00000000
00000000
00100000
00000000
00000000
00010000
00000000
00100000
00000000
,
10000000
00000000
00000000
01000000
00000000
00000000
00010000
00000000
00000000
00001000
00000000
00000000
00100000
00000000
01000000
00000000
,
00010000
00000000
00000000
00001000
00000000
00000000
00000100
00000000
00000000
00000010
00000000
00000000
00001000
00000000
00000001
00000000
,
00000010
00000000
00000000
00001000
00000000
00000000
00010000
00000000
00000000
00000100
00000000
00000000
00001000
00000000
00000001
00000000
,
00000200
00000000
00000300
00002000
00000000
00003000
00020000
00000000
00030000
02000000
00000000
03000000
20000000
00000000
30020000
00000000
,
00230000
00000000
00300000
00002000
00000000
00003000
02000000
00000000
03000000
00002000
00000000
00003000
00020000
00000000
00030200
00000000
,
00001300
00000100
00001000
00000100
00001000
00000000
00000000
00000000
00000001
00000100
00000001
00000100
00000001
00000000
00000000
00000000
,
00001000
00000000
00000000
00000001
00000000
00000000
00000100
00000000
00000000
00001000
00000000
00000000
00010000
00000000
01000000
00000000
,
10000000
00010000
00000000
01000000
00100000
00000000
00010000
00001000
,
00000100
00000000
00000000
00000010
00000000
00000000
00001000
00000000
00000100
00000000
00000000
00000000
00000010
00000000
00000001
00000000
,
00000100
00000000
00000000
00001000
00000000
00000000
00000100
00000000
00000000
00000001
00000000
00000000
00000010
00000000
00000100
00000000
,
00010000
00000000
00000000
00001000
00000000
00000000
01000000
00000000
00000000
00100000
00000000
00000000
00010000
00000000
00001000
00000000
,
00100000
00000000
01000000
10000000
00100000
00010000
00001000
00100000
,
01000000
00000000
00000000
00010000
00000000
00000000
00001000
00000000
00000000
00000100
00000000
00000000
00000010
00000000
00001000
00000000
,
00000001
00000010
00001000
00010000
00100000
10000000
00100000
01000000
,
00010000
00000000
00000000
10000000
00000000
00000000
00010000
00000000
00000000
10000000
00000000
00000000
00010000
00000000
00000000
00000000
,
01010000
00011000
00001100
00011000
,
00110000
00000000
00011000
00000000
00001010
00000000
00000001
00000100
,
00000001
00000010
00000100
00001000
00000010
00000100
00000000
00001000
,
00010000
00001000
01000000
00010000
00100000
00001000
00000000
00000000
,
10100000
10010000
01010000
00011000
,
00001100
00000000
00001001
00000000
00000011
00000000
00000001
00000100
,
00000001
00000010
00000100
00001000
00000010
00010000
00001000
00100000
,
00002000
00023000
00032000
00003000
,
01001000
00010100
01001000
00010100
,
00010010
00000000
00101000
00000000
00010010
00000000
00010000
00001000
,
01000000
00010000
00100000
01000000
10000000
00010000
00000000
01000000
,
00001000
00100000
00010000
01000000
00100000
10000000
00000000
00000000
,
10000000
01000000
00010000
00001000
00000100
00000001
00000010
00000100
,
00001000
00000000
00000001
00000000
00000100
00000000
00000010
00000100
,
00000001
00000010
00001000
00010000
00100000
10000000
00010000
01000000
,
00100000
00010000
00000100
00001000
,
00000001
00000100
00000001
00000010
00001000
00010000
01000000
10000000
,
00100000
00010000
00001000
00000100
00001000
00010000
01000000
10000000
,
00020000
00000000
00000000
00000000
,
00000000
00000000
00000000
00000000
,
00030000
00000000
00000000
00000000
;

//---------------dance-double - forcednature----------------
#NOTES:
     dance-double:
     forcednature:
     Hard:
     16:
     :
00000000
00000000
00000000
00000000
,
00000000
00000000
00000000
00000000
,
00000000
00000000
00000000
00000000
,
00000000
00000000
00000000
00000000
,
00000000
00000000
00000000
00000000
,
00001000
00010000
00001000
00010000
00001000
00000000
00000000
00000000
00100000
00000000
00000000
00000000
01000000
00000000
10000000
00000000
,
00000000
00010000
00100000
00000000
00011000
00000000
00000000
00000000
,
00010000
00000000
00000100
00001000
00000100
00000000
00000010
00000000
00000001
00000100
00000001
00000000
00000010
00000000
00000100
00000000
,
00000000
00000000
00010000
00001000
00010000
00000000
00000000
00000000
00011000
00000000
00000000
00000000
02000000
00000000
00000000
00000000
,
03010000
00100000
00010000
00000000
10000000
00000000
00100000
01000000
00100000
00000000
10000000
00000000
00010000
01000000
00010000
00000000
,
00100000
00000000
00001000
00010000
00001000
00000000
00010000
00000000
00000010
00000000
00000000
00000000
00000010
00000000
00000000
00000000
,
00001000
00000100
00001000
00000000
00000001
00000000
00000010
00000100
00000010
00000000
00000001
00000000
00001000
00000010
00001000
00000000
,
00000100
00000000
00010000
00001000
00010000
00000000
00001000
00000000
00100000
00000000
00000000
00000000
00100000
00000000
00000000
00000000
,
20010000
30100000
00010000
00001000
,
00000010
00000000
00000000
00000000
00000001
00000000
00000100
00000000
00000010
00000000
00001000
00000000
00000001
00001000
00000001
00001000
,
00000001
00000000
00000100
00000000
00001000
00000000
00010000
00000000
01000000
00000000
10000000
00010000
,
20000000
00000000
00000000
00000000
30100000
00000000
01000000
00000000
00010000
10000000
00010000
10000000
02000000
00000000
03000000
00000000
,
00110000
00000000
00001000
00010000
00010100
00000000
00000001
00000100
,
00000010
00000000
00001000
00000100
00001000
00000000
00000010
00000000
00010000
00001000
00010000
00000000
00100000
00000000
00000000
00000000
,
01100000
00010000
10000000
00100000
01000000
10000000
00010000
00100000
,
00010000
00001000
00000010
00000001
00000101
00000101
00000000
00000000
,
00000001
00001000
00000100
00000010
00001000
00100000
00001000
00010000
,
00100000
00000000
01000000
00000000
00010000
00000000
10000000
00000000
01000000
10000000
01000000
00000000
00100000
00000000
00000000
00000000
,
00010000
01000000
10000000
01000000
00010000
00100000
00001000
00010000
,
00000010
00000100
00000001
00001000
00001100
00001100
00000001
00000000
,
00001001
00001000
00010100
01000000
,
00010000
00000000
10000000
00100000
10000000
00000000
01000000
00000000
00100000
00010000
00100000
00010000
00200000
00000000
00000000
00000000
,
00301000
00010000
00000010
00000100
00001000
00000001
00000010
00001000
,
00000100
00000010
00001000
00010000
01000000
10000000
00010000
00000000
,
10000000
00100000
00010000
00100000
01000000
00010000
00100000
00001000
,
00010000
00100000
00010000
00000100
00000010
00001000
00010000
00000000
,
00000100
00000010
00000001
00000000
00000101
00000000
00001100
00000000
,
00011000
00000000
00000000
00000000
00011000
00000000
00000000
00000000
00011000
00000000
00000000
00000000
00100000
00000000
00001000
00010000
,
00001000
00000000
00011000
00000000
00110000
00000000
10000000
01000000
,
00100000
00000000
00001000
00010000
00000100
00000000
00001000
00000000
00000001
00000100
00000001
00000100
00000020
00000000
00000030
00000000
,
00000110
00000000
00000000
00000000
00000001
00000000
00000000
00000100
00000000
00000000
00001000
00000000
00000000
00000000
00010000
00000000
,
01000000
00000000
00000000
00000000
00010000
00000000
00000000
00000100
00000000
00000000
00010000
00000000
00011000
00000000
00000000
00000000
,
00110000
00000000
00000000
00000000
10000000
00000000
00000000
00100000
00000000
00000000
00010000
00000000
00000000
00000000
00001000
00000000
,
00000100
00000000
00000000
00000000
00000010
00000000
00000000
00001000
00000000
00000000
00000100
00000000
00000010
00000001
00000010
00000001
,
00000010
00000000
00000100
00000000
00010000
00000000
01000000
00100000
,
00010000
00000000
00000000
00000000
10000000
00000000
00000000
00100000
00000000
00000000
01000000
00000000
01000000
00000000
01000000
00010000
,
01000000
00000000
00000000
00000000
00001000
00000000
00000000
00010000
00000000
00000000
00000100
00000000
00000000
00000010
00000000
00000000
,
00000001
00000000
00001000
00000000
00000010
00000100
00000010
00000100
00000020
00000000
00000030
00000000
00000110
00000000
00000000
00000000
,
00000101
00000000
00000000
00001010
00000000
00000000
00000110
00000000
00000000
00001001
00000000
00000000
00001000
00000000
00000100
00000000
,
00000000
00000000
00000000
00000000
00000000
00000000
00010000
00001000
,
00101000
00000000
00000000
00110000
00000000
00000000
01100000
00000000
00000000
10010000
00000000
00000000
10000000
00000000
00100000
00000000
,
00000000
00000000
00000000
00000000
00000000
00000000
01000000
00010000
,
00110000
00000000
00000000
00101000
00000000
00000000
00011000
00000000
00000000
00010100
00000000
00000000
00000100
00000000
00000010
00000000
,
00000011
00000000
00000000
00000110
00000000
00000000
00001100
00000000
00000000
00001010
00000000
00000000
00001000
00000000
00000100
00000000
,
00010000
00000000
00000000
00000000
00001000
00000000
00000000
00000000
00010000
00000010
00010000
00000000
00001000
00010000
00001000
00000000
,
00000200
00000002
00000000
00000303
,
00000001
00000010
00001000
00010000
01000000
10000000
00100000
01000000
,
00001000
00010000
01000000
10000000
10100000
20200000
30300000
00000000
,
10000000
01000000
00100000
10000000
00100000
00010000
00001000
00000100
,
00000001
00000000
00000100
00000000
00000010
00000000
00000001
00000000
00000101
00000000
00000202
00000000
00000303
00000000
00000001
00001000
,
00000001
00000000
00000000
00000100
00000010
00000000
00001000
00000000
00000100
00010000
00000100
00000000
00001000
00000000
00000000
00000010
,
00010000
00000000
00001000
00000000
00100000
00010000
00100000
00000000
01100000
00000000
02200000
00000000
03300000
00000000
00000000
00000000
,
20020000
00000000
00000000
00000000
00000000
00000000
00000000
00000000
00000000
00000000
00000000
00000000
00000000
00000000
00000000
00000000
00000000
00000000
00000000
30030000
00000000
00000000
00000000
00000000
00000000
00000000
00000000
00000000
00000000
00000000
00000000
00000000
00000000
00000000
00000000
00000000
00000000
00000000
00000000
00000000
00000000
00000000
00000000
00000000
00000000
00000000
00000000
00000000
00010000
00000000
00000000
00000000
00000000
00000000
00000000
00000000
00000000
00000000
00000000
00000000
00000000
00000000
00000000
00000000
00000000
00000000
00000000
00000000
00000000
00000000
00000000
00000000
00100000
00000000
00000000
00000000
00000000
00000000
00000000
00000000
00000000
00000000
00000000
00000000
00000000
00000000
00000000
00000000
00000000
00000000
00000000
00000000
00000000
00000000
00000000
00000000
00001000
00000000
00000000
00000000
00000000
00000000
00000000
00000000
00000000
00000000
00000000
00000000
00000000
00000000
00000000
00000000
00000000
00000000
00000000
00000000
00000000
00000000
00000000
00000000
00010000
00000000
00000000
00000000
00000000
00000000
00000000
00000000
00000000
00000000
00000000
00000000
00000000
00000000
00000000
00000000
00000000
00000000
00000000
00000000
00000000
00000000
00000000
00000000
00020200
00000000
00000000
00000000
00000000
00000000
00000000
00000000
00000000
00000000
00000000
00000000
00000000
00000000
00000000
00000000
00000000
00000000
00000000
00030300
00000000
00000000
00000000
00000000
00000000
00000000
00000000
00000000
00000000
00000000
00000000
00000000
00000000
00000000
00000000
00000000
00000000
00000000
00000000
00000000
00000000
00000000
00000000
00000000
00000000
00000000
00000000
00000000
,
00000100
00001000
00000010
00000100
00000101
00000101
00000002
00000000
,
00000103
00000000
00001000
00000000
00000100
00000000
00000010
00000000
00010000
00000000
00001000
00000000
00100000
00000000
01000000
10000000
,
01000000
00000000
00100000
00000000
00001000
00000000
00010000
00000000
00000100
00000000
00000100
00000000
00001000
00000001
00001000
00000001
,
00000200
00000000
00000300
00000000
00000010
00010000
00000020
00000000
00000030
00000000
00010000
00001000
00020000
00000000
00030000
00001000
,
00000000
00100000
00010000
00000000
01000000
00000000
00100000
00000000
10000000
00010000
10000000
00000000
00100000
00000000
00010000
00000000
,
00001000
00000010
00000001
00001000
00000010
00000100
00001000
00010000
,
01000000
00100000
00001000
00010000
00000010
00000010
00000100
00000001
,
00002002
00000000
00000000
00000000
,
00000000
00000000
00000000
00000000
00003003
00001000
00001001
00000000
,
00001100
00000000
00000000
00000100
00000000
00000000
00010000
00000000
00000000
00001000
00000000
00000000
00100000
00000000
01000000
00000000
,
10000000
00000000
00000000
00100000
00000000
00000000
00010000
00000000
00000000
00001000
00000000
00000000
00200000
00000000
00301000
00000000
,
00010000
00000000
00000000
00000100
00000000
00000000
00000001
00000000
00000000
00000100
00000000
00000000
00000010
00000000
00001000
00000000
,
00010000
00000000
00000000
01000000
00000000
00000000
10000000
00000000
00010000
10000000
00010000
00000000
01000000
00000000
00001000
00010000
,
00001000
00000000
00000000
00000100
00000000
00000000
00000001
00000000
00000000
00001000
00000000
00000000
00000100
00000000
00010000
00000000
,
00001000
00000000
00000000
00100000
00000000
00000000
10000000
00000000
00000000
00100000
00000000
00000000
01000000
00000000
10000000
00000000
,
00010000
01000000
00010000
01000000
00001000
00000000
00000000
00000000
00010000
00000100
00010000
00000100
00001000
00000000
00000000
00000000
,
00001100
00000000
00000000
00001100
00000000
00000000
00000011
00000000
00000000
00000011
00000000
00000000
00001001
00000000
00000000
00000000
,
00000001
00000100
00000000
00000001
00001000
00000000
00000100
00000010
,
00001000
00000000
00000000
00010000
00001000
00000000
01000000
00000000
00010000
00000000
00000000
00000000
00100000
01000000
00100000
00000000
,
00010000
00000000
00000000
10000000
00100000
00000000
01000000
00000000
00000000
00001000
00010000
00000000
00000100
00000000
00000010
00000000
,
00000001
00000000
00000000
00000100
00001000
00000000
00000100
00000000
00000001
00001000
00000001
00001000
00000100
00000000
00010000
00000100
,
00010000
00000000
00000000
00001000
00000000
00000000
00100000
00000000
01000000
00100000
00000000
00000000
00010000
00000000
10000000
00000000
,
01000000
00000000
00000000
00010000
00000000
00000000
00001000
00000000
00000000
00000010
00000000
00000000
00000001
00000000
00001000
00000000
,
00000100
00000000
00010000
00000000
00001000
00000000
01000000
00000000
00010000
10000000
00010000
10000000
00010000
10000000
00010000
00000000
,
01010000
00000000
00000000
01001000
00000000
00000000
00011000
00000000
00000000
00010100
00000000
00000000
00001100
00000000
00000000
00000000
,
00000201
00002300
00023000
02030000
,
23000000
00000000
30020000
00000000
02030000
00000000
03100000
10000000
,
00010000
01000000
00001000
00000010
00000100
00001100
00000000
00000010
,
00000001
00000100
00001000
00000100
00000010
00010010
00000000
00000000
,
02001000
03200000
00320000
00030200
,
00000320
00000000
00002030
00000000
00023000
00000000
00030100
00001000
,
00000010
00010000
00001000
00100000
01000000
00010000
00001000
00000200
,
00000000
00000001
00001300
00000000
,
00000012
00000203
00002300
02003000
,
03020000
00000000
00230000
00000000
20300000
00000000
30100000
01000000
,
00010000
00001000
00000010
00000001
00001000
00001010
00000000
00000001
,
00000100
00000000
00001000
00000000
00010000
00000000
01000000
00000000
10000000
00000000
10010000
00000000
00000000
00000000
10000000
01000000
,
10000000
00100000
01000000
00010000
00001000
00000010
00000100
00000001
,
00001000
00000000
00000000
00000000
00001001
00000000
00000000
00000000
00000110
00000000
00000000
00000000
00001000
00000000
00000001
00000100
,
00000001
00000010
00000100
00001000
00010000
00100000
01000000
10000000
,
00100000
10010000
01010000
01100000
,
00100000
10000000
00100000
00010000
00001000
00100000
00010000
01000000
,
00001000
00000100
00000010
00001000
00000100
00000010
00000002
00000000
,
00000203
00000000
00000000
00000000
,
00000000
00000000
00000000
00000000
,
00000300
00000000
00000000
00000000
;

//---------------dance-double - t7r----------------
#NOTES:
     dance-double:
     t7r:
     Challenge:
     18:
     :
00000000
00000000
00000000
00000000
,
00000000
00000000
00000000
00000000
,
00000000
00000000
00000000
00000000
,
00000000
00000000
00000000
00000000
,
00000000
00000000
00000000
00000000
,
00100000
10000000
00100000
01000000
00100000
00000000
10000000
00000000
01000000
00000000
00100000
00001000
00010000
00000000
00011000
00000000
,
00000000
00010000
00010100
00000000
00000110
00000001
00000000
00000001
,
00000100
00000010
00001000
00000010
00000100
00000000
00000010
00000000
00010000
00000100
00010000
00000000
00001000
00010000
00001000
00000000
,
00000000
01000000
01010000
00000000
02200000
00000000
03300000
00000000
,
10000000
01000000
10000000
00100000
10000000
00000000
00010000
01000000
00010000
00100000
00010000
00000000
00100000
00001000
00010000
00001000
,
00010000
00000000
00000010
00000100
00000001
00000100
00000010
00000000
00001000
00000000
00000000
00000000
00001001
00000000
00000000
00000000
,
00000001
00000010
00000001
00000100
00000010
00000000
00001000
00000100
00001000
00000010
00001000
00000000
00000100
00010000
00001000
00010000
,
00001000
00000000
00100000
00010000
01000000
00010000
10000000
00000000
00100000
00000000
00000000
00000000
01100000
00000000
00000000
00000000
,
10000000
00000000
01000000
00100000
00020000
00000000
00130000
00001000
00020000
00000000
00030010
00000100
00000002
00000000
00000013
00000100
,
00020000
00000000
00031000
00100000
00020000
00000000
01030000
00100000
20000000
00000000
30100000
01000000
00002000
00000000
00013000
00001000
,
00010000
00000000
00011000
00000000
00001100
00000000
00000110
00000000
00001100
00000000
00011000
00001000
,
00020000
00000000
00000000
00000000
00031000
00000000
01000000
00000000
00010000
00100000
01000000
10000000
00010000
00000000
10000000
00000000
,
01100000
00000000
00100000
10000000
01000000
00000000
01000000
00000000
01100000
00000000
00100000
00001000
00010000
00000000
00010000
00000000
,
00001100
00000000
00000010
00000001
00000100
00000000
00000010
00001000
00000100
00010000
00001000
01000000
00010000
00000000
00000000
00000000
,
10000000
00000000
01000000
00000000
11000000
00000000
10000000
00100000
01000000
00000000
00010000
00100000
01000000
00000000
00100000
00001000
,
00010000
00000000
00000010
00000100
00000001
00000000
00000010
00000100
00010000
00000000
00001000
00000000
00011000
00000000
00100000
00000000
,
00010000
00000000
01000000
00000000
01010000
00000000
00010000
01000000
00100000
00000000
10000000
01000000
00100000
00000000
00001000
00010000
,
00000010
00000000
00000100
00000001
00001000
00000000
00000100
00001000
00000001
00001000
00000001
00000000
00000110
00000000
00000000
00000000
,
00000010
00000000
00001000
00000000
00001010
00000000
00000100
00010000
00001000
00000000
00100000
00010000
01000000
00000000
00100000
10000000
,
00010000
00000000
10000000
01000000
00100000
00000000
00001000
00010000
00000010
00000000
00000100
00000000
00000110
00000000
00000000
00000000
,
00001010
00000010
00001000
00001100
00001100
00000100
00010100
00010000
,
00001000
00000000
01001000
00000000
01001000
00000000
01000000
00000000
00100000
10000000
00010000
10000000
00100000
00000000
10000000
00000000
,
00010000
00000000
10000000
00000000
00010000
00000000
01000000
00000000
00000000
00010000
00000000
00000000
10000000
00000000
00000000
00000000
00000000
00000000
01000000
00000000
00000000
00000000
00000000
00000000
01000000
00000000
00000000
00000000
00000000
00000000
01000000
00000000
00000000
00000000
00000000
00000000
00010000
00000000
00000000
00000000
00000000
00000000
00010000
00000000
00000000
00000000
00000000
00000000
,
00010000
00001000
00001000
00001000
00000010
00000001
00000101
00000100
,
00000001
00001001
00001001
00000010
00000010
00000010
00001000
00001000
,
00001000
00100000
00100000
00100000
00010000
10000000
01100000
00000000
,
10010000
00010000
00001010
00000100
00001001
00000010
00001100
00001000
,
00001001
00000000
00001000
00000000
01010000
00000000
00100000
00000000
10010000
00000000
01000000
00000000
00110000
00000000
00010000
10000000
,
01000000
00000000
00000000
00000000
11000000
00000000
00000000
00000000
01100000
00000000
00000000
00000000
00101000
00000000
00000000
00100000
,
00001000
00000000
00000010
00000100
00000010
00000000
00000001
00000000
00000100
00000010
00000100
00000010
00010000
00000000
00000000
00000000
,
00001000
01000000
00001000
00100000
00010000
00000000
00100000
00010000
00000000
00010000
01000000
00000000
00010000
00000000
10000000
00000000
,
01000000
10000000
00100000
10000000
01000000
00000000
00100000
00001000
00000000
00001000
00010000
00000000
00011000
00000000
00000000
00000000
,
00000010
00000100
00000010
00001000
00000010
00000000
00000100
00000001
00000000
00000001
00001000
00000000
00000001
00000000
00000010
00000000
,
00000001
00000100
00000010
00001000
00000100
00000000
00010000
00000100
00000000
00000100
00010000
00000000
00001000
00010000
00001000
00010000
,
00001000
00100000
00010000
01000000
00010000
00000000
01000000
00100000
00000000
00100000
10000000
00000000
00100000
00000000
01000000
00000000
,
00001000
00100000
00001000
00010000
00001000
00000000
00010000
00000010
00000000
00000010
00000100
00000000
00000110
00000000
00000000
00000000
,
00000001
00000010
00000100
00000010
00000001
00000000
00000100
00000010
00000000
00000010
00010000
00000000
00001000
00000000
00100000
00000000
,
00010000
00000000
01010000
00000000
10000000
01000000
00100000
01000000
10000000
00000000
00000000
00000000
10010000
00000000
00000000
00000000
,
01100000
00000000
00000000
01001000
00000000
00000000
00101000
00000000
00000000
00011000
00000000
00000000
00000110
00000000
00001001
00000000
,
00000001
00000000
00000010
00000000
00000100
00000000
00000010
00000001
00001000
00000001
00000010
00000000
00000001
00000000
00001000
00000001
,
00000100
00000000
00000000
00000110
00000000
00000000
00010010
00000000
00000000
00011000
00000000
00000000
01100000
00000000
10010000
00000000
,
10000000
00000000
01000000
00000000
00010000
00000000
01000000
00100000
00001000
00010000
00001000
00000000
00011000
00000000
00010000
00000010
,
00000100
00000000
00000000
00000110
00000000
00000000
00001001
00000000
00000000
00010100
00000000
00000000
00011000
00000000
00010000
00000000
,
01010000
00000000
00000000
01100000
00000000
00000000
00101000
00000000
00000000
00011000
00000000
00000000
00010010
00000000
00000010
00000000
,
00000100
00000001
00001000
00000000
00000100
00010000
00001000
00000000
00100000
00010000
01000000
00010000
10000000
01000000
00100000
00010000
,
00002000
00000000
00000000
00000000
00003010
00000000
00000001
00000100
00000001
00001000
00000001
00000000
00001000
00000100
00010000
00001000
,
00100000
01000000
00010000
01100000
10000000
01000000
01100000
00001000
,
00010000
00000110
00000001
00001000
00000110
00000220
00000330
00000000
,
00001001
00000010
00000100
00011000
01000000
00100000
10010000
00100000
,
01000000
00000000
00011000
00000000
00000100
00000000
00000010
00000000
00001001
00000000
00000110
00000000
00001000
00000001
00001000
00000001
,
00000010
00000000
00000100
00001000
00000010
00010000
00000100
00000000
00010000
00001000
00100000
00010000
01000000
00000000
00100000
10000000
,
00010000
10000000
00100000
00000000
01000000
00010000
00100000
00001000
00010000
00000000
00011000
00000000
00020200
00000000
00030300
00000000
,
00000110
00000000
00000001
00000100
00000010
00000000
00001000
00000100
00000001
00000000
00000100
00010000
00001000
00000000
00010000
00100000
,
10000000
00000000
00100000
01000000
10000000
00000000
00100000
01000000
00010000
00000000
10010000
00000000
01100000
00000000
00100000
10000000
,
00010000
00000000
10000000
00000000
01000000
00000000
00010000
00000000
01000000
00000000
00100000
00000000
00001000
00100000
00001000
00100000
,
00001000
00000000
00000010
00000000
00000001
00000000
00000100
00000000
00000010
00000100
00000010
00000100
00000001
00000010
00000100
00001000
,
00010000
00000000
00001000
01000000
00100000
00000000
10000000
00000000
00010000
00100000
01000000
00000000
00100000
00000000
00001000
00100000
,
00000000
00001000
00010000
00000000
00001000
00000000
00010000
00000000
00000010
00000000
00000110
00000000
00002002
00000000
00003003
00000000
,
00000201
00000000
00000000
00000000
00000301
00000010
00000001
00000010
00000100
00001000
00000100
00001000
00010000
00100000
00010000
00100000
,
01000000
10000000
01000000
10000000
00100000
01000000
00010000
00100000
00001000
00010000
00000010
00000100
00000001
00001000
00000100
00010000
,
00001000
00000000
00000000
00000000
00011000
00000000
00001000
01000000
00100000
00000000
00100000
00000000
10000000
00000000
00010000
10000000
,
01000000
00010000
01000000
10000000
01000000
00000000
00100000
00000000
00001000
00010000
00000010
00000000
00001001
00000000
00000000
00000000
,
00000101
00000000
00000001
00000100
00000000
00000100
00000010
00000000
00000001
00000100
00000000
00000100
00000010
00000000
00010000
00000000
,
00001000
00000000
00010000
01000000
00000000
01000000
10000000
00000000
00010000
01000000
00000000
01000000
10000000
00000000
00010000
00000000
,
10000000
00000000
01000000
00100000
00000000
00100000
10000000
00000000
01000000
00100000
00000000
00100000
10000000
00000000
00010000
00000000
,
01000000
00000000
00001000
00000100
00000000
00000100
00000001
00000000
00001000
00000100
00001000
00000000
00001001
00000000
00000001
00000100
,
00000010
00000000
00001000
00000010
00000000
00000010
00000001
00000000
00001000
00000100
00000000
00000100
00010000
00000000
00001000
00000000
,
00100000
00000000
00010000
01000000
00000000
01000000
10000000
00000000
00100000
01000000
00000000
01000000
00001000
00000000
00010000
00000000
,
00001000
01000000
00001000
01000000
00100000
00000000
00000000
00000000
00010000
00000100
00010000
00000100
00000010
00000000
00000000
00000000
,
00000011
00000000
00000000
00001001
00000000
00000000
00010100
00000000
00000000
00011000
00000000
00000000
01100000
00000000
10010000
00000000
,
01100000
00000000
00100000
10000000
00000000
01000000
00010000
00000000
01000000
00100000
00000000
00001000
00010000
00000000
00000010
00000000
,
00000100
00000000
00000001
00000100
00000000
00001000
00000100
00000000
00000010
00001000
00000001
00001000
00000010
00000000
00001000
00000000
,
00000001
00000000
00000010
00000100
00000000
00010000
00000100
00000000
00010000
00001000
00000000
00100000
00010000
00000000
01000000
00000000
,
00100000
00000000
10000000
01000000
00000000
00100000
00001000
00000000
00010000
00000010
00000100
00000010
00001000
00000000
00000001
00001000
,
00000001
00000000
00000100
00001000
00000000
00000100
00000010
00000000
00000100
00010000
00000000
00100000
01000000
00000000
00100000
00000000
,
00010000
00000000
10000000
01000000
00000000
00010000
01000000
00000000
00100000
00001000
00000000
00010000
00001000
00000000
00010000
00000010
,
00000100
00000000
00000100
00000000
00000100
00000000
00000100
00000000
00000010
00000100
00000010
00000100
00000010
00010000
00000010
00010000
,
00001000
00000000
01000000
10000000
00000000
01000000
00010000
00000000
00100000
00001000
00000000
00010000
00001000
00000000
00010000
00000000
,
00001000
01010000
00001000
01010000
00001000
01010000
00001000
01010000
,
00000100
00001010
00000100
00001010
00000100
00001010
00000100
00001010
,
00000001
00000100
00001000
00000100
00010000
00100000
10000000
00100000
,
01000000
10000000
01000000
00010000
01000000
00100000
10010000
00010000
,
10000000
01010000
10000000
01010000
10000000
01010000
10000000
01010000
,
00100000
00011000
00100000
00011000
00100000
00011000
00100000
00011000
,
00000010
00000001
00000010
00000001
00000010
00000001
00001000
00000000
00000010
00001000
00000010
00001000
00000010
00001000
00000100
00000000
,
00010000
00001000
00010000
00001000
01000000
00100000
10000000
00000000
00100000
00000000
01000000
00000000
10010000
00000000
00000000
00000000
,
10000000
00000000
01000000
00100000
00010000
00000000
00001000
00000000
00010000
00000000
00000010
00000100
00000001
00000000
00001000
00000000
,
00000001
00000000
00000010
00000100
00001000
00000000
00010000
00000000
00001000
00000000
01000000
00100000
10000000
00000000
00100000
00000000
,
10000000
01000000
00010000
01000000
00100000
00001000
00010000
00000010
,
00001000
00000000
00000100
00000000
00000001
00000000
00000100
00000000
00000010
00000000
00000001
00000000
00001001
00000000
00000001
00001000
,
00000001
00000100
00000110
00000110
00001010
00001010
00001100
00001100
,
00012000
00000000
00000000
00000000
01000000
00000000
00000000
00000000
00100000
00000000
00000000
00000000
01003000
00000000
00010000
10000000
,
00010000
10000000
11000000
11000000
01100000
01100000
00101000
00101000
,
00010000
00001000
00010000
00001000
01000000
00010000
01000000
00010000
00100000
00001000
00100000
00001000
00010000
00000000
00000010
00000100
,
00000001
00000100
00000001
00000100
00000010
00001000
00000010
00001000
00010000
01000000
00010000
01000000
00100000
10000000
00100000
10000000
,
00010000
00100000
00010000
00100000
01000000
10000000
01000000
10000000
01000000
00100000
00010000
00001000
00000010
00000100
00000001
00001000
,
00000002
00000000
00000000
00000000
,
00000000
00000000
00000000
00000000
,
00000003
00000000
00000000
00000000
;
