#TITLE:THE LAST STRIKER;
#ARTIST:L.E.D.;
#BANNER:THE LAST STRIKER.png;
#BACKGROUND:THE LAST STRIKER-bg.png;
#JACKET:THE LAST STRIKER-jacket.png;
#CDTITLE:./CDTITLES/BEATMANIA IIDX.PNG;
#MUSIC:THE LAST STRIKER.ogg;
#SAMPLESTART:94.703;
#SAMPLELENGTH:15;
#BPMS:0=185;

//---------------dance-single - t7r----------------
#NOTES:
     dance-single:
     t7r:
     Beginner:
     5:
     :
0000
0000
0000
0000
,
0000
0000
0000
0000
,
0000
0000
0000
0000
,
0000
0000
0000
0000
,
0000
0000
0000
0000
,
0000
0000
0000
0000
,
0000
0000
0000
0000
,
0000
0000
0000
0000
,
0000
0000
0000
0000
,
1000
0000
0000
0000
,
1000
0000
0000
0000
,
0100
0000
0000
0000
,
0100
0000
0000
0000
,
0010
0000
0000
0000
,
0010
0000
0000
0000
,
0001
0000
0000
0000
,
0001
0000
0000
0000
,
0000
1000
0000
0000
,
0000
1000
0000
0000
,
0000
0001
0000
0000
,
0000
0001
0000
0000
,
0000
0100
0000
0000
,
0000
0100
0000
0000
,
0000
0010
0000
0000
,
0010
0000
0000
0000
,
1000
0000
1000
0000
,
1000
0000
0000
0000
,
0001
0000
0001
0000
,
0001
0000
0000
0000
,
0010
0000
0010
0000
,
0010
0000
0000
0000
,
0100
0000
0100
0000
,
0100
0000
0000
0000
,
0010
0000
0010
0000
,
0010
0000
0000
0000
,
0001
0000
0001
0000
,
0001
0000
0000
0000
,
1000
0000
1000
0000
,
1000
0000
0000
0000
,
0010
0000
0000
0000
,
0010
0000
0000
0000
,
1000
0000
1000
0000
,
1000
0000
1000
0000
,
0001
0000
0001
0000
,
0001
0000
0001
0000
,
0100
0000
0100
0000
,
0100
0000
0100
0000
,
0010
0000
0010
0000
,
0010
0000
0010
0000
,
1000
0000
0000
0000
,
0100
0000
0000
0000
,
0010
0000
0000
0000
,
0001
0000
0000
0000
,
0100
0000
0000
0000
,
1000
0000
0000
0000
,
0100
0000
0100
0000
,
0001
0000
0000
0000
,
1001
0000
0000
0000
,
0000
0000
0000
0000
,
0000
0000
0000
0000
,
0000
0000
0000
0000
,
0000
0000
0000
0000
,
0000
0000
0000
0000
,
0000
0000
0000
0000
,
0000
0000
0000
0000
,
0010
0000
0000
0000
,
0000
0000
0000
0000
,
1000
0000
0000
0000
,
0000
0000
0000
0000
,
0001
0000
0000
0000
,
0000
0000
0000
0000
,
0010
0000
0000
0000
,
0010
0000
0000
0000
,
0000
0001
0000
0001
,
0001
0000
0001
0000
,
0000
1000
0000
1000
,
1000
0000
1000
0000
,
0000
0010
0000
0010
,
0010
0000
0010
0000
,
0000
0100
0000
0100
,
0100
0000
0100
0000
,
0001
0000
0001
0000
,
1000
0000
1000
0000
,
0100
0000
0100
0000
,
0010
0000
0010
0000
,
0001
0000
1000
0000
,
0010
0000
0100
0000
,
0001
0000
0010
0000
,
0100
0000
1000
0000
,
0001
0000
0000
0000
,
0000
0000
0000
0000
,
1000
0000
0000
0000
,
0000
0000
0000
0000
,
0010
0000
0000
0000
;

//---------------dance-single - t7r----------------
#NOTES:
     dance-single:
     t7r:
     Easy:
     9:
     :
0000
0000
0000
0000
,
0000
0000
0000
0000
,
0000
0000
0000
0000
,
0000
0000
0000
0000
,
0000
0000
0000
0000
,
0000
0000
0000
0000
,
0000
0000
0000
0000
,
0000
0000
0000
0000
,
0000
0000
0000
0000
,
1000
0100
0000
0000
,
0010
0000
0001
0000
,
0001
0100
0000
0000
,
0010
0000
1000
0000
,
1000
0100
0000
0000
,
0100
0000
1000
0000
,
0010
0100
0000
0100
,
0002
0000
2000
3003
,
0001
0010
0000
0001
,
1000
0100
0000
1000
,
0010
0100
0000
0010
,
1000
0001
0000
0010
,
0001
0100
0000
0010
,
1000
0100
0000
1000
,
0010
0010
0100
0100
,
0001
1000
0001
0000
1000
0000
1001
0000
,
1000
0100
0000
0000
1000
0000
0000
0001
,
0000
0000
0100
0000
0000
0001
0000
1000
,
0000
0001
0000
0000
0010
0000
0000
0100
,
0000
0000
0010
0000
0000
0001
0000
1000
,
0000
0010
0000
0000
0100
0000
0000
0010
,
0000
0000
1000
0000
0000
0100
0000
0010
,
0000
0100
0000
0000
1000
0000
0000
0100
,
0000
0000
0001
0000
0000
0100
0000
1000
,
0001
0000
0100
0000
0000
0001
1000
0000
,
0001
0000
0100
0000
0000
0001
1000
0000
,
0001
0000
0010
0000
0000
0001
0100
0000
,
0001
0000
0010
0000
0000
0100
0010
0000
,
0000
0001
0000
0000
1000
0000
0000
0010
,
0000
0000
0001
0000
0000
0010
0000
1000
,
0000
0001
0000
0000
0010
0000
0000
1000
,
0000
0000
0010
0000
0000
0100
0000
1000
,
0001
0100
0001
0100
,
0010
1000
0010
1000
,
0001
0010
0001
0010
,
0100
1000
0100
1000
,
0001
1000
0100
0010
,
0100
1000
0001
0100
,
0010
1000
0100
0010
,
0001
0100
1000
0100
,
0001
0000
0011
0000
0000
0001
1000
0000
,
0100
0000
1100
0000
0000
1000
0001
0000
,
0100
0000
0110
0000
0000
0010
1000
0000
,
0001
0000
0011
0000
0000
0010
0100
0000
,
1000
0100
0000
0000
0001
0000
0000
0100
,
0000
0000
1000
0000
0000
0001
0000
0100
,
0001
1000
0000
0000
0010
0000
0000
0001
,
0000
0000
0010
0000
0000
0100
0000
0010
,
2000
0000
0000
0000
,
0000
0000
0000
0000
,
0000
0000
0000
0000
,
0000
0000
0000
0000
,
3000
0000
0000
0000
,
0000
0000
0000
0000
,
0000
0000
0000
0000
,
0000
0000
0000
0000
,
0002
0000
1000
0000
,
0100
0000
0013
0000
,
2000
0000
0001
0000
,
0100
0000
3010
0000
,
0002
0000
0010
0000
,
1000
0000
0103
0000
,
2000
0000
0010
0000
,
3001
1000
0001
1000
0010
0000
0100
0000
,
0000
0001
0010
0000
0001
0001
0000
0001
,
0010
0000
0001
0001
0000
1000
0001
1000
,
0000
1000
0010
0000
1000
1000
0000
1000
,
0010
0000
1000
1000
0000
1000
0001
1000
,
0000
0001
0100
0000
0001
0001
0000
0001
,
0100
0000
0001
0001
0000
0001
0100
0010
,
0000
1000
0000
0000
0100
0000
0000
0010
,
0000
0000
0001
0000
0000
0100
0010
0100
,
0000
0010
1000
0000
0010
0010
0000
0100
,
0001
0000
0100
0100
0000
0001
1000
0100
,
0000
0010
0001
0000
1000
1000
0000
0010
,
0100
0000
0010
0010
0000
1000
0001
1000
,
0000
0001
0010
0000
0001
0001
0000
1000
,
0010
0000
1000
1000
0000
0010
0100
0010
,
0000
1000
0100
0000
0010
0001
0000
1000
,
0010
0100
0010
0100
0010
1000
0000
0001
,
2000
0000
0100
0000
,
0001
0000
3010
0000
,
0002
0000
0100
0000
,
1000
0000
0013
0000
,
2002
0000
0000
0000
,
0000
0000
0000
0000
,
0000
0000
0000
0000
,
0000
3003
0000
0000
;

//---------------dance-single - t7r----------------
#NOTES:
     dance-single:
     t7r:
     Medium:
     11:
     :
0000
0000
0000
0000
,
0000
0000
0000
0000
,
0000
0000
0000
0000
,
0000
0000
0000
0000
,
0000
0000
0000
0000
,
0000
0000
0000
0000
,
0000
0000
0000
0000
,
0000
0000
0000
0000
,
0000
0000
0000
0000
,
1000
0001
0000
0000
0100
0000
0000
0100
,
0000
0000
0100
0000
0000
0001
0000
0010
,
0000
0001
0000
0000
0001
0000
0000
1000
,
0000
0000
1000
0000
0000
0010
0000
0010
,
1000
0100
0000
0000
0010
0000
0000
0010
,
0000
0000
0100
0000
0000
0100
0000
0100
,
1000
0001
0000
0000
0100
0000
0000
0100
,
0010
0000
0100
0000
0001
1000
0000
0001
,
0010
0000
0001
0000
0000
1000
0100
0000
,
1000
0000
0010
0000
0000
0100
0001
0000
,
0010
0000
0100
0000
0000
1000
0001
0000
,
0100
0000
0000
0000
0010
0000
0000
0100
0000
0000
0100
0000
0001
0000
0000
0000
,
1000
0000
0010
0000
0000
1000
0100
0000
,
1000
0000
0001
0000
0000
0100
0010
0000
,
1000
0000
0001
0000
0000
0010
0100
0000
,
1000
0100
1000
0000
0001
0100
0001
0000
,
1000
0000
0010
0000
0100
0001
1000
0000
,
0001
0000
0010
0000
0100
0010
0001
0000
,
1000
0000
0001
0000
0100
0010
1000
0000
,
0001
0000
0000
0000
0100
0000
0000
0010
0000
0000
0010
0000
1000
0000
0000
0000
,
0001
0000
0010
0000
0100
0010
0001
0000
,
1000
0000
0010
0000
0100
0010
1000
0000
,
0001
0000
1000
0000
0100
0010
0001
0000
,
1000
0000
0000
0000
0100
0000
0000
0010
0000
0000
0010
0000
0001
0000
0000
0000
,
1000
0010
0000
0010
0100
0000
0100
0001
,
0000
0001
0010
0000
0010
0100
0000
0100
,
1000
0001
0000
0001
0100
0000
0100
0010
,
0000
0010
1000
0000
1000
0001
0000
0001
,
0010
0001
0000
0001
0100
0000
0100
1000
,
0000
1000
0100
0000
0100
0001
1000
0100
,
1000
0010
0000
0010
0001
0000
0001
0010
,
0000
0010
1000
0000
0001
1000
0000
1000
,
0001
0000
0000
0010
0000
0000
0001
0000
0100
0000
0000
0000
0001
0000
0000
0000
,
1000
0000
0000
0010
0000
0000
1000
0000
0100
0000
0000
0000
1000
0000
0000
0000
,
0001
0000
0000
0100
0000
0000
0010
0000
0100
0000
0000
0000
0001
0000
0000
0000
,
1000
0000
0000
0100
0000
0000
0010
0000
0100
0000
0000
0000
1000
0000
0000
0000
,
0001
0000
0000
0100
0000
0000
1000
0000
0100
0000
0000
0000
0001
0000
0000
0000
,
1000
0000
0000
0100
0000
0000
0001
0000
0100
0000
0000
0000
1000
0000
0000
0000
,
0010
0000
0000
0001
0000
0000
0010
0000
1000
0000
0000
0000
0001
0000
0000
0000
,
0010
0000
0000
0100
0000
0000
0010
0000
0001
0000
0000
0000
1000
0000
0000
0000
,
0010
0000
1010
0000
1000
0100
0010
0001
,
0100
0000
0101
0000
0001
0010
0100
1000
,
0001
0000
1001
0000
1000
0010
0100
0010
,
1000
0000
1100
0000
0100
0010
0001
1000
,
0001
0000
0000
0100
0000
0000
0010
0000
0001
0000
0000
0000
0010
0000
0000
0000
,
1000
0000
0000
0100
0000
0000
0010
0000
1000
0000
0000
0000
0010
0000
0000
0000
,
0001
0000
0000
0100
0000
0000
1000
0000
0100
0000
0000
0000
0001
0000
0000
0000
,
1000
0001
1000
0001
0100
0000
0010
0000
,
0220
0000
0000
0000
,
0000
0000
0000
0000
,
0000
0000
0000
0000
,
0000
0000
0000
0000
,
0330
0000
0000
0000
,
0000
0000
0000
0000
,
0000
0000
0000
0000
,
0000
0000
0000
0000
,
0000
0010
0000
0000
0010
0000
0000
0010
,
0000
0000
0010
0000
0000
1000
0000
1000
,
0000
0001
0000
0000
0001
0000
0000
0010
,
0000
0000
0010
0000
0000
0100
0000
0100
,
0000
0010
0000
0000
0010
0000
0000
0001
,
0000
0000
0001
0000
0000
1000
0000
1000
,
0001
0000
0001
0000
1000
0100
1000
0000
,
0010
0100
0010
1000
0001
0000
1000
0000
,
0000
0001
0010
0000
0001
0100
0000
1000
,
0100
0000
0001
0010
0000
0001
0100
0010
,
0000
1000
0100
0000
0010
0100
0000
1000
,
0010
0000
0001
0010
0000
1000
0100
0010
,
0000
0001
0100
0000
1000
0100
0000
0010
,
0100
0000
0001
0100
0000
1000
0100
0001
,
0010
0100
0000
0000
1000
0000
0000
1000
,
0000
0000
0000
0000
0001
0000
0000
0001
0000
0000
0100
0000
0010
0000
1000
0000
,
0001
0010
0100
0000
1000
0010
0100
0010
,
1000
0000
0001
0010
0000
1000
0010
0001
,
0000
0100
0010
0000
1000
0100
0010
0100
,
1000
0000
0001
0100
0000
1000
0100
0001
,
1000
0100
1000
0000
0001
0010
0000
0010
,
1000
0000
0001
0100
0000
0100
1000
0001
,
0100
0010
1000
0000
0100
0010
0000
0010
,
0001
0001
1000
1000
0010
0100
0001
0000
,
2000
0000
0000
0000
0100
0000
0000
0001
,
0000
0000
0001
0000
0000
0010
0000
3100
,
0000
0002
0000
0000
0100
0000
0000
1000
,
0000
0000
0010
0000
0000
0103
0000
0100
,
0020
0000
0000
0000
,
0000
0000
0000
0000
,
0000
0000
0000
0000
,
0030
0000
0000
0000
;

//---------------dance-single - t7r----------------
#NOTES:
     dance-single:
     t7r:
     Hard:
     14:
     :
0000
0000
0000
0000
,
0000
0000
0000
0000
,
0000
0000
0000
0000
,
0000
0000
0000
0000
,
0000
0000
0000
0000
,
0000
0000
0000
0000
,
0000
0000
0000
0000
,
0000
0000
0000
0000
,
0000
0000
0000
0000
,
1000
0100
0000
0000
0100
0000
0000
0010
,
0000
0000
0010
0000
0000
0001
0000
0001
,
0000
0100
0000
0000
0100
0000
0000
0010
,
0000
0000
0010
0000
0000
1000
0000
1000
,
0000
0001
0000
0000
0001
0000
0000
0010
,
0000
0000
0010
0000
0000
0100
0000
0100
,
0000
0010
0000
0000
0010
0000
0000
0001
,
0000
0000
0001
0000
0000
0100
0000
0100
,
0010
0000
1000
0000
0100
0000
0000
1000
0010
0000
0100
0000
0001
0000
0000
0000
,
0010
0000
0001
0000
0100
0000
0000
0001
0010
0000
0100
0000
1000
0000
0000
0000
,
0010
0000
0100
0000
0001
0000
0000
1000
0001
0000
0010
0000
0001
0000
0000
0000
,
0100
0000
0010
0000
1000
0000
0000
0001
1000
0000
0010
0000
1000
0000
0000
0000
,
0001
0000
0100
0000
0010
0000
0000
1000
0100
0000
0010
0000
0001
0000
0000
0000
,
1000
0000
0010
0000
0100
0000
0000
0001
0010
0000
0100
0000
1000
0000
0000
0000
,
0010
0000
0100
0000
0001
0000
0000
0010
0001
0000
1000
0000
0010
0000
0000
0000
,
0100
0010
0100
0000
0001
0000
1000
0000
0001
0010
0001
0000
0100
0000
0000
0000
,
0010
1000
0100
0001
0100
1000
0001
0100
,
0000
1000
0100
0000
0001
0010
0100
1000
,
0010
1000
0010
0001
0010
0100
0001
0010
,
0000
1000
0010
0000
0001
0100
0010
1000
,
0100
0001
0100
1000
0100
0010
0001
1000
,
0000
0010
0100
0000
0001
0010
0100
1000
,
0001
0100
0010
1000
0001
0010
0100
1000
,
0000
0100
0001
0000
0100
0010
0001
1000
,
1001
0000
0000
0000
0010
0000
0000
1000
0100
0000
1000
0000
0010
0000
1000
0000
,
0100
1000
0001
0100
0001
1000
0010
0100
,
0010
0000
0000
0000
0110
0000
0000
0100
0001
0000
1000
0000
0001
0000
0010
0000
,
0001
0000
0100
0000
0010
0000
0000
1000
0100
0000
0010
0000
0001
0000
0100
0000
,
0010
0000
0000
0000
1001
0000
0000
1000
0100
0000
0001
0000
0100
0000
1000
0000
,
0001
0100
1000
0100
0010
1000
0001
0100
,
0001
0010
0100
0001
0100
1000
0100
0010
,
0001
0000
0100
0000
0010
0000
0000
1000
0001
0000
0100
0000
0010
0000
0000
0000
,
1000
0000
0001
0100
0000
0001
0100
0000
0010
0000
1000
0000
0100
0000
0010
0000
,
0001
0000
1000
0100
0000
1000
0100
0000
0010
0000
0001
0000
0100
0000
0010
0000
,
1000
0000
0010
1000
0000
0010
1000
0000
0001
0000
0010
0000
0100
0000
1000
0000
,
0001
0000
0010
0001
0000
0010
0001
0000
1000
0000
0010
0000
0100
0000
0001
0000
,
1000
0000
0100
0001
0000
0100
0001
0000
0100
0000
0010
0000
0001
0000
1000
0000
,
0001
0000
0100
1000
0000
0100
1000
0000
0100
0000
0010
0000
1000
0000
0001
0000
,
0010
0000
0001
0010
0000
0001
0010
0000
1000
0000
0010
0000
0100
0000
1000
0000
,
0010
0000
0001
0010
0000
0001
0010
0000
0100
0000
0001
0000
1000
0000
0001
0000
,
1000
0000
0100
0010
0000
0010
0100
0000
1000
0000
0010
0000
0100
0000
0001
0000
,
0010
0000
0001
0100
0000
0100
0010
0000
1000
0000
0001
0000
0100
0000
0001
0000
,
1000
0000
0100
1000
0000
1000
0010
0000
0100
0000
0010
0000
1000
0000
0001
0000
,
0010
0000
0001
0010
0000
0010
0100
0000
0010
0000
0001
0000
1000
0000
0001
0000
,
0101
0000
1001
0000
1000
0100
0010
0100
,
1000
0000
1010
0000
1000
0010
0100
0001
,
0011
0000
1001
0000
0001
0100
0010
1000
,
0001
0000
0010
0000
0100
0000
0000
0000
1000
0001
1000
0000
0010
0100
0010
0000
,
0220
0000
0000
0000
,
0000
0000
0000
0000
,
0000
0000
0000
0000
,
0000
0000
0000
0000
,
0330
0000
0000
0000
,
0000
0000
0000
0000
,
0000
0000
0000
0000
,
0000
0000
0000
0000
,
0000
0010
0000
0000
0010
0000
0000
0010
,
0000
0000
0010
0000
0000
1000
0000
1000
,
0000
0001
0000
0000
0001
0000
0000
0010
,
0000
0000
0010
0000
0000
0100
0000
0100
,
0000
0010
0000
0000
0010
0000
0000
0001
,
0000
0000
0001
0000
0000
1000
0000
0010
,
0100
0100
0010
0010
1000
1000
0001
0001
,
1000
0100
1000
0000
0001
0000
0100
0001
0100
0000
0001
0000
1000
0000
0000
0000
,
1001
0010
0100
0000
0010
1000
0100
0001
,
0100
0000
0010
0001
0100
1000
0100
0010
,
1000
0010
0100
0000
0001
0010
1000
0010
,
0100
0000
0000
0000
1000
0000
0010
0000
0001
0000
0010
0000
0100
0000
0001
1000
,
0001
0010
1000
0001
0100
0010
0001
0100
,
1000
0001
0010
1000
0010
0100
0001
1000
,
0100
0001
1000
0010
0001
1000
0010
0100
,
1000
0000
0100
0000
0001
0000
1000
0100
1000
0000
0001
0000
0010
0000
0000
0000
,
1001
0001
0100
1000
0100
0001
1000
0001
,
0010
1000
0010
0001
0100
0010
1000
1000
,
0001
0010
0100
0001
0100
0100
0010
0001
,
0010
0000
0100
0000
0010
0000
0001
1000
0001
0000
0100
0000
0010
0000
0000
0000
,
1001
1000
0001
0100
0010
0010
0001
0010
,
1000
0001
0100
0100
1000
0100
0010
0010
,
1000
0100
0001
0100
0010
0001
1000
0010
,
0100
0010
0100
0000
0010
0000
1000
0000
0001
0010
0001
0000
1000
0000
0001
0000
,
2001
0000
0000
0000
0010
0000
0000
0001
,
0000
0000
0001
0000
0000
0100
0000
3100
,
0000
0002
0000
0000
0010
0000
0000
1000
,
0000
0000
0100
0000
0000
0010
0000
0013
,
0200
0000
0000
0000
,
0000
0000
0000
0000
,
0000
0000
0000
0000
,
0300
0000
0000
0000
;

//---------------dance-single - t7r----------------
#NOTES:
     dance-single:
     t7r:
     Challenge:
     18:
     :
0000
0000
0000
0000
,
0000
0000
0000
0000
,
0000
0000
0000
0000
,
0000
0000
0000
0000
,
0000
0000
0000
0000
,
0000
0000
0000
0000
,
0000
0000
0000
0000
,
0000
0000
0000
0000
,
0000
0000
0000
0000
,
1000
0100
0100
0010
0100
0100
1000
0010
,
0010
0100
0001
0001
0010
1000
0010
0001
,
0100
0010
0010
0100
0001
0001
0100
1000
,
1000
0100
0010
0010
1000
0100
0001
0100
,
1000
0010
0010
0100
0010
0010
0001
0010
,
0010
0100
0010
0010
1000
0100
0010
0001
,
1000
0001
0001
0010
0100
0100
0010
0001
,
1000
0010
0010
0100
0001
0100
1000
0100
,
0010
0000
1000
0000
0001
0000
0010
0100
1000
0000
0100
0000
0010
0000
0001
0000
,
1000
0000
0010
0000
0100
0000
0001
0010
0100
0000
0010
0000
0001
0000
1000
0001
,
0010
0000
0001
0000
0100
0000
0010
1000
0001
0000
0100
0000
0010
0000
1000
0000
,
0001
0000
0010
0000
0100
0000
0010
0001
1000
0000
0100
0000
0010
0000
0100
1000
,
0010
0000
0001
0000
0010
0000
1000
0100
0010
0000
1000
0000
0010
0000
0001
0000
,
0100
0000
0010
0000
0001
0000
0010
1000
0001
0000
0010
0000
0100
0000
1000
0100
,
0010
0000
0001
0000
0100
0000
0010
1000
0001
0000
0010
0000
0100
0000
1000
0000
,
0001
0100
0001
0100
0010
1000
0010
1000
0001
0010
0100
0010
0001
0100
0010
1000
,
0001
0000
0010
0000
0001
0000
1000
0010
0100
0010
1000
0000
0001
0000
1000
0100
,
0010
0000
0001
0000
0100
0000
0010
1000
0001
1000
0010
0000
0100
0000
0001
0010
,
0100
0000
0010
0000
0001
0000
1000
0100
0010
0100
1000
0000
0001
0000
1000
0010
,
0100
0000
0001
0000
0010
0000
0001
0100
0010
0100
0001
0000
1000
0000
0001
1000
,
0010
0000
0100
0000
0001
0000
0010
0100
1000
0001
0010
0000
0001
0000
0100
0010
,
1000
0000
0100
0000
0010
0000
0001
0100
0010
1000
0001
0000
0010
0000
0001
0100
,
0010
0000
1000
0000
0001
0000
1000
0010
0100
0001
1000
0000
0001
0000
0010
0001
,
0100
0000
0010
0000
1000
0000
0001
0100
0010
1000
0001
0000
0010
0000
0001
1000
,
0001
0000
0010
0000
1000
0000
0001
0100
1000
0000
0010
0000
0100
0000
0001
0100
,
0010
0000
0001
0000
1000
0000
0100
0001
1000
0000
0001
0000
0010
0000
0001
1000
,
0100
0000
0010
0000
1000
0000
0010
0001
1000
0000
0010
0000
0100
0000
0001
0100
,
1000
0000
0100
0000
0010
0000
1000
0100
0010
0000
0001
0100
0010
0000
1000
0001
,
0100
0101
0000
0000
1010
0000
0000
1100
,
0000
0000
0011
0000
0000
1001
1010
1100
,
0000
1001
0000
0000
0011
0000
0000
1001
,
0000
0000
0110
0000
0000
0101
0010
1000
,
1001
0000
1000
0100
0000
1000
0100
0000
0010
0100
0010
0100
1000
0100
1000
0100
,
0010
0000
0001
0100
0000
0001
0100
0000
0010
0100
0010
0100
0001
0100
0001
0100
,
0010
0000
1000
0100
0000
0010
0100
0000
1000
0010
1000
0010
0100
0001
1000
0001
,
0010
0000
0001
0010
0000
0100
0010
0000
0001
0100
0001
0100
0010
1000
0001
1000
,
0010
0000
1000
0100
0000
0001
0100
0000
1000
0100
1000
0100
0010
0001
1000
0010
,
0100
0000
0001
0100
0000
1000
0100
0000
0001
0010
0001
0010
0100
1000
0001
0010
,
0001
0000
1000
0010
0000
0001
0010
0000
0100
0010
0100
0010
1000
0100
0010
0001
,
0100
0000
0001
0010
0000
1000
0010
0000
0001
0100
0010
1000
0001
0010
0100
1000
,
0001
0000
0010
0100
0000
0100
1000
0000
0100
0010
0100
0010
0100
1000
0100
1000
,
0001
0000
0100
0010
0000
0010
1000
0000
0010
0100
0010
0100
0001
0100
0001
0100
,
0010
0000
1000
0100
0000
0100
0010
0000
0100
1000
0100
1000
0001
0100
0010
1000
,
0010
0000
0100
0001
0000
0001
1000
0000
0001
0010
0001
0010
0001
1000
0010
0100
,
0001
0000
1000
0100
0000
0100
0001
0000
0100
1000
0001
0010
0100
1000
0001
1000
,
0010
0000
1000
0010
0000
0010
0001
0000
0010
1000
0001
0010
0001
0100
0010
1000
,
0001
0000
0010
1000
0000
1000
0010
0000
0100
1000
0001
0100
0010
1000
0100
0010
,
0001
0000
0100
0000
1000
0000
0001
0010
1000
0100
0010
0001
1000
0010
0100
0001
,
0020
0000
0000
0000
,
0000
0000
0000
0000
,
0000
0000
0000
0000
,
0000
0000
0000
0000
,
0030
0000
0000
0000
,
0000
0000
0000
0000
,
0000
0000
0000
0000
,
0000
0000
0000
0000
,
0001
0100
0100
1000
0001
0001
0010
1000
,
1000
0001
0010
0010
1000
0001
0100
1000
,
0010
0001
0001
1000
0100
0100
0001
0010
,
0010
1000
0010
0010
0100
1000
0001
0001
,
1000
0100
0001
0100
1000
0010
1000
0100
,
0010
0100
1000
0001
1000
0010
0100
0001
,
0010
0001
0010
0001
1000
0010
1000
0010
0100
0001
0100
0001
1000
0100
1000
0100
,
0010
0001
0100
0010
1000
0001
1000
0100
0010
0100
1000
0010
0100
0001
1000
0001
,
1000
1100
1100
0000
0101
0101
0000
1010
,
1010
0000
0011
0011
0000
1100
1000
0001
,
0000
0101
0101
0000
1010
1010
0000
0011
,
0011
0000
1100
1100
0000
1001
0010
0100
,
0000
0110
0101
0000
0110
1100
0000
0110
,
0011
0000
0110
1010
0000
1100
0010
1001
,
1000
0000
0100
0000
0010
0000
1000
0010
0001
0000
0100
0000
0010
0000
1000
0000
,
0001
0000
0010
0000
0100
0000
0001
0100
1000
0000
0010
0000
0100
0000
0001
1000
,
0010
0000
1000
0000
1010
0000
1000
0100
0010
0001
1000
0000
0001
0000
0100
0000
,
0101
0000
0001
0000
1000
0000
0001
0010
0100
1000
0001
0000
0010
0000
1010
0000
,
0010
0000
0001
0000
1001
0000
1000
0010
0100
0001
1000
0000
0001
0000
0010
0000
,
0110
0000
0001
0000
1000
0000
0010
0100
0001
0000
1000
0000
0010
0000
1000
0100
,
0001
0000
0101
0000
1100
0000
1000
0010
0100
0000
0110
0000
0010
0000
1000
0001
,
0010
0000
0100
0000
0010
0000
0011
0000
1000
0000
0001
0100
0010
0000
1010
0000
,
1000
0000
1100
0000
0101
0000
0100
1000
0001
0000
1001
0000
1000
0000
0100
0000
,
1000
0010
1000
0010
0100
0001
0100
0001
1000
0100
0010
0001
0100
0010
1000
0001
,
1000
0100
0010
0010
0001
0100
0010
0010
,
1000
0010
0001
0010
1000
0010
0100
0001
,
1000
0100
0001
0100
1000
0010
1000
0100
,
0001
0100
1000
0010
1000
0100
0001
1000
,
0022
0000
0000
0000
,
0000
0000
0000
0000
,
0000
0000
0000
0000
,
0033
0000
0000
0000
;
