#TITLE:たまゆら;
#ARTIST:佐々木博史;
#TITLETRANSLIT:TAMAYURA;
#ARTISTTRANSLIT:Hirofumi Sasaki;
#BANNER:TAMAYURA.png;
#BACKGROUND:TAMAYURA-bg.png;
#JACKET:TAMAYURA-jacket.png;
#CDTITLE:./CDTITLES/GUITAR FREAKS & DRUMMANIA.PNG;
#MUSIC:TAMAYURA.ogg;
#SAMPLESTART:26.667;
#SAMPLELENGTH:15;
#BPMS:0=90,36=180;
#STOPS:36.000=2.3333333333333333333333333333333;
#BGCHANGES:-2=TAMAYURA.avi=1=0=0=0;

//---------------dance-single - t7r----------------
#NOTES:
     dance-single:
     t7r:
     Beginner:
     3:
     :
0000
0000
0000
0000
,
0000
0000
0000
0000
,
0000
0000
0000
0000
,
0000
0000
0000
0000
,
0000
0000
0000
0000
,
0000
0000
0000
0000
,
0000
0000
0000
0000
,
0000
0000
0000
0000
0000
0000
0000
0000
0000
0000
0000
0000
0000
1000
0000
0000
0000
0000
0000
0000
0000
0000
0000
0000
0000
0000
0000
0000
0000
0000
0000
0000
,
0000
0000
0000
0000
0000
0000
0000
0000
0000
0000
0000
0000
0000
0000
0000
0000
0000
0000
0000
0000
0000
0000
0000
0000
0000
0000
0000
0000
0000
0000
0000
0000
0000
0000
0000
0000
0000
0000
0000
0000
0000
0000
0000
0000
0000
0000
0000
0000
0000
0000
0000
0000
0000
0000
0000
0000
0000
0000
0000
0000
0000
0000
0000
0000
0000
0000
0001
0000
0000
0000
0000
0000
0000
0000
0000
0000
0000
0000
0000
0000
0000
0000
0000
0000
0000
0000
0000
0000
0000
0000
0000
0000
0000
0000
0000
0000
0000
0000
0000
0000
0000
0000
0000
0000
0000
0000
0000
0000
0000
0000
0000
0000
0000
0000
0000
0000
0000
0000
0000
0000
0000
0000
0000
0000
0000
0000
0000
0000
0000
0000
0000
0000
0000
0000
0000
0000
0000
0000
0000
0000
0000
0000
0000
0000
0000
0000
0000
0000
0000
0000
0000
0000
0000
0000
0000
0000
0000
0000
0000
0000
0000
0000
0000
0000
0000
0000
0000
0000
0000
0000
0000
0000
0000
0000
0000
0000
0000
0000
0000
0000
0000
0000
0000
0000
0000
0000
0000
0000
1001
0000
0000
0000
,
0000
1000
0000
0000
,
0000
1000
0000
0000
,
0000
0001
0000
0000
,
0000
0001
0000
0000
,
0000
0100
0000
0000
,
0000
0100
0000
0000
,
0000
0010
0000
0000
,
0000
0010
0000
0000
,
0000
1000
0000
0000
,
0001
0001
0000
0000
,
0000
0100
0000
0100
,
0000
0100
0000
0000
,
0000
0010
0000
0000
,
1000
1000
0000
0000
,
0000
0001
0000
0001
,
0000
0001
0001
0001
,
0000
1000
0000
0000
,
0000
0100
0000
0000
,
0000
0010
0000
0000
,
0000
0001
0000
0000
,
0000
0100
0000
0000
,
0000
0010
0000
0000
,
0000
1000
0000
1000
,
1000
1000
0000
0000
,
0000
0001
0000
0001
,
0000
0001
0001
0001
,
0000
1000
0000
1000
,
0000
1000
1000
1000
,
0000
0010
0000
0010
,
0000
0010
0010
0010
,
0000
0100
0000
0100
,
0000
0100
0100
0100
,
0000
0001
0000
1000
,
0000
0001
0000
0000
,
0000
1000
0000
0000
,
0000
0000
0000
0000
,
0001
0000
0000
0000
,
0000
0000
0010
0000
,
0000
0000
0000
0100
,
0000
0000
0000
0000
,
0000
1000
0000
0000
,
0000
0010
0000
0100
,
0000
0001
0000
0001
,
0000
1000
0000
1000
,
0000
0010
0000
0000
,
0010
0010
0000
0000
,
0100
0100
0000
0100
,
0000
0001
0001
0001
,
0000
1000
0000
0000
,
1000
1000
0000
0000
,
0001
0001
0000
0010
,
0000
0100
0100
0000
,
0000
1000
0000
0100
,
0000
1000
0000
0000
,
0000
0001
0000
0100
,
0000
0001
0000
0000
,
0000
1000
1000
1000
,
0000
0001
0001
0001
,
0000
0100
0100
0100
,
0100
0100
0000
0000
,
0000
0000
0000
0010
;

//---------------dance-single - t7r----------------
#NOTES:
     dance-single:
     t7r:
     Easy:
     7:
     :
0000
0000
0000
0000
,
0000
0000
0000
0000
,
0000
0000
0000
0000
,
0000
0000
0000
0000
,
0000
0000
0000
0000
,
0000
0000
0000
0000
,
0000
0000
0000
0000
,
0000
0000
0000
0000
0000
0000
0000
0000
0000
0000
0000
0000
0000
2000
0000
0000
0000
3000
0000
0000
0000
0000
0000
0000
0000
0000
0000
0000
0000
0000
0000
0000
,
0000
0000
0000
0000
0000
0000
0000
0000
0000
0000
0000
0000
0000
0000
0000
0000
0000
0000
0000
0000
0000
0000
0000
0000
0000
0000
0000
0000
0000
0000
0000
0000
0000
0001
0000
0000
0000
0000
0000
0000
0000
0000
0000
0000
0000
0000
0000
0000
0000
0000
0000
0000
0000
0000
0000
0000
0000
0000
0000
0000
0000
0000
0000
0000
0000
0000
0000
0000
0000
0000
0000
0000
0000
0000
0000
0000
0000
0000
0000
0000
0000
0000
0000
0000
0000
0000
0000
0000
0000
0000
0000
0000
0000
0000
1001
0000
,
0000
0000
1000
0000
0000
1000
0000
0000
,
0001
0000
0100
0000
0000
0100
0000
0000
,
0001
0010
0000
0010
,
0000
0100
1000
0001
,
0100
0000
0001
0000
0000
0001
0000
0000
,
1000
0000
0010
0000
0000
0010
0000
0000
,
0100
0001
0000
1000
,
0000
0001
0010
0100
,
1000
0010
0010
0010
,
0110
0001
0001
0001
,
1001
1000
0000
0100
,
0000
0000
0010
0000
0010
0000
0001
1000
,
0001
0100
0100
0100
,
0110
1000
1000
1000
,
1001
0001
0000
0010
,
0000
0000
0100
0000
0100
0000
1000
0001
,
1000
0000
0001
0000
0000
0100
0000
0000
,
0010
0000
1000
0000
0000
0001
0000
0000
,
1000
0100
0000
0010
,
0000
0001
1000
0010
,
0100
0000
0010
0000
0000
1000
0000
0000
,
0001
0000
0010
0000
0000
0001
0000
0000
,
1000
0100
0100
0010
,
0010
2002
0000
0000
,
3003
0010
0000
0100
,
0100
0001
0100
1000
,
0000
0010
0010
1000
,
0100
0001
0100
1000
,
0001
0000
1001
0000
1000
1000
0000
1000
,
1000
0000
0010
0000
0100
0100
0000
0100
,
0100
0001
0000
1000
,
0000
0001
0010
0100
,
1000
0020
0000
0230
,
0000
0302
1000
1000
,
1003
0020
0000
0030
,
2000
0000
3000
0001
,
0010
0100
1000
0100
,
0010
0001
1000
0001
,
1000
0001
0100
0010
,
0001
1000
0100
0010
,
1000
0001
0010
0100
,
0001
1000
0010
0100
,
1000
0000
0001
0000
0000
1000
0000
0000
,
1001
0000
0010
0000
0000
0100
0000
0000
,
0110
0000
0001
0000
0000
0200
0000
0000
,
0301
0000
1000
0000
0000
0200
0000
0000
,
1300
0001
0010
1000
,
0010
0001
0100
0010
,
1000
0000
0100
0000
0000
0020
0000
0000
,
0031
0000
0100
0000
0000
0020
0000
0000
,
1030
0010
1000
0001
,
1000
0100
0010
0001
,
1000
0000
0002
0000
0000
0203
0000
0000
,
0310
1000
0200
0000
,
1300
0001
0010
0100
,
1000
0100
0100
0010
,
0010
0001
0010
1000
,
0001
0100
1000
0001
,
0010
0001
1001
1000
,
1001
0210
0000
0000
,
0000
0000
0000
0002
,
0000
0000
0000
0000
,
0000
0000
0303
0000
;

//---------------dance-single - t7r----------------
#NOTES:
     dance-single:
     t7r:
     Medium:
     11:
     :
0000
0000
0000
0000
,
0000
0000
0000
0000
,
0000
0000
0000
0000
,
0000
0000
0000
0000
,
0000
0000
0000
0000
,
0000
0000
0000
0000
,
0000
0000
0000
0000
,
0000
0000
0000
0000
0000
0000
0000
0000
0000
0000
0000
0000
0000
2000
0000
0000
0000
3000
0000
0000
0000
0000
0000
0000
0000
0000
0000
0000
0000
0000
0000
0000
,
0000
0000
0000
0000
0000
0000
0000
0000
0000
0000
0000
0000
0000
0000
0000
0000
0000
0000
0000
0000
0000
0000
0000
0000
0000
0000
0000
0000
0000
0000
0000
0000
0000
0001
0000
0000
0000
0000
0000
0000
0000
0000
0000
0000
0000
0000
0000
0000
0000
0000
0000
0000
0000
0000
0000
0000
0000
0000
0000
0000
0000
0000
0000
0000
0000
0000
0000
0000
0000
0000
0000
0000
0000
0000
0000
0000
0000
0000
0000
0000
0000
0000
0000
0000
0000
0000
0000
0000
0000
0000
0000
0000
0000
0000
1001
0000
,
0000
0000
1000
0000
0100
0010
0000
1000
,
0010
0000
0001
0000
0100
0010
0000
0001
,
0010
0000
0100
0000
0010
1000
0000
0001
,
0010
0000
0100
0000
0010
0001
1000
0000
,
0001
0000
1000
0000
0100
0010
0000
1000
,
0010
0000
0001
0000
0100
0010
0000
0001
,
0010
0000
0100
0000
0010
1000
0001
0000
,
1000
0000
0001
0010
0100
1000
0001
0000
,
1000
0000
0001
0010
0001
0010
0001
0000
,
0110
0000
1000
0010
1000
0010
1000
0000
,
0110
0000
1001
0000
0100
0001
1000
0000
,
0100
0001
1000
0000
0110
0000
0001
0010
,
0001
0010
0001
1000
0001
1000
0001
0000
,
0110
0000
1000
0001
1000
0001
1000
0000
,
0110
0000
1001
0000
0010
1000
0001
0000
,
0010
1000
0001
0000
0110
0000
1000
1000
,
0001
0001
1000
0100
0000
0010
1000
0000
,
0010
0000
0001
0100
0000
0010
0001
0000
,
0010
0000
0100
0000
0001
1000
0100
0000
,
0001
1000
0100
0000
0110
0000
1000
0010
,
0100
0000
0001
0010
0000
0100
0001
0000
,
0100
0000
1000
0010
0000
0100
1000
0000
,
0100
0110
1001
0110
,
1001
0000
0020
0000
0130
0000
0001
1000
,
0100
1000
0001
0000
1100
0000
0110
0000
,
1100
0001
0101
0110
,
0101
0010
0010
0100
,
0100
0000
0001
0010
0100
1000
0002
0000
,
1003
0000
0110
0000
0010
0010
0000
1000
,
1000
0000
0110
0000
0100
0100
0000
0001
,
0001
0000
1001
0000
0001
0001
0000
0010
,
0010
0000
1001
0000
1000
1000
0000
0100
,
0100
2002
3003
0220
,
0330
2001
0001
0001
,
3001
0020
0000
0000
,
0032
0000
0000
1003
,
0010
0100
0000
0010
2000
0000
0000
3002
,
0000
0000
0000
0000
1003
0000
0000
0000
0100
0000
0010
0000
0000
0010
0000
0000
,
0001
0000
1000
0010
0100
0000
0001
0010
,
0100
0000
1000
0001
0100
0000
0001
1000
,
0100
0000
1000
0001
0010
0000
0001
1000
,
0010
0000
1000
0100
0010
0001
1000
0000
,
0110
0000
0000
0000
0001
0000
0000
1000
0000
0000
0001
0000
0000
1000
0000
0000
,
0110
0000
0000
0000
1000
0000
0000
0001
0000
0000
1000
0000
0000
0001
0000
0000
,
0110
0000
1000
0100
0010
0001
2000
0000
,
3001
0010
0100
1000
0001
0000
0000
0100
,
0100
0001
0001
0000
0100
1000
0100
0000
,
0001
1000
0100
1000
0001
0000
0110
0000
,
0110
0000
1000
0010
0100
0001
2000
0000
,
3001
0100
0010
1000
0001
0000
0000
0010
,
0010
0001
0001
0000
0010
1000
0010
0000
,
0001
0100
1000
0100
0010
0000
1001
0000
,
1001
0000
2010
0000
0000
3002
0000
0000
,
1003
0100
0001
0100
0020
0000
0000
0000
,
0031
1000
0001
0100
0010
2000
0000
3020
,
0000
0130
0001
0100
1000
0100
0010
0000
,
0110
0000
0001
0010
0100
1000
0001
0010
,
0100
1000
0001
0100
0010
1000
0001
0100
,
0010
1000
1001
0000
0110
0000
0101
0000
,
1010
2001
0000
0000
,
0000
0000
0000
0000
0000
0000
3010
0200
,
0000
0000
0000
0000
,
0000
0000
0300
0000
;

//---------------dance-single - t7r----------------
#NOTES:
     dance-single:
     t7r:
     Hard:
     15:
     :
0000
0000
0000
0000
,
0000
0000
0000
0000
,
0000
0000
0000
0000
,
0000
0000
0000
0000
,
0000
0000
0000
0000
,
0000
0000
0000
0000
,
0000
0000
0000
0000
,
0000
0000
0000
0000
0000
0000
0000
0000
0000
0000
0000
0000
0000
2000
0000
0000
0000
3000
0000
0000
0000
0000
0000
0000
0000
0000
0000
0000
0000
0000
0000
0000
,
0000
0000
0000
0000
0000
0000
0000
0000
0000
0000
0000
0000
0000
0000
0000
0000
0000
0000
0000
0000
0000
0000
0000
0000
0000
0000
0000
0000
0000
0000
0000
0000
0000
0001
0000
0000
0000
0000
0000
0000
0000
0000
0000
0000
0000
0000
0000
0000
0000
0000
0000
0000
0000
0000
0000
0000
0000
0000
0000
0000
0000
0000
0000
0000
0000
0000
0000
0000
0000
0000
0000
0000
0000
0000
0000
0000
0000
0000
0000
0000
0000
0000
0000
0000
0000
0000
0000
0000
0000
0000
0000
0000
0000
0000
2002
0000
,
0000
3003
1000
0100
0100
0010
1000
0000
,
0001
0100
0100
0010
0001
0000
0000
1010
,
0000
0101
0000
0001
0100
0100
0010
0001
,
0010
1000
0010
0100
0001
0000
1000
0100
,
0010
0000
0001
0010
0010
0100
0001
0000
,
1000
0010
0010
0100
1000
0000
0000
0101
,
0000
1100
0000
0001
0010
1000
0010
0100
,
1000
0100
0001
0100
0010
0001
1000
0001
,
1001
0000
0010
1000
0010
1000
0010
1000
,
0110
0000
0010
0001
0010
0001
0010
0001
,
0110
0000
1010
0001
0100
0000
0011
1000
,
0100
0000
1010
0001
0100
1000
0100
0010
,
0110
0000
1001
0100
1000
0100
1000
0001
,
0110
0000
1001
0100
0001
0100
0001
1000
,
0110
0000
0101
0010
1000
0000
1100
0010
,
0001
0000
0000
0000
1001
0000
0000
0000
0101
0000
0000
0001
0100
0000
0100
0000
,
0010
0010
1000
0100
0100
0110
1010
0000
,
0001
0100
0100
0110
0011
0000
0000
1010
,
0000
0101
0000
1000
0100
1000
1100
0100
,
0001
0100
0010
0001
0011
0000
1001
0010
,
0100
0000
0001
0010
0010
0110
0011
0000
,
1000
0010
0010
0110
1010
0000
0000
0001
,
0100
1000
0100
0000
0110
0000
1010
0000
,
1001
0000
0000
0000
0011
0000
0000
0000
1001
0000
0000
0100
0010
0000
0010
0000
,
1000
0001
0100
0000
0001
0000
0010
0000
0010
0000
1000
0000
0010
0000
0011
0000
,
1001
0000
0001
0100
0100
1100
0110
0010
,
1000
0000
0001
0100
1000
0000
0001
0100
,
1000
0000
0001
0010
1000
0010
0001
0100
,
1010
0000
0110
0000
0101
0101
0000
1010
,
1010
0000
1001
0000
0011
0011
0000
1100
,
1100
0000
1000
0100
0001
0000
1000
0100
,
0001
0000
1000
0010
0001
0010
0100
0001
,
1000
2002
3003
0220
,
0330
0000
2001
0000
3001
1000
0001
1000
,
0001
1000
0020
0000
0000
0000
0000
1030
,
0200
0000
0000
0000
0000
0000
1300
0010
,
0001
0010
1000
0100
2000
0000
0000
3002
,
0000
0000
0000
0000
1003
0000
0100
0000
0010
0000
0001
0000
0000
0110
0000
0000
,
1001
0000
1000
0001
1000
0100
0010
1000
,
0001
0100
0010
0001
1000
0010
0100
1000
,
0001
0010
0100
0001
1000
0100
0010
0001
,
1000
0100
0001
0100
1000
0010
0001
0010
,
1000
0000
0001
0000
1001
0000
0000
1001
0000
0000
0110
0000
0000
1001
0000
0000
,
0001
0000
0100
0000
0110
0000
0000
0101
0000
0000
1010
0000
0000
1001
0000
0000
,
1000
0100
0010
0001
0100
1100
0110
0000
,
0010
1000
0100
0101
0110
0000
0000
0001
,
0001
0100
0100
1000
1000
0100
0100
0010
,
0010
0000
1000
0000
0100
0000
0010
0000
0011
0000
0000
0000
0001
1000
0001
0000
,
1000
0000
0110
1000
0010
0011
0110
0000
,
0100
0001
0010
1010
0110
0000
0000
1000
,
1000
0010
0010
0000
0001
0010
0010
0000
,
0100
0000
0001
0000
0001
0000
1000
0000
0100
0000
0000
0000
1000
0001
1000
0000
,
0001
0000
2000
0000
0000
3020
0000
0000
,
1030
0000
0100
0000
1000
0010
0100
0002
0000
0000
0000
0000
0000
0000
0000
0000
,
1003
0001
1000
0000
0010
1000
0010
0000
1000
0000
0200
0000
0000
0000
0302
0000
,
0000
0000
0103
0000
0010
0000
0100
1000
0001
0000
0100
0001
1000
0000
0000
0000
,
0110
0000
0000
0000
0001
0010
0100
0000
1000
0000
0000
1000
0001
0010
0100
0000
,
1000
0000
0000
1000
0001
0100
0010
0000
1000
0000
0000
1000
0001
0100
0010
0000
,
1000
0000
0000
1000
0001
0000
0000
0000
0110
0000
0000
0000
1010
0000
0000
0000
,
1001
0210
0000
0000
,
0000
0000
0000
0000
0000
0000
0301
2000
,
0000
0000
0000
0000
,
0000
0000
3000
0000
;

//---------------dance-single - t7r----------------
#NOTES:
     dance-single:
     t7r:
     Challenge:
     18:
     :
0000
0000
0000
0000
,
0000
0000
0000
0000
,
0000
0000
0000
0000
,
0000
0000
0000
0000
,
0000
0000
0000
0000
,
0000
0000
0000
0000
,
0000
0000
0000
0000
,
0000
0000
0000
0000
0000
0000
0000
0000
0000
0000
0000
0000
0000
0000
0000
0000
0000
0000
0000
0000
0000
0000
0000
0000
0000
0000
1000
0000
0000
0000
0000
1000
0000
0000
0000
0000
1000
0000
0000
0000
0000
0000
0000
0000
0000
0000
0000
0000
0000
0000
0000
0000
0000
0000
0000
0000
0000
0000
0000
0000
0000
0000
0000
0000
,
0000
0000
0000
0000
0000
0000
0000
0000
0000
0000
0000
0000
0000
0000
0000
0000
0000
0000
0000
0000
0000
0000
0000
0000
0000
0000
0000
0000
0000
0000
0000
0000
0000
0000
0000
0000
0000
0000
0000
0000
0000
0000
0000
0000
0000
0000
0000
0000
0000
0000
0000
0000
0000
0000
0000
0000
0000
0000
0000
0000
0000
0000
0000
0000
0000
0000
0001
0000
0000
0000
0000
0000
1000
0000
0000
0000
0000
0000
0001
0000
0000
0000
0000
0000
1000
0000
0000
0000
0000
0000
0000
0000
0000
0000
0000
0000
0000
0000
0000
0001
0000
0000
0000
0000
0000
0000
0000
0000
0000
0000
0000
0000
0000
0000
0000
0000
0000
0000
0000
0000
0001
0000
0000
0000
0000
0000
0000
0000
0000
0000
0000
0000
0000
0000
0000
0000
0000
0000
0000
0000
0000
0000
0000
0000
0000
0000
0000
0000
0000
0000
0000
0000
0000
0000
0000
0000
0000
0000
0000
0000
0000
0000
0000
0000
0000
0000
0000
0000
0000
0000
0000
0000
0000
0000
0000
0000
0000
0000
0000
0000
0000
0000
0000
0000
0000
0000
0000
0000
2002
0000
0000
0000
,
0000
0000
3003
0000
1010
0000
1000
0100
1000
0000
0010
0000
1000
0100
1000
0000
,
0001
0000
0100
0001
1000
0000
0001
0100
0001
0000
1000
0000
0001
0100
0001
0000
,
1000
0000
0001
0010
0100
0000
1000
0010
1000
0000
0001
0000
1000
0010
1000
0000
,
0001
0000
0010
0100
1000
0000
0100
0010
0100
0000
0010
0000
0001
1000
0100
0000
,
1000
0000
0001
0000
0100
0000
0001
0010
0001
0000
0100
0000
0001
0010
0001
0000
,
1000
0000
0010
1000
0100
0000
0010
0001
0010
0000
0100
0000
0010
0001
0010
0000
,
0001
0000
1000
0010
0100
0000
0010
1000
0010
0000
0100
0000
0010
1000
0010
0000
,
0100
0000
0010
1000
0001
0000
0010
0001
1000
0000
0001
0100
0001
1000
0001
1000
,
0001
1000
0001
1000
0001
0010
0001
0010
0001
0010
0001
0010
0001
0010
0001
0010
,
0100
0000
0110
0000
1000
0010
1000
0010
1000
0010
1000
0010
1000
0010
1000
0010
,
0100
0000
0110
0000
1001
0000
0001
0010
0100
0000
0110
0000
1001
0000
1000
0010
,
0100
0000
0110
0000
1001
0000
0001
0100
1000
0000
0001
0100
1000
0000
0001
1000
,
0001
0100
0001
0000
1000
0100
1000
0100
1000
0100
1000
0100
1000
0100
1000
0100
,
0010
0000
0110
0000
0001
0100
0001
0100
0001
0100
0001
0100
0001
0100
0001
0100
,
0010
0000
0110
0000
1001
0000
1000
0001
0010
0000
0001
0000
1001
0000
0001
1000
,
0010
0000
1000
0000
1001
0000
0001
0010
1000
0000
0001
0010
1000
0000
1000
0000
,
0110
0000
0110
0000
0101
0000
0001
0100
0010
0000
1000
0000
0001
0100
0010
0000
,
1000
0001
0010
0100
1000
0000
0010
0100
0001
0000
1000
0000
0010
0100
0001
0000
,
1000
0100
0010
0001
1000
0000
0100
1000
0001
0000
0100
0000
0001
1000
0010
0000
,
1000
0010
0100
0001
1000
0000
0100
0010
0001
0000
0100
0000
0010
0100
0001
0000
,
0100
0000
0010
0000
1000
0000
0001
0010
1000
0000
0001
0000
1000
0010
0001
0000
,
1000
0100
0010
0001
1000
0000
0001
0100
1000
0000
0001
0000
1000
0100
0001
0000
,
0100
0001
1000
0010
0100
0000
0010
1000
0100
0000
0010
0001
0100
0000
0010
1000
,
0001
0000
0010
0001
1000
0000
0010
1000
0100
0000
0010
0100
1000
0000
1001
0000
,
0100
0010
0100
0000
0110
0000
0001
0100
1000
0000
0001
0100
1000
0000
0001
0100
,
0010
0001
0010
0000
0110
0000
1000
0100
0001
0000
1000
0100
0001
0000
1000
0100
,
0010
1000
0010
0000
0001
0000
0100
1000
0001
0000
0100
1000
0001
0000
0100
0010
,
0001
0000
0010
1000
0100
0001
0100
0000
0001
0000
1000
0010
0001
0010
0100
0001
,
1000
0001
0100
0000
0110
0000
0001
1000
0010
0000
1010
0000
1000
0001
0010
0000
,
0011
0000
0001
1000
0100
0000
1000
0001
0100
0000
0101
0000
0001
1000
0100
0000
,
1100
0000
1000
0001
0010
0000
0001
0100
0010
0000
0011
0000
1000
0100
0010
0000
,
1010
0000
0001
0010
0100
0000
1000
0100
0001
0000
0101
0000
0001
0100
1000
0000
,
0001
0100
0010
1000
2002
0000
0000
0000
3003
0000
0000
0000
0220
0000
0000
0000
,
0330
0000
0000
0000
2001
0000
0000
0000
3001
1000
0001
1000
0001
0010
0100
1000
,
0001
1000
0001
1000
0001
1000
0001
1000
0020
0000
0000
0000
0000
0000
0000
0000
0000
0000
0000
0000
0000
0000
0000
0000
0000
0000
0000
0000
1030
0000
0100
0000
,
0010
0001
2000
0000
0000
0000
0000
0000
0000
0000
0000
0000
3001
0100
0001
0100
,
0010
1000
0010
1000
0001
0010
0100
0010
0002
0000
0000
0000
0103
1000
0100
0010
,
0100
0001
0010
0100
0010
0000
0001
0100
0010
0000
1000
0000
0000
0110
0000
0000
,
1001
0000
0001
0000
0101
0000
0101
0000
1000
0010
0100
0001
0000
0001
1000
0000
,
0001
0010
0100
1000
0000
1000
0010
0000
0000
0110
0000
0000
0001
0100
0010
1000
,
0000
1000
0001
0100
0001
0100
0010
1000
0010
1000
0001
0010
0100
1000
0100
0010
,
0100
1000
0001
0000
1000
0100
1000
0100
0010
0001
0010
0001
1000
0010
0100
0001
,
1000
0100
0010
0001
1001
0000
0000
0101
0000
0000
1100
0000
0000
0011
0000
0000
,
1001
0000
0110
0000
1001
0000
0000
1100
0000
0000
0011
0000
0000
1001
0000
0000
,
0110
0000
1001
0000
0110
0000
0010
1000
0100
0000
1100
0000
1100
0000
1000
0001
,
0100
0000
0001
0010
0100
0000
0110
0000
0110
0000
0010
0000
0001
0000
1000
0001
,
0010
0000
0011
0000
0011
0000
0001
1000
0010
0000
1010
0000
1010
0000
0010
0100
,
0001
0000
0101
0000
0101
0000
1100
0000
1100
0000
0001
0010
1000
0000
0001
0100
,
1000
0010
0100
0000
1010
0000
1000
0100
0010
0000
0011
0000
0011
0000
0001
0100
,
0010
0000
0100
0001
1000
0000
1010
0000
1010
0000
0010
0100
0001
0000
1000
0100
,
0001
0000
1100
0000
1100
0000
0001
0100
1000
0000
0101
0000
0101
0000
1000
0010
,
0001
0000
1010
0000
1010
0000
0011
0000
0011
0000
0010
0100
0001
0000
1000
0100
,
0010
0001
0010
0100
2000
0000
0000
0000
3010
0000
0102
0000
0000
0000
1003
0000
,
0001
0010
1000
0010
0001
0100
1000
0200
0000
0000
0000
0000
0000
0000
0301
1000
,
0001
0010
1000
0010
1000
0010
0001
0100
0001
0000
2000
0000
0000
0000
3001
0100
,
1000
0100
1000
0100
0001
0010
0100
1000
0100
0010
0001
0100
0010
0000
0000
0000
,
0110
0000
0000
0000
0000
0000
0000
0000
0000
0000
0000
0000
1000
0000
0000
0100
0000
0000
1000
0000
0000
0100
0000
0000
1000
0000
0010
0000
0100
0000
0001
0000
0000
1000
0000
0000
0001
0000
0000
0010
0000
0000
0001
0000
0000
0010
0000
0000
,
0001
0000
0100
0000
0010
0000
1000
0000
0000
0001
0000
0000
1000
0000
0000
0100
0000
0000
1000
0000
0000
0100
0000
0000
0010
0000
0001
0000
1000
0000
0010
0000
0000
1000
0000
0000
0001
0000
0000
0100
0000
0000
0001
0000
0000
0100
0000
0000
,
0010
0000
1000
0000
0001
0000
1000
0000
0000
0001
0000
0000
1001
0000
0000
0000
0000
0000
0000
0000
0000
0000
0000
0000
1010
0000
0000
0000
0000
0000
0000
0000
0000
0000
0000
0000
0101
0000
0000
0000
0000
0000
0000
0000
0000
0000
0000
0000
,
0011
2001
0000
0000
,
0000
0000
0000
0000
0000
0000
3010
0200
,
0000
0000
0000
0000
,
0000
0000
0300
0000
;
