#TITLE:Söz Yaşları;
#ARTIST:Irmak Arıcı;
#TITLETRANSLIT:Soz Yaslari;
#ARTISTTRANSLIT:Irmak Arici;
#BANNER:Soz Yaslari.png;
#BACKGROUND:Soz Yaslari-bg.png;
#JACKET:Soz Yaslari-jacket.png;
#CDTITLE:./CDTITLES/NONE.PNG;
#MUSIC:Soz Yaslari.ogg;
#SAMPLESTART:37.674;
#SAMPLELENGTH:15;
#BPMS:0=86;

//---------------dance-single - t7r----------------
#NOTES:
     dance-single:
     t7r:
     Beginner:
     1:
     :
0000
0000
0000
0000
,
0000
0000
0000
0000
,
0000
0000
0000
0000
,
0000
0000
0000
0000
,
0000
0000
0000
0000
,
0010
0000
0000
0000
,
1000
0000
0000
0000
,
0001
0000
0000
0000
,
0100
0000
0100
0000
,
0010
0000
0000
0000
,
0100
0000
0000
0000
,
0001
0000
0000
0000
,
0010
0000
0010
0000
,
0010
0000
1000
0000
,
1000
0000
0001
0000
,
0001
0000
0100
0000
,
0100
0000
0010
0010
,
0010
0000
0100
0000
,
0100
0000
0001
0000
,
0001
0000
1000
0000
,
1000
0000
0000
0000
,
0000
0000
0100
0000
,
0000
0100
0000
0000
,
0000
1000
0000
0000
,
0000
0001
0000
0000
,
0100
0000
0010
0000
,
0000
0000
1000
0000
,
0000
0000
0001
0000
,
0000
0000
0010
0000
,
0000
0000
0001
0000
,
0001
0000
1000
0000
,
1000
0000
0010
0000
,
0010
0000
0100
0000
,
0100
0000
0000
0000
,
0010
0000
0010
0000
,
1000
0000
1000
0000
,
0001
0000
0001
0000
,
0010
0000
0000
0000
,
0001
0000
0001
0001
,
0000
1000
1000
0000
,
0010
0000
0010
0010
,
0000
0100
0100
0000
;

//---------------dance-single - t7r----------------
#NOTES:
     dance-single:
     t7r:
     Easy:
     4:
     :
0000
0000
0000
0000
,
0000
0000
0000
0000
,
0000
0000
0000
0000
,
0000
0000
0000
0000
,
0000
0000
0000
0000
,
1000
0001
0100
0000
,
0001
1000
0100
0000
,
1000
0001
0010
0000
,
0001
0001
0001
0000
,
0100
0010
1000
0000
,
0010
0100
0001
0000
,
0010
0001
0100
0000
,
0010
0000
1000
1000
,
2000
0000
3001
0001
,
0010
0010
0001
0001
,
1000
1000
0001
0001
,
0100
0100
0010
0100
,
0002
0000
1003
1000
,
0010
0010
1000
1000
,
0001
0001
1000
1000
,
0100
0100
0020
0000
,
0000
0000
0031
0000
,
0001
1001
0000
1000
,
0001
1001
0001
0000
,
1000
1001
0010
0000
,
0100
0000
0020
0000
,
0000
0030
2000
0000
,
0000
3000
0002
0000
,
0000
0003
0020
0000
,
0000
0030
0001
0010
,
0011
0000
1000
0010
,
1010
0000
0001
0100
,
0101
0000
1000
0100
,
0010
0001
2000
0000
,
3001
0100
0001
1001
,
1000
0100
1000
1001
,
0001
0010
0001
1001
,
1000
0010
0200
0000
,
0310
0000
0100
0101
,
0000
0010
1000
1100
,
0010
0000
0100
0110
,
0000
0001
2000
0000
,
3010
0000
0000
0000
;

//---------------dance-single - t7r----------------
#NOTES:
     dance-single:
     t7r:
     Medium:
     6:
     :
0000
0000
0000
0000
,
0000
0000
0000
0000
,
0000
0000
0000
0000
,
0000
0000
0000
0000
,
0000
0000
0000
0000
,
0100
0010
1000
0000
0001
0000
0010
0000
,
0100
0010
0001
0000
1000
0000
0010
0000
,
0100
0001
1000
0000
0001
0000
0010
0000
,
0001
0100
0001
0000
1000
0100
1000
0000
,
0010
0100
0001
0000
1000
0000
0001
0000
,
0010
0100
1000
0000
0001
0000
1000
0000
,
0010
0100
0001
0000
0100
0000
0010
0000
,
1000
0100
1000
0000
0001
1000
0010
0000
,
0200
0000
0000
0000
0301
0010
0100
0000
,
1000
1000
1000
0000
0010
0100
0001
0000
,
0010
0010
0010
0000
0100
1000
0001
0000
,
0100
0100
0100
0000
0010
1000
0001
0000
,
2000
0000
0000
0000
3001
0010
0100
0000
,
0010
0010
1001
0000
1000
0010
0100
0000
,
0010
0010
1001
0000
0100
0010
0001
0000
,
0100
0100
0110
0000
0002
0000
0000
0000
,
2000
0000
3003
0000
0001
0001
0000
1000
,
0100
0010
0001
0000
0000
0000
1000
0000
,
0001
0100
0010
0000
1000
1000
0000
0001
,
0010
0100
1000
0000
0000
0000
0010
0000
,
0100
0001
1000
0000
0020
0000
0000
0000
,
0000
0000
0230
0000
,
0000
0000
0302
0000
,
0000
0000
2003
0000
,
0002
0000
3003
0000
1000
0100
0010
0000
,
0002
0000
0103
0000
0001
0010
0100
0000
,
2000
0000
3010
0000
0100
0001
1000
0000
,
0020
0000
0130
0000
0001
0010
0100
0000
,
1000
0001
0100
0000
0220
0000
0330
0000
,
0010
1000
0100
0000
1000
1000
1001
0000
,
1000
0010
0100
0000
0001
0001
1001
0000
,
0001
0010
0100
0000
0010
0010
0110
0000
,
0010
0001
0100
0000
1000
0100
0001
0000
,
1000
1000
0000
0001
0100
0010
1001
0000
,
0000
0001
0001
0000
1000
0010
1001
0000
,
1000
1000
0000
0000
0100
1000
0110
0000
,
0000
0000
0001
0000
1000
0100
0001
0000
,
0110
0000
0000
0000
;

//---------------dance-single - t7r----------------
#NOTES:
     dance-single:
     t7r:
     Hard:
     9:
     :
0000
0000
0000
0000
,
0000
0000
0000
0000
,
0000
0000
0000
0000
,
0000
0000
0000
0000
,
0000
0000
0000
0000
,
0010
1000
0100
0000
0010
0001
1000
0000
,
0100
1000
0010
0000
0100
0001
1000
0000
,
0001
0010
0100
0000
1000
0010
0100
0000
,
0010
1000
0100
0010
0001
0100
0010
1000
,
0001
0100
0101
0000
1000
0100
1100
0000
,
0001
0010
0011
0000
1000
0010
1010
0000
,
0100
0001
0011
0000
0100
1000
1010
0000
,
0100
0001
0010
0100
1000
0010
0100
0000
,
0002
0000
1003
0000
0010
1000
0100
0000
,
0110
1001
0110
1001
0010
0001
0100
0000
,
0110
1001
0110
1001
0100
1000
0010
0000
,
0110
0011
0110
1010
0100
0001
0010
0000
,
0200
0000
0310
0000
0001
0100
1000
0100
,
1001
0110
1001
0110
1000
0100
0001
0100
,
1001
0110
1001
0110
0001
0010
1000
0010
,
0110
0011
0101
1010
0002
0000
0000
0000
,
2000
0000
3003
0000
1000
0100
0000
0001
,
0100
1000
1001
0000
0000
0001
0010
1000
,
0010
0001
1001
0000
0001
0100
0000
1000
,
0100
0001
0101
0000
0000
0001
0010
1000
,
0002
0000
0103
0010
0200
0000
0000
0000
,
0000
0000
0320
0000
,
0000
0000
0032
0000
,
0000
0000
2003
0000
,
0002
0000
3003
0000
1000
0100
0011
0000
,
0001
0100
1010
0000
0001
1000
0110
0000
,
1000
0001
0110
0000
0001
0010
1100
0000
,
1000
0010
0101
0000
0001
0010
1000
0010
,
0100
1000
0001
0100
0020
0000
0130
0000
,
0010
1000
0100
0001
1100
0101
1100
0101
,
0010
0001
0100
1000
0101
1100
0101
1100
,
0100
1000
0010
0001
0011
1010
0110
1010
,
0100
0001
0010
1000
0020
0000
0130
0000
,
1000
0100
0001
0100
1100
0110
0011
0000
,
0000
0001
0100
1000
1100
0110
1010
0000
,
1000
0010
0001
0010
0110
0101
0011
0000
,
0000
0001
0010
1000
0002
0000
0103
1000
,
0010
0000
0000
0000
;

//---------------dance-single - t7r----------------
#NOTES:
     dance-single:
     t7r:
     Challenge:
     16:
     :
0000
0000
0000
0000
,
0000
0000
0000
0000
,
0000
0000
0000
0000
,
0000
0000
0000
0000
,
0000
0000
0000
0000
,
0001
0010
0100
0010
0001
0101
0011
0000
1000
0100
0010
0100
1000
1010
1100
0000
,
0001
0100
0010
0100
0001
1001
1100
0000
1020
0000
0032
0000
0023
0000
2030
0000
,
3100
0001
0100
0010
0001
0011
1001
0000
0100
1000
0100
0010
1000
1010
1001
0000
,
2000
0000
3200
0000
0302
0000
2003
0000
3001
0100
0010
0011
1001
0000
0110
0000
,
1010
0010
0100
0010
1000
1010
1001
0000
0011
0010
0100
0010
0001
0011
1001
0001
,
0100
0000
0010
0000
1000
0000
0001
0000
0100
0000
0101
0000
1001
0000
0000
0000
1100
0000
0100
0000
0010
0000
0100
0000
1000
0000
1010
0000
0110
0000
0100
0001
,
1000
0100
0001
0100
0010
0011
0101
0000
0001
0100
1000
0100
0010
0110
1010
0000
,
0002
0000
0023
0000
2030
0000
3002
0000
0203
0000
1300
0010
0100
0000
0010
0000
,
0210
0000
0000
0000
0301
0100
0100
0100
1000
0100
0001
1000
0100
0000
1100
0000
,
0011
0000
1001
0010
0100
0000
1200
0000
0301
0100
1000
0001
0100
0000
0101
0000
,
1010
0000
1001
0010
0100
0000
0201
0000
1300
0100
0001
1000
0010
0000
0110
0000
,
0101
0000
0011
0100
1000
0000
0021
0000
1030
0000
0010
0001
0100
0000
0010
1000
,
0200
0000
0310
0001
1000
0000
0001
0000
1000
0100
0010
1000
0100
0000
1100
0000
,
0011
0000
1010
0001
0100
0000
1200
0000
0301
0100
0010
0001
0100
0000
0101
0000
,
0110
0000
0011
1000
0100
0000
0201
0000
1300
0010
0100
1000
0010
0000
0110
0000
,
0011
0000
1100
0001
0010
0000
0120
0000
0032
0000
0000
0000
0000
0000
0000
0000
,
2003
0000
0000
0000
0000
0000
0000
0000
3020
0000
0000
0000
0000
0000
0000
0000
1030
0000
0100
0010
0001
0000
2000
0000
0000
0000
3001
0000
0100
0000
1000
0000
,
0100
0001
0100
0010
0100
0000
0001
1000
0002
0000
0000
0000
0013
0000
0100
0000
0000
0000
1000
0000
0100
0000
0001
0000
0200
0000
0000
0000
0320
0000
0000
0000
,
0031
0010
1000
0010
0001
0000
1000
0001
2000
0000
0000
0000
3020
0000
0000
0000
1030
0000
0100
0000
0010
0000
2000
0000
0000
0000
3010
0000
0001
0000
0100
0000
,
0001
0100
1000
0100
0001
0000
1000
0001
2000
0000
0000
0000
3001
0000
0010
0000
1000
0000
0001
0000
0100
0000
1000
0000
0001
0000
0100
0000
0010
0000
0001
0000
,
2000
0000
3100
0001
0020
0000
0031
0010
0100
0000
1000
0000
0010
0000
0001
0000
,
0020
1000
0230
0010
0301
0010
1000
0010
,
0200
0001
2300
0010
3100
0001
0100
0010
,
0002
0100
2003
0100
3001
0001
0100
0100
,
1000
0010
0001
0010
0100
0000
0110
0000
0001
0100
1000
0100
0010
0110
0101
0000
,
1000
0100
0001
0100
0010
0110
1100
0000
0001
0100
0010
0001
0010
0110
1010
0000
,
1000
0100
0010
1000
0010
0110
0011
0000
1001
0001
0100
1000
1100
0110
1010
0000
,
1001
1000
0100
0001
0101
0110
0011
0000
2000
0000
3020
0000
0230
0000
2300
0000
,
3100
0001
0010
1000
0200
0000
0302
0000
,
0103
0001
0010
0100
0001
0000
0101
0000
1100
0000
0110
0001
1000
0000
1001
0000
,
0100
1000
0010
0100
1000
0000
1100
0000
0101
0000
0110
1000
0001
0000
0011
0000
,
0010
0100
0001
0010
0100
0000
0110
0000
0101
0000
1010
0001
1000
0000
1001
0000
,
1100
0000
0100
0001
0010
0000
0100
0001
2000
0000
0000
0000
3020
0000
0000
0000
,
1030
0000
0100
0000
0100
0000
0010
0000
0000
0000
1000
0000
0100
0000
0100
0000
0001
0100
1000
0100
0001
0000
1000
0001
2000
0000
0000
0000
3001
0000
0010
0000
,
0000
0000
1000
0000
0010
0000
0001
0000
2000
0000
0000
0000
3001
0000
0100
0000
1000
0100
0010
0100
0001
0000
1000
0100
2000
0000
0000
0000
3001
0000
0010
0000
,
0001
0000
0100
0000
0100
0000
0010
0000
0000
0000
0001
0000
0100
0000
0100
0000
1000
0100
0001
0100
1000
0000
0001
1000
0002
0000
0000
0000
0103
0000
1000
0000
,
0100
0001
0010
1000
0001
0100
0010
0001
2000
0000
3010
0001
0200
0000
0310
0001
,
1000
0000
0000
0000
;

//---------------dance-double - t7r----------------
#NOTES:
     dance-double:
     t7r:
     Easy:
     5:
     :
00000000
00000000
00000000
00000000
,
00000000
00000000
00000000
00000000
,
00000000
00000000
00000000
00000000
,
00000000
00000000
00000000
00000000
,
00000000
00000000
00000000
00000000
,
01000000
00010000
10000000
00000000
,
01000000
00100000
00001000
00000000
,
00010000
00000010
00000100
00000000
,
00000001
00000010
00000100
00001000
,
00010000
10000000
00100000
00000000
,
10000000
01000000
00100000
00000000
,
00000010
00001000
00000100
00000000
,
00000010
00000001
00000100
00001000
,
00010000
00000000
10010000
10000000
,
00100000
00100000
10000000
10000000
,
01000000
00010000
00001000
00001000
,
00000100
00000100
00000010
00001000
,
00000002
00000000
00001003
00001000
,
00000100
00000100
00010000
00010000
,
00001000
01000000
00010000
00010000
,
00100000
00010000
20000000
00000000
,
00000000
30010000
10000000
00000000
,
00010000
00110000
00000000
00001000
,
00010000
00010010
00000010
00000000
,
00000100
00000110
00000000
00000001
,
00000010
00000100
00020000
00000000
,
00000000
00000000
00032000
00000000
,
00000000
00000000
02003000
00000000
,
00000000
00000000
03100000
00000000
,
10000000
00000000
01000000
10000000
,
11000000
00000000
00100000
00001000
,
00101000
00000000
00001000
00010000
,
00010010
00000000
00000100
00000000
,
00000010
00001000
00000002
00001003
,
00001001
00000001
00000100
00001000
,
00010000
00001000
00100000
00010000
,
10000000
01000000
00010000
00001000
,
00000010
00000001
00000200
00000000
,
00000310
00000000
00000010
00010000
,
00000000
00000100
00010000
00001000
,
00100000
00000000
00010000
10000000
,
00000000
01000000
00010000
00001000
,
00000010
00000000
00000000
00000000
;

//---------------dance-double - t7r----------------
#NOTES:
     dance-double:
     t7r:
     Medium:
     6:
     :
00000000
00000000
00000000
00000000
,
00000000
00000000
00000000
00000000
,
00000000
00000000
00000000
00000000
,
00000000
00000000
00000000
00000000
,
00000000
00000000
00000000
00000000
,
00000010
00000001
00000100
00000000
00000001
00000000
00001000
00000000
,
00000100
00010000
00001000
00000000
00010000
00000000
00001000
00000000
,
01000000
00010000
10000000
00000000
01000000
00000000
00100000
00000000
,
00001000
00010000
00000010
00000000
00010000
00001000
00100000
00000000
,
00010000
01000000
00100000
00000000
01000000
00000000
01000000
00000000
,
00100000
10000000
01000000
00000000
00010000
00000000
00010000
00000000
,
00000010
00000100
00000001
00000000
00000010
00000000
00000010
00000000
,
00000001
00000100
00000010
00000000
00010000
00001000
00010000
00000000
,
00022000
00033000
00000010
00000100
,
00000001
00000001
00000001
00000000
00000010
00000000
00000100
00000000
,
00010000
00010000
00010000
00000000
00001000
00000000
01000000
00000000
,
00100000
00100000
00100000
00000000
10000000
00000000
01000000
00000000
,
00010000
00001000
00010000
00000000
00000010
00000000
00001000
00000000
,
00000001
00000001
00001001
00000000
00000010
00000000
00000001
00000000
,
00001000
00001000
00001100
00000000
00000100
00000000
00010000
00000000
,
00001000
00001000
00011000
00000000
00200000
00000000
00000000
00000000
,
02000000
00000000
03300000
00000000
10000000
01000000
00000000
00010000
,
00001000
00011000
00000000
00000001
,
00000100
00001000
00010000
00000000
10000000
00100000
00000000
00001000
,
00010000
00000000
00011000
00000000
00000000
00000000
00000010
00000100
,
00000001
00000000
00000010
00000100
00020000
00000000
00000000
00000000
,
00000000
00000000
00032000
00000000
,
00000000
00000000
02003000
00000000
,
00000000
00000000
03200000
00000000
,
20300000
00000000
30010000
00000000
10000000
00000000
01000000
00010000
,
00002000
00000000
00003010
00000000
00000000
00000001
00000100
00000000
,
00002000
00000000
00103000
00000000
00000000
00010000
10000000
00000000
,
02000000
00000000
03100000
00000000
00010000
00001000
00000010
00000000
,
00000100
00001000
00010000
00000000
00200000
00000000
00300000
00000000
,
10000000
00000000
00010000
00000000
01000000
01000000
01001000
00000000
,
00001000
00000000
00010000
00000000
00000100
00000100
00010100
00000000
,
00000010
00000000
00000100
00000000
00000001
00000001
00000011
00000000
,
00000100
00000000
00010000
00000000
00001000
00010000
00001000
00000000
,
01000000
01000000
00000000
10000000
01000000
00010000
00001000
00000000
,
00000000
00000010
00001000
00000000
00000001
00000010
00000100
00000000
,
00000010
00000010
00000000
00000001
00000010
00001000
00010000
00000000
,
00000000
00100000
10000000
01000000
00020000
00000000
00031000
00000000
,
00011000
00000000
00000000
00000000
;

//---------------dance-double - t7r----------------
#NOTES:
     dance-double:
     t7r:
     Hard:
     8:
     :
00000000
00000000
00000000
00000000
,
00000000
00000000
00000000
00000000
,
00000000
00000000
00000000
00000000
,
00000000
00000000
00000000
00000000
,
00000000
00000000
00000000
00000000
,
01000000
00001000
00010000
00000000
00000010
00001000
00000001
00000000
,
00000010
00000100
00010000
00000000
00001000
01000000
00010000
00100000
,
00010000
10000000
01000000
00000000
00100000
00001000
00010000
00000000
,
00000010
00001000
00010000
01000000
10000000
01000000
00010000
00001000
,
00000010
00000100
00000101
00000000
00000010
00000100
00010100
00000000
,
00001000
01000000
01010000
00000000
00100000
10000000
11000000
00000000
,
01000000
00010000
00011000
00000000
00000010
00001000
00001001
00000000
,
00000001
00000100
00001000
00010000
00100000
00100000
01000000
01000000
,
00020000
00000000
10030000
00000000
10000000
01000000
00100000
00000000
,
00001000
00011000
00011000
00000000
00000010
00001000
00000001
00000000
,
00000100
00000101
00000101
00000000
00000001
00000100
00000010
00000000
,
00010000
00010010
00010010
00000000
00010000
00001000
01000000
00000000
,
00020000
00000000
10030000
00000000
01000000
00010000
00001000
00010000
,
00011000
00001000
00011000
00000000
00000010
00000100
00000001
00000010
,
00000011
00000001
00000011
00000000
00000100
00001000
00010000
01000000
,
01010000
00010000
01010000
00000000
00200000
00000000
00000000
00000000
,
02000000
00000000
03300000
00000000
00010000
00100000
00000000
01000000
,
00100000
00001000
00011000
00000000
00000000
00000010
00001000
00000000
,
00000001
00000100
00000110
00000000
00000001
00000010
00000000
00001000
,
00100000
00010000
10010000
00000000
00000000
01000000
00010000
00001000
,
00000020
00000000
00000031
00000100
00000020
00000000
00000000
00000000
,
00000000
00000000
00002030
00000000
,
00000000
00000000
00203000
00000000
,
00000000
00000000
20300000
00000000
,
00020000
00000000
30030000
00000000
10000000
01000000
00110000
00000000
,
00001000
00010000
00011000
00000000
00000010
00001000
00000101
00000000
,
00000001
00000010
00000110
00000000
00000100
00010000
00011000
00000000
,
00100000
00010000
11000000
00000000
10000000
10000000
01000000
01000000
,
00010000
00001000
00000010
00000001
00000200
00000000
00000310
00000000
,
00000100
00000001
00000100
00001000
00011000
01001000
00012000
00000000
,
01003000
10000000
01000000
00010000
00011000
00010100
00012000
00000000
,
00003010
00000001
00000010
00001000
00011000
00101000
00021000
00000000
,
00031000
01000000
00100000
00010000
00002000
00000000
00013000
00000000
,
00001000
00011000
00000000
01000000
10000000
01000000
00010000
00001000
,
00000020
00000000
00001030
00000000
00000001
00000010
00001010
00000000
,
00010000
00010000
00000000
00000100
00000001
00000100
00000010
00000001
,
00000100
00001000
00100000
00010000
01020000
00000000
10030000
00010000
,
00000010
00000000
00000000
00000000
;

//---------------dance-double - t7r----------------
#NOTES:
     dance-double:
     t7r:
     Challenge:
     16:
     :
00000000
00000000
00000000
00000000
,
00000000
00000000
00000000
00000000
,
00000000
00000000
00000000
00000000
,
00000000
00000000
00000000
00000000
,
00000000
00000000
00000000
00000000
,
10000000
01000000
00100000
00000000
00010000
00110000
01000000
00000000
00100000
00010000
00001000
00000000
00000010
00001010
00000100
00000000
,
00000001
00000010
00000100
00000000
00010000
00010100
00001000
00000000
02000000
00000000
03020000
00000000
00032000
00000000
00003020
00000000
,
00001030
00000001
00000100
00000000
00000001
00000011
00001000
00000000
00000100
00010000
00001000
00000000
00100000
00101000
00010000
00000000
,
20000000
00000000
30200000
00000000
00320000
00000000
00032000
00000000
00003001
00000100
00000010
00000001
00001000
00001100
00000001
00000000
,
00000100
00001000
00010000
00000000
00100000
10100000
00010000
00000000
10000000
01000000
00010000
00000000
00000100
00010100
00001000
00000010
,
00000100
00001000
00010000
00000000
01000000
01010000
00100000
00000000
10000000
00100000
00010000
00000000
00000010
00010010
00001000
00000100
,
00000010
00001000
00010000
00000000
01000000
01100000
00010000
00000000
10000000
01000000
00010000
00000000
00000100
00010100
00001000
00000000
,
00000020
00002030
00023000
00230000
10300000
01000000
00010000
00001000
,
00000010
00000000
00000000
00000000
00000100
00000010
00000100
00000100
00000001
00000010
00001000
00000001
00000100
00000000
00001100
00000000
,
00011000
00000000
01000000
10000000
01000000
00000000
01100000
00000000
10000000
01000000
00010000
10000000
00100000
00000000
00110000
00000000
,
00011000
00000000
00000100
00000001
00000100
00000000
00000110
00000000
00000001
00000100
00001000
00000001
00000010
00000000
00001010
00000000
,
00011000
00000000
00100000
10000000
00100000
00000000
00010000
00000000
10000000
00000000
01000000
00010000
00001000
00000000
00000100
00001000
,
00010000
00000000
00100000
10000000
01000000
00000000
10000000
00000000
00010000
01000000
00100000
00010000
00100000
00000000
10100000
00000000
,
11000000
00000000
01000000
00010000
00001000
00000000
00011000
00000000
00001000
00000100
00000010
00001000
00000010
00000000
00000011
00000000
,
00000101
00000000
00000100
00001000
00010000
00000000
00011000
00000000
01000000
10000000
01000000
00001000
00010000
00000000
00011000
00000000
,
00000010
00000000
00000001
00000010
00001000
00000000
00001100
00000000
00020000
00000000
00000000
00000000
00000000
00000000
00000000
00000000
,
00032000
00000000
00000000
00000000
00000000
00000000
00000000
00000000
00203000
00000000
00000000
00000000
00000000
00000000
00000000
00000000
00310000
00000000
01000000
00010000
01000000
00000000
00020000
00000000
00000000
00000000
10030000
00000000
01000000
00000000
00100000
00000000
,
00001000
00010000
00001000
00010000
00001000
00000000
00010000
00000010
00020000
00000000
00000000
00000000
00030100
00000000
00000001
00000000
00000000
00000000
00000100
00000000
00000010
00000000
00000001
00000000
00000200
00000000
00000000
00000000
00002300
00000000
00000000
00000000
,
00103000
00010000
00100000
00010000
00100000
00000000
00010000
10000000
00020000
00000000
00000000
00000000
20030000
00000000
00000000
00000000
30010000
00000000
00100000
01000000
00100000
00000000
00020000
00000000
00000000
00000000
10030000
00000000
01000000
00000000
00100000
00000000
,
00001000
01000000
00001000
01000000
00001000
00000000
00010000
00001000
00020000
00000000
00000000
00000000
00030100
00000000
00000001
00000000
00001000
00000000
00000010
00000000
00000001
00000000
00000100
00000000
00001000
00000000
00010000
00000000
00100000
00000000
10000000
00000000
,
02000000
00000000
03100000
00010000
00002000
00000000
00003010
00001000
00000001
00000000
00000100
00000000
00001000
00000000
00100000
00000000
,
00020000
00000000
10030000
00010000
10000000
01000000
00010000
00000010
,
00002000
00000100
00003002
00001000
00001003
00000001
00000100
00001000
,
00200000
00010000
02300000
10000000
03010000
00001000
00000010
00000001
,
00000010
00001000
00010000
00100000
10000000
00000000
00100000
00000000
01100000
01000000
00010000
00000000
10000000
01100000
00010000
00000000
,
11000000
01000000
00100000
00000000
00001000
00011000
00000010
00000100
00000110
00000100
00000001
00000000
00000010
00001100
00010000
00000000
,
00011000
00001000
01000000
00000000
00100000
01010000
10000000
00010000
01100000
00100000
10000000
00000000
01000000
01100000
00001000
00000000
,
00011000
00010000
00000010
00000000
00000100
00000110
00001000
00000000
00000002
00000000
00000023
00000000
00002030
00000000
00023000
00000000
,
00130000
10000000
01000000
00010000
00001000
00000000
00020000
00000000
,
00031000
00000100
00000010
00001000
00000100
00000000
00001100
00000000
00010100
00000000
00011000
00010000
00100000
00000000
10100000
00000000
,
00010000
00100000
01000000
00010000
00100000
00000000
01100000
00000000
11000000
00000000
01010000
00010000
00001000
00000000
00011000
00000000
,
00001000
00000010
00000100
00001000
00000010
00000000
00000110
00000000
00000011
00000000
00001010
00001000
00010000
00000000
00110000
00000000
,
10000000
00000000
01000000
00010000
00001000
00000000
00000100
00001000
00020000
00000000
00000000
00000000
00230000
00000000
00000000
00000000
,
10300000
00000000
01000000
00010000
01000000
00000000
00020000
00000000
00000000
00000000
00031000
00000000
00010000
00000000
00001000
00000000
00010000
00000010
00010000
00000010
00010000
00000000
00000010
00000100
00000001
00000000
00000000
00000000
00000010
00000000
00000100
00000000
,
00000000
00000000
00010000
00000000
00000100
00000000
00000001
00000000
00000200
00000000
00000000
00000000
00000320
00000000
00000000
00000000
00000031
00000100
00001000
00000100
00000001
00000000
00001000
00000001
00002000
00000000
00000000
00000000
00003001
00000000
00000000
00000000
,
00000100
00000000
00001000
00010000
00001000
00000000
00200000
00000000
00000000
00000000
00310000
00000000
00100000
00000000
10000000
00000000
00100000
00001000
00010000
00001000
00100000
00000000
00001000
00010000
00002000
00000000
00000000
00000000
00013000
00000000
00000010
00000000
,
00000100
00000001
00000100
00001000
00010000
01000000
10000000
01000000
00020000
00000000
00031000
00010000
00000020
00000000
00000130
00000001
,
00001000
00000000
00000000
00000000
;
