#TITLE:Sen Olsan Bari;
#ARTIST:Aleyna Tilki;
#BANNER:Sen Olsan Bari.png;
#BACKGROUND:Sen Olsan Bari-bg.png;
#JACKET:Sen Olsan Bari-jacket.png;
#MUSIC:Sen Olsan Bari.ogg;
#SAMPLESTART:90.612;
#SAMPLELENGTH:15;
#BPMS:0=98;

//---------------dance-single - t7r----------------
#NOTES:
     dance-single:
     t7r:
     Beginner:
     1:
     :
0000
0000
0000
0000
,
0000
0000
0000
0000
,
0000
0000
0000
0000
,
0000
0000
0000
0000
,
0000
0000
0000
0000
,
0001
0000
1000
0000
,
0010
0000
0100
0000
,
0010
0000
1000
0000
,
0001
0000
1000
0000
,
0000
0001
0001
0001
,
0000
1000
1000
1000
,
0000
0010
0010
0010
,
0010
0000
0100
0000
,
0001
0000
0010
0000
,
0100
0000
1000
0000
,
0010
0000
0100
0000
,
0001
0000
1000
0000
,
0000
0001
0001
0001
,
0000
1000
1000
1000
,
0000
0010
0010
0010
,
0010
0000
0100
0000
,
0000
0000
1000
1000
,
0000
0000
0001
0001
,
0001
0000
0010
0010
,
0000
0000
0100
0100
,
0000
0001
0001
0001
,
0000
1000
0000
1000
,
1000
0000
0010
0000
,
0100
0000
0010
0000
,
1000
0000
1000
0000
,
0001
0000
0001
0000
,
0010
0000
0010
0000
,
0100
0000
0100
0000
,
0000
0001
0001
0001
,
0000
1000
0000
1000
,
1000
0000
0010
0000
,
0100
0100
0100
0000
,
0010
0000
1000
1000
,
0000
0000
0001
0001
,
0001
0000
0010
0010
,
0000
0000
0100
0100
,
0000
1000
1000
1000
,
0000
0001
0001
0001
,
0000
0100
0000
0100
,
0100
0000
0010
0000
;

//---------------dance-single - t7r----------------
#NOTES:
     dance-single:
     t7r:
     Easy:
     5:
     :
0000
0000
0000
0000
,
0000
0000
0000
0000
,
0000
0000
0000
0000
,
0000
0000
0000
0000
,
0000
0000
0000
0000
,
0001
0100
0020
0000
,
1030
0100
0010
0000
,
0001
1000
0200
0000
,
1300
0001
0100
0000
,
0000
0010
1000
1010
,
0000
0100
0000
0100
,
0000
0010
0001
0011
,
0001
0000
0001
0000
,
2000
0100
0000
3001
,
0200
1000
0000
0310
,
2000
0100
0000
3001
,
0020
0001
0000
0130
,
0000
0010
0001
0011
,
0000
1000
0000
1000
,
0000
0010
1000
1010
,
0001
0000
0001
0000
,
0000
0000
0000
0000
1000
0000
1000
1000
,
0000
0000
0000
0001
0000
0000
0001
0001
,
0001
0000
0000
0000
0100
0000
0100
0100
,
0000
0000
0000
0000
0010
0000
0010
0010
,
0000
1000
1000
0001
,
0000
0010
0000
0010
,
0000
0000
0000
0000
0100
0000
0100
0100
,
0000
0000
0000
0010
0010
0000
0010
0000
,
0001
0000
0001
0000
,
1000
0000
1000
0000
,
0010
0000
0010
0000
,
0100
0000
0100
0000
,
0000
0001
0010
0100
,
0010
0000
1000
0000
,
0001
0100
1000
0100
,
0001
0010
0100
0010
,
0000
0000
0000
1000
1000
0000
1000
1000
,
0000
0000
0000
0001
0001
0000
0001
0000
,
0100
0000
0000
0010
0010
0000
0010
0010
,
0000
0000
0000
1000
1000
0000
1000
1000
,
0000
0001
0010
1000
,
0020
0001
0000
0130
,
0010
0001
0100
1000
,
0200
0000
0000
0000
0310
0000
0010
0010
,
0010
0000
0000
0000
;

//---------------dance-single - t7r----------------
#NOTES:
     dance-single:
     t7r:
     Medium:
     7:
     :
0000
0000
0000
0000
,
0000
0000
0000
0000
,
0000
0000
0000
0000
,
0000
0000
0000
0000
,
0000
0000
0000
0000
,
0020
0000
1030
0001
0200
0000
0301
0000
,
0020
0000
0130
1000
0002
0000
0103
0000
,
0020
0000
0130
0001
0200
0000
1300
0000
,
0200
0000
0310
1000
0020
0000
0031
0000
,
0010
0000
0100
0001
0001
0000
2001
0000
,
3100
0000
1000
0010
0010
0000
0200
0000
,
0301
0000
0010
0100
0100
0000
1100
0000
,
2001
0000
0000
0010
3010
0000
0100
0000
,
0020
0000
1030
0001
0100
0001
2000
0000
,
3002
0000
0013
0100
1000
0100
0010
0000
,
0001
0000
0100
1000
0100
0010
2000
0000
,
3100
0000
0001
0100
1000
0100
0020
0000
,
0031
0000
1000
0010
0010
0000
1001
0000
,
0100
0000
0001
0100
0100
0000
1001
0000
,
0010
0000
1000
0100
0100
0000
0110
0000
,
0012
0000
0000
1000
1003
0000
0001
0000
,
1000
0000
0000
0010
1000
0010
0100
0010
,
0000
0000
0000
1000
0100
0010
0100
1000
,
0001
0000
0000
0100
0001
0010
0001
0100
,
0000
0000
0000
0001
0010
0100
1000
0002
,
1000
0000
0103
0100
0010
0010
1000
0200
,
1000
0000
0310
0001
0100
0000
0010
1000
,
0100
1100
0010
0011
,
0100
0000
1001
0000
0010
0100
0001
1000
,
0001
0000
0000
0010
0000
0000
0000
0000
0001
0000
0000
1000
0000
0000
0000
0000
,
0001
0000
0000
0100
0000
0000
0000
0000
0010
0000
0000
1000
0000
0001
0000
0000
,
1000
0000
0000
0010
0000
0000
0000
0000
1000
0000
0000
0001
0000
0000
0000
0000
,
1000
0000
0000
0100
0000
0000
0000
0000
0010
0000
0000
0000
1001
0000
0000
0000
,
0100
0000
0001
0100
1000
0100
0001
0100
,
0200
0000
0310
0000
1000
0100
0001
0100
,
0010
0000
0000
0001
0000
0000
0000
0000
1000
0000
0000
0010
0000
0000
0000
0000
,
0100
0010
0100
0110
,
1000
0000
0000
0001
0010
1000
0010
0001
,
0000
0000
0000
1000
0010
0001
0010
1000
,
0001
0000
0000
0100
0001
0100
1000
0100
,
0000
0000
0000
0010
1000
0010
0001
0010
,
0100
0000
0010
0010
1000
1000
0001
0020
,
0001
0000
1030
0010
0001
0000
1001
0000
,
0010
0101
0010
1001
,
0210
0000
0000
0010
0310
1000
0001
1000
,
0001
0000
0000
0000
;

//---------------dance-single - t7r----------------
#NOTES:
     dance-single:
     t7r:
     Hard:
     10:
     :
0000
0000
0000
0000
,
0000
0000
0000
0000
,
0000
0000
0000
0000
,
0000
0000
0000
0000
,
0000
0000
0000
0000
,
0020
0000
0000
1030
0001
0000
0000
0000
0100
0001
0000
0000
0101
0000
0000
0000
,
0001
0000
0000
0010
0100
0000
0000
0000
1000
0010
0000
0000
1000
0000
0001
0000
,
0100
0000
0000
0001
0010
0000
0000
0000
0100
0010
0000
0000
0110
0000
0000
0000
,
0010
0000
0000
0001
1000
0000
0000
0000
0010
0100
0000
0000
1010
0000
0000
0000
,
0001
0000
0100
1000
0100
0000
0011
0000
,
1000
0000
0100
0001
0100
0000
1010
0000
,
0001
0000
0100
0010
1000
0000
0110
0000
,
2001
0000
0000
0000
0000
0000
0010
0000
3010
0000
0000
1000
0001
0000
1000
0000
,
0002
0000
0000
0103
1000
0000
0001
0000
0010
1000
0000
0001
1000
0000
0001
0000
,
1000
0000
0000
0100
0001
0000
1000
0000
0010
0001
0000
1000
0001
0000
0100
0000
,
0010
0000
0000
0001
0010
0000
0100
0000
0001
0010
0000
0100
0010
0000
0001
0000
,
1000
0000
0000
0100
0010
0000
1000
0000
0010
0100
0000
1000
0010
0000
0100
0000
,
0101
0000
0001
0010
1000
0000
0101
0000
,
0010
0000
1000
0100
0001
0000
1010
0000
,
0001
0000
0100
1000
0100
0000
0011
0000
,
1002
0000
0000
0000
0000
0000
0100
0000
0103
0000
0000
0010
1000
0000
0001
0000
,
1001
0000
0000
0000
0000
0000
1000
0100
1000
0000
0010
0000
1000
0000
1000
0000
,
0000
0000
0000
0000
0000
0000
0001
0100
0001
0000
0001
0000
0010
0000
0001
0000
,
1000
0000
0000
0000
0000
0000
0100
1000
0100
0000
0100
0000
0010
0000
0001
0000
,
0000
0000
0000
0000
0000
0000
0100
0001
0100
0000
0100
0000
0010
0000
0010
0000
,
1000
0000
0000
0000
0001
0010
0001
0010
0001
0010
0001
0010
0001
0000
0002
0000
,
0100
0000
0000
0000
1003
0000
1000
0100
0000
0100
0000
1000
0010
0000
0200
0000
,
0001
0000
0000
0000
0310
0000
1000
0100
1000
0000
1000
0000
0001
0000
0010
0000
,
0001
0000
0000
0100
1000
0000
0100
0010
0100
0000
0100
0000
0010
0000
1000
0000
,
2001
0000
0000
0010
0000
0000
0001
0000
0100
0000
0000
3001
0000
0000
0010
0000
,
0002
0000
0000
0100
0000
0000
1000
0000
0010
0000
0000
0103
0000
0000
0010
0000
,
1000
0000
0100
0010
0000
0000
0001
0000
1000
0000
0010
0100
0000
0000
0001
0000
,
1000
0000
0100
0001
0000
0000
0100
0000
0010
0000
0001
1000
0001
0000
0100
0000
,
0110
0000
0000
0000
0010
1000
0010
1000
0010
0001
0010
0001
0010
0100
0000
0001
,
2000
0000
0000
0000
3100
0000
0010
0100
0000
0100
0000
1000
0010
0000
0100
0000
,
0001
0000
1000
0100
0000
0000
1000
0000
0001
0000
0100
1000
0000
0000
0100
0000
,
0010
1000
0100
0001
,
1001
0000
0000
1000
0100
0000
1000
0010
1000
0000
1000
0000
0001
0000
0010
0000
,
0001
0000
0000
0001
0100
0000
0001
0010
0001
0000
0001
0000
1000
0000
0010
0000
,
0100
0000
0000
0100
0010
0000
1000
0010
0100
0000
0100
0000
0001
0000
1000
0000
,
0001
0000
0000
0001
0010
0000
0100
0010
0100
0000
0100
0000
0010
0000
0002
0000
,
1000
0000
0000
0000
0103
0001
0100
0001
0100
1000
0100
1000
0100
0000
0020
0000
,
1000
0000
0000
0000
0130
0000
0001
0100
0000
0001
0000
0001
0010
0000
0100
0000
,
1000
0000
0000
0010
1000
0000
0010
0000
0001
0000
0000
0010
0100
0000
0001
0000
,
0020
0000
0000
0000
0000
0000
0130
0010
0100
0000
0100
0000
0001
0000
0100
0000
,
1000
0000
0000
0000
;

//---------------dance-single - t7r----------------
#NOTES:
     dance-single:
     t7r:
     Challenge:
     14:
     :
0000
0000
0000
0000
,
0000
0000
0000
0000
,
0000
0000
0000
0000
,
0000
0000
0000
0000
,
0000
0000
0000
0000
,
2000
0100
0000
3001
1000
0000
0100
0000
1000
0010
0000
0010
0100
0000
0001
0000
,
1000
0000
0000
0100
0010
0000
0001
0000
1000
0010
0000
0010
0001
0000
0010
0000
,
0110
0000
0000
0001
0100
0000
1000
0000
0001
0010
0000
0010
1000
0000
0001
0000
,
0010
0000
0000
1000
0010
0000
0001
0000
1000
0100
0000
0100
0001
0000
1000
0000
,
0110
0000
0000
0000
0001
0100
0001
0100
1000
0000
0000
0000
0110
0000
0000
0000
,
0001
0000
0000
1000
0100
0000
0010
0000
1000
0010
0000
0010
0100
0000
1000
0000
,
0001
0000
0000
0000
1000
0010
0001
0000
0010
0000
0000
0000
0110
0000
0000
0000
,
0001
0010
0100
0000
0010
1000
0001
0100
0010
0001
1000
0000
0010
0000
0110
0000
,
0002
0100
0000
1003
0001
0000
0100
0000
1000
0100
0000
0100
0001
0000
0010
0000
,
1000
0000
0010
0001
1000
0010
0100
0010
1000
0000
0001
0000
0100
0000
0010
0000
,
1010
0000
0000
0001
0100
0000
1000
0000
0001
0010
0000
0100
1000
0000
0100
0000
,
0010
0000
0000
1000
0100
0000
0001
0000
1000
0010
0000
0100
0002
0000
0103
1000
,
0001
0000
0000
0000
1000
0010
0001
0010
1000
0000
0000
0000
0110
0000
0000
0000
,
0001
0000
0000
0010
0100
0000
0001
0000
0100
0010
0000
0010
0001
0000
1000
0001
,
0010
0000
0000
0000
0001
0100
1000
0000
0110
0000
0000
0000
1001
0000
0000
0000
,
1000
0010
0100
0000
1000
0001
0010
1000
0001
0010
0100
1000
0010
0000
0100
0000
,
1001
0000
0001
0100
0010
0000
0100
0001
0010
0000
0001
0000
0011
0000
1001
0000
,
0100
0000
1000
0010
0100
0000
0010
1000
0100
0000
1100
0000
0110
0000
0001
0000
,
1001
0000
0001
0100
0010
0000
0100
0001
0010
0000
0011
0000
1001
0000
1010
0000
,
0100
0000
0010
1000
0100
0000
0010
0001
0100
0000
0101
0000
0110
0000
1001
0000
,
1010
0000
0000
0000
1000
0100
0010
0000
1000
0001
0100
1000
0010
0000
0001
0000
,
0020
0000
1000
0000
0130
0000
0001
0100
0000
0100
0000
1000
0001
0010
1000
0000
,
0110
0000
0000
0001
0100
0000
0010
0000
1000
0000
0000
0100
0010
0000
0001
0000
,
1000
0000
0000
0010
0001
0000
0010
0100
0001
0000
1000
0000
0100
0000
0010
0000
,
0002
0000
1003
0010
0000
0010
0100
0001
1000
0000
0100
0010
0000
0010
0001
1000
,
0001
0000
0100
0010
0000
0010
1000
0001
0010
0000
0001
0100
0000
1000
0100
0001
,
2000
0000
3001
0010
0000
0100
0001
0100
0010
0000
0001
1000
0000
0010
0100
1000
,
0100
0000
0010
1000
0000
0001
0010
0100
1000
0000
0010
0100
0001
0001
1000
0000
,
2001
0000
0000
0000
3001
0100
0100
1000
0001
0010
0010
1000
0001
0100
0100
1000
,
0100
0000
0000
0000
0010
1000
1000
0001
0000
0010
0000
0001
1000
0010
0001
0010
,
0100
0000
0000
0000
0001
0000
0100
0000
0000
0000
0001
0010
0001
0000
1000
0000
0010
0000
0000
0000
1000
0000
0100
0000
0000
0000
1000
0010
1000
0000
0001
0000
,
1000
0010
0001
0100
,
1001
0000
0000
0000
1000
0000
1000
0000
0100
0000
0000
0000
0010
0000
0001
0000
1000
0000
0000
0000
0001
0000
0000
0000
1100
0000
0000
0000
0001
0000
1000
0100
,
1000
0000
0000
0000
0001
0000
0100
0000
0010
0000
0000
0000
0100
0000
0001
0000
0010
0000
0000
0000
0011
0000
0000
0000
1100
0000
0000
0000
0101
0000
0001
1000
,
0001
0000
0000
0000
0100
0000
0100
0000
0010
0000
0000
0000
0100
0000
0001
0000
0010
0000
0000
0000
1010
0000
0000
0000
0110
0000
0000
0000
0011
0000
0010
0001
,
1000
0000
0010
0100
0001
0000
1000
0010
0001
0000
0011
0000
0110
0000
1010
0000
,
1002
0000
0000
0000
1003
0100
0100
0001
1000
0010
0010
0001
1000
0100
0100
0001
,
1000
0000
0000
0000
0010
0001
0001
1000
0000
0001
0000
0100
1000
0001
0010
1000
,
0001
0000
1000
0100
0010
0000
0001
1000
0010
0000
0110
0000
1010
0000
1001
0000
,
0010
0000
0000
0000
0000
0000
0100
0010
0100
0000
0010
0000
0001
0000
1000
0000
,
0010
0000
0000
0000
;

//---------------dance-double - t7r----------------
#NOTES:
     dance-double:
     t7r:
     Easy:
     5:
     :
00000000
00000000
00000000
00000000
,
00000000
00000000
00000000
00000000
,
00000000
00000000
00000000
00000000
,
00000000
00000000
00000000
00000000
,
00000000
00000000
00000000
00000000
,
10000000
00100000
02000000
00000000
,
03010000
00100000
00001000
00000000
,
00010000
00000010
00000200
00000000
,
00000301
00000010
00000100
00000000
,
00000000
00010000
00100000
10100000
,
00000000
10000000
01000000
00010000
,
00000000
00000010
00000100
00000101
,
00000001
00000000
00000000
00000010
00000010
00000000
00001000
00000000
,
01000000
00100000
20000000
00000000
,
31000000
00010000
00001000
00000000
,
00000010
00000001
00000200
00000000
,
00001300
00010000
00100000
00000000
,
00000000
10000000
01000000
01010000
,
00000000
00010000
00001000
00000010
,
00000000
00000001
00000100
00001100
,
00002000
00000000
00000000
00010000
00013000
00000000
00001000
00000000
,
00000000
00000000
00000000
00000000
01000000
00000000
01000000
01000000
,
00000000
00000000
00000000
00100000
00100000
00000000
00100000
00000000
,
00100000
00000000
00000000
10000000
10000000
00000000
10000000
00000000
,
00000000
00000000
00000000
00010000
00010000
00000000
00010000
00000000
,
00000000
01000000
00001000
00010000
,
00000010
00000100
00000000
00000001
,
00000010
00000000
00000000
00000000
00001000
00000000
00010000
00010000
,
00000000
00000000
00100000
10000000
,
00010000
00000000
00010000
00000000
,
10000000
00000000
10000000
00000000
,
01000000
00000000
00010000
00000000
,
00000010
00000000
00000100
00000000
,
00000001
00001000
00001000
00000100
,
00020000
00031000
00000000
01000000
,
00100000
10000000
01000000
00010000
,
00000010
00000100
00000010
00000110
,
00000000
00000000
00000000
00000001
00000001
00000000
00000001
00000001
,
00000000
00000000
00000000
00001000
00001000
00000000
00001000
00000000
,
00001000
00000000
00000000
00000100
00000100
00000000
00000100
00000100
,
00000000
00000000
00000000
00010000
00010000
00000000
00010000
00010000
,
00000000
00001000
01000000
10000000
,
02000000
00100000
00000000
03010000
,
10000000
01000000
00010000
00000010
,
00000100
00000000
00000000
00000000
00000010
00000000
00000010
00000010
,
00000010
00000000
00000000
00000000
;

//---------------dance-double - t7r----------------
#NOTES:
     dance-double:
     t7r:
     Medium:
     7:
     :
00000000
00000000
00000000
00000000
,
00000000
00000000
00000000
00000000
,
00000000
00000000
00000000
00000000
,
00000000
00000000
00000000
00000000
,
00000000
00000000
00000000
00000000
,
00000011
00000000
00000001
00000100
00000020
00000000
00010030
00000000
,
00000100
00000000
00010000
00001000
02000000
00000000
03100000
00000000
,
10000000
00000000
01000000
00100000
00002000
00000000
00013000
00000000
,
00000010
00000000
00000100
00000001
00002000
00000000
00003001
00000000
,
00000010
00000000
00000100
00010000
00010000
00000000
00011000
00000000
,
01000000
00000000
00100000
10000000
10000000
00000000
20010000
00000000
,
31000000
00000000
00100000
00001000
00001000
00000000
00011000
00000000
,
00000020
00000000
00000000
00000100
00000130
00000000
00000110
00000000
,
00000001
00000000
00000010
00001000
00020000
00000000
00031000
00000000
,
01000000
00000000
00100000
10000000
01000000
00100000
00001000
00000000
,
00010000
00000000
00000010
00001000
00000020
00000000
00000130
00000000
,
00000001
00000000
00000010
00001000
00020000
00000000
00230000
00000000
,
10300000
00000000
00010000
00100000
00100000
00000000
10010000
00000000
,
10000000
00000000
01000000
00010000
00002000
00000000
00003010
00000001
,
00000100
00000000
00000001
00000010
00000010
00000000
00001001
00000000
,
00000200
00000000
00000000
00010000
00010300
00000000
00011000
00000000
,
00100000
00000000
00000000
00010000
01000000
00100000
01000000
00001000
,
00000000
00000000
00000000
00100000
00001000
00010000
00000010
00000100
,
00000001
00000000
00000000
00000010
00000100
00010000
00001000
00010000
,
00000000
00000000
00000000
00001000
01000000
00100000
10000000
00020000
,
00100000
00000000
10030000
01000000
00100000
00010000
00000010
00000002
,
00000100
00000000
00001003
00000001
00000100
00000000
00000010
00020000
,
00000100
00000000
00031000
00000000
00100000
00010000
01000000
00010000
,
10000000
00000000
01000000
00010000
00001000
00000010
00000001
00000100
,
00000010
00000000
00000000
00000010
00000000
00000000
00000000
00000000
00010000
00000000
00000000
00010000
00000000
00000000
00000000
00000000
,
00001000
00000000
00000000
00001000
00000000
00000000
00000000
00000000
01000000
00000000
00000000
00100000
00000000
00000000
00000000
00000000
,
10000000
00000000
00000000
01000000
00000000
00000000
00000000
00000000
00010000
00000000
00000000
00000010
00000000
00000000
00000000
00000000
,
00000100
00000000
00000000
00000001
00000000
00000000
00000000
00000000
00000010
00000000
00000000
00000000
00000100
00000000
00010000
00000000
,
00001000
00000000
01000000
10000000
01000000
00010000
01000000
00100000
,
00200000
00000000
10300000
01000000
00010000
00001000
00000020
00000000
,
00000031
00000000
00000000
00000100
00000000
00000000
00000000
00000000
00001000
00000000
00000000
00100000
00000000
00000000
00000000
00000000
,
00010000
01000000
00100000
01100000
,
10000000
00000000
00000000
01000000
00010000
00001000
00000100
00010000
,
00000000
00000000
00000000
01000000
10000000
01000000
00100000
10000000
,
00010000
00000000
00000000
00100000
00010000
00001000
00000010
00010000
,
00000000
00000000
00000000
00000100
00000001
00000100
00000010
00000001
,
00002000
00000000
00003001
00000100
00001000
00100000
00010000
20000000
,
01000000
00000000
30010000
01000000
00010000
00000100
00000001
00000010
,
00000001
00000000
00001001
00000000
00000001
00000010
00001000
00010000
,
00200000
00000000
00000000
01000000
01300000
00010000
00000010
00000100
,
00000010
00000000
00000000
00000000
;

//---------------dance-double - t7r----------------
#NOTES:
     dance-double:
     t7r:
     Hard:
     10:
     :
00000000
00000000
00000000
00000000
,
00000000
00000000
00000000
00000000
,
00000000
00000000
00000000
00000000
,
00000000
00000000
00000000
00000000
,
00000000
00000000
00000000
00000000
,
20000000
00000000
00000000
31000000
00100000
00000000
00001000
00000000
00010000
00000010
00000000
00000000
00000100
00000000
00000000
00000000
,
00000002
00000000
00000000
00000013
00000100
00000000
00010000
00000000
00001000
01000000
00000000
00000000
00100000
00000000
10000000
00000000
,
00010000
00000000
00000000
00100000
01000000
00000000
00100000
00000000
00001000
00010000
00000000
00000000
00000010
00000000
00000000
00000000
,
00000100
00000000
00000000
00000001
00000100
00000000
00000010
00000000
00010000
00001000
00000000
00000000
00012000
00000000
00000000
00000000
,
01003000
00000000
10000000
01000000
00010000
00000000
00201000
00000000
,
00310000
00000000
00000100
00000001
00000100
00000000
00000001
00001000
,
00000010
00000000
00000001
00000010
00001000
00000000
00020100
00000000
,
00032000
00000000
00000000
00000000
00000000
00000000
00010000
00000000
00013000
00000000
00000000
00001000
00010000
00000000
00001000
00000000
,
02000000
00000000
00000000
03100000
10000000
00000000
00010000
00000000
00100000
00001000
00000000
00010000
00001000
00000000
00010000
00000000
,
00000020
00000000
00000000
00000130
00000001
00000000
00000010
00000000
00000100
00010000
00000000
00001000
00010000
00000000
00001000
00000000
,
01000000
00100000
00010000
00000100
00000010
00001000
00010000
01000000
,
00100000
00000000
00010000
00000000
00001000
00000000
00000010
00000000
00000100
00000010
00000000
00000000
00001000
00000000
00000001
00000000
,
00000020
00000000
00000031
00001000
00100000
00000000
01200000
00000000
,
10300000
00000000
00000000
00000000
01000000
00000000
00010000
00000000
00000010
00000100
00000000
00000000
00000001
00000000
00001000
00000000
,
00000200
00000000
00010300
00001000
00000010
00000000
00000120
00000000
,
00000032
00000000
00000000
00000000
00000000
00000000
00000100
00000000
00000103
00000000
00000000
00000010
00001000
00000000
00000001
00000000
,
00001000
00000000
00000000
00000000
00000000
00000000
00000001
00000100
00000001
00000000
00000010
00000000
00000010
00000000
00000001
00000000
,
00000000
00000000
00000000
00000000
00000000
00000000
00010000
00000100
00010000
00000000
00001000
00000000
01000000
00000000
01000000
00000000
,
00100000
00000000
00000000
10000000
01000000
00010000
00000010
00000100
,
00000000
00000000
00000000
00000000
00000000
00000000
00000001
00000100
00000001
00000000
00000010
00000000
00000010
00000000
00000001
00000000
,
00001000
00000000
00000000
00000000
00000100
00010000
00000100
00000000
00001000
00000000
00100000
00000000
10000000
00000000
00020000
00000000
,
01000000
00000000
00000000
00000000
00130000
00000000
00001000
00000010
00000000
00000010
00000000
00000001
00001000
00000000
00000001
00000000
,
00000100
00011000
01000000
00011000
,
00100000
00000000
00000000
00001000
00010000
00000000
00000010
00000100
00000010
00000000
00001000
00000000
00000001
00000000
00000010
00000000
,
00000001
00000000
00000000
00000100
00000000
00000000
00001000
00000000
00010000
00000000
00000000
00010000
00000000
00000000
00001000
00000000
,
01000000
00000000
00000000
00100000
00000000
00000000
10000000
00000000
01000000
00000000
00000000
01000000
00000000
00000000
00010000
00000000
,
00000010
00000000
00000100
00000001
00000000
00000000
00000000
00000000
00000010
00000000
00000100
00010000
00000000
00000000
00000000
00000000
,
00001000
00000000
01000000
00100000
00000000
00000000
00000000
00000000
01000000
00000000
00010000
10000000
00010000
00000000
00000000
00000000
,
10010000
00000000
00000000
00000000
10000000
01000000
10000000
00000000
01000000
00010000
01000000
00000000
00010000
00001000
00000000
00001000
,
00020000
00000000
00000000
00000000
00030010
00000000
00000100
00000001
00000000
00000001
00000000
00000010
00000100
00000000
00010000
00000000
,
00000010
00000000
00000100
00000001
00000000
00000000
00000100
00000000
00001000
00000000
00100000
00010000
00000000
00000000
10000000
00000000
,
00100000
00001000
00000100
00000110
,
00001001
00000000
00000000
00000000
00000000
00000000
00000001
00000100
00000010
00000000
00001000
00000000
00001000
00000000
00000100
00000000
,
00000000
00000000
00000000
00000000
00000000
00000000
01000000
00010000
10000000
00000000
01000000
00000000
00010000
00000000
00010000
00000000
,
00000010
00000000
00000000
00000100
00001000
00010000
00000100
00001000
,
00000000
00000000
00000000
00000000
00000000
00000000
00000001
00000010
00000100
00000000
00001000
00000000
00010000
00000000
00200000
00000000
,
10000000
00000000
00000000
00000000
00301000
00000100
00000010
00000000
00001000
00000001
00000100
00000000
00000010
00000000
00020000
00000000
,
00001000
00000000
00000000
00000000
01030000
00000000
00010000
00001000
00000000
00000100
00000000
00000100
00000001
00000000
00000010
00000000
,
00001000
00000000
00000000
00010000
01000000
00000000
00100000
00000000
00001000
00000000
00000000
00000100
00000010
00000000
00010000
00000000
,
00002000
00000000
00000000
00000000
00000000
00000000
00013000
00001000
00010000
00000000
00000010
00000000
00000100
00000000
00000001
00000000
,
00001000
00000000
00000000
00000000
;

//---------------dance-double - t7r----------------
#NOTES:
     dance-double:
     t7r:
     Challenge:
     14:
     :
00000000
00000000
00000000
00000000
,
00000000
00000000
00000000
00000000
,
00000000
00000000
00000000
00000000
,
00000000
00000000
00000000
00000000
,
00000000
00000000
00000000
00000000
,
20000000
00000000
00000000
31000000
00100000
00000000
00001000
00000000
00010000
00000010
00000000
00000010
00000100
00000000
00000001
00000000
,
00000010
00000000
00000100
00010000
00001000
00000000
00001000
00000000
01000000
00000000
00010000
00000000
10000000
00000000
00000000
10000000
,
00010000
00000000
00000000
00100000
00001000
00000000
00010000
00000000
00000010
00000100
00000000
00000010
00000001
00000000
00000010
00000000
,
00001000
00000000
00000000
00000100
00010000
00000000
00001000
00000000
00100000
01000000
00000000
00100000
00020000
00000000
10030000
00100000
,
01000000
00000000
00000000
00000000
10000000
01000000
00010000
00000000
00100000
00000000
00000000
00000000
00011000
00000000
00000000
00001000
,
00010000
00000000
00000000
00000010
00000200
00000000
00000301
00000010
00000100
00001000
00000000
00001000
00000100
00000000
00010000
00000000
,
00001000
00000000
00000000
00000000
01000000
00010000
00001000
00000000
00000010
00000000
00000000
00000000
00000110
00000000
00000000
00000000
,
00000001
00000100
00000010
00000000
00000001
00000010
00001000
00000000
00010000
00100000
10000000
00100000
00001000
00000000
00010000
00000000
,
00000020
00000000
00000000
00000130
00000001
00000000
00001000
00000000
00000100
00000001
00000000
00000001
00000100
00000000
00010000
00000000
,
00001000
00000000
00000000
01000000
00100000
10000000
00010000
00100000
00001000
00000000
00010000
00000000
00000010
00000000
00000100
00000000
,
00000101
00000000
00000000
00000001
00000010
00000000
00001000
00000000
00010000
00100000
00000000
01000000
10000000
00000000
00010000
00000000
,
00100000
00000000
00000000
10000000
01000000
00000000
00010000
00000000
00001000
00000010
00000000
00000100
00000002
00000000
00000103
00001000
,
00000001
00000000
00000000
00000000
00000100
00001000
00010000
00000000
00011000
00000000
00000000
00000000
00110000
00000000
00010000
00000000
,
10000000
00000000
00000000
01000000
00100000
00000000
10000000
00000000
00100000
00001000
00000000
00001000
00010000
00000000
00000010
00000100
,
00000001
00000000
00000000
00000000
00000010
00001000
00010000
00000000
00011000
00000000
00000000
00000000
01100000
00000000
00000000
00000000
,
10000000
01000000
00100000
00000000
10000000
00100000
00010000
00000000
00001000
00000010
00000001
00000010
00010000
00000000
00001000
00000000
,
00011000
00000000
01000000
00010000
01000000
00000000
00100000
10000000
01000000
00000000
10000000
00000000
11000000
00000000
01100000
00000000
,
00001000
00000000
00100000
00001000
00010000
00000000
00000010
00000100
00000001
00000000
00000011
00000000
00001001
00000000
00001000
00000000
,
00000100
00000000
00010000
00001000
01000000
00000000
00100000
01000000
00010000
00000000
00110000
00000000
10010000
00000000
10100000
00000000
,
10000000
00000000
00100000
01000000
00001000
00000000
00100000
00001000
00010000
00000000
00011000
00000000
00010010
00000000
00000110
00000000
,
00000101
00000000
00000000
00000000
00000001
00000010
00002000
00000000
00013000
00001000
01000000
10000000
01000000
00100000
10000000
01000000
,
00020000
00000000
00000000
00000000
00031000
00010000
00000010
00000100
00000000
00000100
00000000
00000001
00000010
00000100
00010000
00001000
,
01000000
00000000
00000000
10000000
01000000
00000000
00001000
00000000
00100000
00000000
00000000
00001000
00010000
00000000
00000010
00000000
,
00000100
00000000
00000000
00000001
00000010
00000000
00001000
00010000
00000100
00000000
00010000
00000000
00100000
00000000
10000000
00000000
,
00020000
00000000
10030000
01000000
00000000
01000000
00100000
00001000
00010000
00000000
00000010
00000100
00000000
00000100
00000001
00000010
,
00000100
00000000
00000010
00000001
00000000
00000001
00001000
00000010
00010000
00000000
00000100
00010000
00000000
00010000
00001000
01000000
,
00100000
00000000
10000000
01000000
00000000
00010000
00001000
00000010
00000100
00000000
00001000
00000010
00000000
00000100
00001000
00010000
,
00100000
00000000
10000000
01000000
00000000
10000000
00100000
00010000
00001000
00000000
00000010
00000001
00000100
00000001
00001000
00000000
,
00002001
00000000
00000000
00000000
00003001
00000100
00000100
00001000
00000001
00000010
00000010
00001000
00010000
01000000
01000000
10000000
,
00010000
00000000
00000000
00000000
00100000
00010000
00010000
00000100
00000000
00000010
00000000
00000001
00000100
00000010
00001000
00000001
,
00001000
00000000
00000000
00000000
00000100
00000000
00000001
00000000
00000000
00000000
00000100
00010000
00000100
00000000
00010000
00000000
00001000
00000000
00000000
00000000
01000000
00000000
10000000
00000000
00000000
00000000
01000000
00100000
01000000
00000000
00100000
00000000
,
10000000
00010000
00000010
00000100
,
00011000
00000000
00000000
01000000
00100000
00000000
10000000
01000000
00010000
00000000
00001000
00000000
00011000
00000000
00000010
00000000
,
00000100
00000000
00000000
00000001
00000010
00000000
00001000
00010000
00100000
00000000
01000000
00000000
01100000
00000000
00010000
00000000
,
10010000
00000000
00000000
10000000
01000000
00000000
00010000
00010000
00000010
00000000
00000100
00000000
00001010
00000000
00000001
00000000
,
00000100
00000000
00000000
00000001
00000010
00000000
00001000
00001000
01000000
00000000
00100000
00000000
10010000
00000000
00100000
00000000
,
01200000
00000000
00000000
00000000
10300000
01000000
01000000
00010000
10000000
00100000
00100000
00010000
00001000
00000100
00000100
00000001
,
00001000
00000000
00000000
00000000
00000010
00001000
00001000
01000000
00000000
00100000
00000000
10000000
00010000
01000000
00001000
00010000
,
00000010
00000000
00000100
00000001
00001000
00000000
00000100
00010000
00001000
00000000
00011000
00000000
00100000
00000000
10010000
00000000
,
01000000
00000000
00000000
00000000
00000000
00000000
00010000
00001000
00000010
00000000
00000100
00000000
00001000
00000000
00010000
00000000
,
10000000
00000000
00000000
00000000
;
