#TITLE:シュッパツシンコウ・シサカンコウ;
#ARTIST:星野奏子;
#TITLETRANSLIT:SHUPPATSUSHINKOU SHISAKANKO;
#ARTISTTRANSLIT:Kanako Hoshino;
#BANNER:SHUPPATSUSHINKOU SHISAKANKO.png;
#BACKGROUND:SHUPPATSUSHINKOU SHISAKANKO-bg.png;
#JACKET:SHUPPATSUSHINKOU SHISAKANKO-jacket.png;
#CDTITLE:./CDTITLES/BEATMANIA IIDX.PNG;
#MUSIC:SHUPPATSUSHINKOU SHISAKANKO.ogg;
#SAMPLESTART:55.364;
#SAMPLELENGTH:15;
#BPMS:0=182,256=91,272=182,312=91,316=182;

//---------------dance-single - t7r----------------
#NOTES:
     dance-single:
     t7r:
     Beginner:
     4:
     :
0000
0000
0000
0000
,
0000
0000
0000
0000
,
0000
0000
0000
0000
,
0000
0000
0000
0000
,
0000
0000
0000
0000
,
0000
0000
0000
0000
,
1000
0000
1000
0000
,
1000
0000
0000
0001
,
0001
0000
0000
0000
,
1000
0000
0000
0000
,
0001
0000
0001
0000
,
0001
0000
0000
1000
,
1000
0000
0000
0000
,
0001
0000
0000
0000
,
2000
3000
0000
0000
,
0002
0003
0000
0000
,
0200
0300
0000
0000
,
0020
0030
0000
0000
,
0200
0300
0000
0000
,
0002
0003
0000
0000
,
2000
3000
0000
0000
,
0001
0000
1000
0000
,
0001
0000
0001
0000
,
0010
0000
0010
0000
,
0100
0000
0100
0000
,
1000
0000
1000
0000
,
0001
0000
0001
0000
,
0100
0000
0100
0000
,
0010
0000
0010
0000
,
1000
0000
1000
0000
,
1001
0000
0000
0000
,
1000
0000
0000
0000
,
0001
0000
0000
0000
,
0010
0000
0000
0000
,
0001
0000
0000
0000
,
1000
0000
0000
0000
,
0010
0000
0010
0000
,
0100
0000
0100
0000
,
0001
0000
0001
0000
,
1000
0000
1000
0000
,
0002
0003
0000
0000
,
0000
0000
0000
0000
,
1000
0000
1000
0000
,
1000
1000
1000
0000
,
0001
0000
0000
0000
,
0001
0000
0000
0000
,
0100
0000
0010
0000
,
0100
0000
0000
0000
,
0010
0000
0100
0000
,
0010
0000
0000
0000
,
0100
0000
0100
0000
,
0100
0100
0100
0000
,
0010
0000
0000
0000
,
1000
0000
0000
0000
,
0001
0000
0000
0000
,
0010
0000
0000
0000
,
0100
0000
0000
0000
,
0010
0000
0001
0000
,
1000
0000
0000
0000
,
0001
0000
0000
0000
,
1000
0000
1000
0000
,
0100
0000
0100
0000
,
0010
0000
0010
0000
,
0001
0000
0001
0000
,
1000
0000
0001
0000
,
0100
0000
0010
0000
,
0100
0000
0001
0000
,
1000
0000
0001
0000
,
1000
0000
1000
0000
,
1000
1000
1000
0000
,
0001
0000
1000
0000
,
0001
0000
1000
0000
,
0010
0000
0000
0000
,
0100
0000
0000
0010
,
0010
0000
0000
0000
,
0100
0000
0001
0000
,
1000
0000
1000
0000
,
0001
0000
0001
0000
,
0010
0000
0001
0001
,
0001
0000
0001
0000
,
0001
0001
0001
0000
,
1000
0000
0001
0000
,
1000
0000
1000
0000
,
0010
0000
0010
0000
,
0010
0010
0010
0000
,
0100
0000
0010
0000
,
0100
0000
0100
0000
,
0220
0000
0000
0000
,
0000
0000
0000
0000
,
0330
0000
0000
0000
;

//---------------dance-single - t7r----------------
#NOTES:
     dance-single:
     t7r:
     Easy:
     7:
     :
0000
0000
0000
0000
,
0000
0000
0000
0000
,
0000
0000
0000
0000
,
0000
0000
0000
0000
,
0000
0000
0000
0000
,
0000
0000
0000
0000
,
1000
0100
0001
0100
,
1000
1000
1000
0001
,
0100
0000
0001
0000
0010
0001
0010
0000
,
0001
0000
1000
0000
0001
1000
0001
0000
,
1000
0010
0001
0010
,
1000
1000
1000
0001
,
0010
0000
0001
0000
0100
0001
0100
0000
,
0001
0010
0100
1000
,
0002
0000
0103
0000
,
0020
1000
0130
0000
,
2000
0000
3100
0000
,
0020
0001
0130
0000
,
0002
0000
0013
0000
,
0200
1000
0310
0000
,
2000
0000
3010
0000
,
0200
0001
0310
0000
,
0001
1000
0010
0000
,
1000
0100
0010
0000
,
0001
1000
0100
0000
,
1000
0010
0100
0000
,
0001
1000
0001
0100
,
0010
1000
0001
0000
,
1000
0001
1000
0100
,
1001
0000
1001
0000
0010
0100
0010
0000
,
2001
0000
3100
0000
,
2000
0000
3010
0000
,
1002
0000
0103
0000
,
0002
0000
0013
0000
,
2001
0000
3010
0000
,
0200
0000
0000
0000
0310
0000
0000
2000
,
0000
3001
0010
0000
,
0001
0100
0010
1000
,
0001
0000
0010
0000
0001
0100
0001
0000
,
1000
0000
0010
0000
1000
0100
1000
0000
,
0001
1000
0001
0000
1000
0001
1000
0000
,
0020
0000
0000
0130
,
1000
0100
0001
0100
,
1000
1000
1000
0001
,
0100
0000
0001
0000
0010
0001
0010
0000
,
0001
0000
1000
0000
0001
0100
0001
0000
,
1000
0000
0100
0000
,
0010
0100
1000
0000
,
0001
0010
0100
1000
,
0001
0100
0010
1000
,
0001
0010
1000
0010
,
0001
0001
0001
1000
,
0010
0000
1000
0000
0100
1000
0100
0000
,
1000
0000
0001
0000
1000
0010
1000
0000
,
0001
0000
0100
0000
,
0010
1000
0001
0000
,
0010
0001
0200
0000
,
0310
1000
0002
0000
,
1003
0100
0010
0001
,
0010
0100
1000
0001
,
1000
0100
0001
0100
,
1000
0010
0001
0010
,
1000
0100
0010
0001
,
1000
0001
1000
0000
0001
0000
1001
0000
,
0020
0000
0100
0000
1030
1000
1000
0000
,
0100
0010
0001
0100
,
0010
1000
0001
1000
,
0001
0000
0010
0000
0001
1000
0001
1000
,
0001
0100
1000
0100
,
0001
0001
0001
1000
,
0010
0000
1000
0000
0100
1000
0100
0000
,
1000
0000
0001
0000
0100
0001
0100
0000
,
0001
0000
1000
0000
,
0001
0010
0100
0000
,
2000
0010
3001
0000
,
0002
0010
1003
0000
,
0001
0100
1000
0100
,
0001
0010
1000
0010
,
0002
0000
1003
0001
,
1000
0100
0001
0100
,
1000
1000
1000
0001
,
0010
0000
1000
0000
0010
0100
0010
0000
,
0001
0000
0100
0000
0001
1000
0001
0000
,
1000
0010
0001
0010
,
1000
1000
1000
0001
,
0100
0000
1000
0000
0100
0010
0100
0000
,
0010
1001
0100
1001
,
0220
0000
0000
0000
,
0000
0000
0000
0000
,
0330
0000
0000
0000
;

//---------------dance-single - t7r----------------
#NOTES:
     dance-single:
     t7r:
     Medium:
     13:
     :
0000
0000
0000
0000
,
0000
0000
0000
0000
,
0000
0000
0000
0000
,
0000
0000
0000
0000
,
0000
0000
0000
0000
,
0000
0000
0000
0000
,
1000
0100
1000
0100
0001
0100
0001
0100
,
1000
0100
0010
0001
0100
0000
1010
0000
,
0101
0000
1100
0000
0001
0010
0100
1000
,
0010
0000
0110
0000
1000
0100
0010
0000
,
0001
0100
0001
0100
1000
0100
1000
0100
,
0001
0010
0100
1000
0010
0000
0101
0000
,
1100
0000
0011
0000
1000
0100
0010
0001
,
1000
0010
0100
0000
0001
0010
0100
0000
,
2000
0000
0100
0000
3001
1000
0010
0000
,
1000
0000
0100
0000
1000
0010
0100
0000
,
0002
0000
0100
0000
1003
0001
0010
0000
,
0001
0000
0100
0000
0001
0010
0100
0000
,
2000
0000
0010
0000
3001
1000
0010
0000
,
1000
0000
0100
0000
0010
0100
1000
0000
,
0002
0000
0010
0000
1003
0001
0010
0000
,
0001
0100
0001
1000
0000
0010
1000
0000
,
0200
0000
0010
0000
1300
0100
0010
0000
,
0001
0000
0100
0000
0001
1000
0100
0000
,
0020
0000
0100
0000
0031
0010
0100
0000
,
1000
0000
0010
0000
1000
0001
0010
0000
,
0002
0000
0100
0000
1003
0001
0010
0000
,
0001
0000
0100
0000
0001
1000
0010
0000
,
2000
0000
0100
0000
3001
1000
0010
0000
,
1001
0000
1001
0000
0010
0100
0010
0000
,
2001
0000
0000
0000
0000
0000
3100
0000
0001
0000
0100
0000
,
1000
0000
0000
0000
0100
0000
0000
0000
0010
0000
0000
0000
0000
0000
0000
0001
0000
0000
1000
0000
0000
0001
0000
0000
,
2000
0000
0000
0000
0000
0000
3010
0000
0001
0000
0010
0000
,
1000
0000
0000
0000
0010
0000
0000
0000
0000
0100
0000
0000
0001
0000
0000
0000
0000
0000
1000
0000
0000
0000
0000
0000
,
2001
0000
0000
0000
0000
0000
0000
0000
0000
3100
0000
0000
0010
0000
0000
0000
0001
0000
0000
0000
0100
0000
0000
0000
,
1000
0000
0000
0000
0100
0000
0000
0000
0001
0000
0000
0000
0000
0000
0000
0010
0000
0000
0100
0000
0000
2000
0000
0000
,
0000
3010
0100
0000
0101
0000
1100
0000
,
0001
0011
1001
0101
,
1000
0100
1000
0000
0001
0100
0001
0000
,
1000
0010
1000
0000
0001
0010
0001
0000
,
1000
0100
1000
0100
0010
0001
0010
0001
,
2000
0000
0000
3001
,
1000
0100
1000
0100
0001
0100
0001
0100
,
1000
0100
0010
0001
0100
0000
1010
0000
,
0101
0000
1100
0000
0001
0010
1000
0010
,
0001
0000
0011
0000
1000
0100
0001
0100
,
0010
0000
0011
0000
0001
0100
0010
0100
,
0001
1000
0100
0000
1000
0001
0010
0000
,
0001
0100
0010
0100
0001
0010
0100
0000
,
1000
0100
0010
0100
1000
0001
1000
0000
,
0001
0010
0001
0010
1000
0010
1000
0010
,
0001
0010
0100
1000
0010
0000
0101
0000
,
1100
0000
0011
0000
1000
0100
0001
0100
,
1000
0000
1100
0000
0001
0010
1000
0010
,
0100
0000
1100
0000
1000
0010
0100
0001
,
0010
0001
0100
0000
0010
1000
0100
0000
,
2000
0000
3001
0000
0100
0010
1000
0010
,
0100
0001
0010
0000
0100
1000
0010
0000
,
1000
0100
1000
0100
0001
0100
0001
0100
,
1000
0100
0010
0001
1000
0010
0100
0001
,
1000
0100
0010
0001
0010
0100
1000
0001
,
1000
0100
0010
0001
0010
0100
1000
0001
,
1000
0010
0100
0001
0100
0010
1000
0001
,
1000
0100
0100
0100
0010
0000
1001
0000
,
0020
0000
0100
0000
1030
0001
0100
0000
,
0002
0000
0013
0100
1000
0000
0010
0100
,
0020
0000
1030
0000
0100
1000
0001
0000
,
0100
0000
0000
0000
0010
0000
0000
0000
1000
0001
1000
0001
1000
0000
0001
0000
,
1000
0100
1000
0100
0001
0100
0001
0100
,
1000
0010
0001
0010
1000
0000
1010
0000
,
0101
0000
1100
0000
0001
0010
0100
1000
,
0001
0000
0011
0000
1000
0100
0010
0001
,
1000
0000
0110
0000
0001
0100
0010
1000
,
0100
1000
0001
0100
0010
1000
0100
0000
,
0010
0100
2000
0000
0010
0000
3001
0000
,
0100
0010
1000
0000
0100
0010
0001
1000
,
0001
0010
0100
1000
0100
0010
0001
1000
,
0001
0100
0010
1000
0010
0100
0001
1000
,
0002
0000
0000
0000
0000
0000
0000
0000
1003
0000
0000
0000
0001
0000
1000
0001
,
1000
0010
1000
0010
0001
0010
0001
0010
,
1000
0100
0001
0100
1000
0000
1100
0000
,
0011
0000
0101
0000
0001
0100
1000
0100
,
0001
0000
0101
0000
0010
1000
0100
1000
,
0001
0100
0001
0100
1000
0100
1000
0100
,
0001
0010
1000
0010
0001
0000
0011
0000
,
1100
0000
1010
0000
0001
0100
1000
0100
,
0001
0010
1000
0010
0100
1000
0001
1000
,
2002
0000
0000
0000
,
0000
0000
0000
0000
,
3003
0000
0000
0000
;

//---------------dance-single - t7r----------------
#NOTES:
     dance-single:
     t7r:
     Hard:
     16:
     :
0000
0000
0000
0000
,
0000
0000
0000
0000
,
0000
0000
0000
0000
,
0000
0000
0000
0000
,
0000
0000
0000
0000
,
0000
0000
0000
0000
,
1000
0100
1100
0100
1000
0100
1100
0100
,
1000
0010
0100
0001
0101
0000
0011
0000
,
1001
0000
0000
0000
0101
0000
0001
0100
0010
0000
1000
0000
0100
0000
0010
0000
,
0011
0000
0000
0000
1001
0000
0001
0010
0100
0000
1000
0000
0002
0000
0000
0000
,
1003
0010
1010
0010
1000
0010
1010
0010
,
1000
0100
0010
0001
0011
0000
1001
0000
,
1100
0000
0000
0000
1010
0000
0010
0100
0001
0000
1000
0000
0001
0000
0010
0000
,
0001
0000
0100
0010
1000
0000
0001
0000
1000
0000
0010
0100
0001
0000
1000
0000
,
0001
0100
1000
0100
0010
1000
0001
0000
,
1000
0100
0001
0100
0010
0001
1000
0001
,
1000
0010
0001
0010
0100
0001
1000
0000
,
0001
0000
0010
0000
1000
0000
0010
0000
0100
0000
1000
0000
0001
0000
0100
0010
,
0100
0001
0100
1000
0100
0010
1000
0000
,
0010
1000
0010
0001
0010
0100
0001
1000
,
0100
1000
0100
0001
0100
0010
0001
0000
,
1000
0000
0010
0000
0001
0000
0020
0000
0000
0000
1030
0000
0001
0000
1000
0100
,
1000
0100
0001
0100
0010
0001
0011
0000
,
0001
0100
1000
0100
0010
1000
1010
0000
,
1000
0010
0001
0010
0100
0001
0101
0000
,
0001
0000
0010
0000
1000
0000
0010
0000
0100
0000
1000
0000
0001
0000
1000
0100
,
1000
0010
0001
0010
0100
0001
1000
0001
,
1000
0100
0001
0100
0010
0001
0010
1000
,
0010
0100
0010
0001
0010
0100
0010
1000
,
1010
0000
0000
0000
0011
0000
0000
0000
1001
0000
1001
0000
1001
0000
0001
1000
,
0200
0000
0000
0000
0000
0000
0000
0000
0000
0310
0000
0000
0001
0000
0000
0000
0100
0000
0000
0000
1000
0000
0000
0000
,
0100
0000
0000
0000
0001
0000
0000
0000
1001
0000
0000
0000
0000
0000
0000
0001
0000
0000
0010
0000
0000
0100
0000
0000
,
2000
0000
0000
0000
0000
0000
0000
0000
0000
3010
0000
0000
1000
0000
0000
0000
0100
0000
0000
0000
0001
0000
0000
0000
,
0100
0000
1000
0000
0001
0000
1001
0000
0000
1100
0000
0000
,
0020
0000
0000
0000
0000
0000
0000
0000
0000
0130
0000
0000
1000
0000
0000
0000
0100
0000
0000
0000
0001
0000
0000
0000
,
0100
0000
0000
0000
1000
0000
0000
0000
0010
0000
0000
0000
0100
0000
0000
0010
0000
0000
1000
0000
0000
0002
0000
0000
,
0000
1003
0100
0001
0100
1000
0010
1000
,
0001
0010
1000
0010
0001
0100
0001
1000
,
0001
0000
0010
0100
1000
0000
0100
0010
0001
0000
0100
0010
1000
0000
0010
0100
,
0001
0000
1000
0001
0100
0000
0001
1000
0010
0000
1000
0001
0010
0000
0001
1000
,
0001
0000
1000
0100
1000
0000
0001
0100
0001
0000
1000
0010
1000
0000
0001
0000
,
2000
0000
0000
3001
,
1000
0100
1100
0100
1000
0100
1100
0100
,
1000
0010
1010
0010
2000
0000
3001
0000
,
0101
0000
0000
0000
1001
0000
0001
0010
0100
0000
1000
0000
0010
0000
0100
0000
,
0110
0000
0000
0000
1010
0000
1000
0010
0100
0000
0010
0000
1000
0000
0001
0000
,
1000
0100
0001
0100
0010
0001
0010
1000
,
0010
0000
0100
0000
1000
0000
0001
0100
0001
0000
1000
0000
1001
0000
0000
0000
,
0001
0000
0100
0001
0100
0000
0001
0000
1000
0000
0010
1000
0001
0000
0000
0000
,
1000
0000
0100
1000
0100
0000
1000
0000
0001
0000
0010
0001
1000
0000
0001
1000
,
0001
0100
0101
0001
0100
0001
0101
0001
,
0100
0001
0011
0010
0002
0000
1003
0000
,
1100
0000
0000
0000
0011
0000
0010
0001
1000
0000
0001
0000
0100
0000
0010
0000
,
1010
0000
0000
0000
1001
0000
1000
0001
0100
0000
0001
0000
1000
0000
0001
0000
,
1000
0010
0001
0010
0100
0001
1000
0001
,
1000
0000
0100
0000
0001
0000
0100
1000
0100
0000
1000
0000
0001
0000
0100
0000
,
0120
0000
1030
0001
0012
0000
1003
0000
,
0001
0000
1000
0001
0100
0000
0001
1000
0010
0000
1000
0001
0010
0000
0001
1000
,
0001
0100
1000
0100
0010
1000
0001
1000
,
0001
0000
0010
0000
1000
0000
0010
0100
0010
0000
0001
0000
1000
0000
0001
0000
,
1000
0100
1000
0001
0100
0001
1000
0010
0001
0010
0100
0001
,
1000
0010
1000
0001
0010
0001
1000
0100
0001
0100
0010
0001
,
1000
0100
0001
0100
1000
0001
1000
0010
0001
0010
1000
0001
,
1000
0000
0001
0000
1001
0000
0001
0100
0010
0000
1000
0000
1001
0000
0000
0000
,
0012
0000
0000
0000
0103
0000
0000
0000
0010
1000
0100
0001
0100
0000
1000
0000
,
0010
0000
0100
0000
0001
0010
1000
0010
0100
0000
1000
0000
0001
0100
1000
0100
,
0010
1000
0100
0000
0010
0001
0100
0000
0001
0010
0100
1000
0002
0000
1003
0000
,
0001
0000
0100
0000
0010
0000
1000
0000
0200
0000
0000
0000
0310
0000
0000
0000
0100
0000
1000
0100
1000
0000
0001
0000
0100
0000
0010
0000
1001
0000
0000
0000
,
0001
0100
0101
0001
0010
0001
0011
0001
,
0100
0001
0101
0001
1001
0000
1100
0000
,
0110
0000
0000
0000
0011
0000
0001
0100
0010
0000
1000
0000
0001
0000
1000
0000
,
1001
0000
0000
0000
1010
0000
0010
0100
0001
0000
1000
0000
0100
0000
0010
0000
,
0001
0000
0100
0001
1000
0000
0001
0000
0010
0000
0001
1000
0010
0000
1000
0000
,
0001
0000
1000
0001
0100
0000
0010
0000
1000
0000
0100
0010
0001
0000
1000
0000
,
0001
0000
0100
0001
0100
0000
0001
0000
0020
0000
0000
0000
0031
0000
0000
0000
,
1000
0000
0100
1000
0001
0000
1000
0000
0010
0000
1000
0001
0100
0000
0001
1000
,
0001
0000
0010
0100
1000
0000
0100
0000
0001
0000
0100
0000
0010
0000
0001
0000
,
1000
0000
0010
0100
0001
0000
0100
0000
1000
0000
0100
0000
0010
0000
1000
0000
,
0002
0000
0000
0000
0000
0000
1000
0000
0000
0000
0100
0000
0000
0000
0013
0000
0022
0000
0000
0000
0033
0000
0000
0000
1001
0000
0000
0000
0001
1000
0001
1000
,
0001
0100
0101
0100
0010
1000
1010
1000
,
0100
0010
0110
0010
0011
0000
1001
0000
,
1100
0000
0000
0000
1010
0000
0010
1000
0001
0000
1000
0000
0001
0000
0100
0000
,
0101
0000
0000
0000
1001
0000
0001
1000
0100
0000
1000
0000
1100
0000
0000
0000
,
1000
0010
1010
0010
0100
0001
0101
0001
,
0010
0100
0110
0100
1100
0000
1001
0000
,
0011
0000
0000
0000
1001
0000
0001
0100
0010
0000
1000
0000
0001
0000
1000
0000
,
0001
0000
0010
0100
1000
0000
0100
0010
0001
0000
1000
0001
0010
0000
0001
1000
,
0002
0000
0000
0000
,
0000
0000
0000
0000
,
0003
0000
0000
0000
;

//---------------dance-single - t7r----------------
#NOTES:
     dance-single:
     t7r:
     Challenge:
     11:
     :
0000
0000
0000
0000
,
0000
0000
0000
0000
,
0000
0000
0000
0000
,
0000
0000
0000
0000
,
0000
0000
0000
0000
,
0000
0000
0000
0000
,
0001
MMMM
1000
MMMM
,
0001
0001
1000
1001
,
0010
0000
MMMM
0000
0001
1000
0100
0000
,
0010
0000
MMMM
0000
1000
0001
0020
0000
,
0031
MMMM
1000
MMMM
,
0001
0001
1000
1001
,
0010
0000
MMMM
0000
1000
0100
0010
0000
,
0001
0000
MMMM
0000
0010
0100
0001
1000
,
0001
0000
0100
0000
0001
0010
0100
0000
,
1000
0000
0010
0000
1000
0100
0010
0000
,
0001
0000
0100
0000
0001
1000
0010
0000
,
1000
0000
0100
0000
1000
0001
0010
0000
,
0001
0000
0100
0000
0010
1000
0100
0000
,
1000
0000
0100
0000
0010
0001
0100
0000
,
0001
0000
0010
0000
0100
1000
0010
0000
,
1000
0010
0100
0002
0000
1003
0001
0000
,
1000
0000
0100
0000
0001
0100
0010
0000
,
0001
0000
0010
0000
1000
0010
0100
0000
,
1000
0000
0010
0000
0001
0010
0100
0000
,
0001
0000
0100
0000
1000
0100
0010
0000
,
1000
0000
0100
0000
0001
0100
1000
0000
,
0001
0000
0010
0000
1000
0010
0001
0000
,
1000
0000
0010
0000
0001
0010
1000
0000
,
0110
0000
MMMM
0000
0001
1000
0100
0000
,
2001
0000
0000
0000
3010
0000
0000
MMMM
,
0100
1000
0010
0100
,
1002
0000
0000
0000
0103
0000
0000
MMMM
,
0010
0001
0010
0100
,
2100
0000
0000
0000
3001
0000
0000
MMMM
,
0010
0000
0100
0000
1000
0000
0010
2000
,
0000
3001
0100
0000
0001
0010
0001
0000
,
1000
0000
0100
0000
1000
0010
1000
0000
,
0001
0100
0010
1000
0010
0100
0001
0000
,
1000
0100
0010
0001
0010
0100
1000
0000
,
0001
0100
0001
0100
1000
0100
1000
0100
,
0002
0000
0000
1003
,
0001
MMMM
1000
MMMM
,
0010
0110
1001
0101
,
1100
0000
0101
0000
1000
0010
0100
0001
,
1000
0000
0011
0000
0001
0010
0100
1000
,
0001
0000
0100
0000
0001
1000
0010
0000
,
1000
0100
0010
0001
0200
0000
0300
0000
,
0001
0010
0001
1000
0100
0000
1000
0000
,
0001
0100
0010
1000
0010
0100
0001
1000
,
0001
1000
0001
1000
,
1001
MMMM
MMMM
0110
,
0101
0000
1100
0000
0001
0010
0100
1000
,
0010
0000
1000
0000
0001
0100
0010
1000
,
0001
0000
1000
0000
0100
1000
0010
0000
,
0100
0001
0010
0100
0010
0000
0001
0000
,
1000
0100
0010
0000
0001
0100
0010
0000
,
1000
0010
0100
0001
1000
0100
0010
0001
,
2000
0000
0002
0000
,
0000
0000
0000
3003
,
1000
0100
0001
0100
1000
0010
0100
0001
,
1000
0010
0001
0010
1000
0100
0010
0001
,
1000
0100
1000
0100
0001
0100
0001
0100
,
1000
0010
0100
0001
1000
0000
MMMM
0000
,
0001
0001
1000
0001
0011
0000
1010
0000
,
0010
0100
MMMM
0000
0100
0010
MMMM
0000
,
0010
0001
0100
1000
0010
0001
1000
0000
,
2010
0001
3001
0000
1000
0000
MMMM
0000
,
0001
1000
0001
1000
,
0001
MMMM
0001
MMMM
0001
MMMM
1000
0000
,
0001
0000
1000
0000
0001
0010
1000
0010
,
0100
0000
1000
0000
0001
0100
1000
0100
,
0020
0000
0030
0000
1000
0100
0010
0000
,
0001
MMMM
1000
MMMM
,
0010
0001
0100
1000
,
0010
0100
1000
0001
1000
0100
0010
0001
,
2000
0000
0002
0000
,
0000
0000
0000
3003
,
0010
0001
0100
1000
MMMM
0000
0110
0000
,
1000
MMMM
0001
MMMM
,
1000
MMMM
1000
MMMM
0001
MMMM
1001
0000
,
0110
0000
0101
0000
1000
0100
0001
0100
,
1000
0000
0101
0000
1000
0010
0200
0000
,
0301
MMMM
1000
MMMM
,
0001
MMMM
0001
MMMM
1000
MMMM
1001
0000
,
0110
0000
1010
0000
0001
0010
1000
0010
,
0001
0100
0001
0100
1000
0100
0001
1000
,
2002
0000
0000
0000
,
0000
0000
0000
0000
,
3003
0000
0000
0000
;
