#TITLE:QUIERO L'AMOR;
#ARTIST:PAUL HARRIS;
#BANNER:QUIERO L'AMOR.png;
#BACKGROUND:QUIERO L'AMOR-bg.png;
#JACKET:QUIERO L'AMOR-jacket.png;
#CDTITLE:./CDTITLES/NONE.PNG;
#MUSIC:QUIERO L'AMOR.ogg;
#SAMPLESTART:89.62;
#SAMPLELENGTH:15;
#BPMS:0=158;

//---------------dance-single - t7r----------------
#NOTES:
     dance-single:
     t7r:
     Beginner:
     1:
     :
0000
0000
0000
0000
,
0000
0000
0000
0000
,
0000
0000
0000
0000
,
0000
0000
0000
0000
,
0000
0000
0000
0000
,
0000
0000
0000
0000
,
0010
0000
0000
0000
,
0000
0000
0000
0000
,
0100
0000
0000
0000
,
0000
0000
0000
0000
,
0001
0000
0000
0000
,
0001
0000
0000
0000
,
1000
0000
0000
0000
,
1000
0000
0000
0000
,
0010
0000
0000
0000
,
0010
0000
0000
0000
,
0100
0000
0000
0000
,
0100
0000
0100
0000
,
0010
0000
0000
0000
,
1000
0000
0000
0000
,
0100
0000
0000
0000
,
0001
0000
0000
0000
,
0010
0000
0000
0000
,
0001
0000
0000
0000
,
0100
0000
0000
0000
,
1000
0000
0000
0000
,
0010
0000
0010
0000
,
0010
0000
0000
0000
,
1000
0000
1000
0000
,
1000
0000
0000
0000
,
0001
0000
0001
0000
,
0001
0000
0000
0000
,
0100
0000
0000
0000
,
0100
0000
0000
0000
,
0001
0000
0001
0000
,
0001
0000
0000
0000
,
1000
0000
1000
0000
,
1000
0000
0000
0000
,
0010
0000
0010
0000
,
0010
0000
0000
0000
,
0100
0000
0100
0000
,
0100
0000
0000
0000
,
1000
0000
0000
0000
,
0001
0000
0000
0000
,
0010
0000
0000
0000
,
0010
0000
0000
0000
,
0100
0000
0000
0000
,
0010
0000
0000
0000
,
0001
0000
0000
0000
,
1000
0000
0000
0000
,
0000
0000
0000
0000
,
0010
0000
0000
0000
,
0000
0000
0000
0000
,
0100
0000
0000
0000
,
0000
0000
0000
0000
,
0001
0000
0000
0000
,
0001
0000
0000
0000
,
1000
0000
0000
0000
,
1000
0000
0000
0000
,
0100
0000
0000
0000
,
0100
0000
0100
0000
,
0100
0000
0000
0000
,
0010
0000
0010
0000
,
0010
0000
0000
0000
,
1000
0000
1000
0000
,
1000
0000
0000
0000
,
0001
0000
0000
0000
,
0001
0000
0001
0000
,
0001
0000
0000
0000
,
0100
0000
0100
0000
,
0100
0000
0000
0000
,
0010
0000
0010
0000
,
0010
0000
0000
0000
,
1000
0000
1000
0000
,
1000
0000
0000
0000
,
0001
0000
0000
1000
;

//---------------dance-single - t7r----------------
#NOTES:
     dance-single:
     t7r:
     Easy:
     6:
     :
0000
0000
0000
0000
,
0000
0000
0000
0000
,
0000
0000
0000
0000
,
0000
0000
0000
0000
,
0000
0000
0000
0000
,
0000
0000
0000
0000
,
2000
0000
0000
0000
,
3010
0000
0000
0000
,
0002
0000
0000
0000
,
0013
0000
0000
0000
,
0001
0000
0001
0000
,
1000
0000
1000
0000
,
0001
0000
0100
0000
,
1000
0000
0100
0000
,
0001
0000
0001
0000
,
1000
0000
1000
0000
,
0001
0000
0010
0000
,
1000
0000
0010
0000
,
0001
0100
0001
0000
,
1000
0010
0100
0100
,
0001
0010
0001
0000
,
1000
0100
0010
0010
,
0001
1000
0010
0000
,
1000
0010
0100
0100
,
0001
0000
0001
0000
,
1000
0100
0010
0000
,
0001
0100
0010
1000
,
0002
0000
0013
0000
,
1000
0010
0100
0001
,
2000
0000
3100
0000
,
0001
1000
0010
0100
,
0002
0000
1003
0000
,
0100
0000
0000
0100
0000
0000
0010
0000
,
2002
0000
0000
3003
,
1000
0100
0001
0000
,
1000
0100
0010
0000
,
0001
0100
1000
0000
,
0001
0100
0010
0000
,
1000
0010
0001
0000
,
1000
0010
0100
0000
,
0001
0010
1000
0000
,
0001
0010
0100
0000
,
1000
0001
0100
0010
,
2000
0000
3001
0000
,
0001
1000
0010
0100
,
0002
0000
1003
0000
,
0100
0100
0100
0000
,
0000
0000
0000
0000
,
0010
0010
0010
0000
,
0001
0000
1000
0000
,
0000
0000
0000
0110
,
2000
0000
0000
0000
,
0000
0000
3001
0000
,
0020
0000
0000
0000
,
0000
0000
0130
0000
,
1000
0000
1000
0000
,
0001
0000
0100
0000
,
0010
0000
0000
0010
0000
0000
0000
0000
,
0100
0000
0110
0000
,
1000
0100
0010
0001
,
0100
1000
0100
0000
,
0001
0010
0100
1000
,
0010
0001
0010
0000
,
1000
0100
0010
0001
,
1000
0001
0100
0010
,
1000
0000
0010
0000
,
0001
0000
0100
0000
,
1000
0100
0001
1000
,
0010
0100
1000
0000
,
0001
0100
1000
0001
,
0010
0100
0001
0000
,
1000
0010
0001
1000
,
0100
0010
1000
0000
,
0001
0010
1000
0001
,
0100
0010
0001
0000
,
2000
0000
0000
0000
3010
0000
0100
0010
;

//---------------dance-single - t7r----------------
#NOTES:
     dance-single:
     t7r:
     Medium:
     9:
     :
0000
0000
0000
0000
,
0000
0000
0000
0000
,
0000
0000
0000
0000
,
0000
0000
0000
0000
,
0000
0000
0000
0000
,
0000
0000
0000
0000
,
2000
0000
0000
0000
0000
0000
3100
0010
,
0000
0000
0000
0000
,
0002
0000
0000
0000
0000
0000
0103
0010
,
0000
0000
0000
0000
,
1000
0000
0000
0001
0000
0000
1000
0000
0000
0000
0100
0000
0000
0000
0100
0000
,
1000
0000
0000
0001
0000
0000
1000
0000
0000
0000
0010
0000
0100
0000
0000
0000
,
0001
0000
0000
1000
0000
0000
0001
0000
0000
0000
0010
0000
0000
0000
0010
0000
,
0001
0000
0000
1000
0000
0000
0001
0000
0000
0000
0100
0000
0001
0000
0000
0000
,
1000
0000
0000
0100
0000
0000
1000
0000
0000
0000
0100
0000
0000
0000
0010
0000
,
0001
0000
0000
0001
0000
0000
0001
0000
0000
0000
0100
0000
0000
0000
0010
0000
,
1000
0000
0000
0010
0000
0000
1000
0000
0000
0000
0001
0000
0000
0000
1000
0000
,
0100
0100
0010
1001
,
0000
0001
0000
0100
0000
0001
1000
0100
,
0000
1000
0000
0001
0000
0010
0001
0000
,
1000
0010
0000
0100
0000
0010
1000
0001
,
0000
0010
0000
0100
0000
0010
0001
0000
,
1000
0001
0000
0010
0000
0001
0100
0010
,
0000
1000
0000
0001
0000
0010
0100
0000
,
0010
0000
0010
0000
0001
0100
0010
0200
,
0000
0000
0310
0000
1000
0001
0000
0000
,
1001
0000
1000
0100
0000
1000
0010
2000
,
0000
0000
0000
3001
1000
0001
0000
0000
,
1001
0000
0001
0100
0000
0001
0010
0002
,
0000
0000
0000
1003
0001
1000
0000
0000
,
0001
0000
0100
0000
0010
1000
0100
2000
,
0000
0000
3010
0100
0000
0110
0000
0000
,
1000
0001
1000
0001
0000
0100
0010
0000
,
1000
0000
0001
0001
0000
1000
0000
0000
,
0001
0010
0100
1000
0000
0001
0000
0100
,
0000
1000
0000
0100
0000
0001
0000
0000
,
1000
0010
0100
0001
0000
1000
0000
0100
,
0000
0001
0000
0100
0000
1000
0000
0000
,
0001
0100
0010
1000
0000
0001
0000
0010
,
0000
1000
0000
0010
0000
0001
0000
0000
,
1000
0010
0100
0001
0000
1000
0000
0010
,
0000
0001
0000
0010
0000
1000
0000
0000
,
0001
0200
0000
0000
0001
0000
0310
0100
,
0002
0010
1000
0103
,
1000
0200
0000
0000
1000
0000
0310
0100
,
2000
3010
0200
0301
,
1000
0001
0100
0010
0000
1010
0000
0102
,
0000
0010
1000
0103
,
0001
0010
0100
1000
0000
0011
0000
1100
,
0000
0101
0000
0110
0000
2001
0000
0000
,
0000
0000
0000
3010
,
0200
0000
0000
0000
,
0000
0000
0000
0310
1000
0001
0000
0000
,
0020
0000
0000
0000
,
0000
0000
0000
0031
1000
0010
0000
0000
,
2000
0100
0000
3001
,
0200
0000
0310
1000
0000
1001
0000
0000
,
0100
0010
0100
0010
0000
0000
1001
0000
,
0110
0000
0001
0001
0000
1000
0000
0000
,
0001
0010
0100
1000
0000
0001
0100
0001
,
0000
1000
0100
1000
0000
0001
1000
0000
,
0001
0100
0010
1000
0000
0001
0010
0001
,
0000
1000
0010
1000
0000
0001
1000
0000
,
0001
0100
0010
0100
0000
0001
0010
0100
,
0000
1000
0010
0100
0000
0010
1000
0000
,
0001
0010
0100
0010
0000
0001
1000
0010
,
0000
0110
0000
1001
0000
1010
0000
0000
,
1000
0100
0010
0001
0000
1000
0100
0001
,
0000
0100
1000
0100
0000
1000
0001
0000
,
1000
0010
0100
0001
0000
1000
0010
0001
,
0000
0010
1000
0010
0000
1000
0001
0000
,
1000
0100
0010
0100
0000
1000
0001
0100
,
0000
0001
0010
1000
0000
0010
0001
0000
,
1000
0010
0100
0010
0000
1000
0001
0010
,
0000
0001
0100
1000
0000
0100
0010
0000
,
2001
0000
0010
0000
0100
0000
3001
1000
;

//---------------dance-single - t7r----------------
#NOTES:
     dance-single:
     t7r:
     Hard:
     13:
     :
0000
0000
0000
0000
,
0000
0000
0000
0000
,
0000
0000
0000
0000
,
0000
0000
0000
0000
,
0000
0000
0000
0000
,
0000
0000
0000
0000
,
2001
0000
0000
0000
0000
0000
3010
0100
,
0000
0000
0000
0000
,
0002
0000
0000
0000
0000
0000
0013
0100
,
0000
0000
0000
0000
,
1000
0000
0100
0010
0000
0100
0010
0000
0000
0000
0001
0000
1000
0000
0010
0000
,
0100
0000
0001
0010
0000
0001
0010
0000
0000
0000
0100
0000
1000
0000
0010
0000
,
0100
0000
0010
1000
0000
0010
1000
0000
0000
0000
0001
0000
0010
0000
0100
0000
,
0010
0000
0001
1000
0000
0001
1000
0000
0000
0000
0010
0000
0100
0000
0001
0000
,
0100
0000
0010
1000
0000
0010
0100
0000
0000
0000
0010
0000
1000
0100
1000
0000
,
0001
0000
0010
1000
0000
0010
0001
0000
0000
0000
1000
0000
0100
1000
0100
0000
,
1000
0000
0100
0001
0000
0100
1000
0000
0000
0000
0100
0000
0010
0000
0001
0000
,
1000
0000
0001
0100
0000
1000
0100
0000
0010
0000
1000
0000
1001
0000
0000
0000
,
0001
0100
0001
0000
1000
0100
0010
1000
,
0000
0010
0001
0100
0000
0001
2000
0000
,
3010
0100
0010
0000
1000
0010
0100
1000
,
0000
0100
0001
0010
0000
0001
2000
0000
,
3001
0100
0001
0000
1000
0100
0001
0100
,
0000
0010
0001
1000
0000
0001
0200
0000
,
0310
1000
0100
0000
0010
0001
0100
0002
,
0000
0000
1003
0000
0010
0110
0000
0000
,
1010
0000
1000
0100
0000
0001
0100
0020
,
0000
0000
0000
0001
0001
0031
0000
0000
,
0011
0000
0001
0100
0000
1000
0100
0020
,
0000
0000
0000
1000
1000
1030
0000
0000
,
0001
0010
0100
0000
1000
0010
0100
0000
,
0001
1000
0010
0110
0000
1001
0000
0000
,
1000
1000
1000
1000
0000
0001
1000
0000
,
0110
0000
0100
0101
0000
1100
0000
0000
,
0001
0010
1000
0010
0000
0001
0100
0010
,
0000
0001
0100
0010
0000
0010
0100
0000
,
1000
0100
0001
0100
0000
1000
0010
0100
,
0000
1000
0010
0100
0000
0100
0010
0000
,
0001
0001
0010
1000
0000
0010
0002
0000
,
0000
0000
1003
0000
0100
0000
1000
0010
1000
0000
0001
0000
1000
0000
0000
0000
,
0001
0001
0100
1000
0000
0100
0001
0020
,
0000
0130
1000
0001
0100
0010
0110
0000
,
1000
0200
0001
0000
0010
0000
1300
0001
,
2000
0010
0001
3100
,
0001
0200
1000
0000
0010
0000
0301
1000
,
0200
0000
0310
0000
0002
0000
1003
0010
,
0110
0100
0001
0100
1000
1100
0000
0001
,
0010
0000
1000
0000
0010
0000
0001
0100
0000
1000
0100
0000
0001
0000
1000
0000
,
0001
0010
1000
1010
0010
0001
0010
0100
,
1000
0000
1000
0000
0001
2002
0000
0000
,
0000
0000
3003
0110
,
2010
0000
0001
0001
0000
0010
0000
0002
,
0000
0000
3003
1000
1000
1000
0000
0000
,
0012
0000
1000
1000
0000
0010
0000
2000
,
0000
0000
3003
0010
0010
0010
0000
0000
,
0000
1000
0000
0001
0000
0100
0000
0020
,
0000
0030
0000
0110
0000
1001
0000
0000
,
0010
0010
0100
0200
0000
0301
0010
0000
,
1001
0000
0110
0101
0000
1010
0000
0000
,
1000
1000
0100
1100
0000
1000
0010
0001
,
1000
0100
0010
1000
0001
0010
0110
0000
,
0001
0001
0010
0011
0000
0001
0010
1000
,
0001
0100
0010
0001
1000
0010
0110
0000
,
1000
1000
0001
0101
0000
0001
0020
0000
,
0031
0000
1000
0010
1000
0000
0001
1000
0001
1000
0001
0000
1000
0000
0000
0000
,
0100
0100
0010
0011
0000
0001
0100
0020
,
0000
0130
0000
0110
1000
0001
0100
0000
,
1010
0010
0001
1000
0000
0010
0001
1000
,
0000
0100
1000
0001
0100
0010
1000
0000
,
0011
0010
1000
0001
0000
0010
1000
0001
,
0000
0100
0001
1000
0010
0100
0001
0000
,
1100
0100
0001
1000
0000
1000
0020
0000
,
0000
0000
0031
0100
0001
0000
1000
0001
1000
0001
1000
0000
0010
0000
0000
0000
,
0101
0001
0100
1000
0000
0001
0010
0120
,
0000
0000
1030
0000
0001
0010
0001
0000
1000
0000
0001
0000
1000
0000
0000
0000
,
0210
0000
0000
0000
0301
0000
1000
0100
0000
0100
0010
0000
0001
0000
1001
0000
;

//---------------dance-single - t7r----------------
#NOTES:
     dance-single:
     t7r:
     Challenge:
     15:
     :
0000
0000
0000
0000
,
0000
0000
0000
0000
,
0000
0000
0000
0000
,
0000
0000
0000
0000
,
0000
0000
0000
0000
,
0000
0000
0000
0000
,
0000
0000
0000
0000
,
0000
0000
0000
0000
,
0000
0000
0000
0000
,
0000
0000
0000
0000
,
0010
0000
0100
0001
0000
0001
0010
0000
0000
0000
0001
0000
1000
0100
1000
0000
,
0010
0000
0100
0001
0000
0001
1000
0000
0000
0000
0100
0000
1000
0000
0010
0000
,
0100
0000
0010
1000
0000
1000
0100
0000
0000
0000
0010
0000
0001
1000
0001
0000
,
0100
0000
0001
0010
0000
0010
0100
0000
0000
0000
0010
0000
0001
0000
1000
0000
,
0001
0000
0100
0010
0000
0010
1000
0000
0000
0000
0010
0000
1000
0100
1000
0000
,
0001
0000
0010
0001
0000
0010
1000
0000
0010
0000
0100
0000
1000
0001
1000
0000
,
0010
0000
0100
0001
0000
0001
0010
0000
0000
0000
0001
0000
1000
0000
0010
0000
,
0100
0000
0010
1000
0000
1000
0001
0000
0100
0000
0010
0000
1001
0000
0000
0000
,
0001
0010
0100
0000
0001
0100
1000
0100
,
0000
0100
0010
0000
0001
2000
0010
3000
,
1000
0100
0010
0000
1000
0100
0001
0100
,
0000
0100
0010
0000
1000
0002
0010
0003
,
0100
0010
1000
0000
0001
0010
1000
0010
,
0000
0010
0100
0000
1000
0002
0100
0003
,
0210
0000
0010
0000
0310
1000
0001
0200
,
0001
0000
0310
0000
0110
0110
0000
0000
,
1010
0000
1100
0100
1000
0100
0001
0100
,
0020
0000
0031
1000
1001
1001
0000
0000
,
0011
0000
0101
0100
0001
0100
1000
0100
,
0020
0000
1030
0001
1001
1001
0000
0000
,
1000
0010
0100
0000
1000
0100
0010
0000
,
1000
0001
0010
0011
0000
1001
0000
0000
,
0100
0100
0110
0110
0000
1001
0010
0100
,
0101
0000
1100
1010
0000
1001
0000
0000
,
1000
0100
0110
0110
0000
0001
0100
0010
,
0000
0001
0010
1000
0001
0010
0011
0000
,
0001
0100
0110
0110
0000
1000
0010
0001
,
0000
1000
0100
0010
1000
0001
1001
0000
,
1000
0100
0110
0110
0000
0010
0002
0000
,
0000
0000
1003
0010
1000
0001
1000
0000
0001
0100
0001
0000
2000
0000
0000
0000
,
3001
0000
0010
0001
0000
1000
0010
0100
,
0000
1000
0100
0001
1000
0001
1001
0001
,
0010
0000
0001
0000
0100
0000
0001
0010
0000
0010
0100
0000
1000
0000
0001
0000
,
0200
1000
0010
0301
,
0010
0000
0100
0000
1000
0000
0010
0100
0000
0100
0001
0000
1000
0000
0010
0000
,
0100
0001
1000
0000
0110
0000
0010
0010
,
1001
0001
1000
1001
0000
1100
0000
0100
,
1000
0000
0100
0000
0010
0000
0001
1000
0000
1000
0010
0000
1000
0000
0000
0000
,
1001
1000
0001
1001
0000
0001
0100
0001
,
0010
0000
0100
0000
1000
0000
0010
0100
0000
0100
0001
0000
2000
0000
0000
0000
,
0000
0000
3000
0110
,
2010
0000
0001
0001
0000
0100
0000
0002
,
0000
0000
3003
0110
0110
0110
0000
0000
,
0012
0000
1000
1000
0000
0100
0000
0020
,
0000
0000
0033
0110
0110
0110
0000
0000
,
0000
1000
0000
0001
0000
0100
0000
0020
,
0000
0030
0000
0110
0000
1001
0000
0000
,
1100
0100
1000
2100
0000
3001
0100
0001
,
0011
0000
1001
1001
0000
0110
0000
0000
,
0101
0001
1000
1100
0000
0011
0000
1100
,
0000
1010
0000
0101
0000
1100
0000
0000
,
1010
1000
0001
0011
0000
0101
0000
0110
,
0000
1001
0000
1010
0000
0011
0000
0000
,
0101
0001
0010
0110
0000
0010
0002
0000
,
0000
0000
1003
0010
0100
0010
1000
0000
0001
0010
0001
1000
0002
0000
0000
0000
,
0103
1000
0100
0001
0000
0100
0010
0100
,
0000
0001
0010
1000
0001
0100
0110
0000
,
0001
0100
0001
0000
1000
0000
0100
1000
0000
0000
1000
0010
0000
0000
0010
0100
,
0000
0000
0100
0001
0000
0000
0001
1000
0000
0000
1000
0001
0000
0000
0001
0000
,
1000
0100
1000
0000
0010
0000
1000
0010
0000
0000
0010
0100
0000
0000
0100
0001
,
0000
0000
0001
0010
0000
0000
0010
0001
0000
0000
0001
1000
0000
0000
1000
0000
,
0001
0010
0100
0000
0010
0000
0001
0100
0000
0000
0100
0000
0020
0000
0000
0000
,
0000
0000
1030
0100
0010
0100
1000
0000
0001
0100
0001
1000
0002
0000
0000
0000
,
0013
0001
0010
0000
0001
0000
1000
0100
0000
0000
0100
0000
0110
0000
1001
0000
,
0000
0000
0100
0010
1000
0001
1000
0000
0001
0000
0100
0000
0010
0000
0000
0000
,
1001
0000
0000
0000
0010
0000
0100
0001
0000
0001
1000
0000
0010
0000
0110
0000
;
