#TITLE:Panasonic Youth;
#ARTIST:THE DILLINGER ESCAPE PLAN;
#BANNER:Panasonic Youth.png;
#BACKGROUND:Panasonic Youth-bg.png;
#JACKET:Panasonic Youth-jacket.png;
#CDTITLE:./CDTITLES/NONE.PNG;
#MUSIC:Panasonic Youth.ogg;
#SAMPLESTART:48.36;
#SAMPLELENGTH:15;
#DISPLAYBPM:145:225;
#BPMS:0=216.6,4.1875=177,16.125=168,24=161,28=162,43.75=173,55.75=169,59.25=153.75,60=162,64=160,68=161,72=153,76=142,91=129,92=144,95.5=147,99=145,106.5=143,110.5=144,113=158,114=144,117.3125=101,118=136,122=225,128=221,137.75=211,141=216,145=218,151=213,155=217,165=214,169=217,179.5=221,183=214,190=220,193.5=227,197=215,200.5=217,204=219,207.5=221,211=219,214.5=217,218=218,225.5=228,229=225,230=220,234.5=212,237.5=204,245.5=211,249=219,252.5=200,255.5=205,261.5=208,270.5=204,285=196,290.5=204,297.5=147,298.5=219,302=214,306=224,309=214,310=207,314=214,322=212,326=204,330=211,333.5=209,338=210,341.5=208,346=213,352.5=208,354=211,358=206,362.5=214,366.5=212,370.5=210,375=190;
#STOPS:91.5=0.233;

//---------------dance-single - t7r----------------
#NOTES:
     dance-single:
     t7r:
     Beginner:
     5:
     :
0000
0000
0000
0000
,
0000
0000
0000
0000
,
0000
0000
0000
0000
,
0000
0000
0000
0000
,
0000
0000
0000
0000
,
0000
0000
0000
0000
,
0000
1000
0000
0000
0000
0000
0000
0000
,
0000
0001
0000
0000
0000
0000
0000
0000
,
0000
0000
0100
0000
,
0100
0000
0000
0000
,
0010
0000
0000
0000
,
1000
0000
0000
1000
0000
0000
1000
0000
,
0000
0000
0001
0000
0000
0001
0000
0000
0001
0000
0000
0001
0000
0000
0000
0000
,
0000
0100
0000
0000
0000
0000
0000
0000
,
0000
0000
0000
0010
,
0010
0000
0000
0000
,
1000
0000
0000
0000
,
0001
0000
0001
0000
,
1000
0000
0000
0000
,
1001
0000
1000
0000
,
0001
0000
0001
0000
,
0100
0000
0100
0000
,
0010
0000
0000
0000
0000
0000
0000
0110
,
0000
0000
0010
0000
,
0000
0000
0000
0000
1000
0000
0000
1000
,
0000
0000
0000
0000
0000
0000
0000
0001
,
0000
0000
0000
0000
0000
0100
0000
0000
,
0000
0000
0000
0000
0000
0100
0000
0000
,
0000
0000
0010
0000
,
0000
0000
0010
0000
,
0000
0000
1001
0000
,
0000
0000
0000
0000
,
1000
0000
1000
0000
,
1000
0000
0000
0000
,
0000
0000
0001
0000
,
0000
0000
0100
0000
,
0000
0000
0010
0000
,
0010
0000
0010
0000
,
1000
0000
1000
0000
,
1000
0000
0000
0000
,
0001
0000
0000
0000
,
0000
0100
0000
0000
0000
0000
0000
0000
,
0000
0000
0010
0000
,
0010
0000
0010
0000
,
0000
0000
0010
0000
,
0000
0000
0000
0010
,
0000
0000
0000
0000
0000
0000
0000
0100
,
0000
0000
0000
0100
0000
0000
0000
0100
,
0000
0000
0000
0100
0000
0000
0000
0000
,
0000
0000
0100
0000
,
0000
0000
0000
0000
0000
0001
0000
0000
,
0000
0001
0000
0000
0000
0001
0000
0000
,
0000
0000
0000
0001
,
0000
0000
0000
0000
0000
0000
0000
0001
,
0000
0000
1000
0000
,
1000
0000
1000
0000
,
1000
0000
1000
0000
,
0000
0000
0010
0000
,
0000
0000
0000
0100
,
0100
0100
0000
0100
,
0000
0000
0000
0100
,
0000
0000
0000
0000
0000
0000
0000
0010
,
0000
0000
0000
0000
0000
0000
0000
1001
,
0000
0000
0000
1000
,
1000
1000
0000
1000
,
0000
0000
0001
0001
,
0001
0001
0000
0000
,
1000
0000
0000
0001
,
0000
0000
0000
1001
,
0000
0000
0000
0100
,
0000
0000
0000
0110
,
0000
0000
0000
0010
,
0000
0000
0000
0000
0000
1001
0000
0000
,
0000
0000
0000
1000
0000
1000
0000
1000
,
0000
1000
0000
0000
0000
0000
1001
0000
,
0000
0000
1000
0000
,
1000
0000
1000
0000
,
0000
0000
0000
0000
,
0000
0000
0010
0000
,
0000
0010
0000
0010
0000
0000
0000
0000
,
0000
0000
0100
0000
,
0000
0100
0000
0100
0000
0000
0000
0000
,
0000
0000
0001
0000
,
0000
0001
0000
0001
0000
0000
0000
0000
,
0000
0000
1000
0000
,
0000
1000
0000
1000
0000
0000
0000
0000
,
0000
0000
0010
0000
,
0000
0010
0000
0010
0000
0000
0000
0000
,
0000
0000
0100
0000
,
0000
0100
0000
0100
0000
0000
0000
0000
,
0000
0000
0010
0000
,
0000
0010
0000
0010
0000
0000
0000
0000
,
0000
0000
0000
0000
1000
0000
0000
0001
,
0000
0001
0000
0001
0000
0000
0000
0000
,
1001
0000
0000
0000
;

//---------------dance-single - t7r----------------
#NOTES:
     dance-single:
     t7r:
     Easy:
     8:
     :
0000
0000
0000
0000
,
0000
0000
0000
0000
,
0000
0000
0000
0000
,
0000
0000
0000
0000
,
0000
0000
0000
0000
,
0000
0000
0000
0000
,
0000
0000
1000
0000
0000
0100
0000
0000
0010
0000
0000
0001
0000
0000
0000
0000
,
0000
1000
0000
0001
0100
0001
1000
0000
,
0010
0110
0100
0110
,
0010
0000
0000
1000
1000
0000
0000
0001
,
0001
0000
0000
1000
1000
0000
0000
0001
,
0001
0000
0000
0010
0000
0000
0100
0000
,
0000
0000
1000
0000
0000
0010
0000
0000
0100
0000
0000
0001
0000
0000
0000
0000
,
0000
1000
0000
0100
1000
0001
1000
0000
,
0010
0110
0100
0110
,
0001
0000
0000
1000
1000
0000
0000
0010
,
0010
0000
0000
0100
0100
0000
0000
0001
,
0001
0000
0000
1000
1000
0000
0000
0001
,
0001
0000
0010
0000
0100
0010
0100
0000
,
2001
0000
3001
0000
,
1002
0000
1003
0000
,
0210
0000
0310
0000
,
0120
0000
0000
0000
0000
0000
0000
0000
0130
0000
0000
0100
0000
0000
0100
0000
,
2001
0000
3010
0000
,
1002
0000
0000
0000
0013
0001
1000
0002
,
0000
0000
0000
0103
0000
0000
0000
0120
,
0000
0000
0000
1030
0100
0020
0000
0000
,
0000
0031
0000
0000
0000
2000
0000
0000
,
0000
3010
0100
0010
2000
0000
0000
0000
,
3001
0000
0000
0000
0000
0000
1000
0000
0001
0000
0100
0000
,
0010
0000
1000
0000
0001
0000
1001
0000
0000
0000
0000
0000
,
0000
0000
0000
0000
,
0010
0010
0010
1000
,
0100
0010
0001
0100
,
0010
0100
0210
0301
,
1000
2010
3001
0010
,
0100
0100
0010
0001
,
0010
1000
0010
0100
,
1000
0010
0100
0001
,
1000
0100
0010
0001
,
1000
0010
0120
0130
,
0001
1002
1003
0100
,
0010
0010
0001
0100
,
1000
0100
0001
1000
,
0001
0100
1000
0100
,
0001
1000
0001
1000
,
0100
0000
0001
0100
0000
0110
0000
0001
,
0000
0010
0000
1000
0000
0010
0000
0001
,
0000
1000
0000
0001
0000
0100
0000
0001
,
1000
0001
1000
0000
0010
0000
0000
0000
,
0000
0100
0000
0110
0000
1000
0000
0100
,
0000
0001
0000
0100
0000
1000
0000
0001
,
0000
1000
0000
0010
0000
0001
0000
0010
,
0000
1000
0000
0001
0000
1000
0000
0100
,
0000
0001
0000
0100
0010
0000
0011
0000
,
0001
0000
0100
0000
1000
0000
0100
0010
,
0000
1010
0000
0000
1000
0000
0001
0000
,
0100
0010
0100
0010
0000
1000
0000
0000
,
0001
0110
0110
0001
,
0010
0200
1300
0010
,
0200
0301
1000
0002
,
1003
0100
0110
0110
,
2001
0000
3010
0100
,
0102
1003
0100
0010
,
0001
0100
0010
1000
,
0001
0021
0031
1000
,
1001
1001
0210
0000
,
0310
0000
1000
0002
0000
0000
1003
0000
,
0000
1100
0000
1000
,
0010
0110
0000
0001
,
0000
0011
0000
0001
,
0010
0110
0000
0010
,
0001
0000
0210
0000
0000
1300
0000
0001
,
0000
0101
0000
0001
0000
0001
0000
1001
,
0000
1001
0000
2000
0000
0000
3001
0000
,
0000
0120
0000
0000
1030
0000
0100
0000
,
0010
0100
1000
0010
,
0100
0001
1000
1000
,
0010
0000
0110
0000
0001
0000
0000
0010
,
0000
0010
0000
0010
0000
0000
0100
0000
,
1000
0000
0100
0000
0001
0000
0000
0100
,
0000
0100
0000
0100
0000
0000
0000
0000
,
1000
0001
1000
0001
1000
0000
0000
0010
,
0000
0010
0000
0010
0000
0000
0100
0000
,
0001
0000
0100
0000
1000
0000
0000
0100
,
0000
0100
0000
0100
0000
0000
0010
0000
,
2000
0000
3001
0000
1000
0000
0000
0001
,
0000
0001
0000
0001
0000
0000
0010
0000
,
1000
0000
0010
0000
0001
0000
0000
1000
,
0000
1000
0000
1000
0000
0000
0001
0000
,
0100
0010
0100
0010
0100
0000
0000
0010
,
0000
0010
0000
0010
0000
0000
0100
0000
,
0001
0000
0100
0000
1000
0000
0000
0100
,
0000
0010
0000
1000
0000
1001
0000
0000
,
0110
0000
0000
0000
;

//---------------dance-single - t7r----------------
#NOTES:
     dance-single:
     t7r:
     Medium:
     13:
     :
0000
0000
0000
0000
,
0000
0000
0000
0000
,
0000
0000
0000
0000
,
0000
0000
0000
0000
,
0000
0000
0000
0000
,
0000
0000
0000
0000
,
0000
0000
0100
0000
0000
0010
0000
0000
1000
0000
0000
1001
0000
0000
0000
0000
,
0000
0110
0000
0010
1000
0001
1000
0000
,
0001
0011
1000
1100
,
0001
0000
0000
0100
0000
0000
0010
0000
0010
0000
0000
1000
0000
0000
0100
0000
,
0100
0000
0000
0010
0000
0000
0001
0000
0001
0000
0000
1000
0000
0000
0001
0000
,
0001
0000
0000
1001
0000
0000
1100
0000
,
0000
0000
0010
0000
0000
0100
0000
0000
0001
0000
0000
1001
0000
0000
0000
0000
,
0000
0110
0000
0100
0001
1000
0001
0000
,
0100
1010
0100
0011
,
1000
0000
0000
0001
0000
0000
0100
0000
0100
0000
0000
0010
0000
0000
1000
0000
,
1000
0000
0000
0001
0000
0000
0010
0000
0010
0000
0000
0100
0000
0000
0010
0000
,
0001
0000
0000
1000
0000
0000
0010
0000
0100
0000
0000
0010
0000
0000
1000
0000
,
0001
0000
0000
0100
0000
0000
0001
0000
0010
0000
0100
0000
1000
0000
0000
0000
,
1010
0000
0000
0100
0000
0000
0010
0000
1000
0000
0000
0001
0000
0000
0010
0000
,
0001
0000
0000
0100
0000
0000
0010
0000
1000
0000
0000
0001
0000
0000
1000
0000
,
0100
0000
0000
0001
0000
0000
0100
0000
1000
0000
0000
0010
0000
0000
0100
0000
,
0001
0000
0000
0100
0000
0000
1000
0000
0100
0000
0000
0010
0000
0000
0110
0000
,
1001
0000
0000
0010
0000
0000
1000
0000
0100
0000
0000
0010
0000
0000
0001
0000
,
0100
0000
0000
1000
0000
0000
0100
0000
0010
0000
0010
0000
0010
0000
1000
0000
,
0000
0001
0000
0000
0010
0000
1000
0000
0000
0010
0000
0000
0001
0000
0100
0000
,
0000
0010
0000
0000
0100
0000
0001
0000
0001
0000
1000
0000
0000
0010
0000
0000
,
0001
0000
0010
0000
0000
0100
0000
0000
0001
0000
1000
0000
0000
0100
0000
0000
,
0010
0000
0100
0000
1000
0000
0001
0000
1000
0000
0000
0001
0000
0000
0100
0000
,
1000
0000
0000
0000
0000
0000
0000
0000
0000
0100
0000
0000
0000
0000
0000
0000
0000
0000
0010
0000
0000
0000
0000
0000
0110
0000
0000
0000
0000
0000
0000
0000
0100
0000
0000
0000
0000
0000
0000
0000
0001
0000
0000
0000
0000
0000
0000
0000
,
1001
0000
1000
0000
0100
0000
0020
0000
0000
0000
0000
0000
,
0000
0000
0000
0030
,
0001
0000
0100
0000
0001
0000
0010
0001
,
0000
0001
1000
0000
0001
0100
0001
0000
,
1000
0100
0010
0000
0012
0000
1003
0010
,
0100
0002
0000
0000
1003
0001
0100
0000
,
0001
0000
1000
0000
0001
0010
0001
1000
,
0001
0000
1000
0010
1000
0001
1000
0000
,
0001
0000
0100
0000
0010
0000
1000
0100
,
0000
0100
1000
0000
0001
1000
0100
0000
,
1000
0001
0100
0000
0210
0000
0301
1000
,
0010
0200
0000
0000
0301
0000
0010
0000
,
0110
0000
1001
0000
1000
0100
1000
0001
,
1000
0000
0001
0100
0001
1000
0001
0000
,
1000
0010
1000
0001
0000
1000
0100
1000
,
0001
0100
0001
0010
0001
0100
0010
1000
,
0010
0000
0000
0110
0000
1001
0000
0001
,
0010
0001
1000
0001
0000
1000
0010
1000
,
0001
1000
0000
0001
0100
0001
0000
1000
,
0100
1000
0001
0000
0001
0010
0100
0010
,
0000
0110
0000
1001
0000
0001
0010
1000
,
0000
0011
0000
1000
0100
0000
1100
0000
,
0001
0100
0000
0101
0000
1000
0010
0100
,
0010
1000
0001
0100
0001
0000
1000
0100
,
1000
0001
0000
0000
0110
0000
1001
0000
,
1000
0100
0001
0000
1100
0000
0001
0100
,
1000
0100
0001
0000
0110
0000
0110
0000
,
0100
0100
0001
1000
0000
1000
0001
0100
,
0010
0000
0110
0000
0101
0000
1000
0100
,
1000
0000
0002
0000
1003
0100
1000
0002
,
0000
0000
1003
0100
0010
0000
0002
0000
,
0103
0010
1000
0000
0110
0000
0101
0000
,
0012
0000
0000
1003
0010
0100
0001
2000
,
0000
0000
3001
0010
0001
0000
2000
0000
,
3001
0010
0001
2000
0000
0000
3001
0100
,
0010
0000
2000
0000
3100
0010
0001
0000
,
0101
0000
1001
0000
1020
0000
0000
1030
,
0100
0010
0001
2000
0000
0000
3001
0100
,
0001
0000
0022
0000
0033
0000
1000
0010
,
1000
0000
2200
0000
3300
0000
1000
0001
,
0100
0000
0202
0000
0303
0000
0001
1000
,
0010
2020
3030
2000
,
3100
0010
0002
0000
0000
0103
0010
1000
,
0000
1010
0000
1000
0100
1000
0000
1100
,
0000
1000
0000
2000
0000
0000
3001
0100
,
0010
2000
0000
0000
3001
0010
0001
0000
,
1000
0000
0100
0010
0000
0010
0001
0000
,
1000
0001
0100
0000
0001
0010
0100
0000
,
1000
0000
1001
0000
0101
0000
0000
1100
,
0000
0101
0000
1100
0000
0000
1000
0000
,
0010
0000
0100
0000
0110
0000
0000
1010
,
0000
0110
0000
1010
0000
0000
1000
0000
,
0001
1000
0001
1000
0001
0000
0000
0011
,
0000
1010
0000
0011
0000
0000
1000
0000
,
0100
0000
0010
0000
0110
0000
0000
0011
,
0000
0110
0000
0011
0000
0001
1000
0000
,
0120
0000
1030
0000
0001
0100
0001
1000
,
0000
1001
0000
1100
0000
1000
0001
0000
,
0100
0001
0100
0000
0001
1000
0010
1000
,
0000
1010
0000
1001
0000
1000
0001
0000
,
0100
0010
0100
0010
0100
0000
0001
0010
,
0000
1010
0000
0011
0000
1000
0100
0000
,
0101
0000
1100
0000
1001
0000
1000
0010
,
0000
0011
0000
1010
0000
0010
0100
0001
,
1000
0000
0000
0000
;

//---------------dance-single - t7r----------------
#NOTES:
     dance-single:
     t7r:
     Hard:
     15:
     :
0000
0000
0000
0000
,
0000
0000
0000
0000
,
0000
0000
0000
0000
,
0000
0000
0000
0000
,
0000
0000
0000
0000
,
0000
0000
0000
0000
,
0000
0000
0010
0000
0000
1010
0000
0000
0101
0000
0000
2200
0000
0000
3300
0000
,
0000
1001
0000
0001
0100
0001
1000
0000
,
0010
0100
0000
0000
1010
0000
0000
0000
0001
0000
0010
0000
0100
1000
0000
0000
,
0102
0000
0000
0010
0000
0000
1003
0000
2001
0000
0000
0100
0000
0000
3010
0000
,
0210
0000
0000
0001
0000
0000
0310
0000
1010
0000
0000
1000
0100
0000
0010
0000
,
0001
0100
0000
0000
0001
0000
0001
0100
0000
0000
0001
0000
0001
0010
0000
0000
,
0000
0000
1001
0000
0000
0110
0000
0000
1010
0000
0000
0101
0000
0000
0022
0000
,
0033
1001
0000
0100
1000
0010
1000
0000
,
0010
0100
0000
0100
0001
0000
0010
0000
0100
0000
1000
0000
0001
1000
0000
0000
,
2010
0000
0000
0001
0000
0000
3100
0000
1200
0000
0000
0001
0000
0000
0310
0000
,
0021
0000
0000
0100
0000
0000
0031
0000
0102
0000
0000
1000
0000
0000
0013
0000
,
0011
0000
0000
0101
0000
0000
0100
0000
0110
0000
0000
1010
0000
0000
1000
0000
,
0001
0000
0100
0000
1000
0000
0100
0000
0010
0000
1000
0000
0001
1000
0000
0000
,
1100
0000
0000
0100
1000
0000
0100
0000
0210
0000
0000
1300
0010
0000
1000
0000
,
1001
0000
0000
0001
0100
0000
0001
0000
0021
0000
0000
0031
0100
0000
0001
0000
,
0101
0000
0000
0001
0100
0000
0010
0000
0120
0000
0000
1030
0010
0000
1000
0000
,
1010
0000
0000
1000
0100
0000
1000
0000
1001
0000
0000
0110
0000
0000
1001
0000
,
1010
0000
0000
0010
1000
0000
0001
0000
1002
0000
0000
1003
0001
0000
0100
0000
,
0101
0000
0000
0001
0100
0000
0001
0000
0100
0000
0100
0000
0100
0000
0110
0000
,
0000
0010
1000
0000
0010
0000
2010
0000
0000
3100
1000
0000
0100
0000
0110
0000
,
0000
0010
0001
0000
0010
0000
0001
0000
0100
0000
0201
0000
0000
0301
0100
0000
,
0001
0000
2001
0000
0000
3001
1000
0000
0001
0000
0011
0000
0000
0001
0010
0000
,
0001
0000
0100
0000
0010
0000
0010
0000
1020
0000
0000
1030
0100
0000
1000
0000
,
1200
0000
0000
0000
0000
0000
0000
0000
0000
1300
0000
0000
0010
0000
0000
0000
0000
0000
0100
0000
0000
0000
0000
0000
0110
0000
0000
0000
0000
0000
0000
0000
0101
0000
0000
0000
0000
0000
0000
0000
1010
0000
0000
0000
0000
0000
0000
0000
,
1100
0000
0011
0000
1001
0000
0220
0000
0000
0000
0000
0000
,
0000
0000
0000
0330
,
0010
0000
1000
0000
0001
0100
0001
0010
,
0000
0010
0001
0000
1000
0100
0010
0000
,
0001
0100
0001
0000
2010
0000
3001
0100
,
0010
2000
0000
3001
0010
0000
0110
0000
,
1001
0000
0110
0000
1000
0100
1000
0100
,
0001
0100
1000
0010
1000
0100
0010
0001
,
1000
0000
0010
0000
1000
0100
0010
0100
,
0000
0100
1000
0000
0001
0100
0010
0000
,
0100
0001
1000
0000
0120
0000
0130
0001
,
1000
0020
0000
1030
0100
0000
0110
0000
,
1001
0000
1010
0000
0001
0100
0001
0100
,
0010
1000
0100
0010
0000
0110
0000
0001
,
1000
0000
1010
0000
1000
0100
0000
0110
,
0000
0011
0000
1001
0000
0001
0100
0001
,
1000
0000
0010
0100
0001
0100
1000
0100
,
0010
1000
0010
1000
0000
0001
0010
0001
,
1000
0001
0000
1000
0000
1100
0000
0001
,
0100
0010
0100
0000
0100
0001
1000
0001
,
0010
0100
1000
0100
0001
0100
0010
0001
,
0010
0001
0000
0100
0010
0000
1010
0000
,
0001
0100
0000
0101
0000
1000
0100
0001
,
0100
1000
0100
0000
0110
0000
0001
0010
,
1000
0010
0000
0001
0100
1000
0100
0001
,
0100
0010
0100
0010
1000
0000
0001
0010
,
0100
0010
0001
0000
1000
0000
1100
0000
,
0001
0010
0001
1000
0000
1000
0010
0100
,
0010
1000
0001
0000
1001
0000
0010
1000
,
0100
0000
2100
0000
3010
1000
0100
2000
,
0000
0000
3010
1000
0100
0000
2100
0000
,
3001
0100
1000
0000
0101
0000
1100
0000
,
0102
0000
0000
1003
0100
0010
0000
1002
,
0000
0000
0013
0001
0100
0000
0102
0000
,
0013
0001
0100
0002
0000
0000
0013
0001
,
0100
0000
0102
0000
1003
0010
0001
0000
,
1010
0000
0011
0000
2100
0000
0000
3001
,
0100
0010
1000
0002
0000
0000
1003
0100
,
0010
0000
0001
0100
0010
0100
0001
0010
,
0100
0000
0010
0001
0100
0001
1000
0010
,
0100
0000
0010
1000
0100
0001
0100
0010
,
0001
0000
1000
0010
0100
0001
0010
1000
,
0010
0100
2000
0000
0000
3001
0100
0010
,
0000
0110
0000
0010
1000
0001
0000
0101
,
0000
1100
0000
0102
0000
0000
1003
0100
,
0010
0002
0000
0000
1003
0000
1010
0000
,
0010
1000
0100
1000
0000
1000
0001
0000
,
0100
0010
1000
0001
1000
0100
1000
0100
,
0010
0001
1000
0000
0001
0000
0100
1000
,
0000
0101
0000
1100
0000
0001
0010
0000
,
0100
0010
0001
0000
1000
0000
0100
0001
,
0000
1100
0000
0101
0000
1000
0010
0000
,
1000
1000
0001
0001
1000
0000
0010
1000
,
0000
0011
0000
1010
0000
0001
0010
0000
,
0100
0000
0110
0000
0001
0000
0010
0001
,
0000
1010
0000
0011
0000
1000
0100
0000
,
0010
0000
0002
0000
1003
0100
0010
0001
,
0000
1010
0000
2100
0000
3001
0010
0000
,
0100
0010
0001
0000
1000
0010
0100
0001
,
0000
1100
0000
0012
0000
1003
0010
0000
,
0100
0100
0010
0010
1000
0100
0001
1000
,
0000
0011
0000
2100
0000
3001
0100
0000
,
0001
0010
0100
1000
0001
0010
1000
0001
,
0000
0000
1100
0000
0000
0000
0102
0000
0000
0000
1003
0000
0010
0000
0100
0010
,
0100
0000
0000
0000
;

//---------------dance-single - t7r----------------
#NOTES:
     dance-single:
     t7r:
     Challenge:
     18:
     :
0000
0000
0000
0000
,
0000
0000
0000
0000
,
0000
0000
0000
0000
,
0000
0000
0000
0000
,
0000
0000
0000
0000
,
0000
0000
0000
0000
,
0000
0000
1010
0000
0000
0101
0000
0000
1100
0000
0000
0022
0000
0000
0033
0000
,
0000
1001
0000
1000
0100
1000
0001
0000
,
0100
0010
0000
0000
1010
0000
0000
0000
0100
0000
0010
0000
0001
1000
0000
0000
,
0101
0000
0000
1100
0000
0000
1010
0000
1010
0000
0000
1100
0000
0000
0011
0000
,
0011
0000
0000
0101
0000
0000
1001
0000
1001
0000
0001
1000
0001
1000
0001
1000
,
0010
1000
0000
1000
0100
0000
0100
1000
0000
1000
0001
0000
0001
1000
0000
1000
,
0001
0000
0101
0000
0000
1010
0000
0000
1001
0000
0000
0120
0000
0000
1030
0000
,
0000
1001
0000
0001
0100
0001
1000
0100
,
1000
0010
0000
0000
0101
0000
0001
0000
1000
0000
0100
0000
1000
0001
0000
0000
,
0101
0000
0000
1100
0000
0000
1010
0000
1010
0000
0000
1100
0000
0000
0011
0000
,
0011
0000
0000
0101
0000
0000
1010
0000
1010
0000
0000
0110
0000
0000
1001
0000
,
0110
0000
0000
0101
0000
0000
1010
0000
1001
0000
0000
1100
0000
0000
0011
0000
,
0001
0000
0100
0001
0010
0000
0100
1000
0010
0000
0110
0000
1001
0000
0100
0000
,
1100
0000
1000
0100
0000
0001
0100
0000
0011
0000
0001
0100
0000
1000
0100
0000
,
1010
0000
0001
0010
0000
1000
0010
0000
0011
0000
0001
0100
0000
1000
0100
0000
,
0110
0000
0010
1000
0000
0010
0001
0000
0110
0000
0100
0001
0000
0100
1000
0000
,
0110
0000
0001
1000
0100
0000
1000
0001
0010
0000
0000
0011
0000
0000
1001
0000
,
1100
0000
0100
0001
0000
0100
0010
0000
0011
0000
0100
1000
0000
0100
0010
0000
,
1010
0000
0010
0001
0000
0010
0100
0001
1000
0000
0100
0000
0100
0000
0110
0000
,
0001
0010
0000
1000
0010
0000
0110
0000
1000
0100
0000
0001
0100
0000
0110
0000
,
0010
0001
0000
1000
0010
0100
0001
0000
0001
0000
1001
0000
0001
0100
0000
0001
,
0010
0100
1000
0000
0100
0001
0000
0100
1000
0010
0100
0000
0010
1000
0000
0010
,
0001
0000
0010
0000
0100
0010
0000
0000
0100
0000
0000
0000
0100
0000
0000
0000
0110
0000
0000
0000
0010
0000
1000
0000
0000
0000
0100
0000
0001
0000
0100
0000
,
1000
0000
0000
0000
0000
0000
0001
0000
0000
0010
0000
0000
0000
0000
0000
1000
0000
0000
0010
0000
0000
0000
0000
0000
1001
0000
0000
0000
0000
0000
0000
0000
0101
0000
0000
0000
0000
0000
0000
0000
1100
0000
0000
0000
0000
0000
0000
0000
,
0011
0000
1001
0000
0110
0000
2001
0000
0000
0001
0000
0000
,
0001
0000
0000
0001
0000
3001
0000
0000
,
1000
0100
0010
0100
1000
0010
0100
0001
,
0010
0001
1000
0001
0100
0001
0010
0100
,
1000
0100
0010
0001
1000
0000
0001
0100
0010
0000
1000
0010
1000
0010
0100
0001
,
1000
2001
0000
3001
0100
0010
1000
0100
,
0001
0000
0100
0000
1000
0000
0010
0000
1000
0001
1000
0001
1000
0001
1000
0001
,
1000
0001
1000
0001
1000
0001
1000
0010
1000
0010
1000
0001
1000
0001
1000
0001
,
1000
0010
0100
0010
1000
0100
0010
0001
,
0100
0001
1000
0001
0010
0001
0100
0010
,
1000
0010
0100
0001
1000
0000
0001
0010
0100
0000
1000
0100
1000
0100
0010
0001
,
1000
2001
0000
3001
0010
0100
1000
0010
,
0001
0010
1000
0100
1000
0010
1000
0100
,
0110
0000
0001
0100
0010
1010
0000
1000
,
0010
0100
0110
0000
0001
0010
1000
0010
,
0001
0100
0010
1010
0000
0001
0100
1000
,
1100
0000
0100
1001
0000
0110
0000
0001
,
0010
0100
0001
0101
0000
1000
0010
0100
,
1100
0100
0010
0110
0000
0101
0000
0110
,
0010
1000
1010
0000
1000
0001
0101
0000
,
0001
1001
0000
0110
0000
1000
0010
1010
,
1000
1001
0000
0001
0011
0001
1001
0000
,
1000
1100
1000
1001
1000
0001
0101
0001
,
1001
0001
0011
0001
1001
0000
1000
1100
,
1000
1010
0000
0001
0110
1000
0110
0001
,
0101
0001
1001
0001
0011
0000
1000
1100
,
1000
1001
0001
1000
1010
0000
0110
0000
,
0101
0001
1000
1001
0000
0001
0010
0110
,
0000
0000
0000
0000
1000
0000
0000
0000
0010
0100
0000
0000
0001
0000
0000
0000
0100
0010
0000
0000
0000
0000
0000
0000
1010
0000
0000
0000
0010
0000
0000
0000
,
1010
0000
1001
0000
0101
0001
0101
0002
,
0000
0000
0013
0001
0101
0000
1100
0000
,
0101
0001
1001
0000
1100
0000
1001
0000
,
0102
0000
0000
0000
0000
0000
0000
0000
0000
0000
0000
0000
1003
0000
0000
0000
0010
0100
0000
0000
0010
0000
0000
0000
1000
0000
0000
0000
0002
0000
0000
0000
,
0000
0000
1003
0100
1100
0000
0120
0000
,
0130
1000
1100
2000
0000
0000
3010
0100
,
0110
0000
0102
0000
0013
0001
0101
0000
,
1100
0000
0101
0000
0012
0000
0000
1003
,
0010
0100
0010
0000
1000
0000
0002
0000
0000
0000
0000
0000
1003
0000
0100
0000
,
0001
0100
0110
0000
0001
0100
1000
0100
,
0001
0010
0011
0000
1000
0010
0001
0010
,
1000
0100
1100
0000
0001
0010
1000
0010
,
0001
0100
0101
0000
0001
0100
0010
0001
,
0010
0000
0000
0100
0000
0000
0001
0000
2000
0000
0000
0000
0000
0000
0000
3001
0000
0000
0100
0000
0000
0101
0000
0000
,
0000
0110
0000
1010
1000
1001
0000
1100
,
0000
0000
0101
0000
0000
0000
0012
0000
0000
0000
1003
0000
0010
0100
1000
0000
,
0100
0002
0000
0000
0103
0001
0100
1000
,
0100
0010
1000
0001
0010
0001
0010
1000
,
0010
0000
0001
0000
0100
0000
0010
0000
1000
0100
1000
0100
0010
0001
0010
0001
,
1000
0010
0100
0001
1000
0000
0000
0000
0101
0000
0001
0000
0010
0000
0011
0000
,
0000
1001
0000
2100
0000
3010
0100
0001
,
0100
1000
0100
0010
1000
0100
0010
0011
,
0000
1001
0000
2100
0000
3001
0010
0001
,
1000
0001
0000
0000
1000
0001
0000
0000
1000
0001
0000
0000
1000
0001
0000
0000
1100
0000
0000
0000
1000
0000
0000
0000
0010
0000
0000
0000
1010
0000
0000
0000
,
0000
1001
0000
0102
0000
0013
0100
1000
,
0100
0001
0100
0010
0001
0100
0010
1010
,
0000
1001
0000
0102
0000
1003
0010
1000
,
0001
1000
0001
0000
0110
0000
0000
0000
1010
0000
0010
0000
1000
0000
1010
0000
,
1000
1001
1000
1100
0100
0010
0001
0011
,
0001
1001
0001
0101
0100
0110
0010
1000
,
1010
1000
1001
1000
1100
0100
0110
0010
,
0001
0100
0000
0000
0001
0100
0000
0000
0010
1000
0000
0000
0010
1000
0000
0000
0001
1000
0000
0000
0001
0000
0000
0000
0010
0000
0000
0000
0011
0000
0000
0000
,
0001
0101
0100
0110
0010
1000
1100
0100
,
0101
0100
1100
1000
1010
0010
0001
0011
,
0001
0000
0010
0000
0110
0000
0010
0000
1010
0000
1000
0000
1001
0000
0001
0010
,
1000
0100
0000
0000
0000
0000
0000
0000
0000
0000
0000
0000
0000
0000
0000
0000
;
