#TITLE:狂喜宴舞;
#ARTIST:栗須承之介;
#TITLETRANSLIT:KYOUKIENBU;
#ARTISTTRANSLIT:QRISJOYNOSUKE;
#BANNER:KYOUKIENBU.png;
#BACKGROUND:KYOUKIENBU-bg.png;
#JACKET:KYOUKIENBU-jacket.png;
#CDTITLE:./CDTITLES/GITADORA.PNG;
#MUSIC:KYOUKIENBU.ogg;
#SAMPLESTART:61.065;
#SAMPLELENGTH:15;
#BPMS:0=169;

//---------------dance-single - t7r----------------
#NOTES:
     dance-single:
     t7r:
     Beginner:
     4:
     :
0000
0000
0000
0000
,
0000
0000
0000
0000
,
0000
0000
0000
0000
,
0000
0000
0000
0000
,
0000
0000
0000
0000
,
0010
0000
0000
0000
,
0010
0000
0000
0000
,
0010
0010
0010
0010
,
0010
0000
0000
0000
,
1000
0000
0000
0000
,
1000
0000
0000
0000
,
0001
0000
0000
0000
,
0001
0000
0000
0000
,
0100
0000
0100
0000
,
0100
0000
0000
0000
,
0010
0000
0010
0000
,
0010
0000
0000
0000
,
1000
0000
1000
0000
,
1000
1000
1000
0000
,
0001
0000
0001
0000
,
0001
0001
0001
0000
,
0100
0000
0000
0000
,
0100
0000
0000
0000
,
0010
0000
0010
0000
,
0010
0010
0010
0000
,
1000
0000
0000
0000
,
1000
0000
0000
0000
,
0100
0000
0000
0000
,
0100
0000
0000
0000
,
0010
0000
0000
0000
,
0010
0000
0000
0000
,
0001
0000
0001
0000
,
0001
0001
0001
0000
,
1000
0000
0000
1000
,
1000
0000
1000
0000
,
0001
0000
0000
0001
,
0001
0000
0001
0000
,
0100
0000
0000
0100
,
0100
0000
0100
0000
,
0010
0000
0000
0010
,
0010
0000
0010
0000
,
0000
0000
0000
0000
,
0100
0000
0000
0000
,
1000
0000
1000
0000
,
1000
1000
1000
0000
,
0000
0001
0001
0000
,
0001
0001
0001
0000
,
0100
0000
0100
0000
,
0100
0100
0100
0000
,
0000
0010
0010
0000
,
0010
0010
0010
0000
,
1000
0000
1000
0000
,
0001
0000
0001
0000
,
0010
0000
0010
0000
,
0100
0000
0100
0000
,
0010
0000
0010
0000
,
0001
0000
0001
0000
,
1000
0000
1000
0000
,
0010
0000
0010
0000
,
0000
0000
0000
0100
,
0100
0000
0100
0000
,
0100
0100
0100
0000
,
0010
0000
0010
0000
,
0010
0010
0010
0000
,
1000
0000
1000
0000
,
1000
1000
1000
0000
,
0001
0000
0001
0000
,
1000
1000
1000
1000
;

//---------------dance-single - t7r----------------
#NOTES:
     dance-single:
     t7r:
     Easy:
     8:
     :
0000
0000
0000
0000
,
0000
0000
0000
0000
,
0000
0000
0000
0000
,
0000
0000
0000
0000
,
0000
0000
0000
0000
,
1000
1000
1000
0000
,
0001
0001
0001
0000
,
0100
0100
0100
0100
,
0100
0010
0010
1000
,
0001
1000
0001
0100
,
0001
0010
0100
1000
,
0001
1000
0001
0100
,
0001
0010
0200
0000
,
1300
0000
0000
1001
0000
0000
0000
0000
,
0010
0000
0000
0110
0000
0000
0000
0000
,
0001
0000
0000
0101
0000
0000
0000
0000
,
1000
0000
0100
0000
1000
0001
1000
0000
,
0001
0100
0001
0010
,
0001
0000
1000
0000
0001
0001
0001
0000
,
1000
0100
1000
0010
,
1000
1000
1000
0000
0001
1000
0001
0000
,
0100
0000
0000
0110
0000
0000
0000
0000
,
1000
0000
0000
1100
0000
0000
0000
0000
,
0001
0100
0010
1000
,
0001
0000
1000
0000
0010
0100
0100
0000
,
0002
0100
1000
0000
,
0100
0100
0013
0000
,
2000
0100
0001
0000
,
0100
0100
3010
0000
,
0000
0001
0000
0001
1000
0000
0000
0000
,
0001
0000
0001
0000
0000
0100
0000
0100
,
0010
0010
1000
1000
,
0001
1000
0001
1000
0001
0000
1001
0000
,
0020
0130
0001
0100
,
1000
0000
0100
0000
0010
0100
0010
0000
,
0200
0310
1000
0100
,
0001
0000
0100
0000
0010
0100
0010
0000
,
0001
0100
1000
0100
,
0010
0000
0100
0000
0001
1000
0001
0000
,
1000
0100
0001
0100
,
1000
0000
1100
0000
0001
0000
0100
0020
,
0000
0000
0000
0000
,
1030
0002
2003
3000
,
0001
0000
0100
0000
0001
1000
0001
0000
,
1000
0000
0100
0000
1000
0001
1000
0001
,
0000
1000
1000
0000
1000
0000
1000
0000
,
0001
0000
0001
0000
0001
0001
0001
0000
,
0100
0000
0100
0000
0001
0100
0001
0000
,
0100
0000
0100
0000
0010
1000
0010
1000
,
0000
0001
0000
0001
0001
0000
0001
0000
,
1000
0100
1000
0100
1000
0000
0000
0000
,
0001
0000
0001
0000
0001
0001
0001
0000
,
1000
0000
1000
0000
1000
1000
1000
0000
,
0010
0000
0010
0000
0010
0010
0010
0000
,
0100
0000
0100
0100
0000
0100
0100
0000
,
0001
0000
0100
0000
0001
0010
0001
0000
,
1000
0000
0100
0000
1000
0010
1000
0010
,
1000
0000
1000
0000
0001
1000
0001
0000
,
0100
0000
0100
0100
0100
0000
0010
0200
,
0000
0000
0000
0301
,
1000
0000
0100
0000
1000
0000
0001
1000
,
0001
0000
0100
0000
0010
1000
0001
0000
,
1000
0000
0010
0000
1000
0000
0001
0010
,
0001
0000
1000
0000
0100
1000
0001
0000
,
0100
0000
0001
0000
0010
0000
0001
0100
,
0001
0000
0100
0000
0010
1000
0001
0000
,
1000
0100
0010
0001
,
1000
0000
1100
0000
0001
1000
0001
2000
,
0000
0000
0000
0000
,
3000
0000
0000
0000
;

//---------------dance-single - t7r----------------
#NOTES:
     dance-single:
     t7r:
     Medium:
     13:
     :
0000
0000
0000
0000
,
0000
0000
0000
0000
,
0000
0000
0000
0000
,
0000
0000
0000
0000
,
0000
0000
0000
0000
,
1000
0100
0000
1000
0000
0001
0100
0000
,
0001
0010
0000
0001
0000
1000
0010
0000
,
1000
0001
0000
0100
0000
0010
1000
0001
,
2000
0000
0000
3001
,
1000
0000
0100
0010
0001
0000
1000
0000
,
0001
0100
0001
0100
0001
0000
1000
0000
,
0001
0000
0100
0010
1000
0000
0001
0000
,
1000
0010
1000
0010
0000
1000
0001
0000
,
1000
0000
0100
0001
0000
0100
0010
0000
,
0001
0000
0100
1000
0000
0100
0010
1000
,
0001
0100
0001
0100
0000
0001
1000
0000
,
0100
0000
0110
0000
0001
1000
0001
1000
,
0001
0010
0100
1000
0001
0010
0100
1000
,
0001
0001
0100
0100
0010
1000
0001
0001
,
1000
0100
0010
0001
1000
0100
0010
0001
,
1000
1000
0001
0001
0100
0010
0010
0010
,
1000
0100
0001
0100
0000
1000
0001
0000
,
1000
0010
0001
0010
0000
1000
0001
0000
,
0100
0101
1000
1100
,
0001
0010
1000
0000
0001
0100
0010
0001
,
1000
0000
0100
0000
1000
0010
1000
0000
,
0001
0100
0001
0100
0000
0001
0001
0000
,
1000
0000
0010
0000
1000
0100
1000
0000
,
0001
0010
0001
0010
0000
0001
0001
0001
,
1000
0100
0100
0100
0010
0001
0010
0010
,
0001
1000
0001
1000
0000
0010
0010
0010
,
1000
0010
0100
0001
1000
0010
0100
0001
,
1000
1000
0001
0001
1000
0000
1001
0000
,
2100
0000
3001
0000
1000
0100
0010
0010
,
0100
0001
0100
1000
0100
0010
0010
0000
,
0012
0000
0000
0000
1003
0000
0000
0000
0010
0001
0000
0010
0001
0000
0010
0000
,
0100
0001
0100
1000
0100
0010
0010
0000
,
2100
0000
0000
0000
3001
0000
0000
0000
1000
0100
0000
1000
0100
0000
0001
0000
,
0100
0010
0001
0010
1000
0010
0010
0000
,
0001
0000
0100
0000
0010
0000
1000
0100
0000
1000
0000
0001
1000
0000
1000
0000
,
0010
0000
0000
0010
0100
0000
0000
0100
0001
0000
0000
0001
1000
0000
2002
0000
,
0000
0000
0000
3003
,
0110
2000
3002
0003
,
1000
0000
0100
0000
1000
0000
0001
0000
0100
0000
0001
0100
0000
0000
0001
0000
,
1000
0010
1000
0001
1000
0010
1000
0001
,
0000
1000
1000
0100
0100
0010
0010
0001
,
0001
0000
1000
0000
0001
0100
0010
1000
,
0010
0000
1010
0000
1000
0001
0001
1000
,
0001
0010
0100
1000
0001
0100
0010
1000
,
0000
0110
0000
0001
1000
0000
0110
0000
,
1000
0100
0010
0001
1000
0001
0001
0000
,
1000
0100
0000
0000
0100
0010
0000
0000
0010
0000
0001
1000
0001
0000
0000
0000
,
0001
0100
0100
0000
1000
0100
0001
0000
,
1000
0000
0100
0000
0010
0100
0000
1000
0100
0000
0010
0100
0000
0000
0010
0000
,
0001
0000
0100
0001
0100
0000
0100
0000
0000
0000
0010
0000
0010
0000
0000
0000
,
1000
0010
0000
0000
0010
0100
0000
0000
0100
0000
0001
1000
0001
0000
1000
0000
,
0001
0001
0001
0010
0100
0010
0001
1000
,
0000
0001
0100
1000
0100
0010
1000
0001
,
0000
0000
1000
0001
1000
0000
1000
0000
0100
0000
0001
0000
0100
0000
0020
0000
,
0000
0000
0000
0031
,
1001
0000
0001
0100
0101
0000
0001
1000
,
0001
0100
1000
0100
0010
1000
1010
0000
,
1001
0000
1000
0100
1100
0000
1000
0001
,
1000
0100
1000
0000
0001
0100
0001
0000
1000
0000
0001
0000
1001
0000
0000
0000
,
0010
0000
0100
0001
0100
0000
0010
0000
1000
0000
0001
0000
1000
0000
0001
0000
,
0010
0000
0100
1000
0100
0000
0010
0000
0001
0000
1000
0000
0001
0000
1000
0000
,
0001
0100
0001
0000
1000
0100
1000
0000
0001
0000
0100
0010
0100
0010
0100
0000
,
0010
1000
0010
0000
0100
0001
0100
0000
0001
0000
0001
0000
1000
0000
2002
0000
,
0000
0000
0000
0000
,
3003
0000
0000
0000
;

//---------------dance-single - t7r----------------
#NOTES:
     dance-single:
     t7r:
     Hard:
     16:
     :
0000
0000
0000
0000
,
0000
0000
0000
0000
,
0000
0000
0000
0000
,
0000
0000
0000
0000
,
0000
0000
0000
0000
,
0100
0001
0100
0000
0010
0000
1000
0000
0000
0000
1000
0000
0100
0000
0000
0000
,
1000
0010
1000
0000
0010
0000
0100
0000
0000
0000
0100
0000
0001
0000
0001
0000
,
0010
0100
1000
0000
0010
0100
0001
0000
1000
0100
0010
0000
0001
0100
0010
1000
,
0002
0000
0000
1003
,
0001
0000
1000
0100
1000
0000
0001
0000
0100
0000
0000
0000
0001
0000
1000
0000
,
0001
0000
0001
0010
0100
0000
1000
0010
0100
0000
0001
0000
0001
0000
0001
0000
,
1000
0000
0001
0100
0001
0000
1000
0000
0001
0000
1000
0100
1000
0000
0001
0000
,
1000
0000
0100
0000
1000
0001
0010
0000
0000
0000
0010
0001
0010
0000
0010
0000
,
0001
1000
0001
0000
0000
0000
0110
0000
0001
0000
0010
0000
0100
0000
0100
0000
,
1000
0001
1000
0000
0000
0000
0110
0000
1000
0000
0001
0000
0001
0000
0001
0000
,
1000
0000
0100
0001
0100
0000
1000
0000
0001
0000
0100
1000
0100
0000
0001
0000
,
1000
0000
0001
0100
1000
0000
0100
0000
0110
0000
1000
0100
1000
0000
1000
0000
,
0001
0000
0100
0010
0001
0000
0010
0000
0100
0000
0010
0001
0010
0000
0100
0000
,
0010
0000
0010
1000
0100
0000
0100
0010
0001
0000
0001
1000
0001
0000
0001
0000
,
1000
0000
0100
0010
1000
0000
0010
0000
0100
0000
0010
1000
0010
0000
0100
0000
,
0010
0001
0100
0000
0010
1000
0100
0000
1000
0000
0001
0100
1000
0000
0100
0000
,
0010
0000
1000
0100
1000
0000
2100
0000
0000
0000
3001
1000
0001
0000
0001
0000
,
0010
0000
0001
0010
0001
0000
0011
0000
0001
0100
0010
0000
1000
0001
1000
0000
,
0001
0100
0001
0000
1000
0100
1000
0000
0001
0010
0001
0000
1000
0010
1000
0000
,
0001
0010
0100
0000
1000
0010
0100
0000
0010
0000
1000
0001
0100
0000
0001
0000
,
1000
0100
1000
0000
0100
0000
0010
0000
1000
0000
0010
0000
0100
0000
1000
0000
,
0001
0100
1000
0000
0001
0000
0010
0000
1000
0000
0001
0000
1000
0000
1001
0000
,
0001
0100
0001
0000
0100
0000
0010
0000
0001
0000
0010
0000
0100
0000
0001
0000
,
1000
0100
0001
0000
1000
0000
0010
0000
0001
0000
1000
0001
1000
0000
1000
0000
,
0110
0000
0010
1000
0100
0000
0010
0000
0011
0000
0001
0000
0100
0000
0010
0000
,
0001
0010
1000
0000
0001
0000
0100
0000
1000
0000
0100
0001
1000
0000
0001
0000
,
0110
0000
1000
0100
1000
0000
0001
0100
0001
0000
1000
0010
1000
0000
0001
0010
,
0001
0100
0001
0100
0010
1000
0010
1000
0001
0000
1000
0001
0100
0000
0010
0000
,
1000
0100
1000
0000
0001
0000
0000
0000
0100
0001
0100
0001
0100
1000
0100
0000
,
0001
0100
0001
0000
1000
0100
1000
0000
0001
0000
1000
0000
1001
0000
0000
0000
,
0001
0100
0000
0100
1000
0000
0100
0000
1000
0100
0000
0100
0001
0000
0100
0000
,
0010
0100
0010
0100
0010
0000
1000
0000
0001
0000
1001
0000
1001
0000
0001
0000
,
1000
0010
1000
0010
1000
0000
0010
0000
0001
0010
0001
0010
0001
0000
0010
0000
,
1000
0010
0100
0010
1000
0000
0001
0000
0100
0000
0010
0000
0110
0000
0010
0000
,
1000
0000
0100
0001
0100
0000
1000
0001
0000
0100
0000
1000
0100
0000
0001
0000
,
1000
0100
0000
0001
0010
1000
0000
0001
0100
1000
0000
0001
0010
0100
0002
0000
,
0000
0000
0000
0000
,
1003
0200
0320
0130
,
1000
0000
0100
0000
0001
0100
1000
0000
0001
0000
1000
0100
0001
0000
0100
0000
,
0010
0000
0001
0100
0001
0000
1000
0000
0010
0000
1000
0100
1000
0000
0001
0000
,
0000
0000
1000
0100
0010
0000
1000
0100
0001
0000
1000
0100
0010
0000
0001
0000
,
1000
0000
0010
0001
0010
0000
1000
0000
0001
1000
0100
0000
0010
0000
0010
0000
,
0011
0000
0000
0000
1010
0000
0000
0000
1100
0000
0100
1000
0100
0000
0100
0000
,
1000
0000
0001
0100
0001
0000
1000
0000
0100
0000
0001
0100
1000
0000
0001
0000
,
1000
0000
0110
0000
0000
0000
1001
0000
0001
0100
0010
0000
1000
0000
0001
0000
,
0100
0001
0010
0000
0100
0000
1000
0000
0010
0000
0100
0000
0110
0000
0000
0000
,
0010
1000
0001
0000
0010
0001
1000
0000
0001
0100
0010
1000
0001
0000
1000
0000
,
0100
0000
1000
0001
0100
0001
1000
0000
0001
0010
0100
1000
0001
0000
1000
0000
,
0001
0100
0001
0100
0001
0010
0001
0010
0001
0000
1000
0001
0000
0010
0100
0000
,
1000
0100
1000
0100
1000
0010
1000
0010
1000
0000
0001
1000
0000
0010
0100
0000
,
0001
0100
1000
0000
0001
0010
0100
0000
0010
1000
0010
1000
0100
0000
1000
0000
,
0001
0000
0010
0000
1000
0010
0001
0000
1000
0100
0010
0001
1000
0000
0001
0000
,
1000
0000
0001
0100
0010
0000
1000
0000
0001
0000
1000
0100
0010
0000
0001
0000
,
1000
0000
0100
0010
0100
0000
0010
0000
0010
0000
0001
0000
0001
0000
0002
0000
,
0000
0000
0000
0000
0000
0000
0000
0000
0000
0000
1003
0001
1000
0000
0000
0000
,
0101
0000
0001
0100
1000
0000
0100
0000
0101
0000
1000
0100
0001
0000
0100
0000
,
1100
0000
0100
0000
0010
0000
0001
0000
0100
0000
0010
0100
0010
0000
0010
0000
,
1000
0000
0001
0010
1000
0000
0010
0000
0001
0000
1000
0010
0001
0000
0010
0000
,
1000
0100
0010
0000
0001
0100
0010
0000
1000
0000
0001
0000
0110
0000
0000
0000
,
1100
0000
0100
1000
0100
0000
0001
0000
0100
0000
0010
0001
0100
0000
1000
0000
,
0100
0000
0010
1000
0100
0000
0010
0000
0001
0000
1001
0000
1001
0000
0001
0000
,
1000
0100
0010
0000
1000
0100
0001
0000
1000
0000
0001
0010
1000
0010
0001
0000
,
0100
0010
0100
0010
0100
0001
0100
1000
0100
0000
0010
0000
0110
0000
2002
0000
,
0000
0000
0000
0000
,
3003
0000
0000
0000
;

//---------------dance-single - t7r----------------
#NOTES:
     dance-single:
     t7r:
     Challenge:
     18:
     :
0000
0000
0000
0000
,
0000
0000
0000
0000
,
0000
0000
0000
0000
,
0000
0000
0000
0000
,
0000
0000
0000
0000
,
1000
0001
0100
0000
0010
0000
0100
0000
0001
0000
0100
0000
1010
0000
0000
0000
,
0001
1000
0100
0000
0010
0000
0100
0000
1000
0000
0100
0000
0011
0000
0001
0000
,
1000
0100
0010
0000
0001
0100
0010
0000
1000
0010
0100
0000
0001
0010
0100
0000
,
1000
0000
0001
1000
0001
0000
0001
0000
0001
0000
0001
0000
1002
0000
0000
0000
,
0103
0000
0010
1000
0010
0000
1000
0000
0100
0000
1000
0010
1000
0000
0001
0000
,
1000
0000
0100
0010
0001
0000
0010
0100
1000
0000
0001
0000
0100
0000
0101
0000
,
0100
0000
0001
0010
0001
0000
1000
0000
0010
0000
1000
0100
1000
0000
0001
0000
,
1000
0010
0100
0000
0001
0100
0020
0000
0000
0000
1030
0001
1000
0000
1000
0000
,
0001
0100
1000
0000
0000
0000
0110
0000
1000
0000
0100
0000
0001
0000
0100
0000
,
1000
0010
0001
0000
0000
0000
0110
0000
0001
0000
0100
0000
1000
0000
0100
0000
,
0010
0000
1000
0100
1000
0010
1000
0000
0001
0100
0001
0010
0001
0000
1000
0000
,
0001
0000
1000
0100
0010
0000
1000
0100
0001
0000
0100
0010
1000
0100
0000
0100
,
0001
0000
0100
1000
0010
0000
0001
0000
0010
0000
0100
0001
1000
0000
0001
0000
,
1000
0000
0100
0001
0100
0000
1000
0010
1000
0000
0010
0000
0100
0000
0110
0000
,
0010
0000
0100
0001
0010
0000
1000
0000
0010
0000
0100
1000
0001
0000
0100
0000
,
0010
1000
0100
0000
0010
0001
0100
0000
0001
0000
0010
0001
1000
0000
1000
0000
,
0001
0100
1000
0100
0010
0000
0210
0000
0000
0000
0301
1000
0100
0000
0110
0000
,
1000
0100
0001
0100
0010
0000
0110
0000
0001
1000
0100
0000
1000
0001
0100
0000
,
0001
0010
0100
0000
1000
0010
0100
0000
0001
0100
0010
0000
1000
0100
0010
0000
,
0001
0100
1000
0000
0100
0010
1000
0000
0001
0000
1000
0100
1000
0000
1000
0000
,
0001
0100
0100
0000
0010
0000
1000
0000
0010
0000
0100
0000
1000
0000
0100
0000
,
0001
0100
0010
0000
1000
0000
0100
0000
0010
0000
0110
0000
0110
0000
0110
0000
,
1000
0100
0100
0000
0001
0000
0100
0000
0010
0000
0001
0000
0010
0000
0100
0000
,
1000
0010
0100
0000
1000
0000
0100
0000
0001
0000
0100
0010
0100
0000
0110
0000
,
0010
0000
0001
0010
0010
0000
1000
0000
0110
0000
1000
0001
0010
0000
0001
0000
,
0100
0001
0001
0000
0010
0000
0001
0000
1000
0000
0001
1000
0001
0000
1000
0000
,
0010
0000
1000
0100
0001
0000
1000
0100
0010
0000
1000
0100
0001
0000
1000
0100
,
0010
0100
0010
0100
0001
0100
1000
0100
0010
0000
0100
0010
1001
0000
0001
1000
,
0020
0000
1000
0001
0000
0000
0031
1000
0001
0100
0010
0001
0010
0100
0001
0000
,
1000
0100
0010
0000
1000
0010
0100
0000
0010
0000
0110
0000
0110
0000
0000
0000
,
0020
0000
0001
1000
0000
0000
1030
0001
1000
0100
0000
0100
0001
0000
0110
0000
,
0001
0100
0010
0001
0010
0000
1000
0100
0010
0000
0110
0000
0110
0000
0110
0000
,
1000
0010
0100
0010
1000
0000
0001
0000
0100
1000
0100
0010
1000
0000
0001
0000
,
0010
1000
0010
0100
1000
0000
0001
0000
0100
0001
0100
1000
0100
0000
0110
0000
,
1000
0000
0100
0010
0001
0000
0010
1000
0000
0010
0000
0100
1000
0000
0001
0000
,
1000
0010
0000
0010
0001
0010
0000
0010
1000
0001
0100
1000
0001
0010
0200
0000
,
0000
0000
0000
0300
,
0110
2000
3002
1003
,
0100
0000
0100
0000
1000
0100
0001
0000
0100
0000
1000
0100
0010
0000
0001
0000
,
0100
0000
0001
0100
1000
0000
0100
0000
0001
0000
0100
0001
1000
0000
0001
0000
,
0010
0000
0001
1000
1000
0000
0010
0100
0100
0000
1000
0100
0100
0000
0010
0000
,
0100
0000
1000
0100
0001
0000
1000
0001
0010
0001
1000
0000
0001
0000
0100
0000
,
0110
0000
0001
0000
1100
0000
0000
0000
0011
0000
0001
0010
0010
0000
1000
0000
,
0010
0000
0100
1000
1000
0000
0010
0000
0100
0000
0001
0100
0100
0000
0001
0000
,
1000
0000
1001
0000
0000
0000
1100
0000
0100
0001
0001
0000
0100
0000
0010
0000
,
0001
0100
0100
0000
1000
0000
0100
0000
0010
0000
1010
0000
1010
0000
0000
0000
,
1000
0100
0100
0000
0001
0100
0100
0000
1000
0010
0001
0010
1000
0000
0001
0000
,
1000
0000
1000
0000
0100
0001
0001
0000
0100
0010
0010
0001
1000
0000
0001
0000
,
0010
0001
0100
0010
0001
0010
0100
0001
0010
0100
0001
0100
0010
0001
1000
0000
,
0100
1000
0010
0100
1000
0100
0010
1000
0100
0010
1000
0010
0100
1000
0001
0000
,
1000
0010
0010
0000
0001
0010
0010
0000
0100
0001
0100
1000
0100
0000
0010
0000
,
1000
0000
0100
0000
0010
1000
1000
0000
0001
0100
0100
0000
0010
0000
0001
0000
,
0110
0000
1000
0001
0010
0000
0001
0000
0101
0000
1100
0000
0101
0000
0110
0000
,
0010
0000
1000
0100
0100
0000
0001
0000
0001
0000
1000
0000
0010
0000
0002
0000
,
0000
0000
0000
0000
0000
0000
0000
0000
0000
0000
1003
0100
0010
0000
0000
0000
,
1001
1000
0100
1000
0010
0000
0100
0000
0101
0000
0001
0010
0100
0000
0001
0000
,
0100
0000
1000
0000
1100
0000
0001
0000
0101
0000
1010
0010
1000
0000
1010
0000
,
1001
0001
0100
0001
0010
0000
0100
0000
1100
0000
1000
0010
0100
0000
1000
0000
,
0100
0000
0000
0001
0000
0000
0001
0000
0000
0000
0000
0000
0100
0000
0000
1000
0000
0000
1000
0000
0000
0000
0000
0000
0100
0000
0000
0000
0000
0000
0010
0000
1000
0000
0001
0000
1000
0000
0000
0000
0000
0000
0000
0000
0000
0000
0000
0000
,
0011
0001
0100
0010
1000
0000
0001
0000
0010
0000
0011
0000
1000
0000
1100
0000
,
1010
1000
0100
0010
0001
0000
0100
0000
0101
0000
1010
0000
1010
0000
0110
0000
,
1010
0010
0100
0000
0101
0001
0010
0000
1100
1000
0010
0100
0001
0010
0100
0000
,
1000
0100
0001
0100
1000
0010
0001
0010
1000
0100
1100
0000
0101
0000
2020
0000
,
0000
0000
0000
0000
,
3030
0000
0000
0000
;
