#TITLE:Hash Hash;
#ARTIST:SSIO;
#BANNER:Hash Hash.png;
#BACKGROUND:Hash Hash-bg.png;
#JACKET:Hash Hash-jacket.png;
#CDTITLE:./CDTITLES/NONE.PNG;
#MUSIC:Hash Hash.ogg;
#SAMPLESTART:60.923;
#SAMPLELENGTH:15;
#BPMS:0=130;

//---------------dance-single - t7r----------------
#NOTES:
     dance-single:
     t7r:
     Beginner:
     2:
     :
0000
0000
0000
0000
,
0000
0000
0000
0000
,
0000
0000
0000
0000
,
0000
0000
0000
0000
,
0000
0000
0000
0000
,
0000
0000
0000
0000
,
0000
0000
0000
0000
,
0010
0000
0010
0000
,
0010
0000
0010
0000
,
0000
0000
0000
0000
,
1000
0000
1000
0000
,
0001
0000
0000
0000
,
0001
0000
0001
0000
,
1000
0000
0000
0000
,
0010
0000
0010
0000
,
0100
0000
0000
0000
,
0100
0000
0100
0000
,
0010
0000
0000
0000
,
1000
0000
0000
0000
,
0100
0000
0000
0000
,
0010
0000
0000
0000
,
0001
0000
0001
0000
,
0001
0000
0000
0000
,
1000
0000
1000
0000
,
1000
0000
0000
0000
,
0010
0000
0000
0000
,
0100
0000
0000
0000
,
0001
0000
0000
0000
,
1000
0000
0000
0000
,
0001
0000
0001
0000
,
0001
0000
0001
0000
,
1000
0000
1000
0000
,
1000
0000
1000
0000
,
0010
0000
0000
0000
,
0010
0010
0010
0000
,
0100
0000
0000
0000
,
0100
0100
0100
0000
,
0001
0000
0000
0000
,
0001
0001
0001
0000
,
1000
0000
0000
0000
,
1000
1000
1000
0000
,
0001
0000
0000
0000
,
0001
0001
0001
0000
,
1000
0000
0000
0000
,
1000
1000
1000
0000
,
0010
0000
0000
0000
,
0010
0010
0010
0000
,
0100
0000
0000
0000
,
0100
0100
0100
0000
,
0001
0000
1000
0000
,
0001
0001
0001
0000
,
1000
0000
0001
0000
,
1000
1000
1000
0000
,
0010
0000
0100
0000
,
0010
0010
0010
0000
,
0100
0000
0010
0000
,
0100
0100
0100
0000
,
0010
0000
0000
0000
;

//---------------dance-single - t7r----------------
#NOTES:
     dance-single:
     t7r:
     Easy:
     5:
     :
0000
0000
0000
0000
,
0000
0000
0000
0000
,
0000
0000
0000
0000
,
0000
0000
0000
0000
,
0000
0000
0000
0000
,
0000
0000
0000
0000
,
0000
0000
0000
0000
,
0010
0000
0010
0000
,
0010
0000
1001
0000
,
0200
0000
0000
0000
,
0310
0000
0010
0000
,
0001
0100
0010
0000
,
1000
0100
0010
0000
,
0001
1000
0010
0000
,
1000
0001
0100
0000
,
0001
1000
0100
0000
,
1000
0100
0010
0000
,
0001
0000
0100
0000
,
0001
1000
0001
0000
,
1000
0000
0100
0000
,
1000
0001
1000
0000
,
0010
0010
0010
0000
0010
0000
0000
0000
,
1000
0001
0010
0000
,
0001
0100
0010
0000
,
1000
0100
0010
0001
,
2000
0000
3010
0000
,
0002
0000
0013
0000
,
2000
0000
3100
0000
,
0002
0000
0103
0000
,
0010
0100
0110
0000
,
0001
1000
1001
0000
,
0100
0010
0110
0000
,
0001
1000
0100
0000
,
1000
1000
0001
0001
,
1000
0010
0100
0001
,
0100
0100
0010
0010
,
0100
0001
1000
0010
,
1000
1000
0100
0100
,
0010
0001
0100
0010
,
1000
0001
1001
0000
,
0010
0100
0110
0000
,
0002
0000
0013
0000
,
2000
0000
3100
0000
,
0002
0000
0103
0000
,
2000
0000
3010
0000
,
1000
0001
1000
1001
,
0001
1000
0001
1001
,
0010
0100
0110
0000
,
0100
0010
0100
0110
,
0001
0001
0001
0001
,
0001
0001
0001
0000
0001
0000
0000
0000
,
1000
1000
1000
1000
,
1000
1000
1000
0000
1000
0000
0000
0000
,
0010
0010
0010
0010
,
0010
0010
0010
0000
0010
0000
0000
0000
,
0100
0100
0100
0100
,
0100
0100
0100
0000
0100
0000
0010
0000
,
2002
0000
0000
0000
,
0000
0000
0000
0000
,
3003
0000
0000
0000
;

//---------------dance-single - t7r----------------
#NOTES:
     dance-single:
     t7r:
     Medium:
     7:
     :
0000
0000
0000
0000
,
0000
0000
0000
0000
,
0000
0000
0000
0000
,
0000
0000
0000
0000
,
0000
0000
0000
0000
,
0000
0000
0000
0000
,
0000
0000
0000
0000
,
0010
0000
0010
0000
,
0010
0000
1001
0000
,
0200
0000
0000
0000
,
0310
0000
0010
0000
0001
1000
0100
0000
,
1000
0000
1000
0000
0001
1000
0010
0000
,
0100
0000
0100
0000
0010
1000
0001
0000
,
1000
0000
0100
0000
1000
0001
0100
0000
,
0001
0000
0010
0000
0001
1000
0010
0000
,
1000
0000
0001
0000
0100
0010
1000
0000
,
0001
0000
0000
0010
0000
0000
0100
0000
0100
0000
0100
0000
,
0010
0011
0002
0003
,
0100
0010
0220
0330
,
1000
0000
0001
1000
0100
0000
1000
0000
,
0001
1000
0010
0000
2000
0000
0000
0000
,
3001
0001
0001
0001
0001
0000
1000
0000
,
0010
0000
0100
0000
0010
1000
0001
0000
,
1000
0000
0100
0000
0010
0001
1000
0000
,
0001
0000
0100
0000
0010
1000
0100
0000
,
2100
0000
3001
0000
,
0102
0000
1003
0000
,
1020
0000
0130
0000
,
0201
0000
0000
0000
0000
0000
0310
0000
0010
0000
0010
0000
,
1000
0100
0010
0000
0001
0000
0100
0000
,
0001
0010
0100
0000
1000
0000
0010
0000
,
1000
0001
0010
0000
0100
0000
1000
0000
,
0001
1000
0010
0000
0100
0000
0001
0000
,
1000
0000
0001
0100
1000
0000
0100
0000
,
0001
0100
1000
0100
0001
0000
0001
0000
,
1000
0000
0001
0010
1000
0000
0010
0000
,
0001
0010
1000
0010
0001
0000
0001
0000
,
1000
0000
0100
1000
0010
0000
0100
0000
,
0010
1000
0100
1000
0010
0000
0010
0000
,
1000
0000
0001
0100
1000
0000
0100
0000
,
0001
0010
1000
0010
0001
0000
1001
0000
,
0020
0100
1000
0130
,
1000
0100
1000
0000
0001
0000
0001
0000
,
0200
0001
0010
0301
,
0010
0001
0010
0000
0001
0000
0001
0000
,
1000
0000
0100
1000
0010
0000
1010
0000
,
1000
0100
0001
0100
1000
0000
1100
0000
,
0001
0000
0100
0001
0010
0000
0011
0000
,
0001
0010
1000
0010
0001
0000
0011
0000
,
1001
0000
0010
0010
0010
0000
0010
0000
,
1000
1000
1000
0000
1000
0000
0001
0001
,
0001
0000
0100
0100
0100
0000
0100
0000
,
0001
0000
0000
0001
0000
0000
0001
0000
0000
0000
0000
0000
0010
0000
0000
0000
0100
0000
0000
0000
1000
0000
0000
0000
,
0001
0000
0100
0100
0100
0000
0010
0000
,
1000
1000
1000
0000
0001
0000
0100
0100
,
0100
0000
0001
0001
0001
0000
0010
0000
,
0001
0000
0000
0001
0000
0000
0001
0000
0000
0000
0000
0000
0100
0000
0000
0000
0010
0000
0000
0000
1000
0000
0000
0000
,
2002
0000
0000
0000
,
0000
0000
0000
0000
,
3003
0000
0000
0000
;

//---------------dance-single - t7r----------------
#NOTES:
     dance-single:
     t7r:
     Hard:
     10:
     :
0000
0000
0000
0000
,
0000
0000
0000
0000
,
0000
0000
0000
0000
,
0000
0000
0000
0000
,
0000
0000
0000
0000
,
0000
0000
0000
0000
,
0000
0000
0000
0000
,
0010
0000
0010
0000
,
0010
0000
1001
0000
,
0200
0000
0000
0000
,
0310
0000
0000
0000
0010
0000
0000
0000
1001
0000
0000
0010
0000
0000
1000
0000
,
0001
0000
0010
0000
0100
0000
1000
0000
0010
0000
0000
0100
0000
0000
0001
0000
,
1000
0000
0010
0000
0100
0000
0001
0000
0100
0000
0000
0010
0000
0000
1000
0000
,
0001
0000
0010
0000
1000
0000
0001
0000
0100
0000
0000
1000
0000
0000
0001
0000
,
1000
0000
0010
0000
0001
0000
1000
0000
0100
0000
0000
0001
0000
0000
1000
0000
,
0100
0000
0010
0000
1000
0000
0010
0000
0100
0000
0000
1000
0000
0000
0001
0000
,
0100
0000
0000
0010
0000
0000
0001
0000
0000
0010
0000
0000
0100
0000
0000
0000
0001
0000
0000
0000
1000
0000
0000
0000
,
0001
0101
2002
3003
,
1000
0000
1100
0000
1000
0001
0020
0000
,
0031
0000
0011
0000
0001
1000
0020
0000
,
1030
1010
0200
0000
,
0310
0010
0010
0010
1000
0100
0001
0100
,
1000
0001
0010
0100
1000
1000
0001
0000
,
0100
0010
1000
0001
1000
0010
0001
0010
,
1000
0000
0100
0000
0010
0000
0001
0000
0100
0010
0000
0100
0000
0100
0001
0000
,
2000
0000
0000
0000
3010
0000
0001
0000
1000
0100
0000
0000
0001
0000
0000
0000
,
2000
0000
0000
0000
3100
0000
0001
0000
1000
0010
0000
0000
0001
0000
0000
0000
,
0200
0000
0000
0000
0301
0000
0010
0000
0100
0001
0000
0000
0100
0000
0000
0000
,
2000
0000
0000
0000
0000
0000
3010
0000
0000
1000
0000
0000
0001
0000
0000
0000
0110
0000
0000
0000
1001
0000
0000
0000
,
0010
1000
0100
0001
0100
0000
1100
0000
,
0010
0001
0100
0100
0010
0000
1001
0000
,
0010
0001
0100
1000
0100
0000
0110
0000
,
1000
0100
0010
0000
0001
0100
0010
0000
,
1001
0000
1000
0100
0001
0000
1100
0000
,
0001
0100
1000
0001
0100
0000
0101
0000
,
0110
0000
0001
0010
1000
0000
0011
0000
,
1000
0000
0000
0010
0000
0000
0001
0000
0000
1000
0000
0000
0010
0000
0000
0000
0110
0000
0000
0000
1001
0000
0000
0000
,
0110
0000
0100
0001
0010
0000
0011
0000
,
0100
1000
0010
0100
1000
0000
1100
0000
,
0110
0000
0010
0100
0001
0000
0101
0000
,
0010
1000
0100
0010
1000
0000
1010
0000
,
0020
0100
0000
0130
,
1000
1000
1000
0000
0001
0000
0001
0000
,
0200
0010
0000
0310
,
0100
0000
0100
0000
0100
0000
0000
0000
0001
0000
1000
0100
0000
1000
0001
0000
,
1000
0000
0001
0100
1000
0000
0011
0000
,
1000
0100
0001
0100
1000
0000
0011
0000
,
1100
0000
0001
0010
1000
0000
0110
0000
,
0001
0100
1000
0010
0001
0000
1001
0000
,
0010
0000
1000
1000
1000
0000
0100
0000
,
0001
0001
0001
0100
0010
0000
0001
1000
,
0100
0000
1000
1000
1000
0000
0010
0000
,
0001
0000
0000
0001
0000
0000
0001
0000
0000
0000
0000
0000
1000
0000
0000
0000
0110
0000
0000
0000
1001
0000
0000
0000
,
0010
0000
1000
0100
0001
1000
0100
0000
,
0001
0010
1000
0001
0010
0000
0011
0001
,
1000
0000
0100
1000
0010
0100
1000
0000
,
0100
0000
0000
0001
0000
0000
0010
0000
0000
0100
0000
0000
0001
0000
0000
0000
0110
0000
0000
0000
1001
0000
0000
0000
,
0020
0000
0000
0000
,
0000
0000
0000
0000
,
0030
0000
0000
0000
;

//---------------dance-single - t7r----------------
#NOTES:
     dance-single:
     t7r:
     Challenge:
     15:
     :
0000
0000
0000
0000
,
0000
0000
0000
0000
,
0000
0000
0000
0000
,
0000
0000
0000
0000
,
0000
0000
0000
0000
,
0000
0000
0000
0000
,
0000
0000
0000
0000
,
0010
0000
0010
0000
,
0010
0000
1001
0000
,
0200
0000
0000
0000
0000
0000
0000
0310
,
0001
0000
0100
0010
1000
0000
0001
0000
0010
0000
0001
0100
0000
0001
0000
1000
,
0100
0000
1000
0010
0100
0000
0010
1000
0001
0000
0010
0100
0000
0010
0001
0000
,
1000
0000
0000
0000
0000
0000
0100
0000
0000
0000
0000
0000
0001
0000
0000
0000
0100
0000
0000
0000
1000
0000
0000
0000
0010
0000
0000
0000
0000
0000
0100
0000
0000
0010
0000
0000
0000
0000
0000
1000
0000
0000
0010
0000
0000
0000
0000
0000
,
1000
0000
0100
1000
0100
0000
1000
0001
0100
0000
0001
0010
0100
0000
0010
0000
,
0001
0000
0100
0001
0100
0000
0001
1000
0010
0000
1000
0100
0001
0000
0100
0010
,
0001
0000
0100
0001
0100
0000
0001
1000
0100
0000
1000
0010
0100
0000
0010
0000
,
1000
0000
0000
0000
0000
0000
0100
0000
0000
1000
0000
0000
0100
0000
0000
0000
0000
0000
1000
0000
0000
0001
0000
0000
0010
0000
0000
0000
0000
0000
0000
0000
1001
0000
0000
0000
0000
0000
0000
0000
0110
0000
0000
0000
0000
0000
0000
0000
,
0010
0000
1000
0100
0001
0000
0100
1000
0001
0000
0000
0000
MMMM
0000
0000
0000
,
0010
MMMM
0110
MMMM
,
0001
0100
0010
0001
0010
1000
0100
0010
0001
1000
0001
1000
,
0001
0010
0100
0001
0100
1000
0010
0100
0001
1000
0000
0000
,
1001
0000
0000
0000
0000
0000
1100
0000
0000
0000
0000
0000
1001
0000
0000
0000
0000
0000
0101
0000
0000
0000
0000
0000
1000
0000
0000
0000
0100
0000
0000
0000
0001
0000
0000
0000
0100
0000
0000
0000
0000
0000
1000
0000
0000
0010
0000
0000
,
1000
0000
0000
0000
0100
0000
0000
0000
0010
0000
0000
0000
1000
0000
0000
0000
0010
0000
0000
0000
0001
0000
0000
0000
0100
0000
0000
0000
0010
0000
0000
0000
1000
0000
0000
0000
0001
0000
0000
0000
0000
0000
1000
0000
0000
0001
0000
0000
,
1000
0010
0001
0010
1000
0000
0100
0010
0001
0010
1000
0010
0001
0000
0100
0010
,
1000
0100
0010
0001
1000
0000
0001
0000
0100
0001
0000
MMMM
0000
0010
1000
0000
,
0002
0000
0000
0000
0103
0000
1000
0000
0001
0100
0000
0000
1100
0000
0000
0000
,
2000
0000
0000
0000
3010
0000
0001
0000
1000
0010
0000
0000
0011
0000
0000
0000
,
0200
0000
0000
0000
0310
0000
0001
0000
0100
0010
0000
0000
0011
0000
0000
0000
,
0200
0000
0000
0000
0000
0000
0310
0000
0000
1000
0000
0000
0100
0000
0000
0000
0110
0000
0000
0000
1001
0000
0000
0000
,
1000
0001
0100
0000
0001
0000
1000
0001
0010
0000
0001
0000
0101
0000
0000
0000
,
0001
1000
0100
0000
1000
0000
0001
1000
0010
0000
1000
0000
1010
0000
0010
0000
,
1000
0100
0000
0000
MMMM
0000
0001
0010
0000
0000
0001
0000
0100
0010
0000
0000
,
1000
0100
0010
1000
0000
0000
0010
0001
0100
1000
0100
0010
,
1010
0000
0000
0000
0010
1000
0100
0000
1100
0000
0000
0000
MMMM
0000
0000
0000
,
0001
0100
0010
1000
0001
0100
0010
1000
0010
0000
0000
0000
MMMM
0000
0000
0000
,
0011
0000
0000
0000
1000
0100
0010
0000
0011
0000
0000
0000
MMMM
0000
0000
0000
,
1000
0100
0010
0001
0010
0100
1000
0100
0010
0000
0000
0000
MMMM
0000
0000
0000
,
0110
0000
0000
0000
0001
0010
1000
0000
0011
0000
0000
0000
MMMM
0000
0000
0000
,
0001
0100
1000
0100
0001
0100
1000
0100
0001
0000
0000
0000
MMMM
0000
0000
0000
,
1010
0000
0000
0000
0101
0000
0010
0000
1000
0000
0000
0000
MMMM
0000
1000
0010
,
0001
0000
0000
0000
0000
0000
0010
0000
0000
1000
0000
0000
0100
0000
0000
0000
0000
0000
0001
0000
0000
0000
0000
0000
0110
0000
0000
0000
0000
0000
0000
0000
1001
0000
0000
0000
0000
0000
0000
0000
MMMM
0000
0000
0000
0000
0000
0000
0000
,
1000
0100
0001
0100
1000
0000
MMMM
0000
,
0001
0010
1000
0010
0001
0000
MMMM
0000
,
1000
0010
0100
1000
0100
0000
MMMM
0000
,
0001
0000
0000
0000
0000
0000
0010
0000
0000
0000
0000
0000
0100
0000
0000
0000
0000
0000
0001
0000
0000
0000
0000
0000
0100
0000
0000
0000
0000
0000
1000
0000
0000
0010
0000
0000
0000
0000
0000
0000
MMMM
0000
0000
0000
0000
0000
0000
0000
,
0110
0000
0000
0000
1000
0100
0001
0000
1100
0000
0000
0000
MMMM
0000
0000
0000
,
0001
0010
1000
0010
0001
0100
1000
0100
0001
0000
0000
0000
MMMM
0000
0000
0000
,
0110
0000
0000
0000
1100
0000
0010
0000
0001
0000
0000
0000
MMMM
0000
0001
0010
,
1000
0000
0100
0001
1000
0000
0010
0000
0101
0000
0000
0000
MMMM
0000
0000
0000
,
1100
0000
0010
1000
MMMM
0010
0010
0010
,
0001
0000
0000
0000
0000
0000
0001
0000
0100
0000
0010
0000
1000
0000
0000
0000
0000
0000
0001
0000
0000
0000
0000
0000
MMMM
0000
0000
0000
0000
0000
0000
0000
0000
0000
0000
0000
1000
0000
0000
0000
0000
0000
0001
0000
0000
1000
0000
0000
,
0001
0000
0100
0001
MMMM
0100
0100
0100
,
1000
0000
0000
1000
0000
0000
0001
0000
0000
1000
0100
0010
0001
0000
0000
0000
0110
0000
0000
0000
MMMM
0000
0000
0000
,
1010
0000
0000
0000
0000
0000
0010
0000
0000
0000
0000
0000
1000
0000
0000
0000
0000
0000
1000
0000
0000
0000
0000
0000
MMMM
0000
0000
0000
0000
0000
0001
0000
0000
0010
0000
0000
0001
0000
0000
1000
0000
0000
0001
0000
0100
0000
0010
0000
,
1000
0000
0000
0000
0000
0000
0001
0000
0010
0000
0100
0000
1000
0000
0000
0000
0000
0000
0100
0000
0000
0000
0000
0000
MMMM
0000
0000
0000
0000
0000
0000
0000
0000
0000
0000
0000
1000
0000
0000
0000
0000
0000
0100
0000
0000
1000
0000
0000
,
0001
0000
0000
0000
0000
0000
1000
0000
0100
0000
0010
0000
0001
0000
0000
1000
0000
0000
0001
0000
0000
1000
0000
0000
0010
0000
0000
0100
0000
0000
0010
0000
0000
0100
0000
0000
0001
0000
0000
0010
0000
0000
0100
0000
0000
0000
0000
0000
,
1000
0000
0000
0100
0000
0000
0001
0000
0000
1000
0100
0001
1000
0000
0000
0000
0110
0000
0000
0000
MMMM
0000
0000
0000
,
0020
0000
0000
0000
,
0000
0000
0000
0000
,
0030
0000
0000
0000
;
