#TITLE:Genocidal Humanoidz;
#ARTIST:System of a Down;
#BANNER:Genocidal Humanoidz.png;
#BACKGROUND:Genocidal Humanoidz-bg.png;
#JACKET:Genocidal Humanoidz-jacket.png;
#CDTITLE:./CDTITLES/NONE.PNG;
#MUSIC:Genocidal Humanoidz.ogg;
#SAMPLESTART:71.324;
#SAMPLELENGTH:15;
#DISPLAYBPM:200:206;
#BPMS:0=206,212=202,216=200,240=202,244=200,276=206,338=200,340=206;

//---------------dance-single - t7r----------------
#NOTES:
     dance-single:
     t7r:
     Beginner:
     4:
     :
0000
0000
0000
0000
,
0000
0000
0000
0000
,
0000
0000
0000
0000
,
0000
0000
0000
0000
,
0000
0000
0000
0000
,
0000
0000
0000
0000
,
0000
0000
0000
0000
,
0000
0000
0000
0000
,
0000
0000
0000
0000
,
0100
0000
0100
0000
,
0100
0000
0000
0000
,
0010
0000
0010
0000
,
0010
0000
0000
0000
,
1000
0000
1000
0000
,
1000
0000
0000
0000
,
0001
0000
0001
0000
,
0001
0000
0000
0000
,
1000
0000
0000
1000
,
1000
0000
0000
0001
,
0001
0000
0000
0100
,
0100
0000
0100
0000
,
0100
0000
0000
0010
,
0010
0000
0000
1000
,
1000
0000
0000
0001
,
0001
0000
0001
0000
,
1000
0000
0000
0000
,
0001
0000
0000
0000
,
0010
0000
0000
0000
,
0100
0000
0000
0000
,
0010
0000
0010
0000
,
0010
0000
0000
0000
,
0001
0000
0001
0000
,
0001
0000
0000
0000
,
1000
0000
0000
1000
,
1000
0000
0000
0010
,
0010
0000
0000
0100
,
0100
0000
0000
0001
,
0001
0000
0000
0010
,
0010
0000
0000
0100
,
0100
0000
0000
1000
,
1000
0000
0000
0001
,
0001
0000
0000
0000
,
1000
0000
0000
0000
,
0010
0000
0000
0000
,
0100
0000
0000
0000
,
0001
0000
0001
0000
,
0001
0000
0000
0000
,
1000
0000
1000
0000
,
1000
0000
0000
0000
,
0100
0000
0000
0000
,
0010
0000
0000
0000
,
0100
0000
0000
0000
,
1000
0000
0000
0000
,
0001
0000
0000
0000
,
1000
0000
0000
0000
,
0010
0000
0000
0000
,
0100
0000
0100
0000
,
0100
0000
0000
0000
,
0010
0000
0000
0000
,
1000
0000
0000
0000
,
0001
0000
0001
0000
,
0001
0000
0000
0000
,
0010
0000
0000
0000
,
0100
0000
0000
0000
,
1000
0000
0000
0000
,
0001
0000
0001
0000
,
0001
0000
0001
0000
,
1000
0000
1000
0000
,
1000
0000
0000
0000
,
0010
0000
0000
0000
,
0010
0000
0000
0000
,
0100
0000
0000
0000
,
0100
0000
0000
0000
,
0001
0000
0001
0000
,
0001
0000
0001
0000
,
1000
0000
1000
0000
,
1000
0000
0000
0000
,
0010
0000
0000
0010
,
0010
0000
0000
0100
,
0100
0000
0000
0001
,
0001
0000
0000
1000
,
1000
0000
1000
0000
,
1000
0000
1000
0000
,
0001
0000
0001
0000
,
0001
0000
0000
0000
,
0010
0000
0000
0010
,
0010
0000
0000
0100
,
0100
0000
0000
1000
,
1000
0000
0000
0000
,
0001
0000
0000
0001
,
0001
0000
0000
0100
,
0100
0000
0000
0010
,
0010
0000
0000
0000
;

//---------------dance-single - t7r----------------
#NOTES:
     dance-single:
     t7r:
     Easy:
     7:
     :
0000
0000
0000
0000
,
0000
0000
0000
0000
,
0000
0000
0000
0000
,
0000
0000
0000
0000
,
0000
0000
0000
0000
,
0000
0000
0000
0000
,
0000
0000
0000
0000
,
0000
0000
0000
0000
,
0000
0000
0000
0000
,
0010
0000
0010
0000
,
0100
0000
0100
0000
,
1000
0000
1000
0000
,
0001
0001
0001
0000
,
1000
0000
1000
0000
,
0010
0000
0010
0000
,
0100
0000
0100
0000
,
0010
0010
0010
0010
,
1000
0000
0000
0100
0000
0000
1000
0000
,
0001
0000
0000
0100
0000
0000
0001
0000
,
1000
0000
0000
0010
0000
0000
1000
0000
,
0001
0010
0100
1000
,
0010
0000
0000
0100
0000
0000
0001
0000
,
0010
0000
0000
0100
0000
0000
1000
0000
,
0100
0000
0000
0010
0000
0000
0001
0000
,
1000
0010
0100
0001
,
2000
0000
3001
0000
,
0200
0000
0310
0000
,
2000
0000
3100
0000
,
0020
0000
0031
0000
,
1000
0100
1000
0100
,
0010
0001
0010
0001
,
1000
0010
1000
0010
,
0100
0001
0100
0001
,
1000
0000
0000
0001
0000
0000
0100
0000
,
0001
0000
0000
1000
0000
0000
0100
0000
,
1000
0000
0000
0001
0000
0000
0010
0000
,
0001
0100
0010
1000
,
0100
0000
0000
0010
0000
0000
0001
0000
,
0100
0000
0000
0010
0000
0000
1000
0000
,
0010
0000
0000
0100
0000
0000
0001
0000
,
1000
0100
0010
0001
,
2000
0000
3100
0000
,
0002
0000
0103
0000
,
2000
0000
3010
0000
,
0002
0000
0013
0000
,
1000
0100
1000
0100
,
0001
0100
0001
0100
,
1000
0010
1000
0010
,
0001
0010
0001
0010
,
2000
0000
3010
0000
,
0002
0000
0013
0000
,
2000
0000
3100
0000
,
0002
0000
0103
0000
,
2001
0000
3010
0000
,
1002
0000
0103
0000
,
2001
0000
3100
0000
,
0220
0330
2002
3003
,
1020
0000
0130
0000
,
0021
0000
0130
0000
,
2010
0000
3001
0000
,
0102
0000
1003
0000
,
0001
0100
0001
0100
,
1000
0100
1000
0100
,
0001
0010
0001
0010
,
1000
0010
1000
0010
,
0001
0100
0001
0100
,
0010
1000
0010
1000
,
0001
0010
0001
0010
,
0100
1000
0100
1000
,
1020
0000
0130
0000
,
0201
0000
0310
0000
,
1200
0000
0310
0000
,
0021
0000
0130
0000
,
0011
0000
0011
0000
,
1001
0000
1001
0000
,
1100
0000
1100
0000
,
1000
0001
0100
0100
,
0010
0000
1000
0001
,
0100
0000
0001
1000
,
0010
0000
1000
0100
,
0010
0000
0001
1000
,
0010
1000
0010
1000
,
0001
0100
0001
0100
,
0001
0010
0100
1000
,
0100
0010
0110
0000
,
0001
0000
0000
1000
0000
0000
0010
0000
,
1000
0000
0000
0001
0000
0000
0010
0000
,
0001
0000
0000
1000
0000
0000
0100
0000
,
1000
0010
0100
0001
,
1000
0000
0000
0100
0000
0000
1100
0000
,
0001
0000
0000
0100
0000
0000
0101
0000
,
1000
0000
0000
0010
0000
0000
1010
0000
,
0010
0000
0100
0001
1000
0000
0000
0000
;

//---------------dance-single - t7r----------------
#NOTES:
     dance-single:
     t7r:
     Medium:
     11:
     :
0000
0000
0000
0000
,
0000
0000
0000
0000
,
0000
0000
0000
0000
,
0000
0000
0000
0000
,
0000
0000
0000
0000
,
0000
0000
0000
0000
,
0000
0000
0000
0000
,
0000
0000
0000
0000
,
0000
0000
0000
0000
,
1000
0000
0100
0010
0000
0000
0001
0000
,
1000
0000
0001
0100
0000
0000
0010
0000
,
1000
0000
0100
0010
0000
0000
0001
0000
,
1000
0000
0010
0100
0010
0000
1000
0000
,
0001
0000
0100
0010
0000
0000
1000
0000
,
0001
0000
0010
0100
0000
0000
1000
0000
,
0001
0000
1000
0100
0000
0000
1000
0000
,
0001
0000
0100
0010
0100
0000
0010
0000
,
1000
0000
0100
0010
0000
0000
1001
0000
,
0001
0000
0100
0010
0000
0000
1001
0000
,
1000
0000
0010
0100
0000
0000
0110
0000
,
0001
0100
1000
0100
,
0010
0000
0100
0001
0000
0000
0101
0000
,
0010
0000
0100
1000
0000
0000
1100
0000
,
0100
0000
0010
0001
0000
0000
0011
0000
,
0001
0000
0100
0010
1000
0000
0001
0000
,
1000
0000
0100
0001
0000
0000
0100
0000
,
1000
0000
0010
0001
0000
0000
0010
0000
,
1000
0000
0100
0001
0000
0000
0100
0000
,
0010
0000
0001
0010
0000
0000
1000
0000
,
0010
0000
0100
1000
0000
0100
1000
0000
,
0010
0000
0100
0001
0000
0100
0001
0000
,
0100
0000
0010
1000
0000
0010
1000
0000
,
0001
0000
0010
0100
1000
0000
0001
1000
,
0001
0000
0100
1000
0100
0000
0010
0000
,
1000
0000
0100
0001
0100
0000
0010
0000
,
0001
0000
0100
1000
0100
0000
0010
0000
,
1000
0000
0100
0010
0001
0000
1000
0000
,
0001
0000
0010
1000
0010
0000
0100
0000
,
1000
0000
0010
0001
0010
0000
0100
0000
,
0001
0000
0010
1000
0010
0000
0100
0000
,
1000
0000
0010
0100
0001
0000
1000
0000
,
0001
0000
0100
0010
0000
0010
1000
0000
,
0001
0000
0010
0100
0000
0100
1000
0000
,
0001
0000
0100
0001
0000
0100
1000
0000
,
0100
0000
0010
1000
0000
0010
0001
0000
,
0010
0000
0100
0001
1000
0000
0001
0000
,
0010
0000
0100
1000
0001
0000
1000
0000
,
0010
0000
0100
0001
0010
0000
0100
0000
,
1000
0000
0010
0100
0001
0000
1000
0000
,
0001
0000
0010
1000
0000
1000
0010
0000
,
0001
0000
0100
1000
0000
1000
0100
0000
,
0001
0000
0010
1000
0000
0010
0001
0000
,
0100
0000
0001
0010
0100
1000
0001
0000
,
0210
0000
0000
0000
0301
1000
0000
0000
,
0020
0000
0000
0000
1030
0001
0000
0000
,
0200
0000
0000
0000
0301
0010
0000
0000
,
0220
0330
2002
3003
,
2000
0000
0000
0000
3100
0010
0000
0000
,
0002
0000
0000
0000
0103
0010
0000
0000
,
2000
0000
0000
0000
3010
0100
0000
0000
,
0220
0330
1001
0000
,
1000
0100
1000
0100
1000
0001
1000
0000
,
0001
0100
0001
0100
0001
1000
0001
0000
,
1000
0010
1000
0010
1000
0001
1000
0000
,
0001
0010
0001
0010
0001
1000
0001
0000
,
1000
0100
0010
0000
0001
0100
0010
0000
,
1000
0010
0100
0000
0001
0010
0100
0000
,
1000
0100
0001
0000
0100
1000
0001
0000
,
1000
0100
0001
0000
0100
0010
0001
0000
,
2001
0000
0000
3001
0100
0000
0001
0000
,
2000
0000
0000
3001
0010
0000
0001
0000
,
0200
0000
0000
0310
1000
0000
0010
0000
,
0200
0000
0000
0301
0010
0000
0001
0000
,
1000
0100
1000
0001
1000
0000
0001
0000
,
0100
0001
0100
0010
0100
0000
0010
0000
,
1000
0100
0010
0001
0010
0000
0001
0000
,
0100
0010
0100
0001
1000
0000
0001
0000
,
2001
0000
0000
3100
1000
0000
0001
0000
,
0200
0000
0000
0301
0010
0000
0001
0000
,
2000
0000
0000
3010
1000
0000
0010
0000
,
0200
0000
0000
0301
0010
0000
0001
0000
,
1000
0100
0001
0000
0100
0010
0001
0000
,
1000
0010
0001
0000
0010
0100
0001
0000
,
1000
0100
0001
0000
0100
1000
0001
0000
,
0100
0001
0100
0001
0100
0000
0000
0000
,
0001
0000
0010
1000
0000
0001
0100
0000
,
1000
0000
0100
0001
0000
1000
0010
0000
,
0001
0000
0010
1000
0000
0001
0100
0000
,
0001
0000
0100
0010
0002
0000
1003
0000
,
0001
0000
0100
1000
0000
0001
1000
0000
,
0100
0000
0001
0010
0000
1000
0010
0000
,
1000
0000
0001
0100
0000
1000
0001
0000
,
0100
0000
0010
1000
0001
0000
0000
0000
;

//---------------dance-single - t7r----------------
#NOTES:
     dance-single:
     t7r:
     Hard:
     14:
     :
0000
0000
0000
0000
,
0000
0000
0000
0000
,
0000
0000
0000
0000
,
0000
0000
0000
0000
,
0000
0000
0000
0000
,
0000
0000
0000
0000
,
0000
0000
0000
0000
,
0000
0000
0000
0000
,
0000
0000
0000
0000
,
1000
0000
0100
0001
0000
1000
0010
0000
,
0001
0000
0100
1000
0000
0001
0010
0000
,
1000
0000
0010
0001
0000
1000
0100
0000
,
0001
0000
0010
0100
2000
0000
3001
0000
,
1000
0000
0010
0001
0000
1000
0100
0000
,
0001
0000
0100
1000
0000
0001
0010
0000
,
1000
0000
0100
0001
0000
1000
0010
0000
,
0100
0000
1000
0001
0020
0000
0031
0000
,
1100
0000
0001
0100
0001
0010
0100
0000
,
0011
0000
1000
0100
1000
0010
0100
0000
,
0110
0000
0001
1000
0010
0100
0001
0000
,
1000
0100
1000
0100
0001
0100
0010
0000
,
0011
0000
1000
0010
0100
0010
1000
0000
,
1010
0000
0001
0100
0010
0100
0001
0000
,
0110
0000
1000
0001
0010
0001
1000
0000
,
0001
0100
0001
0100
1000
0100
0010
0000
,
1000
0100
0010
0000
1100
0000
0101
0000
,
0001
0100
0010
0000
0101
0000
1100
0000
,
1000
0010
0100
0000
1010
0000
0011
0000
,
0001
0010
0100
0000
0011
0000
1010
0000
,
0001
0000
0010
1000
0000
0001
0100
0000
,
1000
0000
0010
0001
0000
1000
0100
0000
,
0001
0000
0100
1000
0000
0001
0010
0000
,
1000
0000
0100
0010
0002
0000
1003
0000
,
0001
0100
0010
0001
0010
0100
1000
0000
,
0001
0010
0100
0001
0100
0010
1000
0000
,
0001
0010
1000
0010
0100
1000
0001
0000
,
1000
0010
0001
0010
1000
0000
1010
0000
,
1000
0010
0100
1000
0100
0010
0001
0000
,
1000
0100
0010
1000
0010
0100
0001
0000
,
1000
0100
0001
0100
0010
0001
1000
0000
,
0001
0100
1000
0100
0001
0000
0101
0000
,
0001
0010
0001
0100
0000
0000
1010
0000
,
1000
0010
1000
0100
0000
0000
0011
0000
,
0100
0001
0010
0001
0000
0000
1001
0000
,
0010
1000
0100
1000
0000
0000
0110
0000
,
1000
0000
0100
0001
0000
1000
0010
0000
,
0001
0000
0010
1000
0000
0001
0100
0000
,
1000
0000
0010
0001
0000
1000
0100
0000
,
0010
0000
0100
0001
2000
0000
3001
0000
,
1000
0100
0010
1000
0000
0000
0011
0000
,
0001
0100
0010
0001
0000
0000
1010
0000
,
1000
0010
0100
1000
0000
0000
0101
0000
,
0001
0010
0100
0001
0000
0000
1100
0000
,
2001
0000
0000
0000
3010
0100
0000
0000
,
1002
0000
0000
0000
0103
0010
0000
0000
,
2010
0000
0000
0000
3001
0100
0000
0000
,
0022
0033
2002
3003
,
0102
0000
0000
0000
0103
1000
0000
0000
,
2100
0000
0000
0000
3100
0001
0000
0000
,
0012
0000
0000
0000
0013
1000
0000
0000
,
2020
3030
0110
0000
,
0001
1000
0100
1000
0001
1000
0100
1000
,
0001
0010
0100
1000
0001
0010
0100
1000
,
0001
0010
1000
0010
0001
0010
1000
0010
,
0001
0100
1000
0100
0001
0100
1000
0100
,
0001
0100
0010
0001
0010
1000
0010
0100
,
0001
0010
0100
0001
0100
1000
0100
0010
,
1000
0010
0100
1000
0100
0001
0100
0010
,
0001
0100
1000
0100
0001
1000
0010
0100
,
0002
0000
0000
0103
0010
0000
1010
0000
,
2001
0000
0000
3100
0010
0000
0011
0000
,
0201
0000
0000
0310
0100
0000
1010
0000
,
1002
0000
0000
0013
0001
0000
0011
0000
,
1000
0100
1000
0100
0001
0100
0010
0001
,
1000
0010
1000
0010
0001
0010
0100
0001
,
1000
0100
0001
0100
1000
0100
0010
0001
,
1000
0010
0001
0010
0100
0000
0110
0000
,
1002
0000
0000
0103
1000
0000
0101
0000
,
2001
0000
0000
3100
0001
0000
1100
0000
,
1002
0000
0000
0013
1000
0000
0011
0000
,
2001
0000
0000
3010
0001
0000
1010
0000
,
0001
0100
0001
0100
1000
0100
0010
1000
,
0001
0010
0001
0010
1000
0010
0100
1000
,
0001
0100
0010
0001
1000
0100
0010
1000
,
0001
0010
1000
0010
0001
0000
0000
0000
,
1000
0100
0001
1000
0010
0001
1000
0000
,
0001
0100
1000
0001
0010
1000
0001
0000
,
1000
0010
0001
1000
0100
0001
1000
0000
,
0001
0010
0100
1000
0002
0000
1003
0000
,
0010
1000
0100
0010
1000
0010
0100
0000
,
1000
0010
0100
1000
0100
0010
1000
0000
,
0001
0010
0100
0001
0100
0010
0001
0000
,
1000
0100
0010
0001
1001
0000
0000
0000
;

//---------------dance-single - t7r----------------
#NOTES:
     dance-single:
     t7r:
     Challenge:
     18:
     :
0000
0000
0000
0000
,
0000
0000
0000
0000
,
0000
0000
0000
0000
,
0000
0000
0000
0000
,
0000
0000
0000
0000
,
0000
0000
0000
0000
,
0000
0000
0000
0000
,
0000
0000
0000
0000
,
0000
0000
0000
0000
,
1000
0100
0100
0001
0100
0100
0010
0001
,
1000
0010
0010
0001
0010
0010
0100
0001
,
1000
0100
0100
0001
0100
0100
1000
0010
,
1000
0100
0001
0100
1000
0001
0100
0000
,
0001
0010
0010
1000
0010
0010
0100
1000
,
0001
0100
0100
1000
0100
0100
0010
1000
,
0001
0010
0010
1000
0010
0010
0001
0100
,
0001
0010
1000
0010
0001
1000
0010
1000
,
0001
0100
0100
1000
0100
0010
1001
0000
,
1000
0100
0100
0001
0100
0010
0001
1000
,
0001
0010
0010
1000
0010
0100
1000
0001
,
1000
0100
0001
1000
0010
0001
1000
0100
,
1000
0010
0010
0001
0010
0100
1010
0000
,
0001
0010
0010
1000
0010
0100
0010
0001
,
1000
0010
0010
0001
0010
0010
0100
0001
,
1000
0100
0001
1000
0010
0001
1000
0100
,
1000
0010
0010
0001
1000
0001
0010
0100
,
0001
0010
0010
1000
0001
1000
0010
0100
,
1000
0100
0100
0001
1000
0001
0100
0010
,
0001
0100
0100
1000
0001
1000
0100
0010
,
1000
0100
0001
1000
0010
0001
1000
0100
,
1000
0010
0001
1000
0100
0001
1000
0010
,
1000
0100
0100
0001
0100
0100
0001
1000
,
0001
0100
0100
1000
0100
0100
1000
0001
,
1000
0010
0010
0001
0010
0100
1010
0000
,
0001
0010
0010
1000
0010
0100
0010
0001
,
1000
0100
0100
0001
0100
0100
0010
0001
,
1000
0010
0001
1000
0100
0001
1000
0100
,
1000
0001
0001
0100
1000
0010
0101
0000
,
0001
1000
1000
0100
0001
0010
1000
0100
,
1000
0001
0001
1000
0100
0001
0010
1000
,
0001
0010
1000
0010
0001
0100
1000
0100
,
0001
0100
0100
0001
0010
1000
0110
0000
,
1000
0100
0100
0001
0100
1000
0110
0000
,
0001
0010
0010
1000
0010
0001
0110
0000
,
1000
0010
0010
0001
0010
1000
0110
0000
,
0101
0001
1000
1100
1000
0001
0101
0001
,
0011
0001
1000
1010
1000
0001
0011
0001
,
1001
1000
0001
0101
0001
1000
1100
1000
,
1010
0010
0100
0110
0010
1000
1001
0001
,
0100
0001
0001
0010
1000
0010
1001
0000
,
0100
1000
1000
0010
0001
0010
1001
0000
,
0010
1000
1000
0010
0001
0010
0101
0000
,
0010
0001
0001
0010
1000
0010
0110
0000
,
1002
0000
0000
0000
0103
0110
0000
0000
,
2001
0000
0000
0000
3010
0110
0000
0000
,
0210
0000
0000
0000
0301
1001
0000
0000
,
2200
3300
0022
0033
,
2001
0000
0000
0000
3001
1100
0000
0000
,
1002
0000
0000
0000
1003
0101
0000
0000
,
0210
0000
0000
0000
0301
1010
0000
0000
,
2002
3003
0110
0000
,
0001
0010
0001
0010
0001
0010
0001
0010
0001
0010
0001
0010
1000
0010
1000
0010
,
0001
0100
0001
0100
0001
0100
0001
0100
0001
0100
0001
0100
1000
0100
1000
0100
,
0001
0010
0001
0010
0001
0010
0001
0010
1000
0010
1000
0010
1000
0010
1000
0010
,
0001
0100
0001
0100
0001
0100
0001
0100
1000
0100
1000
0100
1000
0100
1000
0100
,
0010
0100
0010
0100
0010
0100
0010
0100
0001
0100
0001
0100
0001
0100
0001
0100
,
1000
0100
1000
0100
1000
0100
1000
0100
0010
0100
0010
0100
0010
0100
0010
0100
,
0010
1000
0010
1000
0010
1000
0010
1000
0010
0001
0010
0001
0010
0001
0010
0001
,
0010
1000
0010
1000
0010
1000
0010
1000
0001
0100
0001
0100
1000
0100
1000
0100
,
0002
0000
0000
0013
0011
0000
1001
0000
,
1200
0000
0000
0310
0110
0000
0011
0000
,
1002
0000
0000
0103
0101
0000
1010
0000
,
2001
0000
0000
3100
1100
0000
1001
0000
,
1010
0010
1000
0010
0110
0100
0001
0100
,
0110
0010
1000
0001
0011
0010
0001
1000
,
1001
1000
0100
0001
0101
0001
0100
0010
,
0011
0001
1000
0010
0110
0000
0101
0000
,
2001
0000
0000
3010
1100
0000
1010
0000
,
1002
0000
0000
0013
0101
0000
0110
0000
,
1020
0000
0000
0130
0011
0000
0110
0000
,
1200
0000
0000
0310
1100
0000
1001
0000
,
0011
0010
0001
0010
0110
0100
1000
0100
,
0110
0010
0001
1000
1010
0010
1000
0001
,
1001
0001
0100
1000
1100
1000
0100
0010
,
1010
0000
0000
0000
1000
0000
0000
0000
0001
0000
0000
0000
0010
0000
0000
0000
0100
0010
0000
0000
0000
0000
0000
0000
0000
0000
0000
0000
0000
0000
0000
0000
,
1001
0001
0100
0101
0001
0011
1001
0001
,
1001
1000
0100
1100
1000
1010
1001
0001
,
0101
0001
0100
0110
0010
1010
0110
0010
,
1010
1000
0100
0110
0010
0011
1001
0001
,
0101
0001
0101
0011
0001
1001
1100
1000
,
1010
0010
0110
1010
0010
0110
0101
0001
,
1001
1000
1100
1001
0001
0101
1001
0001
,
0011
0001
0100
1000
0110
0000
0000
0000
;

//---------------dance-double - t7r----------------
#NOTES:
     dance-double:
     t7r:
     Easy:
     8:
     :
00000000
00000000
00000000
00000000
,
00000000
00000000
00000000
00000000
,
00000000
00000000
00000000
00000000
,
00000000
00000000
00000000
00000000
,
00000000
00000000
00000000
00000000
,
00000000
00000000
00000000
00000000
,
00000000
00000000
00000000
00000000
,
00000000
00000000
00000000
00000000
,
00000000
00000000
00000000
00000000
,
00000100
00000100
00000100
00000100
,
00010000
00010000
00010000
00010000
,
00001000
00001000
00001000
00001000
,
01000000
01000000
01000000
00000000
,
00100000
00100000
00100000
00100000
,
10000000
10000000
10000000
10000000
,
01000000
01000000
01000000
01000000
,
00100000
00100000
00001000
00010000
,
00001000
00000000
00000000
00010000
00000000
00000000
00011000
00000000
,
00010000
00000000
00000000
00001000
00000000
00000000
00011000
00000000
,
00001000
00000000
00000000
01000000
00000000
00000000
01100000
00000000
,
00100000
10000000
01000000
00010000
,
00001000
00000000
00000000
00010000
00000000
00000000
00011000
00000000
,
00010000
00000000
00000000
00001000
00000000
00000000
00011000
00000000
,
00010000
00000000
00000000
00000010
00000000
00000000
00000110
00000000
,
00000010
00000100
00000001
00001000
,
00000002
00000000
00001003
00000000
,
00000200
00000000
00010300
00000000
,
00002000
00000000
01003000
00000000
,
00200000
00000000
01300000
00000000
,
00100000
00100000
00100000
00100000
,
10000000
10000000
10000000
10000000
,
01000000
01000000
01000000
01000000
,
00010000
00001000
00010000
00001000
,
00010000
00000000
00000000
00001000
00000000
00000000
00011000
00000000
,
00001000
00000000
00000000
00010000
00000000
00000000
00011000
00000000
,
00010000
00000000
00000000
00000100
00000000
00000000
00000110
00000000
,
00000010
00000001
00000100
00001000
,
00010000
00000000
00000000
00001000
00000000
00000000
00011000
00000000
,
00001000
00000000
00000000
00010000
00000000
00000000
00011000
00000000
,
00001000
00000000
00000000
01000000
00000000
00000000
01100000
00000000
,
00100000
00100000
10000000
01000000
,
00200000
00000000
00301000
00000000
,
00020000
00000000
00030100
00000000
,
00002000
00000000
00003010
00000000
,
00000200
00000000
00000310
00000000
,
00001000
00000100
00000001
00000100
,
00000010
00000001
00000100
00000000
,
00000001
00000100
00001000
00010000
,
01000000
00100000
00010000
00000000
,
20000000
00000000
30100000
00000000
,
02000000
00000000
03010000
00000000
,
00200000
00000000
00301000
00000000
,
00020000
00000000
00030100
00000000
,
00021000
00000000
00031000
00000000
,
00012000
00000000
00013000
00000000
,
00020100
00000000
00031000
00000000
,
01002000
00000000
00013000
00000000
,
00201000
00000000
00310000
00000000
,
00021000
00000000
00030010
00000000
,
00010020
00000000
00001030
00000000
,
00000110
00000000
00001001
00000000
,
00000001
00000100
00000001
00000100
,
00000010
00001000
00000010
00001000
,
00010000
00100000
00010000
00100000
,
01000000
10000000
01000000
10000000
,
00100000
00100000
01000000
01000000
,
00001000
00001000
00010000
00010000
,
00000010
00000010
00000100
00000100
,
00000001
00001000
00000100
00010000
,
00012000
00000000
00013000
00000000
,
00021000
00000000
00031000
00000000
,
02001000
00000000
03010000
00000000
,
01200000
00000000
10300000
00000000
,
10000000
01000000
10000000
01000000
,
00100000
00010000
00100000
00010000
,
00001000
00000010
00001000
00000010
,
00000100
00000001
00001000
00000000
,
00000010
00000000
00000100
00000010
,
00001001
00000000
00000010
00000100
,
00010100
00000000
00001000
00010000
,
01100000
00000000
00100000
10000000
,
00010000
01000000
10000000
01000000
,
00010000
00100000
00001000
00000000
,
00010000
00000100
00001000
00000010
,
00000001
00000010
00000100
00000000
,
00000001
00000000
00000000
00000010
00000000
00000000
00000100
00000000
,
00010000
00000000
00000000
00001000
00000000
00000000
00010000
00000000
,
00001000
00000000
00000000
01000000
00000000
00000000
00100000
00000000
,
10000000
00010000
01000000
00000000
,
00010000
00100000
01000000
10000000
,
01000000
00100000
00010000
00001000
,
00000100
00000001
00000100
00001000
,
00010000
01000000
10000000
00000000
;

//---------------dance-double - t7r----------------
#NOTES:
     dance-double:
     t7r:
     Medium:
     11:
     :
00000000
00000000
00000000
00000000
,
00000000
00000000
00000000
00000000
,
00000000
00000000
00000000
00000000
,
00000000
00000000
00000000
00000000
,
00000000
00000000
00000000
00000000
,
00000000
00000000
00000000
00000000
,
00000000
00000000
00000000
00000000
,
00000000
00000000
00000000
00000000
,
00000000
00000000
00000000
00000000
,
01000000
00000000
00001000
00010000
00000000
00000000
00000100
00000000
,
00010000
00000000
00001000
00010000
00000000
00000000
00000010
00000000
,
00000100
00000000
00000001
00000010
00000000
00000000
00000100
00000000
,
00010000
00000000
00001000
00010000
00001000
00000000
00000000
00000000
,
01000000
00000000
00100000
10000000
00000000
00000000
00010000
00000000
,
01000000
00000000
00001000
00010000
00000000
00000000
00000100
00000000
,
00010000
00000000
00001000
00010000
00000000
00000000
00001000
00000000
,
01000000
00000000
00100000
01000000
00100000
00000000
10000000
00000000
,
00010000
00000000
01000000
00100000
00000000
00000000
01100000
00000000
,
10000000
00000000
01000000
00100000
00000000
00000000
00101000
00000000
,
00001000
00000000
00010000
00000010
00000000
00000000
00000110
00000000
,
00000010
00001000
00010000
00100000
,
01000000
00000000
00100000
00001000
00000000
00000000
00101000
00000000
,
00001000
00000000
00010000
00001000
00000000
00000000
00011000
00000000
,
00010000
00000000
00000010
00000100
00000000
00000000
00000110
00000000
,
00000100
00001000
00010000
01000000
,
00100000
00000000
00000000
00100000
00000000
00000000
00100000
00000000
,
00001000
00000000
00000000
00001000
00000000
00000000
00001000
00000000
,
00010000
00000000
00000000
00010000
00000000
00000000
00010000
00000000
,
00000010
00000000
00000000
00000010
00000000
00000000
00000010
00000000
,
00001000
00000000
00000100
00000010
00000000
00000000
00000001
00000000
,
00000100
00000000
00000010
00001000
00000000
00000000
00000100
00000000
,
00010000
00000000
00001000
01000000
00000000
00000000
00100000
00000000
,
10000000
00000000
01000000
00100000
00000000
00010000
10000000
00000000
,
00010000
00000000
00000000
01000000
00000000
00000000
01010000
00000000
,
10000000
00000000
00000000
01000000
00000000
00000000
11000000
00000000
,
00100000
00000000
00000000
01000000
00000000
00000000
01001000
00000000
,
00001000
00100000
00001000
00010000
,
00000010
00000000
00000000
00000100
00000000
00000000
00000110
00000000
,
00000001
00000000
00000000
00000100
00000000
00000000
00001010
00000000
,
00001000
00000000
00000000
00000100
00000000
00000000
00011000
00000000
,
00010000
01000000
10000000
01000000
,
00010000
00000000
00000000
00010000
00000000
00000000
00001000
00000000
,
00000010
00000000
00000000
00000010
00000000
00000000
00000001
00000000
,
00000100
00000000
00000000
00000100
00000000
00000000
00001000
00000000
,
00010000
00000000
00000000
00010000
00000000
00000000
01000000
00000000
,
00100000
00000000
01000000
00100000
00000000
00000000
01000000
00000000
,
00100000
00000000
00001000
00010000
00000000
00000000
00001000
00000000
,
00010000
00000000
00000010
00001000
00000000
00000000
00000010
00000000
,
00000100
00000000
00000001
00001000
00000001
00000000
00000000
00000000
,
00000010
00000000
00000000
00000010
00000000
00000000
00000100
00000000
,
00010000
00000000
00000000
00010000
00000000
00000000
00001000
00000000
,
01000000
00000000
00000000
01000000
00000000
00000000
00100000
00000000
,
10000000
00000000
00000000
00010000
10000000
00000000
00000000
00000000
,
20010000
00000000
00000000
00000000
30100000
01000000
00000000
00000000
,
02001000
00000000
00000000
00000000
03010000
00100000
00000000
00000000
,
00201000
00000000
00000000
00000000
00301000
00010000
00000000
00000000
,
00000220
00000330
00002002
00003003
,
00000201
00000000
00000000
00000000
00000310
00001000
00000000
00000000
,
00021000
00000000
00000000
00000000
00031000
00100000
00000000
00000000
,
00201000
00000000
00000000
00000000
00310000
01000000
00000000
00000000
,
02200000
03300000
10010000
00000000
,
10000000
01000000
10000000
01000000
10000000
01000000
10000000
00000000
,
00010000
00100000
00010000
00100000
00010000
00100000
00010000
00000000
,
00100000
00001000
00100000
00001000
00100000
00001000
00100000
00000000
,
00001000
00010000
00001000
00010000
00001000
00010000
00001000
00000000
,
00010000
00000010
00010000
00000010
00010000
00000010
00010000
00000000
,
00000010
00000100
00000010
00000100
00000010
00000100
00000010
00000000
,
00001000
00000001
00000100
00000000
00000001
00001000
00000100
00000000
,
00010000
00001000
01000000
00000000
00001000
00010000
00000100
00000000
,
00021000
00000000
00000000
00031000
01000000
00000000
00100000
00000000
,
20000000
00000000
00000000
31000000
00100000
00000000
00001000
00000000
,
00020000
00000000
00000000
00030010
00000100
00000000
00000001
00000000
,
00000020
00000000
00000000
00000031
00000100
00000000
00000001
00000000
,
00001000
00000100
00000001
00000100
,
00010000
00001000
01000000
00010000
,
10000000
01000000
00010000
01000000
,
10000000
00100000
01000000
01100000
,
00200000
00000000
00000000
10300000
00010000
00000000
00100000
00000000
,
00201000
00000000
00000000
00301000
00010000
00000000
00001000
00000000
,
00020000
00000000
00000000
00030010
00000100
00000000
00000001
00000000
,
00001002
00000000
00000000
00000013
00000100
00000000
00001000
00000000
,
00000001
00000010
00001000
00000010
,
00000001
00001000
00000100
00001000
,
00010000
00100000
10000000
00100000
,
01000000
10000000
10010000
00000000
,
10000000
00000000
01000000
00010000
00000000
10000000
00100000
00000000
,
00001000
00000000
00010000
00000100
00000000
00001000
00000001
00000000
,
00001000
00000000
00000100
00000001
00000000
00001000
00000010
00000000
,
00000001
00000000
00001000
00000001
00000200
00000000
00000310
00000000
,
00001001
00000000
00000100
00001000
00000000
00000001
00000010
00000000
,
00010000
00000000
00000100
00010000
00000000
00001000
00010000
00000000
,
00001000
00000000
00100000
10000000
00000000
00100000
01000000
00000000
,
00100000
00010000
00001000
00000010
00000100
00000000
00000000
00000000
;

//---------------dance-double - t7r----------------
#NOTES:
     dance-double:
     t7r:
     Hard:
     14:
     :
00000000
00000000
00000000
00000000
,
00000000
00000000
00000000
00000000
,
00000000
00000000
00000000
00000000
,
00000000
00000000
00000000
00000000
,
00000000
00000000
00000000
00000000
,
00000000
00000000
00000000
00000000
,
00000000
00000000
00000000
00000000
,
00000000
00000000
00000000
00000000
,
00000000
00000000
00000000
00000000
,
10000000
00000000
01000000
00100000
00000000
00010000
00001000
00000000
,
00000001
00000000
00000010
00000100
00000000
00001000
00010000
00000000
,
10000000
00000000
00100000
01000000
00000000
00010000
00001000
00000000
,
00000100
00000000
00000010
00000001
00002000
00000000
00003000
00000000
,
00000001
00000000
00000100
00000010
00000000
00001000
00010000
00000000
,
10000000
00000000
00100000
01000000
00000000
00010000
00001000
00000000
,
00000001
00000000
00000100
00000010
00000000
00001000
00010000
00000000
,
01000000
00000000
00100000
10000000
00010000
00000000
10000000
00010000
,
01000000
00100000
01000000
00010000
01000000
00000000
01100000
00000000
,
10000000
01000000
00100000
00010000
00001000
00000000
00011000
00000000
,
00000010
00000100
00000010
00001000
00000010
00000000
00000110
00000000
,
00000001
00000010
00000100
00001000
00100000
00000000
01000000
00010000
,
10000000
00100000
01000000
00100000
10000000
00000000
01100000
00000000
,
01000000
00010000
00001000
00000100
00000010
00000000
00000110
00000000
,
00000001
00000100
00000010
00000100
00000001
00000000
00001010
00000000
,
00000001
00000010
00000100
00001000
00010000
00000000
01100000
00000000
,
10000000
01000000
00100000
00000000
00110000
00000000
01010000
00000000
,
00001000
00010000
00000010
00000000
00000110
00000000
00000101
00000000
,
00000001
00000010
00000100
00000000
00000110
00000000
00010100
00000000
,
00000100
00010000
00001000
00000000
00011000
00000000
01010000
00000000
,
00010000
00000000
01000000
10000000
00000000
00010000
00100000
00000000
,
01000000
00000000
00010000
00001000
00000000
00000100
00000010
00000000
,
00000001
00000000
00000100
00001000
00000000
00000001
00000010
00000000
,
00001000
00000000
00010000
01000000
10000000
00000000
01100000
00000000
,
10000000
01000000
00100000
10000000
00100000
00010000
00001000
00000000
,
00000001
00000100
00000010
00000001
00000010
00001000
00010000
00000000
,
10000000
00100000
01000000
10000000
01000000
00010000
00001000
00000000
,
00000001
00000100
00001000
00000100
00000001
00000000
00001000
00000000
,
00000001
00000010
00000100
00000001
00000100
00001000
00010000
00000000
,
10000000
00100000
01000000
10000000
01000000
00010000
00001000
00000000
,
00000001
00000010
00000100
00000001
00000100
00001000
00010000
00000000
,
10000000
01000000
00010000
01000000
00100000
00010000
00001000
00000000
,
00000010
00000000
00000100
00000001
00000000
00000000
00000101
00000000
,
00000010
00000000
00000100
00010000
00000000
00000000
00011000
00000000
,
00001000
00000000
01000000
00100000
00000000
00000000
01100000
00000000
,
00100000
00000000
10000000
01000000
00000000
00000000
01100000
00000000
,
10000000
00000000
01000000
00010000
00000000
10000000
00100000
00010000
,
00001000
00000000
00000100
00000001
00000000
00001000
00000010
00000001
,
00001000
00000000
00010000
01000000
00000000
00001000
00100000
00010000
,
10000000
00000000
01000000
00010000
00001000
00000000
00011000
00000000
,
01000000
00000000
00100000
10000000
00000000
00000000
10100000
00000000
,
01000000
00000000
00100000
00001000
00000000
00000000
00011000
00000000
,
00010000
00000000
00000010
00000100
00000000
00000000
00000110
00000000
,
00000100
00000000
00000001
00000010
00000100
00000000
00000010
00000000
,
00001002
00000000
00000000
00000000
00000103
00001000
00000000
00000000
,
02100000
00000000
00000000
00000000
03010000
00100000
00000000
00000000
,
20010000
00000000
00000000
00000000
31000000
00010000
00000000
00000000
,
00022000
00033000
00000220
00000330
,
00001002
00000000
00000000
00000000
00000013
00001000
00000000
00000000
,
02100000
00000000
00000000
00000000
03010000
00100000
00000000
00000000
,
20010000
00000000
00000000
00000000
30100000
00010000
00000000
00000000
,
00022000
00033000
00000110
00000000
,
00000001
00000100
00000001
00000100
00000010
00001000
00000010
00001000
,
00010000
01000000
00010000
01000000
00100000
10000000
00100000
10000000
,
01000000
00100000
01000000
00100000
00001000
00010000
00001000
00010000
,
00000010
00000100
00000010
00000100
00000001
00001000
00000001
00001000
,
00000001
00000010
00000001
00000010
00001000
00010000
00001000
00010000
,
00100000
10000000
00100000
10000000
01000000
00100000
01000000
00100000
,
00010000
00001000
00000010
00001000
00010000
01000000
00010000
00001000
,
00000100
00010000
00000100
00010000
00001000
01000000
00100000
00000000
,
20010000
00000000
00000000
31000000
00100000
00000000
00001000
00000000
,
00021000
00000000
00000000
00030100
00001000
00000000
00000010
00000000
,
00000210
00000000
00000000
00000301
00001000
00000000
00000100
00000000
,
00020100
00000000
00000000
00031000
00010000
00000000
00001000
00000000
,
00010000
01000000
10000000
00000000
00010000
01000000
10000000
00000000
,
01000000
00010000
00001000
00000000
01000000
00010000
00001000
00000000
,
00000100
00000001
00000010
00000000
00000100
00001000
00000010
00000000
,
00000100
00001000
00101000
00101000
,
01200000
00000000
00000000
01300000
10000000
00000000
01000000
00000000
,
01200000
00000000
00000000
00301000
00010000
00000000
00000010
00000000
,
00000210
00000000
00000000
00000301
00000010
00000000
00000100
00000000
,
00020100
00000000
00000000
00031000
00010000
00000000
00001000
00000000
,
00010000
00100000
10000000
00000000
00010000
00100000
10000000
00000000
,
00100000
00010000
00001000
00000000
00100000
00010000
00001000
00000000
,
00000010
00000001
00000100
00000000
00000010
00001000
00000100
00000000
,
00001000
00010000
01010000
00000000
,
10000000
01000000
00010000
10000000
00100000
00010000
00001000
00000000
,
00000001
00000100
00001000
00000001
00000010
00001000
00010000
00000000
,
10000000
01000000
00010000
10000000
00100000
00010000
00001000
00000000
,
00000010
00001000
00000100
00001000
00000020
00000000
00000130
00000000
,
00000001
00000100
00001000
00010000
01000000
10000000
00010000
00000000
,
10000000
01000000
00010000
00001000
00000100
00000001
00001000
00000000
,
00000001
00000010
00001000
00010000
00100000
10000000
00100000
01000000
,
00001000
00010000
00001000
00010000
00011000
00000000
00000000
00000000
;

//---------------dance-double - t7r----------------
#NOTES:
     dance-double:
     t7r:
     Challenge:
     18:
     :
00000000
00000000
00000000
00000000
,
00000000
00000000
00000000
00000000
,
00000000
00000000
00000000
00000000
,
00000000
00000000
00000000
00000000
,
00000000
00000000
00000000
00000000
,
00000000
00000000
00000000
00000000
,
00000000
00000000
00000000
00000000
,
00000000
00000000
00000000
00000000
,
00000000
00000000
00000000
00000000
,
00000001
00000100
00000100
00001000
00010000
00010000
01000000
00100000
,
00010000
00100000
00100000
10000000
00100000
00100000
00010000
00001000
,
00000001
00000010
00000010
00001000
00010000
00010000
00100000
10000000
,
00100000
01000000
00010000
01000000
10000000
01000000
00100000
00000000
,
10000000
01000000
01000000
00010000
00001000
00001000
00000100
00000010
,
00001000
00000010
00000010
00000001
00000010
00000010
00001000
00010000
,
10000000
00100000
00100000
00010000
00001000
00001000
00000010
00000001
,
00000010
00000100
00001000
00000100
00000001
00000100
00000010
00000001
,
00001000
00000100
00000100
00000001
00000100
00000010
00001001
00000000
,
00000001
00000100
00000100
00001000
01000000
00100000
10000000
00010000
,
10000000
01000000
01000000
00010000
01000000
00100000
00010000
00001000
,
00000010
00000001
00000100
00001000
00010000
10000000
00100000
00000000
,
10000000
01000000
01000000
00010000
01000000
00100000
10010000
00000000
,
10000000
01000000
01000000
00010000
00000100
00000010
00000001
00001000
,
00000001
00000100
00000100
00001000
00000100
00000010
00001000
00010000
,
00100000
10000000
01000000
00010000
00001000
00000001
00000010
00000000
,
00001001
00000000
00000000
MMMMMMMM
00000000
00000000
00000000
00000000
,
10010000
00000000
00000000
MMMMMMMM
00000000
00000000
00000000
00000000
,
00000110
00000000
00000000
MMMMMMMM
00000000
00000000
00000000
00000000
,
01100000
00000000
00000000
MMMMMMMM
00000000
00000000
00000000
00000000
,
00000001
00000100
00001000
00000001
00000010
00001000
00010000
10000000
,
00010000
00100000
10000000
00010000
01000000
10000000
00010000
10000000
,
01000000
00010000
00001000
00000100
00000001
00001000
00000001
00000100
,
00000010
00001000
00010000
00100000
00010000
00001000
00000010
00000100
,
00000001
00000100
00000100
00000010
00001000
00000100
00000011
00000000
,
00001000
00000100
00000100
00010000
00001000
01000000
00010000
10000000
,
01000000
00010000
00010000
01000000
00100000
00010000
00001000
00000010
,
00000001
00000100
00001000
00010000
01000000
00010000
10000000
00100000
,
10000000
01000000
01000000
00100000
00010000
01000000
10100000
00000000
,
00010000
01000000
01000000
00001000
00010000
00000100
00001000
00000001
,
00000100
00001000
00001000
00000100
00000010
00001000
00010000
00100000
,
10000000
01000000
00010000
00001000
00000100
00001000
00000001
00000010
,
00000001
00000100
00000100
00001000
00010000
10000000
01100000
00000000
,
10000000
01000000
01000000
00010000
00001000
00000001
00000110
00000000
,
00000001
00000010
00000010
00001000
00010000
10000000
01100000
00000000
,
10000000
00100000
00100000
00010000
00001000
00000001
00000110
00000000
,
00000001
00000100
00000101
00001001
00000000
00010100
00011000
00000000
,
00001000
01000000
01010000
10010000
00000000
11000000
10010000
00000000
,
10000000
01000000
01100000
00101000
00000000
00011000
00010100
00000000
,
00000001
00000100
00001000
00010000
01000000
10000000
00100000
00000000
,
10000000
01000000
00010000
00011000
00000000
00010100
00000110
00000000
,
00000001
00000100
00001000
00011000
00000000
01001000
01100000
00000000
,
10000000
00100000
00010000
00011000
00000000
00010010
00000110
00000000
,
00000001
00000010
00001000
00010000
00100000
10000000
00100000
00000000
,
02200000
03300000
MMMMMMMM
00000000
,
00000220
00000330
MMMMMMMM
00000000
,
02200000
03300000
MMMMMMMM
00000000
,
00000202
00000303
00020020
00030030
,
00022000
00033000
MMMMMMMM
00000000
,
20020000
30030000
MMMMMMMM
00000000
,
00002002
00003003
MMMMMMMM
00000000
,
00022000
00033000
MMMMMMMM
00000000
,
10000000
01000000
10000000
01000000
10000000
01000000
10000000
01000000
10000000
01000000
10000000
01000000
10000000
01000000
10000000
01000000
,
00100000
00010000
00100000
00010000
00100000
00010000
00100000
00010000
00100000
00010000
00100000
00010000
00100000
00010000
00100000
00010000
,
00001000
00000010
00001000
00000010
00001000
00000010
00001000
00000010
00000100
00000001
00000100
00000001
00000100
00000001
00000100
00000001
,
00001000
00000100
00001000
00000100
00001000
00000100
00001000
00000100
00010000
00001000
00010000
00001000
00010000
00001000
00010000
00001000
,
01000000
00010000
01000000
00000000
MMMMMMMM
00000000
01000000
00010000
01000000
00000000
00100000
00000000
MMMMMMMM
00000000
01000000
00001000
,
00010000
00000000
00001000
00000000
MMMMMMMM
00000000
00010000
00000100
00010000
00000000
00001000
00000000
MMMMMMMM
00000000
00000010
00000001
,
00000100
00000000
00000010
00000000
MMMMMMMM
00000000
00000100
00000010
00010000
00000000
00001000
00000000
MMMMMMMM
00000000
10000000
01000000
,
00100000
01000000
00100000
01000000
00100000
00001000
00100000
00001000
00010000
00001000
00010000
00001000
00010000
00000010
00010000
00000010
,
00000200
00000000
00000000
00000310
00001100
00000000
00001010
00000000
,
00001200
00000000
00000000
00010300
00001010
00000000
00011000
00000000
,
02010000
00000000
00000000
03010000
10100000
00000000
01100000
00000000
,
20100000
00000000
00000000
31000000
00011000
00000000
00010100
00000000
,
00000010
00000001
00000100
00001000
00010000
01000000
01100000
00000000
,
00100000
10000000
01000000
00010000
00001000
00000100
00000110
00000000
,
00000011
00000001
00001000
00000100
00010100
00000100
00010000
00001000
,
00011000
00001000
01000000
00100000
01100000
00000000
10100000
00000000
,
10010000
00000000
MMMMMMMM
01000000
01001000
00000000
00101000
00000000
,
00011000
00000000
MMMMMMMM
00000100
00001100
00000000
00001001
00000000
,
00000101
00000000
MMMMMMMM
00000100
00010100
00000000
00011000
00000000
,
00101000
00000000
MMMMMMMM
10000000
11000000
00000000
10010000
00000000
,
10000000
01000000
00010000
01000000
00010000
00001000
00010000
00001000
,
00000001
00000100
00000001
00000100
00010000
00001000
00010000
00001000
,
01001000
00001000
00100000
00010000
10010000
10000000
01000000
00100000
,
00101000
00000000
00000000
00000000
00001000
00000000
00000000
00000000
00010000
00000000
00000000
00000000
00000010
00000000
00000000
00000000
00000100
00000010
00000000
00000000
00000000
00000000
00000000
00000000
00000000
00000000
00000000
00000000
00000000
00000000
00000000
00000000
,
00000101
00000001
00001000
00001100
00000100
00010100
00011000
00000000
,
01001000
00001000
00100000
00110000
00010000
10010000
10100000
00000000
,
11000000
01000000
00100000
00101000
00001000
00011000
00010010
00000000
,
00000110
00000001
00000100
00001000
00010000
00100000
10100000
00000000
,
11000000
01000000
00100000
00101000
00001000
00011000
00010010
00000010
,
00000110
00000100
00000001
00000011
00000001
00001001
00001100
00000100
,
00010100
00000100
00010000
00011000
00001000
01001000
01100000
00100000
,
10100000
01000000
00010000
00001000
00000110
00000000
00000000
00000000
;
