#TITLE:Formula 1 Theme;
#ARTIST:Brian Tyler;
#BANNER:Formula 1 Theme.png;
#BACKGROUND:Formula 1 Theme-bg.png;
#JACKET:Formula 1 Theme-jacket.png;
#CDTITLE:./CDTITLES/NONE.PNG;
#MUSIC:Formula 1 Theme.ogg;
#SAMPLESTART:16.8;
#SAMPLELENGTH:15;
#DISPLAYBPM:100;
#BPMS:0=100,183=200,190=100;
#STOPS:117.5=0.6,182.5=0.3;

//---------------dance-single - t7r----------------
#NOTES:
     dance-single:
     t7r:
     Beginner:
     2:
     :
0000
0000
0000
0000
,
0000
0000
0000
0000
,
0000
0000
0000
0000
,
0000
0000
0000
0000
,
0000
0000
0000
0000
,
0010
0000
0000
0000
,
0000
0000
0000
0000
,
0100
0000
0100
0000
,
0100
0000
0000
0000
,
0010
0000
0010
0000
,
0010
0000
0000
0000
,
1000
0000
1000
0000
,
1000
0000
0000
0000
,
0001
0000
0001
0000
,
0001
0000
0000
0000
,
0010
0010
0010
0000
,
0100
0100
0100
0000
,
0000
0000
1000
0000
,
1000
0000
0001
0000
,
0001
0000
0100
0000
,
0100
0000
0010
0000
,
0010
0000
1000
1000
,
1000
0000
0010
0010
,
0010
0000
0100
0100
,
0100
0000
0001
0001
,
0001
0000
0010
0000
,
0010
0000
0100
0000
,
0100
0000
1000
0000
,
1000
0000
0001
0000
,
1000
1000
0000
0010
,
0000
0000
0000
0000
,
0000
0000
0000
0100
,
0000
0000
0000
0000
,
0000
0000
0000
0001
,
0000
0000
0000
0010
,
0000
0000
0000
0100
,
0000
0000
0000
1000
,
0000
0000
0000
0010
,
0000
0010
0000
0010
,
0000
0000
0000
0100
,
0000
0100
0000
0100
,
0000
0000
0000
0001
,
0000
0001
0000
1000
,
0000
1000
0000
0010
,
0000
0010
0000
0100
,
0000
0100
0000
0000
,
0000
0000
0000
0000
,
0000
0000
0010
0000
,
0010
0000
0010
0010
,
0010
0000
1000
0000
,
1000
0000
1000
1000
,
1000
0000
0001
0000
,
0001
0000
0001
0001
,
0001
0000
0010
0000
,
0010
0000
0010
0010
,
0010
0000
0100
0000
,
0000
0000
0100
0100
,
0100
0000
1000
1000
,
1000
0000
0001
0000
,
0001
0000
0000
0000
;

//---------------dance-single - t7r----------------
#NOTES:
     dance-single:
     t7r:
     Easy:
     5:
     :
0000
0000
0000
0000
,
0000
0000
0000
0000
,
0000
0000
0000
0000
,
0000
0000
0000
0000
,
0000
0000
0000
0000
,
0010
0100
0020
0000
,
0000
0000
0000
0030
,
1000
1000
0002
1003
,
0001
0010
0200
0300
,
1000
1000
0002
0013
,
0001
0100
0020
0030
,
0100
0100
0002
0013
,
0001
1000
0200
0300
,
0010
0010
0002
1003
,
0001
0100
0020
0030
,
1001
0000
0000
1001
0000
0000
0000
0000
,
0110
0000
0000
0010
0020
0000
0000
0000
,
0000
0030
1000
0100
,
0110
0000
0001
0100
,
0110
0000
1000
0001
,
1001
0000
0001
1000
,
1001
0000
0010
0100
,
0001
0001
0000
0000
0010
0000
0100
0000
,
1000
1000
0000
0000
0001
0000
0100
0000
,
0010
0010
0000
0000
0100
0000
0001
0000
,
1000
0000
0002
0010
,
1003
1000
0000
0000
2000
0000
0010
0000
,
3001
0001
0000
0000
0200
0000
0001
0000
,
0310
0010
0000
0000
2000
0000
3100
0000
,
0110
0000
0010
0010
0000
0000
2002
0000
,
0000
0000
0000
3003
,
0000
0000
0000
2000
,
0000
0000
0000
3000
,
0000
0000
0000
0002
,
0023
0230
0000
1000
,
0000
0301
0000
0200
,
0320
0032
0203
0320
,
0000
0130
0000
2000
,
3200
0320
0000
0001
,
0000
1030
0000
0020
,
0230
2300
3020
0230
,
0000
0310
0000
1000
,
0000
0000
1000
1000
0000
0000
0001
0000
,
0000
0000
0001
0001
0000
0000
0100
0000
,
0000
0000
0100
0100
0000
0000
0010
0000
,
0000
1001
0000
0020
,
0000
0000
0000
0000
,
0000
0000
1030
0100
,
1000
0001
0020
0032
,
0203
0300
0001
0010
,
0001
0100
0020
2030
,
3002
0003
1000
0010
,
0001
0010
2000
3200
,
0320
0030
0001
0010
,
1000
0010
0002
0203
,
0320
0030
2002
0000
,
0000
0000
3003
0000
1000
0000
0000
1001
,
0000
0000
0000
0000
0001
0000
0000
0110
,
0000
0000
0100
0100
,
0200
0000
0000
0000
,
0000
0300
0000
0000
;

//---------------dance-single - t7r----------------
#NOTES:
     dance-single:
     t7r:
     Medium:
     7:
     :
0000
0000
0000
0000
,
0000
0000
0000
0000
,
0000
0000
0000
0000
,
0000
0000
0000
0000
,
0000
0000
0000
0000
,
0100
0000
0000
0100
0000
0000
0010
0000
0020
0000
0000
0000
0000
0000
0000
0000
,
0000
0000
0000
0000
0000
0000
1030
0001
,
1000
0000
0000
1000
0000
0000
0001
0000
0020
0000
0000
0000
0031
0000
0000
0000
,
2000
3200
0320
0030
,
0001
0000
0000
0001
0000
0000
1000
0000
0001
0000
0000
0000
0100
0000
0000
0000
,
0002
0023
0230
0300
,
1000
0000
0000
1000
0000
0000
0010
0000
1000
0000
0000
0000
0010
0000
0000
0000
,
0200
0302
2003
3000
,
0001
0000
0000
0001
0000
0000
0010
0000
0001
0000
0000
0000
1000
0000
0000
0000
,
0020
0230
0302
0003
,
1000
0000
0000
0001
0000
0000
1000
0000
0000
0000
0001
0000
0010
0000
0000
0000
,
0001
0000
0000
0001
0000
0000
1000
0000
2002
0000
0000
0000
0000
0000
0000
0000
,
0000
3003
0010
0010
,
0100
0100
0000
0000
0001
0000
0001
0000
,
1000
1000
0000
0000
0100
0000
0100
0000
,
0010
0010
0000
0000
0100
0000
0100
0000
,
1000
0001
1001
0010
,
1000
1000
0000
0000
0001
0000
0010
0000
,
0001
0001
0000
0000
0100
0000
0010
0000
,
1000
1000
0000
0000
0100
0000
0010
0000
,
0001
1001
0010
0100
,
0001
0010
0002
0000
0103
0000
0010
0000
,
1000
0010
2000
0000
3001
0000
0010
0000
,
0100
1000
0002
0000
1003
0000
0010
0000
,
0100
0001
1000
1001
0000
0000
0020
0000
,
0000
0000
0000
0030
,
0000
0000
0000
0020
,
0000
0000
0000
0030
,
0000
0000
0000
2000
,
3100
0010
0200
0000
0000
0000
0001
0000
,
0000
1300
0000
0002
,
0103
0010
0200
0000
0302
0000
0023
0000
,
0000
1000
0030
0002
,
0103
0010
2000
0000
3001
0010
0200
0000
,
0000
0320
0030
2000
,
3010
0100
0002
0000
0023
0000
0230
0000
,
0000
0300
0000
0001
,
0100
0000
0010
0010
2000
0000
3100
0000
,
0010
0000
0001
0001
1000
0000
0010
0000
,
1000
0000
0100
0100
0020
0000
0031
0000
,
1000
0010
0110
0020
,
0000
0000
0000
0000
,
0000
0000
0000
0000
0000
0000
0000
0000
1030
0000
0000
1000
0000
0000
0001
0000
,
0010
0000
0000
0010
0001
0000
0000
0000
2000
0000
0000
0000
3020
0000
0000
0000
,
0230
0000
0000
0000
0300
0000
0000
0000
0001
0000
0000
0001
0000
0000
1000
0000
,
0010
0000
0000
0010
0100
0000
0000
0000
0002
0000
0000
0000
2003
0000
0000
0000
,
3020
0000
0000
0000
0030
0000
0000
0000
1000
0000
0000
1000
0100
0000
0000
0000
,
0001
0000
0000
0001
0100
0000
0000
0000
2000
0000
0000
0000
3002
0000
0000
0000
,
0203
0000
0000
0000
0300
0000
0000
0000
0001
0000
0000
0001
0100
0000
0000
0000
,
1000
0000
0000
1000
0100
0000
0000
0000
0020
0000
0000
0000
2030
0000
0000
0000
,
3002
0003
2002
0000
,
0000
0000
0000
0000
3003
0000
0000
0000
0110
0000
0000
0110
0000
0000
0110
0000
,
0000
0000
0001
0000
0001
0000
0000
0000
1001
0000
0000
1001
0000
0000
2001
0000
,
0000
0000
0000
3010
0000
0000
0010
0000
0000
0100
0000
0000
0001
0000
0100
0000
1000
0000
0100
0000
0001
0000
0100
0000
,
0020
0000
0000
0000
,
0000
0030
0000
0000
;

//---------------dance-single - t7r----------------
#NOTES:
     dance-single:
     t7r:
     Hard:
     10:
     :
0000
0000
0000
0000
,
0000
0000
0000
0000
,
0000
0000
0000
0000
,
0000
0000
0000
0000
,
0000
0000
0000
0000
,
1000
0000
0000
1001
0000
0000
0010
0100
0020
0000
0000
0000
0000
0000
0000
0000
,
0000
0000
0000
0000
0000
0000
1030
0001
,
1001
0000
0000
1000
0000
0000
0001
0100
0002
0000
0000
0000
1003
0000
0000
0000
,
0002
0023
0230
0300
,
1001
0000
0000
0001
0000
0000
1000
0100
2000
0000
0000
0000
3001
0000
0000
0000
,
2000
3020
0032
0003
,
0110
0000
0000
0010
0000
0000
0100
0001
0200
0000
0000
0000
0310
0000
0000
0000
,
2000
3002
0023
0030
,
0110
0000
0000
0010
0000
0000
0001
0010
0002
0000
0000
0000
1003
0000
0000
0000
,
0002
0203
2300
3000
,
0110
0000
0000
1100
0000
0000
1002
0000
0000
0000
0103
0000
0010
0000
0000
0000
,
1001
0000
0000
0101
0000
0000
0110
0000
2020
0000
0000
0000
0000
0000
0000
0000
,
0000
0000
0000
0000
3030
0000
0000
0000
1100
0000
0000
1000
0100
0000
0000
0100
,
0010
0000
0010
0000
0002
0000
0000
0000
1003
0000
0000
0001
0100
0000
0000
0100
,
0010
0000
0010
0000
1000
0000
0001
0000
1000
0000
0000
1000
0010
0000
0000
0010
,
0100
0000
0100
0000
0002
0000
0000
0000
0013
0000
0000
0010
0001
0000
0000
0001
,
1000
0000
0000
0000
0100
0000
0000
0000
0010
0000
0000
0000
0001
0000
0000
0000
0000
0000
1000
0000
0000
0000
0000
0000
0002
0000
0000
0000
0000
0000
0000
0000
0000
0103
0000
0000
0020
0000
0000
0000
0000
0000
0000
0000
0000
1030
0000
0000
,
0100
0000
0100
0000
2000
0000
0000
0000
3002
0000
0000
0013
0200
0000
0000
0310
,
0001
0000
0001
0000
1000
0010
1000
0000
0020
0000
0000
0130
0002
0000
0000
0103
,
0010
0000
0010
0000
2000
0000
0000
0000
3002
0000
0000
0013
0200
0000
0000
0310
,
0001
0000
0000
0000
1000
0000
0000
0000
0010
0000
0000
0000
0100
0000
0000
0000
0000
0000
0001
0000
0000
0000
0000
0000
1000
0000
0000
0100
0000
0000
0000
0000
0000
0100
0000
0000
0010
0000
0000
0000
0000
0000
0000
0000
0000
0010
0000
0000
,
0001
0000
0100
0000
0002
0000
0000
0000
1003
0010
0000
0010
0100
0000
0000
0010
,
1000
0001
1000
0000
0010
0100
0010
0000
1000
0100
0000
0100
0001
0000
0000
0100
,
0010
0000
0100
0000
0110
0000
0000
0000
0001
0100
0000
0100
1000
0000
1100
0000
,
0001
0000
0010
0000
1000
0000
0010
0000
0000
0110
0000
0000
0000
0000
0000
0000
0000
0000
2000
0000
0000
0000
0000
0000
,
0000
0000
0000
3000
,
0000
0000
0000
0002
,
0000
0000
0000
0003
,
0000
0000
0000
0200
,
0320
2030
3002
0000
0000
0000
0023
0000
,
0000
0000
0030
2000
,
3020
0230
0302
0000
2003
0000
3020
0000
,
0000
0000
2030
3002
,
0203
2300
3200
0000
0320
2030
3002
0000
,
0010
1000
0103
2000
,
3020
0032
0023
0000
0230
0000
0320
0000
,
2030
0000
0000
0000
3001
0000
0000
0000
0000
0000
0000
0000
0010
0000
0000
1000
,
0100
0000
0000
0001
0100
0000
1000
0000
0000
0000
0000
0000
0010
0000
0000
0001
,
0100
0000
0000
1000
0100
0000
0001
0000
0000
0000
0000
0000
0100
0000
0000
1000
,
0010
0000
0000
0001
0010
0000
0100
0000
0000
0000
0000
0000
0010
0000
0000
0001
,
0010
0000
0000
0000
0000
0000
0000
0000
0000
1000
0000
0000
0010
0000
0000
0000
0001
0000
0000
0000
0100
0000
0000
0000
1000
0000
0000
0000
0000
0000
0110
0000
0000
0000
0000
0000
0020
0000
0000
0000
0000
0000
0000
0000
0000
0000
0000
0000
,
0000
0000
0000
0000
,
0000
0000
0000
0000
0000
0000
0000
0000
1030
0100
0000
1000
0010
0000
0100
0001
,
0100
0010
0000
0100
0001
0000
1000
0000
0002
0000
0010
0000
2003
0000
0001
0000
,
3200
0000
0000
0000
1300
0000
0001
1000
0001
0010
0000
0001
0100
0000
0010
1000
,
0010
0100
0000
0010
1000
0000
0001
0000
2000
0000
0100
0000
3002
0000
1000
0000
,
0023
0000
0000
0000
0031
1000
0001
1000
0001
0010
0000
0100
0010
0000
0001
0100
,
0010
1000
0000
0010
0100
0000
0010
0000
2000
0000
0100
0000
3020
0000
0001
0000
,
0230
0000
0000
0000
0301
0000
1000
0100
1000
0010
0000
0100
0010
0000
1000
0100
,
0010
0001
0000
1000
0010
0000
0100
0000
0002
0000
1000
0000
0023
0000
1000
0000
,
0130
0010
0000
0010
0001
0000
1000
0001
2000
0000
0000
0000
0000
0000
0000
0000
,
3001
0000
0001
0000
0100
0010
0100
0010
1000
0000
0000
1010
0000
0000
0101
0000
,
0000
0000
0100
0010
1000
0100
0001
0100
1000
0000
0000
0011
0000
0000
2001
0000
,
0000
0000
0000
0000
0000
0000
3010
0000
0000
0000
0000
0000
1000
0000
0000
0001
0000
0000
0100
0000
0000
0000
0000
0000
0001
0000
0000
0000
0010
0000
0000
0000
1000
0000
0000
0000
0001
0000
0000
0000
0100
0000
0000
0000
1000
0000
0000
0000
,
2002
0000
0000
0000
,
0000
3003
0000
0000
;

//---------------dance-single - t7r----------------
#NOTES:
     dance-single:
     t7r:
     Challenge:
     15:
     :
0000
0000
0000
0000
,
0000
0000
0000
0000
,
0000
0000
0000
0000
,
0000
0000
0000
0000
,
0000
0000
0000
0000
,
0010
0000
0000
0110
0000
0000
0001
1000
0020
0000
0000
0000
0000
0000
0000
0000
,
0000
0000
0000
0000
0000
0000
0000
0000
0000
0000
0000
0000
1030
0001
1000
0001
,
1000
0000
0000
1000
0100
0000
0010
0100
1000
0000
0000
1000
0010
0000
0100
0000
,
0001
0000
0000
0000
0011
0000
0000
0000
1001
0000
0000
0000
0100
0000
0100
0001
,
0010
0000
0000
0010
0001
0000
0100
0010
1000
0000
0000
1000
0010
0000
0100
0000
,
0010
0000
0000
0000
1010
0000
0000
0000
1001
0000
0001
0000
1000
0010
0100
0001
,
1000
0000
0000
1000
0100
0000
0001
0100
1000
0000
0000
1000
0010
0000
0100
0000
,
0001
0000
0000
0000
0011
0000
0000
0000
1010
0000
0010
0000
1001
0000
1000
0100
,
0010
0000
0000
0010
0001
0000
1000
0010
0001
0000
0000
0001
0010
0000
0100
0001
,
1000
0000
0000
0000
0000
0000
0000
0000
0110
0000
0000
0000
0000
0000
0000
0000
0001
0000
0000
0000
0000
0000
0000
0000
0010
0000
0000
0000
0000
0000
0000
0000
0001
0100
0000
0000
0000
0000
0000
0000
0000
0000
0000
0000
0010
1000
0000
0000
0000
0000
0000
0000
0001
0000
0000
0000
1000
0000
0000
0000
0001
0000
0000
0000
,
1000
0000
0000
0000
0000
0000
1100
0000
0000
0000
0000
0000
0110
0000
0000
0000
0001
0000
0010
0000
0100
0000
1000
0000
0001
0100
0001
0100
0010
0100
0010
0100
,
0001
0000
0000
0011
0000
0000
0001
1000
0020
0000
0000
0000
0000
0000
0000
0000
,
1030
0001
1000
0001
1000
0100
0010
0001
1000
0100
0000
0100
0001
0000
0000
0100
,
1000
0000
0110
0000
0001
0010
0100
1000
0001
0100
0000
0100
1000
0000
0000
0100
,
0001
0000
0110
0000
1000
0100
0010
0001
1000
0010
0000
0010
0001
0000
0000
0010
,
1000
0000
0110
0000
0001
0010
1000
0010
0001
0100
0000
0100
1000
0000
0110
0000
,
0001
0000
0000
0010
0000
0000
0000
0000
0000
0000
0000
0000
0000
0000
0000
0000
0100
0000
0000
0000
0000
0000
0000
0000
0000
0000
0000
0000
0000
0000
0000
0000
0100
0000
0000
0000
0000
0000
0000
0000
0000
0000
0000
0000
0000
0000
0000
0000
1000
0000
0000
0000
0000
0000
0000
0000
0000
0000
0000
0000
0000
0000
0000
0000
0000
0000
0000
0000
0000
0000
0000
0000
1010
0000
0000
0000
0000
0000
0000
0000
0000
0000
0000
0000
0000
0000
0000
0000
0000
0000
0000
0000
0000
0000
0000
0000
2000
0000
0000
0000
0000
0000
0000
0000
0000
0000
0000
0000
0100
0000
0000
0000
0000
0000
0000
0000
0000
0000
0000
0000
0000
0000
0000
0000
0000
0000
0000
0000
0000
0000
0000
0000
3001
0000
0000
0000
0000
0000
0000
0000
0000
0000
0000
0000
2000
0000
0000
0000
0000
0000
0000
0000
0000
0000
0000
0000
0100
0000
0000
0000
0000
0000
0000
0000
0000
0000
0000
0000
0000
0000
0000
0000
0000
0000
0000
0000
0000
0000
0000
0000
3001
0000
0000
0000
0000
0000
0000
0000
0000
0000
0000
0000
,
1000
0000
1010
0000
0001
0010
0100
1000
0002
0100
0000
1003
0002
0100
0000
1003
,
0001
0000
0011
0000
0001
0100
0010
1000
0020
0100
0000
0031
0020
1000
0000
0130
,
0001
0000
1001
0000
1000
0010
0001
0010
0200
0010
0000
1300
0200
0010
0000
0301
,
0010
0000
0000
0001
0000
0000
0000
0000
0000
0000
0000
0000
0000
0000
0000
0000
0100
0000
0000
0000
0000
0000
0000
0000
0000
0000
0000
0000
0000
0000
0000
0000
0100
0000
0000
0000
0000
0000
0000
0000
0000
0000
0000
0000
0000
0000
0000
0000
0010
0000
0000
0000
0000
0000
0000
0000
0000
0000
0000
0000
0000
0000
0000
0000
0000
0000
0000
0000
0000
0000
0000
0000
0110
0000
0000
0000
0000
0000
0000
0000
0000
0000
0000
0000
0000
0000
0000
0000
0000
0000
0000
0000
0000
0000
0000
0000
0001
0000
0000
0000
0000
0000
0000
0000
0000
0000
0000
0000
0010
0000
0000
0000
0000
0000
0000
0000
0000
0000
0000
0000
0100
0000
0000
0000
0000
0000
0000
0000
0000
0000
0000
0000
1000
0000
0000
0000
0000
0000
0000
0000
0000
0000
0000
0000
0001
0000
0000
0000
0000
0000
0000
0000
0000
0000
0000
0000
0010
0000
0000
0000
0000
0000
0000
0000
0000
0000
0000
0000
0100
0000
0000
0000
0000
0000
0000
0000
0000
0000
0000
0000
0001
0000
0000
0000
0000
0000
0000
0000
0000
0000
0000
0000
,
0100
0000
0110
0000
0002
0100
0000
1003
0010
1000
0001
0100
0010
1000
0100
0001
,
0100
0010
0001
1000
0001
0100
0010
1000
0001
0010
1000
0010
0001
0100
0010
0001
,
0010
0000
0110
0000
2000
0100
0000
3001
1000
0100
0001
0100
1000
0001
0010
0001
,
0100
0000
0000
0010
0000
0000
0000
0000
0000
0000
0000
0000
0000
0000
0000
0000
1000
0000
0000
0000
0000
0000
0000
0000
0000
0000
0000
0000
0000
0000
0000
0000
1000
0000
0000
0000
0000
0000
0000
0000
0000
0000
0000
0000
0000
0000
0000
0000
0001
0000
0000
0000
0000
0000
0000
0000
0000
0000
0000
0000
0000
0000
0000
0000
0000
0000
0000
0000
0000
0000
0000
0000
1001
0000
0000
0000
0000
0000
0000
0000
0000
0000
0000
0000
0000
0000
0000
0000
0000
0000
0000
0000
0000
0000
0000
0000
0000
0000
0000
0000
0000
0000
0000
0000
0000
0000
0000
0000
0000
0000
0000
0000
0000
0000
0000
0000
0000
0000
0000
0000
0000
0000
0000
0000
0000
0000
0000
0000
0000
0000
0000
0000
0000
0000
0000
0000
0000
0000
0000
0000
0000
0000
0000
0000
0020
0000
0000
0000
0000
0000
0000
0000
0000
0000
0000
0000
0000
0000
0000
0000
0000
0000
0000
0000
0000
0000
0000
0000
0000
0000
0000
0000
0000
0000
0000
0000
0000
0000
0000
0000
0000
0000
0000
0000
0000
0000
0000
0000
0000
0000
0000
0000
,
0000
0000
0000
0030
,
0000
0000
0000
2000
,
0000
0000
0000
3000
,
0000
0000
0000
0002
,
0203
0000
0302
0000
0023
0000
0001
0000
0100
0000
0130
0000
0020
0000
0000
0001
,
0000
0031
2000
0010
0100
3100
2000
0000
,
3200
0000
2300
0000
3020
0000
0100
0000
1000
0000
1030
0000
0002
0000
0000
0100
,
0000
1000
0013
0100
2000
0000
3020
0000
,
0032
0000
0023
0000
2030
0000
0001
0000
3100
0000
1000
0000
0200
0000
0000
1000
,
0000
0010
0302
0100
0100
1003
0020
0000
,
0230
0302
0203
1000
0010
0310
2000
0000
,
0000
0000
0000
0000
3001
0000
0000
0000
0000
0000
0000
0000
1000
0100
0000
0100
,
0010
0100
0000
0100
0001
0000
0100
0000
2000
0000
0000
0000
3001
0100
0000
0100
,
0010
0100
0000
0100
1000
0000
0100
0000
0010
1000
0010
1000
0001
0010
0000
0010
,
0100
0010
0000
0010
1000
0000
0010
0000
0002
0000
0000
0000
1003
0010
0000
0010
,
0100
0000
0000
0010
0000
0000
0000
0000
0000
0010
0000
0000
0001
0000
0000
0000
0010
0000
0000
0000
0010
0000
0000
0000
0100
0000
0000
0000
0000
0000
0110
0000
0000
0000
0000
0000
0020
0000
0000
0000
0000
0000
0000
0000
0000
0000
0000
0000
,
0000
0000
0000
0000
,
0000
0000
0000
0000
0000
0000
0000
0000
1030
0100
0000
0001
0100
0000
1000
0100
,
0010
0001
0000
0001
1000
0000
0001
0000
2000
0000
0100
0000
3002
0000
0100
0003
,
2000
0000
3010
0000
0110
0000
0001
1000
0001
0010
0000
1000
0010
0000
0001
0100
,
0010
1000
0000
1000
0001
0000
1000
0000
0002
0000
0100
0000
2003
0000
0100
0000
,
3001
0000
0110
0000
1000
0001
1000
0001
1000
0100
0000
0100
0001
0000
1000
0010
,
0001
0010
0000
0010
0100
0000
0010
0000
1002
0000
0100
0000
0023
0000
0001
0000
,
0130
0000
1000
0000
0110
0000
0001
1000
0001
0010
0000
0010
1000
0000
0001
0100
,
1000
0100
0000
0100
0010
0000
0100
0000
2001
0000
0010
0000
3200
0000
1000
0000
,
0310
0001
0000
0100
1000
0000
0100
0010
0210
0000
0000
0000
0000
0000
0000
0000
,
0310
1000
0010
1000
0001
0100
0001
0100
0001
0010
0001
0010
0100
1000
0100
1000
1100
0000
0000
0000
0000
0000
0011
0000
0000
0000
0000
0000
1001
0000
0000
0000
,
0010
0000
1000
1000
0100
0100
0001
0001
0101
0000
0000
1100
0000
0000
0210
0000
,
0000
0000
0000
0000
0000
0000
0000
0000
0000
0000
0000
0000
0301
0000
0000
0010
0000
0000
0001
0000
0000
0010
0000
0000
0100
0000
0000
0010
0000
0000
0100
0000
0000
0010
0000
0000
0001
0000
0000
1000
0000
0000
0001
0000
0000
1000
0000
0000
0010
0000
0000
0000
0000
0000
0000
0000
0110
0000
0000
0000
0000
0000
0000
0000
0101
0000
0000
0000
0000
0000
0000
0000
1100
0000
0000
0000
0000
0000
0000
0000
0011
0000
0000
0000
0000
0000
0000
0000
1001
0000
0000
0000
0000
0000
0000
0000
,
0220
0000
0000
0000
,
0000
0330
0000
0000
;

//---------------dance-double - t7r----------------
#NOTES:
     dance-double:
     t7r:
     Easy:
     6:
     :
00000000
00000000
00000000
00000000
,
00000000
00000000
00000000
00000000
,
00000000
00000000
00000000
00000000
,
00000000
00000000
00000000
00000000
,
00000000
00000000
00000000
00000000
,
00001000
01000000
00200000
00000000
,
00000000
00000000
00000000
00300000
,
10000000
01000000
00100000
00010000
,
00001000
00000010
00001000
00000000
,
00000001
00000010
00000100
00001000
,
00010000
00100000
00010000
00000000
,
10000000
00100000
01000000
00010000
,
00001000
00000100
00001000
00000000
,
00000001
00000100
00000010
00001000
,
00010000
01000000
00010000
00000000
,
00100000
00000000
00000000
00100000
00000000
00000000
00000000
00000000
,
00001000
00000000
00000000
00001000
00002000
00000000
00000000
00000000
,
00000000
00003000
01000000
10000000
,
01000000
00000000
00001000
00010000
,
00001000
00000000
00000100
00000001
,
00000100
00000000
00000010
00010000
,
00001000
00000000
00100000
10000000
,
00100000
00000000
00001000
00010000
,
00001000
00000000
00000010
00000001
,
00000010
00000000
00000001
00000100
,
00000010
00000000
00020000
00000000
,
00031000
01000000
00200000
00000000
,
10300000
01000000
00020000
00000000
,
00031000
00000010
00000002
00000000
,
00000103
00000000
00010000
00010000
00000000
00000000
20000000
00000000
,
00000000
00000000
00000000
30000000
,
00000000
00000000
00000000
00020000
,
00000000
00000000
00000000
00030000
,
00000000
00000000
00000000
00200000
,
00302000
00023000
00000000
00031000
,
00000000
00010000
00000000
00000020
,
00020030
00032000
00000000
00013000
,
00000000
00001000
00000000
02000000
,
03020000
00230000
00000000
20300000
,
00000000
30200000
00000000
00302000
,
00023000
00030020
00000032
00000023
,
00000000
00000130
00000000
00000001
,
00000000
00000000
00000001
00000001
00000000
00000000
00001000
00000000
,
00000000
00000000
00001000
00001000
00000000
00000000
00000100
00000000
,
00000000
00000000
00000100
00000100
00000000
00000000
00010000
00000000
,
00000000
00001000
00010000
00000000
,
00000000
00000000
00000000
00000000
,
00000000
00000000
00100000
10000000
,
00010000
00001000
00000010
00000100
,
00000001
00000000
00000010
00000001
,
00001000
00010000
00100000
01000000
,
10000000
00000000
01000000
00010000
,
00001000
00000010
00000001
00000100
,
00001000
00000000
01000000
00010000
,
00100000
10000000
00100000
00010000
,
00001000
00000000
00000020
00000000
,
00000000
00000000
00000030
00000000
00000100
00000000
00000000
00000100
,
00000000
00000000
00000000
00000000
00001000
00000000
00000000
00002000
,
00000000
00000000
00013000
00010000
,
00020000
00000000
00000000
00000000
,
00000000
00030000
00000000
00000000
;

//---------------dance-double - t7r----------------
#NOTES:
     dance-double:
     t7r:
     Medium:
     8:
     :
00000000
00000000
00000000
00000000
,
00000000
00000000
00000000
00000000
,
00000000
00000000
00000000
00000000
,
00000000
00000000
00000000
00000000
,
00000000
00000000
00000000
00000000
,
00000010
00000000
00000000
00000010
00000000
00000000
00000001
00000000
00002000
00000000
00000000
00000000
00000000
00000000
00000000
00000000
,
00000000
00000000
00000000
00003000
,
00100000
00000000
00000000
00100000
00000000
00000000
10000000
00000000
00020000
00000000
00000000
00000000
00130000
00000000
00000000
00000000
,
00020000
00030020
00000032
00000003
,
00000100
00000000
00000000
00000100
00000000
00000000
00000001
00000000
00002000
00000000
00000000
00000000
00003100
00000000
00000000
00000000
,
00002000
00203000
20300000
30000000
,
00100000
00000000
00000000
00100000
00000000
00000000
01000000
00000000
00020000
00000000
00000000
00000000
10030000
00000000
00000000
00000000
,
02000000
03020000
00030200
00000300
,
00000010
00000000
00000000
00000010
00000000
00000000
00000001
00000000
00000200
00000000
00000000
00000000
00000310
00000000
00000000
00000000
,
00002000
00203000
20300000
30000000
,
00010000
00000000
00000000
01000000
00000000
00000000
01000000
00000000
00000000
00000000
00100000
00000000
10000000
00000000
00000000
00000000
,
01000000
00000000
00000000
01000000
00000000
00000000
00010000
00000000
00002000
00000000
00000000
00000000
00000000
00000000
00000000
00000000
,
00000000
00003000
00000010
00000010
,
00000001
00000001
00000000
00000000
00000100
00000000
00000100
00000000
,
00010000
00010000
00000000
00000000
00100000
00000000
00100000
00000000
,
10000000
10000000
00000000
00000000
00100000
00000000
00010000
00000000
,
00001000
00000010
00000110
00000001
,
00000100
00000100
00001000
00000000
00100000
00000000
10000000
00000000
,
00100000
00100000
00010000
00000000
00001000
00000000
00000010
00000000
,
00000100
00000100
00001000
00000000
00100000
00000000
00010000
00000000
,
10000000
00100000
20010000
31000000
,
00010000
00010000
00002000
00000000
00003020
00000000
00000031
00000000
,
00000100
00001000
00010000
00000000
00200000
00000000
10300000
00000000
,
01000000
01000000
00020000
00000000
00031000
00000000
00000100
00000000
,
00000010
00010000
00001000
00011000
00000000
00000000
00200000
00000000
,
00000000
00000000
00000000
00300000
,
00000000
00000000
00000000
00002000
,
00000000
00000000
00000000
00003000
,
00000000
00000000
00000000
00000020
,
00000031
00000100
00000002
00000000
00000000
00000000
00001000
00000000
,
00000000
00000103
00000000
00002000
,
00013000
00100000
20000000
00000000
30020000
00000000
00032000
00000000
,
00000000
00000000
00003000
00200000
,
10300000
01000000
20000000
00000000
01000000
00000000
00100000
00000000
,
00000000
30010000
00000000
20000000
,
31000000
00010000
00002000
00000000
00003020
00000000
00000032
00000000
,
00000000
00000103
00000000
00000010
,
00000010
00000000
00010000
00001000
00020000
00000000
00030100
00000000
,
00000100
00000000
00010000
00001000
00200000
00000000
00310000
00000000
,
00010000
00000000
01000000
00010000
20000000
00000000
31000000
00000000
,
01000000
00000000
00010000
00001000
00000100
00000010
00002000
00000000
,
00000000
00000000
00000000
00000000
,
00000000
00000000
00000000
00000000
00000000
00000000
00000000
00000000
00003001
00000000
00000000
00000001
00000000
00000000
00001000
00000000
,
00000010
00000000
00000000
00000010
00010000
00000000
00000000
00000000
00002000
00000000
00000000
00000000
02003000
00000000
00000000
00000000
,
23000000
00000000
00000000
00000000
30000000
00000000
00000000
00000000
01000000
00000000
00000000
01000000
00000000
00000000
00100000
00000000
,
10000000
00000000
00000000
10000000
01000000
00000000
00000000
00000000
00020000
00000000
00000000
00000000
00030020
00000000
00000000
00000000
,
00000032
00000000
00000000
00000000
00000003
00000000
00000000
00000000
00000010
00000000
00000000
00000010
00000100
00000000
00000000
00000000
,
00000001
00000000
00000000
00001000
00000100
00000000
00000000
00000000
00020000
00000000
00000000
00000000
00230000
00000000
00000000
00000000
,
02300000
00000000
00000000
00000000
03000000
00000000
00000000
00000000
00100000
00000000
00000000
00100000
10000000
00000000
00000000
00000000
,
00010000
00000000
00000000
00100000
00001000
00000000
00000000
00000000
00020000
00000000
00000000
00000000
00030200
00000000
00000000
00000000
,
00000302
00000000
00000023
00000000
,
00000000
00000000
00000000
00000000
00000030
00000000
00000000
00000000
00010000
00000000
00000000
00011000
00000000
00000000
00012000
00000000
,
00000000
00000000
00103000
00000000
00100000
00000000
00000000
00000000
00001000
00000000
00000000
00011000
00000000
00000000
00021000
00000000
,
00000000
00000000
00000000
00000000
00000000
00000000
00030100
00010000
00001000
01000000
00001000
00010000
,
00002000
00000000
00000000
00000000
,
00000000
00003000
00000000
00000000
;

//---------------dance-double - t7r----------------
#NOTES:
     dance-double:
     t7r:
     Hard:
     11:
     :
00000000
00000000
00000000
00000000
,
00000000
00000000
00000000
00000000
,
00000000
00000000
00000000
00000000
,
00000000
00000000
00000000
00000000
,
00000000
00000000
00000000
00000000
,
00001000
00000000
00000000
00011000
00000000
00000000
00000010
00000100
00000002
00000000
00000000
00000000
00000000
00000000
00000000
00000000
,
00000000
00000000
00000000
00000000
00000000
00000000
00001003
00000100
,
00010000
00000000
00000000
00010000
00001000
00000000
01000000
00010000
02000000
00000000
00000000
00000000
03100000
00000000
00000000
00000000
,
20000000
32000000
03020000
00030000
,
00000010
00000000
00000000
00000010
00000100
00000000
00000010
00001000
00000020
00000000
00000000
00000000
00000130
00000000
00000000
00000000
,
00000002
00000023
00002030
00003000
,
01000000
00000000
00000000
01000000
00010000
00000000
00100000
00010000
00200000
00000000
00000000
00000000
10300000
00000000
00000000
00000000
,
00200000
00320000
00032000
00003000
,
00000010
00000000
00000000
00000010
00000100
00000000
00000001
00000010
00000002
00000000
00000000
00000000
00001003
00000000
00000000
00000000
,
00000020
00002030
00023000
00030000
,
00100000
00000000
00000000
01100000
00000000
00000000
10010000
00000000
00000000
00000000
10000000
00000000
01000000
00000000
00010000
00000000
,
00001000
00000000
00000000
00000110
00000000
00000000
00000001
00000000
00002000
00000000
00000000
00000000
00000000
00000000
00000000
00000000
,
00000000
00000000
00000000
00000000
00003000
00000000
00000000
00000000
00000001
00000000
00000000
00000001
00000100
00000000
00000000
00000100
,
00000010
00000000
00000010
00000000
00002000
00000000
00000000
00000000
00003100
00000000
00000000
00000100
00010000
00000000
00000000
00010000
,
00001000
00000000
01000000
00000000
10000000
00000000
01000000
00000000
00100000
00000000
00000000
00100000
10000000
00000000
00000000
10000000
,
01000000
00000000
00010000
00000000
00002000
00000000
00000000
00000000
00003010
00000000
00000000
00000010
00000001
00000000
00000000
00000001
,
00000100
00000000
00000000
00000000
00000010
00000000
00000000
00000000
00010000
00000000
00000000
00000000
00001000
00000000
00000000
00000000
00000000
00000000
00010000
00000000
00000000
00000000
00000000
00000000
00002000
00000000
00000000
00000000
00000000
00000000
00000000
00000000
00000000
01003000
00000000
00000000
00020000
00000000
00000000
00000000
00000000
00000000
00000000
00000000
00000000
01030000
00000000
00000000
,
10000000
00000000
01000000
00000000
00200000
00000000
00000000
00000000
20300000
00000000
00000000
31000000
00020000
00000000
00000000
00031000
,
00010000
00000000
00000010
00000000
00000100
00000001
00000100
00000000
00000020
00000000
00000000
00001030
00000020
00000000
00000000
00000031
,
00000010
00000000
00000100
00000000
00002000
00000000
00000000
00000000
00203000
00000000
00000000
00310000
00200000
00000000
00000000
10300000
,
00100000
00000000
00000000
00000000
00001000
00000000
00000000
00000000
00010000
00000000
00000000
00000000
00000010
00000000
00000000
00000000
00000000
00000000
00000100
00000000
00000000
00000000
00000000
00000000
00000001
00000000
00000000
00000010
00000000
00000000
00000000
00000000
00000000
00000010
00000000
00000000
00001000
00000000
00000000
00000000
00000000
00000000
00000000
00000000
00000000
00001000
00000000
00000000
,
01000000
00000000
00100000
00000000
20000000
00000000
00000000
00000000
31000000
00010000
00000000
00010000
00001000
00000000
00000000
00001000
,
00000010
00000000
00000100
00000000
00000010
00000001
00000010
00000000
00000001
00000100
00000000
00000100
00001000
00000000
00000000
00001000
,
00010000
00000000
00100000
00000000
02000000
00000000
00000000
00000000
03010000
10000000
00000000
10000000
00100000
00000000
00000000
00010000
,
00001000
00000000
00000010
00000000
00000100
00000000
00000010
00000000
00000000
00000011
00000000
00000000
00000000
00000000
00000000
00000000
00000000
00000000
00000002
00000000
00000000
00000000
00000000
00000000
,
00000000
00000000
00000000
00000003
,
00000000
00000000
00000000
00000200
,
00000000
00000000
00000000
00000300
,
00000000
00000000
00000000
00020000
,
02030000
03200000
20300000
00000000
00000000
00000000
32000000
00000000
,
00000000
00000000
03000000
00020000
,
00032000
00003020
00000230
00000000
00000302
00000000
00000023
00000000
,
00000000
00000000
00000032
00002003
,
00003200
00020300
00230000
00000000
20300000
32000000
03020000
00000000
,
00000000
00002000
00033000
00020000
,
02030000
03002000
00003020
00000000
00000230
00000000
00000002
00000000
,
00000000
00000000
00000000
00000000
00000303
00000000
00000000
00000000
00000000
00000000
00000000
00000000
00000001
00000000
00000000
00000010
,
00001000
00000000
00000000
00000000
00010000
00000000
00010000
00000000
00002000
00000000
00000000
00000000
01003000
00000000
00000000
10000000
,
01000000
00000000
00000000
00000000
00100000
00000000
00100000
00000000
10000000
00000000
01000000
00000000
00100000
00000000
00000000
00001000
,
00010000
00000000
00000000
00000000
00000010
00000000
00000010
00000000
00000200
00000000
00000000
00000000
00001300
00000000
00000000
00100000
,
00010000
00000000
00000000
00000000
00000000
00000000
10000000
00000000
01000000
00000000
00010000
00000000
00001000
00000000
00000000
00011000
00000000
00000000
00000020
00000000
00000000
00000000
00000000
00000000
,
00000000
00000000
00000000
00000000
,
00000000
00000000
00000000
00000000
00000000
00000000
00000000
00000000
00001030
00000000
00000000
00000100
00001000
00000000
00000100
00010000
,
00001000
01000000
00000000
00010000
10000000
00000000
00010000
00000000
20000000
00000000
01000000
00000000
30020000
00000000
00100000
00000000
,
02030000
00000000
00000000
00000000
03001000
00000000
00010000
00001000
00010000
00000000
00000000
00000010
00001000
00000000
00000010
00000100
,
00000010
00010000
00000000
00001000
00010000
00000000
00001000
00000000
00200000
00000000
10000000
00000000
00320000
00000000
01000000
00000000
,
00130000
00000000
00101000
00000000
00001000
00010000
00001000
00010000
00000010
00000100
00000000
00000010
00001000
00000000
00010000
01000000
,
00010000
00100000
00000000
00010000
10000000
00000000
01000000
00000000
00020000
00000000
00001000
00000000
00030020
00000000
00000100
00000000
,
00002030
00000000
00000000
00000000
00003001
00000000
00001000
00000100
00001000
00000001
00000000
00000100
00001000
00000000
00100000
00010000
,
10000000
00010000
00000000
00100000
00001000
00000000
00010000
00001000
00010000
00000000
00000010
00000100
00000002
00000000
00000000
00000000
,
00000013
00001000
00000000
00010000
01000000
00000000
00100000
00010000
20000000
00000000
00000000
00000000
00000000
00000000
00000000
00000000
,
30100000
00000000
00100000
00000000
01000000
00001000
00010000
00000000
00011000
00000000
00000000
00011000
00000000
00000000
00011000
00000000
,
00000000
00000000
01000000
10000000
01000000
00100000
01000000
00000000
01100000
00000000
00000000
01100000
00000000
00000000
01002000
00000000
,
00000000
00000000
00000000
00013000
00000000
00000000
00001000
00000000
00000000
00000100
00000000
00000000
00000010
00000000
00001000
00000000
00010000
00000000
00100000
00000000
00001000
00000000
00010000
00000000
,
00022000
00000000
00000000
00000000
,
00000000
00033000
00000000
00000000
;

//---------------dance-double - t7r----------------
#NOTES:
     dance-double:
     t7r:
     Challenge:
     15:
     :
00000000
00000000
00000000
00000000
,
00000000
00000000
00000000
00000000
,
00000000
00000000
00000000
00000000
,
00000000
00000000
00000000
00000000
,
00000000
00000000
00000000
00000000
,
00000101
00000000
00000000
00000110
00000000
00000000
00001000
00010000
00200000
00000000
00000000
00000000
00000000
00000000
00000000
00000000
,
00000000
00000000
00000000
00000000
00000000
00000000
00000000
00000000
00000000
00000000
00000000
00000000
00310000
10000000
00010000
10000000
,
01000000
00000000
00000000
01000000
00100000
00000000
00010000
00001000
00000010
00000000
00000000
00000010
00000100
00000000
00000001
00000000
,
00000011
00000000
00000000
00000000
00001001
00000000
00000000
00000000
00010100
00000000
00000000
00000000
00010000
00000000
00001000
00010000
,
00000100
00000000
00000000
00000100
00000001
00000000
00000100
00000010
00000001
00000000
00000000
00000001
00000100
00000000
00001000
00000000
,
00011000
00000000
00000000
00000000
00110000
00000000
00000000
00000000
10010000
00000000
00010000
00000000
10000000
01000000
00100000
00010000
,
10000000
00000000
00000000
10000000
00100000
00000000
00010000
00001000
00000010
00000000
00000000
00000010
00000100
00000000
00001000
00000000
,
00001001
00000000
00000000
00000000
00010100
00000000
00000000
00000000
00011000
00000000
00001000
00000000
01100000
00000000
00100000
10000000
,
00010000
00000000
00000000
00010000
00100000
00000000
10000000
00100000
00010000
00000000
00000000
00010000
00000100
00000000
00000010
00001000
,
00000001
00000000
00000000
00000000
00000000
00000000
00000000
00000000
00000110
00000000
00000000
00000000
00000000
00000000
00000000
00000000
00001000
00000000
00000000
00000000
00000000
00000000
00000000
00000000
00000010
00000000
00000000
00000000
00000000
00000000
00000000
00000000
00010000
00001000
00000000
00000000
00000000
00000000
00000000
00000000
00000000
00000000
00000000
00000000
01000000
00100000
00000000
00000000
00000000
00000000
00000000
00000000
10000000
00000000
00000000
00000000
00010000
00000000
00000000
00000000
10000000
00000000
00000000
00000000
,
00010000
00000000
00000000
00000000
00000000
00000000
10010000
00000000
00000000
00000000
00000000
00000000
01100000
00000000
00000000
00000000
10000000
00000000
01000000
00000000
00100000
00000000
00001000
00000000
00010000
00000010
00010000
00000010
00000100
00000001
00000100
00000001
,
00001000
00000000
00000000
00001010
00000000
00000000
00001000
00010000
00200000
00000000
00000000
00000000
00000000
00000000
00000000
00000000
,
00310000
10000000
00010000
10000000
00010000
00100000
01000000
10000000
01000000
00010000
00000000
00001000
00000100
00000001
00000000
00000001
,
00000100
00000000
00000110
00000000
00000001
00000010
00000100
00000010
00000100
00001000
00000000
00010000
01000000
10000000
00000000
01000000
,
00100000
01000000
00010000
00000000
10000000
00100000
01000000
00010000
00100000
00010000
00000000
00001000
00000010
00000001
00000000
00000010
,
00000100
00000000
00000110
00000000
00000001
00000100
00000010
00001000
00000100
00001000
00000000
00010000
00100000
10000000
00000000
00100000
,
01000000
00000000
00000000
00100000
00000000
00000000
00000000
00000000
00000000
00000000
00000000
00000000
00000000
00000000
00000000
00000000
00001000
00000000
00000000
00000000
00000000
00000000
00000000
00000000
00000000
00000000
00000000
00000000
00000000
00000000
00000000
00000000
00001000
00000000
00000000
00000000
00000000
00000000
00000000
00000000
00000000
00000000
00000000
00000000
00000000
00000000
00000000
00000000
00010000
00000000
00000000
00000000
00000000
00000000
00000000
00000000
00000000
00000000
00000000
00000000
00000000
00000000
00000000
00000000
00000000
00000000
00000000
00000000
00000000
00000000
00000000
00000000
00000010
00000000
00000000
00000000
00000000
00000000
00000000
00000000
00000000
00000000
00000000
00000000
00000000
00000000
00000000
00000000
00000000
00000000
00000000
00000000
00000000
00000000
00000000
00000000
00000200
00000000
00000000
00000000
00000000
00000000
00000000
00000000
00000000
00000000
00000000
00000000
00000001
00000000
00000000
00000000
00000000
00000000
00000000
00000000
00000000
00000000
00000000
00000000
00000000
00000000
00000000
00000000
00000000
00000000
00000000
00000000
00000000
00000000
00000000
00000000
00000310
00000000
00000000
00000000
00000000
00000000
00000000
00000000
00000000
00000000
00000000
00000000
00000200
00000000
00000000
00000000
00000000
00000000
00000000
00000000
00000000
00000000
00000000
00000000
00000001
00000000
00000000
00000000
00000000
00000000
00000000
00000000
00000000
00000000
00000000
00000000
00000000
00000000
00000000
00000000
00000000
00000000
00000000
00000000
00000000
00000000
00000000
00000000
00000310
00000000
00000000
00000000
00000000
00000000
00000000
00000000
00000000
00000000
00000000
00000000
,
00010000
00000000
00011000
00000000
00200000
00000000
00000000
00000000
00320000
01000000
00000000
10030000
00020000
01000000
00000000
10030000
,
00010000
00100000
00001000
00000000
00000100
00000001
00000100
00000010
00002000
00000100
00000000
00003001
00002000
00000100
00000000
00003001
,
00001000
00000000
00000100
00000000
00020000
00000000
00000000
00000000
00032000
01000000
00000000
00013000
00002000
01000000
00000000
00013000
,
00001000
00000000
00000000
00010000
00000000
00000000
00000000
00000000
00000000
00000000
00000000
00000000
00000000
00000000
00000000
00000000
01000000
00000000
00000000
00000000
00000000
00000000
00000000
00000000
00000000
00000000
00000000
00000000
00000000
00000000
00000000
00000000
01000000
00000000
00000000
00000000
00000000
00000000
00000000
00000000
00000000
00000000
00000000
00000000
00000000
00000000
00000000
00000000
10000000
00000000
00000000
00000000
00000000
00000000
00000000
00000000
00000000
00000000
00000000
00000000
00000000
00000000
00000000
00000000
00000000
00000000
00000000
00000000
00000000
00000000
00000000
00000000
01100000
00000000
00000000
00000000
00000000
00000000
00000000
00000000
00000000
00000000
00000000
00000000
00000000
00000000
00000000
00000000
00000000
00000000
00000000
00000000
00000000
00000000
00000000
00000000
10000000
00000000
00000000
00000000
00000000
00000000
00000000
00000000
00000000
00000000
00000000
00000000
01000000
00000000
00000000
00000000
00000000
00000000
00000000
00000000
00000000
00000000
00000000
00000000
00010000
00000000
00000000
00000000
00000000
00000000
00000000
00000000
00000000
00000000
00000000
00000000
01000000
00000000
00000000
00000000
00000000
00000000
00000000
00000000
00000000
00000000
00000000
00000000
00010000
00000000
00000000
00000000
00000000
00000000
00000000
00000000
00000000
00000000
00000000
00000000
00001000
00000000
00000000
00000000
00000000
00000000
00000000
00000000
00000000
00000000
00000000
00000000
00000010
00000000
00000000
00000000
00000000
00000000
00000000
00000000
00000000
00000000
00000000
00000000
00000100
00000000
00000000
00000000
00000000
00000000
00000000
00000000
00000000
00000000
00000000
00000000
,
00001000
00000000
00000110
00000000
00000002
00000000
00000000
00000000
00000103
00000001
00000100
00001000
00000100
00000010
00001000
00010000
,
00100000
01000000
00100000
00010000
10000000
01000000
00010000
00001000
00000010
00000001
00000100
00001000
00000100
00000010
00001000
00010000
,
00100000
00000000
01100000
00000000
20000000
00000000
00000000
00000000
31000000
00010000
00001000
00000100
00000010
00001000
00000001
00000000
,
00000100
00000000
00000000
00000010
00000000
00000000
00000000
00000000
00000000
00000000
00000000
00000000
00000000
00000000
00000000
00000000
00010000
00000000
00000000
00000000
00000000
00000000
00000000
00000000
00000000
00000000
00000000
00000000
00000000
00000000
00000000
00000000
00010000
00000000
00000000
00000000
00000000
00000000
00000000
00000000
00000000
00000000
00000000
00000000
00000000
00000000
00000000
00000000
00001000
00000000
00000000
00000000
00000000
00000000
00000000
00000000
00000000
00000000
00000000
00000000
00000000
00000000
00000000
00000000
00000000
00000000
00000000
00000000
00000000
00000000
00000000
00000000
00011000
00000000
00000000
00000000
00000000
00000000
00000000
00000000
00000000
00000000
00000000
00000000
00000000
00000000
00000000
00000000
00000000
00000000
00000000
00000000
00000000
00000000
00000000
00000000
00000000
00000000
00000000
00000000
00000000
00000000
00000000
00000000
00000000
00000000
00000000
00000000
00000000
00000000
00000000
00000000
00000000
00000000
00000000
00000000
00000000
00000000
00000000
00000000
00000000
00000000
00000000
00000000
00000000
00000000
00000000
00000000
00000000
00000000
00000000
00000000
00000000
00000000
00000000
00000000
00000000
00000000
00000000
00000000
00000000
00000000
00000000
00000000
00200000
00000000
00000000
00000000
00000000
00000000
00000000
00000000
00000000
00000000
00000000
00000000
00000000
00000000
00000000
00000000
00000000
00000000
00000000
00000000
00000000
00000000
00000000
00000000
00000000
00000000
00000000
00000000
00000000
00000000
00000000
00000000
00000000
00000000
00000000
00000000
00000000
00000000
00000000
00000000
00000000
00000000
00000000
00000000
00000000
00000000
00000000
00000000
,
00000000
00000000
00000000
00300000
,
00000000
00000000
00000000
00000020
,
00000000
00000000
00000000
00000030
,
00000000
00000000
00000000
00000200
,
00000302
00000000
00000203
00000000
00002300
00000000
00000000
00000000
00000000
00000000
00000000
00000000
00010000
00000000
00000000
00010000
,
00000000
00010000
01003000
00000000
00000000
00000000
00200000
00000000
,
20300000
00000000
32000000
00000000
03020000
00000000
00000000
00000000
00032000
00000000
00000000
00000000
00003020
00000000
00000000
00000100
,
00000000
00000100
00000000
00000130
00002000
00000000
00003002
00000000
,
00000203
00000000
00002300
00000000
00023000
00000000
00000000
00000000
00230000
00000000
20300000
00000000
32000000
00000000
00000000
00010000
,
00000000
00000000
00100000
00000000
00000000
00001000
00000000
00000000
00010000
00000000
03010000
00000000
00002000
00000000
00000000
00000000
,
02003000
00000000
03020000
00000000
00030020
00000000
00000000
00000000
00000032
00000000
00000000
00000000
00000203
00000000
00000000
00001000
,
00000000
00000000
00000310
00000000
00000110
00000000
00000000
00000000
00000000
00000000
00000000
00000000
00000001
00000100
00000000
00000100
,
00000010
00010000
00000000
00010000
00001000
00000000
00010000
00000000
00012000
00000000
00000000
00000000
01003000
00010000
00000000
00010000
,
00100000
01000000
00000000
01000000
10000000
01000000
00100000
00000000
00010000
00001000
00000010
00000000
00000100
00000001
00000000
00000001
,
00000100
00001000
00000000
00001000
00010000
00000000
00100000
00000000
02000000
00000000
00000000
00000000
03100000
10000000
00000000
10000000
,
01000000
00000000
00000000
00010000
00000000
00000000
00000000
00000000
00000000
00010000
00000000
00000000
00000010
00000000
00000000
00000000
00000010
00000000
00000000
00000000
00000010
00000000
00000000
00000000
00000100
00000000
00000000
00000000
00000000
00000000
00000110
00000000
00000000
00000000
00000000
00000000
00000002
00000000
00000000
00000000
00000000
00000000
00000000
00000000
00000000
00000000
00000000
00000000
,
00000000
00000000
00000000
00000000
,
00000000
00000000
00000000
00000000
00000000
00000000
00000000
00000000
00001003
00000100
00000000
00000001
00000100
00000000
00000010
00000001
,
00000100
00001000
00000000
00001000
00100000
00000000
00010000
00000000
20000000
00000000
01000000
00000000
30020000
00000000
01000000
00000000
,
10030000
00000000
00100000
00000000
01100000
00000000
00010000
10000000
00010000
00100000
00000000
10000000
00100000
00000000
01000000
10000000
,
00100000
00010000
00000000
00010000
00000100
00000000
00000010
00000000
00000002
00000000
00000100
00000000
00002003
00000000
00000100
00000000
,
00003010
00000000
00000110
00000000
00000001
00001000
00000001
00001000
00000001
00000100
00000000
00000100
00001000
00000000
00010000
00100000
,
10000000
00100000
00000000
00100000
01000000
00000000
00100000
00000000
10020000
00000000
01000000
00000000
00230000
00000000
00010000
00000000
,
01300000
00000000
10000000
00000000
01100000
00000000
10000000
00010000
10000000
01000000
00000000
01000000
00010000
00000000
00001000
00000100
,
00000001
00000100
00000000
00000100
00000010
00000000
00001000
00010000
00200000
00000000
00010000
00000000
02300000
00000000
10000000
00000000
,
03100000
01000000
00000000
01000000
01100000
00000000
10000000
00010000
20010000
00000000
00000000
00000000
00000000
00000000
00000000
00000000
,
30100000
10000000
00100000
10000000
00010000
01000000
00010000
01000000
00001000
00100000
00001000
00100000
00001000
00010000
00001000
00010000
00000010
00000000
00000000
00000000
00000000
00000000
00000110
00000000
00000000
00000000
00000000
00000000
00001001
00000000
00000000
00000000
,
00000010
00000000
00001000
00001000
00000100
00000001
00000100
00001000
00100000
00000000
00000000
01100000
00000000
00000000
20010000
00000000
,
00000000
00000000
00000000
00000000
00000000
00000000
00000000
00000000
00000000
00000000
00000000
00000000
31000000
00000000
00000000
10000000
00000000
00000000
01000000
00000000
00000000
10000000
00000000
00000000
01000000
00000000
00000000
00100000
00000000
00000000
01000000
00000000
00000000
00100000
00000000
00000000
00001000
00000000
00000000
00010000
00000000
00000000
00001000
00000000
00000000
00010000
00000000
00000000
00000010
00000000
00000000
00000000
00000000
00000000
00000000
00000000
00000110
00000000
00000000
00000000
00000000
00000000
00000000
00000000
00000101
00000000
00000000
00000000
00000000
00000000
00000000
00000000
00010000
00000000
00000000
00000000
00000000
00000000
00000000
00000000
00010100
00000000
00000000
00000000
00000000
00000000
00000000
00000000
00011000
00000000
00000000
00000000
00000000
00000000
00000000
00000000
,
00200000
00000000
00000000
00000000
,
00000000
00300000
00000000
00000000
;
