#TITLE:ChaserXX;
#ARTIST:HuΣeR;
#BANNER:ChaserXX.png;
#BACKGROUND:ChaserXX-bg.png;
#JACKET:ChaserXX-jacket.png;
#CDTITLE:./CDTITLES/BEATMANIA IIDX.PNG;
#MUSIC:ChaserXX.ogg;
#SAMPLESTART:85.714;
#SAMPLELENGTH:15;
#BPMS:0=140;
#BGCHANGES:4=ChaserXX.avi=1=0=0=0;

//---------------dance-single - t7r----------------
#NOTES:
     dance-single:
     t7r:
     Beginner:
     2:
     :
0000
0000
0000
0000
,
0000
0000
0000
0000
,
0000
0000
0000
0000
,
0000
0000
0000
0000
,
0000
0000
0000
0000
,
0000
0000
0000
0000
,
0010
0000
0000
0000
,
0000
0000
0000
0000
,
1000
0000
0000
0000
,
0000
0000
0000
0000
,
0001
0000
0001
0000
,
0001
0000
0000
0000
,
1000
0000
1000
0000
,
1000
0000
0000
0000
,
0010
0000
0010
0000
,
0010
0000
0010
0000
,
0100
0000
0100
0000
,
0100
0000
0000
0000
,
0001
0000
0000
0001
,
0001
0000
0000
0000
,
1000
0000
0000
1000
,
1000
0000
0000
0000
,
0010
0000
0000
0010
,
0010
0000
0000
0000
,
0100
0000
0000
0100
,
0100
0000
0000
0000
,
0001
0000
0000
0000
,
0010
0000
0000
0000
,
0100
0000
0000
0000
,
1000
0000
0000
0000
,
0010
0000
0000
0000
,
0100
0000
0000
0000
,
0001
0000
0000
0000
,
1000
0000
0000
0000
,
0001
0000
0001
0000
,
0001
0000
0000
0000
,
1000
0000
1000
0000
,
1000
0000
0000
0000
,
0010
0000
0010
0000
,
0010
0000
0000
0000
,
0100
0000
0100
0000
,
0100
0000
0000
0000
,
0001
0001
0000
0000
,
0000
0000
0000
0000
,
1000
1000
0000
0000
,
0010
0000
0010
0000
,
0100
0000
0000
0000
,
0100
0000
0000
0000
,
0010
0000
0000
0000
,
0010
0000
0000
0000
,
1000
0000
0000
1000
,
1000
0000
1000
0000
,
0001
0000
0000
0001
,
0001
0000
0001
0000
,
0010
0000
0000
0010
,
0010
0000
0010
0000
,
0100
0000
0000
0100
,
0100
0000
0100
0000
,
0010
0000
0010
0000
,
0010
0000
0000
0000
,
0001
0000
0001
0000
,
0001
0000
0000
0000
,
1000
0000
1000
0000
,
1000
0000
0000
0000
,
0010
0000
0010
0000
,
0010
0000
0000
0000
,
1000
0000
1000
0000
,
0100
0000
0100
0000
,
0010
0000
0000
0000
,
0001
0000
0000
0000
,
0100
0000
0000
0000
,
1000
0000
0000
0000
,
0010
0000
0000
0000
;

//---------------dance-single - t7r----------------
#NOTES:
     dance-single:
     t7r:
     Easy:
     5:
     :
0000
0000
0000
0000
,
0000
0000
0000
0000
,
0000
0000
0000
0000
,
0000
0000
0000
0000
,
0000
0000
0000
0000
,
0000
0000
0000
0000
,
0010
0000
0000
0000
,
0000
0000
0000
0000
,
1000
0000
0000
0000
,
0001
0000
2002
3003
,
1000
0000
1000
0000
,
0001
0000
0001
0000
,
0100
0000
0100
0000
,
0010
0000
0010
0000
,
1000
1000
0100
0100
,
0010
0010
0001
0001
,
1000
0100
0010
0001
,
1000
0010
0200
0300
,
0001
0010
0000
0010
,
0000
0010
0000
2000
,
3010
0001
0000
0001
,
0000
0001
0000
0110
,
0000
1000
0000
1000
,
0000
1000
0000
2000
,
3010
0001
0000
0001
,
0010
0010
0100
0001
,
1000
0000
0000
0001
,
0010
0100
0000
1000
,
0010
0100
0000
0001
,
1000
0010
0000
1000
,
0002
0000
0103
0010
,
2000
0000
0000
3100
,
0020
0000
0031
1000
,
0020
0000
0130
0010
,
1000
1001
0000
0001
,
0010
1000
0000
0001
,
0100
1000
0000
0001
,
0100
0010
0000
1000
,
0200
0000
0310
0001
,
2000
0000
3010
0100
,
0002
0000
0013
0100
,
1000
1000
0001
0100
,
0010
1001
0000
0000
,
0000
0000
0000
0000
,
0100
0000
0100
0000
,
0010
1000
0002
0003
,
1000
1000
0100
0100
,
0010
0010
0001
0001
,
1000
1000
0010
0010
,
0100
0001
2000
3000
,
0001
0001
0010
0010
,
1000
0001
0100
0000
,
1000
1000
0010
0010
,
0001
1000
0100
0000
,
0001
0001
0100
0100
,
1000
0001
0010
0000
,
1000
1000
0100
0100
,
0001
1000
0010
0000
,
0100
0000
2010
0000
,
3002
0000
0013
0000
,
0001
0000
0012
0000
,
2003
3010
0200
0300
,
0010
0000
2010
0000
,
3002
0000
0023
0030
,
0100
0000
0120
0000
,
0031
1000
0020
0030
,
0100
0100
0001
0001
,
0100
1000
0100
0000
,
0010
0000
0010
0000
,
1000
0000
1000
0000
,
0001
0000
0001
0000
,
0010
0000
0200
0000
,
0300
0000
0000
0000
;

//---------------dance-single - t7r----------------
#NOTES:
     dance-single:
     t7r:
     Medium:
     8:
     :
0000
0000
0000
0000
,
0000
0000
0000
0000
,
0000
0000
0000
0000
,
0000
0000
0000
0000
,
0000
0000
0000
0000
,
0000
0000
0000
0000
,
0100
0000
0000
0000
,
0000
0000
0000
0000
0000
0000
0000
0010
,
0010
0000
0000
0000
,
1000
0000
0001
0000
,
1000
0220
0000
0330
,
0001
0000
0000
0200
0000
0000
0000
0000
0000
0000
0000
0000
0310
0000
0000
0000
,
1000
0000
0000
0200
0000
0000
0000
0000
0000
0000
0000
0000
0310
0000
0000
0000
,
0001
0000
0000
2000
0000
0000
0000
0000
0000
0000
0000
0000
3001
0000
0000
0000
,
1000
0001
0100
0001
0000
1000
0100
1000
,
0000
0001
0010
0001
0000
1000
0010
1000
,
0000
0001
0100
0010
1000
0000
0001
0000
,
1000
0100
0010
1001
,
0001
0000
0110
0000
1000
0100
0010
0000
,
0100
1000
0010
0200
,
0301
0000
0010
0000
0100
1000
0001
0000
,
1000
0000
0010
0000
0100
0010
0010
0000
,
1000
0000
0100
0000
0010
0001
0100
0000
,
0010
1000
0001
0020
,
0130
0000
0010
0000
0100
0001
0001
0000
,
0100
1000
0001
0000
0100
0000
0110
0000
,
0002
0000
0013
0000
0000
0000
0001
0100
,
0001
0000
0000
2000
0000
0000
0000
0000
0000
0000
0000
0000
3010
0000
0100
0000
,
0010
0000
0000
0200
0000
0000
0000
0000
0000
0000
0000
0000
0301
0000
0010
0000
,
0100
0000
0000
0020
0000
0000
0000
0000
0000
0000
0000
0000
0031
0000
1000
0000
,
0020
0000
0000
0000
0000
0000
0000
0000
1030
0000
0000
0100
0000
0000
0010
0000
,
0002
0100
1000
0013
,
2000
0000
0000
0000
3100
0000
0000
0000
1000
0000
0000
0001
0000
0000
0100
0000
,
0020
0000
1000
0000
0130
0001
1000
0000
,
0001
0000
1001
0000
0001
0000
1000
0100
,
0010
0000
0000
2000
0000
0000
0000
0000
0000
0000
0000
0000
3001
0000
0100
0000
,
0010
0000
0000
0002
0000
0000
0000
0000
0000
0000
0000
0000
1003
0000
0010
0000
,
0100
0000
0000
2000
0000
0000
0000
0000
0000
0000
0000
0000
3100
0000
0001
0000
,
2000
0000
0000
0000
3010
0000
0000
0000
1000
0000
0000
0001
0000
0000
0010
0000
,
0200
0000
0010
0000
0001
0000
1300
0001
,
0020
0000
0000
0000
0031
0000
0000
0000
0100
0000
0000
0010
0000
0000
1000
0000
,
0002
0000
0000
0013
0000
0000
0001
0000
0100
0010
0000
0000
,
1000
0000
1001
0000
1000
0100
1000
0000
,
0001
0100
1000
0100
,
0001
0000
0011
0000
0001
0100
0010
0000
,
1000
0001
0220
0330
,
1000
0000
1000
0000
0001
0001
0001
0000
,
0010
0010
0010
0000
0100
0100
0100
0000
,
1000
0000
1000
0000
0001
0001
0001
0000
,
0100
0100
0100
0000
0010
1000
0001
0000
,
1000
0000
0001
0010
1000
0000
0001
0100
,
1000
0000
0001
0010
0100
0000
0010
0000
,
0001
0000
1000
0010
0001
0000
1000
0100
,
0010
1000
0001
1001
,
0001
0000
1000
0100
0010
0000
1000
0010
,
0100
0000
1000
1000
0001
0000
0100
0001
,
0010
0000
0001
0100
0010
0000
0001
0010
,
0100
0000
0000
0010
0000
0000
0100
0000
0001
0000
0000
0000
1001
0000
0000
0000
,
0001
0000
0100
0010
0002
0000
1003
0100
,
0020
0000
1030
0001
0100
0001
1000
0000
,
0100
0000
0001
0100
0020
0000
1030
0010
,
0100
1000
0001
0100
0010
0000
1001
0000
,
0110
0000
1000
0100
0002
0000
1003
0010
,
0002
0000
0103
0010
1000
0100
0010
0000
,
0001
0000
0100
0001
0020
0000
1030
0010
,
0100
0000
0000
1000
0000
0000
0001
0000
0000
0100
0000
0000
0010
0000
0000
0000
0100
0000
0001
0000
0000
0000
1000
0000
,
0100
1000
0010
1000
0000
0001
0010
0001
,
1000
0100
0001
1000
0010
0100
1000
0001
,
1000
0000
0000
0100
0000
0000
0000
0000
0001
0000
0000
0100
0000
0000
0000
0000
,
1000
0000
0000
0100
0000
0000
0000
0000
0002
0000
0000
1003
0000
0000
1000
0000
,
0001
0000
0000
0100
0000
0000
0000
0000
1000
0000
0000
0100
0000
0000
0000
0000
,
0001
0000
0000
0010
0000
0000
0000
0000
1000
0000
0000
2002
0000
0000
0000
0000
,
3003
0000
0000
0000
;

//---------------dance-single - t7r----------------
#NOTES:
     dance-single:
     t7r:
     Hard:
     12:
     :
0000
0000
0000
0000
,
0000
0000
0000
0000
,
0000
0000
0000
0000
,
0000
0000
0000
0000
,
0000
0000
0000
0000
,
0000
0000
0000
0000
,
0100
0000
0000
0000
,
0000
0000
0000
0000
0000
0000
0000
0010
,
0010
0000
0000
0000
,
1000
0000
1001
0020
,
1030
0000
0010
0100
0000
0000
0000
0000
1000
0000
0100
0010
0000
0000
0000
0000
,
0001
0000
0010
0100
0000
0000
0000
0000
0001
0000
0100
0010
0000
0000
0000
0000
,
1000
0000
0001
0010
0000
0000
0000
0000
1000
0000
0001
0100
0000
0000
0000
0000
,
0001
0000
1000
0010
0000
0000
0000
0000
0001
0000
1000
0100
0000
0000
0000
0000
,
1000
0100
0010
0011
0000
0001
0100
0110
,
0000
1000
0010
1010
0000
0001
0010
0011
,
0001
0100
0000
1000
0100
0000
0010
0000
0200
0000
0000
0000
0301
0000
1000
0000
,
0001
0000
0000
0010
0100
0000
0010
0000
0001
0000
0000
0000
2000
0000
0000
0000
,
3001
0000
0100
1000
0000
0100
0000
0000
0001
0000
0100
1000
0000
0100
0000
0000
,
0001
0000
0100
1000
0000
0100
0000
0000
0010
0000
1000
0000
0002
0000
0000
0000
,
1003
0000
0100
0001
0000
0100
0000
0000
1000
0000
0100
0001
0000
0100
0000
0000
,
1000
0000
0010
0001
0000
0010
0000
0000
0100
0000
0001
0000
1001
0000
0000
0000
,
0010
0000
0001
0010
0000
1000
0000
0000
0010
0000
0001
0010
0000
1000
0000
0000
,
0010
0000
0001
0010
0000
1000
0000
0000
0010
0000
0001
0000
0200
0000
0000
0000
,
0310
0000
0100
0001
0000
0100
0000
0000
0010
0000
1000
0000
1001
0000
0000
0000
,
1000
0100
0110
0000
0001
0010
1000
0010
,
0002
0000
0000
0000
1003
0000
0000
0000
0000
0000
0000
0000
0001
0100
0001
0000
,
1000
0000
0010
0200
0000
0000
0000
0000
0301
0000
0000
0000
1000
0010
1000
0000
,
0001
0000
0010
0002
0000
0000
0000
0000
0103
0000
0000
0000
0010
1000
0010
0000
,
0100
0000
0001
0020
0000
0000
0000
0000
0031
0000
0000
0000
0100
0001
0100
0000
,
0210
0000
0000
0000
0000
0000
0000
0000
0000
0000
0000
0000
0000
0000
0000
0000
0000
0000
0000
0000
0000
0000
0000
0000
0301
0000
0000
0000
0000
0000
0000
0000
0000
0010
0000
0000
0000
0000
0000
0000
0001
0000
0000
0000
1000
0000
0000
0000
,
0002
0000
0103
1000
0100
0001
0100
0010
,
2010
0000
0000
0000
0000
0000
0000
0000
0000
0000
0000
0000
0000
0000
0000
0000
0000
0000
0000
0000
0000
0000
0000
0000
3100
0000
0000
0000
0000
0000
0000
0000
0000
0001
0000
0000
0000
0000
0000
0000
0100
0000
0000
0000
1000
0000
0000
0000
,
0001
0001
1000
1000
0001
0010
1000
0010
,
0001
0000
0000
0000
1001
0000
0000
0000
0010
0000
0000
0001
0010
0000
1000
0000
,
0001
0000
0100
2000
0000
0000
0000
0000
3010
0000
0000
1000
0100
0000
0001
0000
,
1000
0000
0010
0002
0000
0000
0000
0000
0103
0000
0000
0001
0100
0000
1000
0000
,
0001
0000
0010
2000
0000
0000
0000
0000
3010
0000
1000
0000
1001
0000
0000
0000
,
1200
0000
0000
0000
0000
0000
0000
0000
0000
0000
0000
0000
0000
0000
0000
0000
0000
0000
0000
0000
0000
0000
0000
0000
1300
0000
0000
0000
0000
0000
0000
0000
0000
0010
0000
0000
0000
0000
0000
0000
1000
0000
0000
0000
0001
0000
0000
0000
,
2000
0000
3100
0001
0100
1000
0100
0010
,
0012
0000
0000
0000
0000
0000
0000
0000
0103
0000
0000
1000
0000
0000
0100
0001
,
1000
0000
0000
1000
0000
0000
0001
0000
0000
0001
0000
0000
1000
0000
0100
0000
1000
0000
0001
0000
0100
0000
0001
0000
,
0010
0000
0000
0010
0001
0000
0000
0000
1000
0000
0100
0000
1000
0000
0000
0000
,
0001
0100
0000
0000
1000
0100
0000
0000
0010
0100
0000
0000
0001
0000
0000
0000
,
1000
0000
0000
1000
0010
0000
0000
0000
1000
0000
0100
0000
1000
0000
0000
0000
,
0001
0010
0000
0000
1000
0010
0000
0000
0220
0000
0000
0000
0330
0000
0000
0000
,
1001
0000
0001
0001
0010
0010
1000
1000
,
0001
0001
0100
0100
1000
1000
0001
0000
,
1000
0000
0001
0001
0100
0100
1000
1000
,
0001
0001
0010
0010
1000
0001
1000
0000
,
1001
0000
0001
0010
1000
0001
0100
1000
,
0001
0010
1000
0001
0100
0010
0001
1000
,
0001
0000
1000
0010
0001
1000
0100
0010
,
1000
0000
0100
1000
0000
0001
1000
0000
0001
0000
0100
0000
0010
0000
0000
0000
,
1001
0000
1000
0010
0001
1000
0100
0001
,
1000
0010
0001
1000
0100
0010
1000
0001
,
1000
0000
0001
0010
0100
0001
0100
0010
,
0001
0000
0000
0101
0000
0000
1010
0000
1000
0100
0000
1000
0000
1000
0001
0000
,
1002
0000
0000
0000
0013
0000
0000
1000
0200
0000
0000
0000
1300
0000
0000
0010
,
0002
0000
0000
0000
0103
0000
0000
1000
0020
0000
0000
0000
0130
0000
0000
0000
,
2001
0000
0000
0000
3010
0000
0000
0001
0200
0000
0000
0000
0301
0000
0000
1000
,
0100
0001
0100
1000
0100
0010
0110
0000
,
1001
0000
0001
0100
0010
0001
1000
0100
,
0010
1000
0001
0010
0100
0001
1000
0100
,
0001
0000
0001
0000
0010
0000
0000
1000
0001
0000
0001
0000
0100
0000
0000
1000
,
0001
0000
0000
0000
0000
0000
0000
0000
0000
0100
0000
0000
1000
0000
0000
0000
0000
0000
0000
0000
0000
0100
0000
0000
0001
0000
0000
0000
0010
0000
0000
0000
0001
0000
0000
0000
1000
0000
0000
0000
0010
0000
0000
0000
1000
0000
0000
0000
,
0001
0100
0101
1001
0000
1000
1100
1001
,
0100
0001
1000
0000
0100
1000
0001
0000
1000
0100
0000
0000
0012
0000
0000
0000
,
1003
0000
0000
0100
0000
0000
0001
0000
1000
0000
0000
0100
0000
0000
0001
0000
,
1000
0000
0000
0010
0000
0000
0001
0000
1000
0000
0000
0010
0000
0000
0001
0000
,
1000
0000
0000
0100
0000
0000
0010
0000
1000
0000
0000
0100
0000
0000
0010
0000
,
1000
0000
0000
0010
0000
0000
0100
0000
1000
0000
0000
0001
0000
0000
1000
0000
,
0010
0000
0000
0000
;

//---------------dance-single - t7r----------------
#NOTES:
     dance-single:
     t7r:
     Challenge:
     18:
     :
0000
0000
0000
0000
,
0000
0000
0000
0000
,
0000
0000
0000
0000
,
0000
0000
0000
0000
,
0000
0000
0000
0000
,
0000
0000
0000
0000
0000
0000
0000
0100
,
0100
0001
1000
0010
0000
0000
0000
0000
0010
1000
0001
0100
0000
0000
0000
0000
,
0100
0000
0000
0001
0000
0000
1000
0000
0000
0010
0000
0000
0000
0000
0000
0000
0000
0000
0000
0000
0000
0000
0000
0000
0010
0000
0000
1000
0000
0000
0001
0000
0000
0100
0000
0000
0000
0000
0000
0000
0000
0000
0001
0000
1000
0000
0001
0000
,
1000
0000
0000
0010
0000
0000
0100
0000
0000
0001
0000
0000
1000
0000
0100
0000
1000
0000
0100
0000
1000
0000
0100
0000
0010
0000
0001
0000
0010
0000
0001
0000
0010
0000
0001
0000
1000
0000
0100
0000
1000
0000
0100
0000
0010
0000
0001
0000
,
0010
0000
0000
0100
0000
0000
1000
0000
0001
0000
0100
0000
0010
0000
0000
1000
0000
0000
0001
0000
0000
0000
0000
0000
1000
0000
0000
0000
0000
0000
0100
0000
0000
0001
0000
0000
0000
0000
0000
0100
0000
0000
1000
0000
0000
0000
0000
0000
,
1001
0000
0010
1000
0001
0000
1000
0000
0100
0000
1000
0010
0100
0000
0001
0000
,
1000
0000
0000
0000
0000
0000
0000
0000
0001
0000
0000
0000
0010
0000
0000
0000
0100
0000
0000
0000
0000
0000
0000
0000
1000
0000
0000
0000
0000
0000
0000
0000
0010
0000
0000
0000
0000
0000
0000
0000
1000
0000
0000
0000
0001
0000
0000
0000
0010
0000
0000
0000
0001
0000
0000
0000
0100
0000
0000
0010
0000
0000
0000
0000
,
1000
0000
0010
0100
0001
0000
1000
0000
0010
0000
1000
0100
0010
0100
1000
0001
,
0010
0000
0001
1000
0100
0000
1000
0000
0001
0100
0010
0000
1001
0000
0000
0000
,
0001
0100
0010
0001
1000
0100
0010
1000
0001
0100
0010
0001
1000
0100
0010
1000
,
0001
0010
0100
0001
1000
0010
0100
1000
0001
0010
0100
0001
1000
0010
0100
1000
,
0001
0000
0100
0000
0001
0000
0100
0000
0001
0000
0100
0000
0010
0000
0000
1000
0000
0000
0100
0000
0000
0010
0000
0000
0001
0000
0000
0010
0000
0000
0100
0000
0000
0000
0000
0000
1000
0000
0000
0000
0000
0000
0001
0000
0000
0000
0000
0000
,
1000
0000
0010
0001
0000
0010
1000
0000
0001
0100
0010
0000
2002
0000
3003
0000
,
1100
0000
0100
0100
0010
0100
0000
0000
1000
0000
0100
0100
0010
0100
0000
0000
,
1000
0000
0100
0100
0010
0100
0000
0000
1000
0000
0010
0100
0002
0000
0000
0000
,
1003
0000
0100
0100
0001
0100
0000
0000
1000
0000
0100
0100
0001
0100
0000
0000
,
1000
0000
0010
0010
0001
0010
0000
0010
0100
0000
0110
0000
0101
0000
0000
0000
,
1001
0000
0100
0100
1000
0100
0000
0000
0001
0000
0100
0100
1000
0100
0000
0000
,
0001
0000
0000
0000
0100
0000
0000
0000
0010
0000
0000
0000
0001
0000
0000
0000
0100
0000
0000
0000
1000
0000
0000
0000
0001
0000
0000
0000
0000
0000
0100
0000
0000
0010
0000
0000
2000
0000
0000
0000
0000
0000
0000
0000
0000
0000
0000
0000
,
3001
0000
0010
1000
0000
0010
0001
1000
0100
0000
1000
0010
0100
0000
0001
0000
,
1000
0000
0000
0100
0000
0000
1000
0000
0000
0100
0000
0000
0001
0000
0000
0100
0000
0000
0010
0000
0001
0000
1000
0000
0001
0000
0000
0000
0000
0000
0100
0000
0000
0000
0000
0000
0010
0000
0000
0000
0000
0000
1000
0000
0000
0000
0000
0000
,
0001
0000
0000
0000
1002
0000
0000
0000
0103
0000
0000
0010
1000
0100
0010
0001
,
1000
0010
0000
0000
1000
0000
0001
0000
1000
0000
0100
0000
0001
0000
0100
0000
0010
0001
0000
0000
1000
0000
0001
0000
1000
0000
0010
0000
0100
0000
0001
0000
,
1000
0001
0000
0000
1000
0000
0001
0000
1000
0000
0010
0000
0001
0000
0010
0000
0100
0001
0000
0000
1000
0000
0001
0000
1000
0000
0100
0000
0010
0000
0100
0000
,
1000
0010
0000
0000
0100
0000
0001
0000
0100
0000
1000
0000
0100
0000
0010
0000
0100
0000
0000
0000
0001
0000
0000
0000
1000
0000
0100
0000
0000
0000
1000
0001
,
2000
0000
0000
0000
0000
0000
0000
0000
0000
0000
0000
0000
3010
0000
0000
0000
0000
0000
0000
0000
0000
0000
0000
0000
1000
0000
0000
0000
0000
0000
0000
0000
0000
0100
0000
0000
0000
0000
0000
0000
1000
0000
0000
0000
0001
0000
0010
0000
,
0200
0000
0000
0000
0000
0000
0000
0000
0000
0000
0000
0000
1300
0000
0000
0010
0000
0000
0100
0000
0000
0001
0000
0000
1000
0000
0000
0010
0000
0000
0100
0000
0001
0000
1000
0000
0001
0000
0000
0010
0000
0000
1000
0000
0000
0010
0000
0000
,
0002
0000
0000
0000
0000
0000
0000
0000
0000
0000
0000
0000
0000
0000
0000
0000
0000
0000
0000
0000
0000
0000
0000
0000
0103
0000
0000
0000
0000
0000
0000
0000
0000
0000
0000
0000
0000
0000
0000
0000
0000
0000
0000
0000
0000
0000
0000
0000
1000
0000
0000
0200
0000
0000
0000
0000
0000
0000
0000
0000
0000
0000
0000
0000
0000
0000
0301
0000
0000
0200
0000
0000
0000
0000
0000
0000
0000
0000
0000
0000
0000
0000
0000
0000
0301
0000
0000
0000
0010
0000
0000
0000
0100
0000
0000
0000
,
1000
0000
0000
0010
0000
0000
0100
0000
0000
1000
0000
0000
0001
0000
0000
0010
0000
0000
0100
0000
0001
0000
1000
0000
0001
0000
0000
0000
0000
0000
1001
0000
0000
0000
0000
0000
0010
0000
0000
0000
0000
0000
0100
0000
0000
0000
0000
0000
,
0010
0000
0000
0000
2001
0000
0000
0000
3010
0000
0000
1000
0100
0001
0100
0010
,
0001
1000
0000
0000
0001
0000
0100
0000
0001
0000
0010
0000
0100
0000
1000
0000
0010
1000
0000
0000
0001
0000
1000
0000
0001
0000
0010
0000
1000
0000
0010
0000
,
0100
1000
0000
0000
0001
0000
1000
0000
0001
0000
0100
0000
0010
0000
1000
0000
0001
0010
0000
0000
0001
0000
1000
0000
0001
0000
0100
0000
1000
0000
0100
0000
,
0001
0100
0100
0010
0100
0100
0001
0100
0100
1000
0100
0000
0110
0000
0110
0000
,
1000
0000
0000
0002
0000
0000
0000
0000
0000
0000
0000
0000
0000
0000
0000
0000
0000
0000
0000
0000
0000
0000
0000
0000
0103
0000
0000
0000
0000
0000
0000
0000
0000
0000
0000
0000
0000
0000
0000
0000
0000
0000
0000
0000
0000
0000
0000
0000
0001
0000
0000
0000
0000
0000
0000
0000
0000
0000
0000
0000
0000
0000
0000
0000
0000
0000
0010
0000
0000
0000
0000
0000
0000
0000
0000
0000
0000
0000
0000
0000
0001
0000
0000
0000
0000
0000
0000
0000
1000
0000
0000
0000
0100
0000
0000
0000
,
0020
0000
0000
0000
0000
0000
0000
0000
0000
0000
0000
0000
0031
0000
0000
0100
0000
0000
0010
0000
0000
1000
0000
0000
0001
0000
0000
0100
0000
0000
0010
0000
1000
0000
0001
0000
1000
0000
0000
0100
0000
0000
0001
0000
0000
0100
0000
0000
,
2000
0000
0000
0000
0000
0000
0000
0000
0000
0000
0000
0000
0000
0000
0000
0000
0000
0000
0000
0000
0000
0000
0000
0000
3010
0000
0000
0000
0000
0000
0000
0000
0000
0000
0000
0000
0000
0000
0000
0000
0000
0000
0000
0000
0000
0000
0000
0000
0001
0000
0000
0020
0000
0000
0000
0000
0000
0000
0000
0000
0000
0000
0000
0000
0000
0000
1030
0000
0000
0020
0000
0000
0000
0000
0000
0000
0000
0000
0000
0000
0000
0000
0000
0000
1030
0000
0000
0000
0100
0000
0000
0000
0010
0000
0000
0000
,
0001
0000
0000
0100
0000
0000
0010
0000
0000
0001
0000
0000
1000
0000
0000
0100
0000
0000
0010
0000
0000
1000
0000
0000
0001
0000
0000
0000
0010
0000
0000
0000
1000
0000
0000
0000
0001
0000
0000
0000
0100
0000
0000
0000
0010
0000
0000
0000
,
0001
0000
0000
0001
0100
0010
0000
1010
0000
0000
1000
0000
0100
0000
0001
0000
,
1000
0000
0010
0100
1000
0010
0000
0010
0100
0001
0000
0001
0100
1000
0100
0010
,
1000
0000
0001
0100
0000
0100
1000
0000
0001
0100
0000
0100
1000
0000
0100
0000
,
1000
0100
0010
1000
0010
0001
0100
0010
0220
0000
0000
0000
0330
0000
0000
0000
,
1010
0000
0010
1000
0100
1000
0001
0100
0010
1000
0001
0010
0100
1000
0100
0010
,
0001
0100
0010
0001
1000
0100
0010
1000
0001
0010
0100
0001
1000
0010
0100
1000
,
0001
0000
0100
0001
0010
0001
1000
0001
1000
0100
0010
0001
1000
0010
0100
0001
,
1000
0010
0100
1000
0001
0010
0100
0001
1000
0000
0100
0000
0011
0000
0000
0000
,
1001
0000
1000
0100
1000
0010
0100
0001
1000
0010
0100
0001
1000
0100
0001
0100
,
1000
0100
0001
0100
1000
0010
0001
0010
1000
0010
0001
0010
1000
0010
0100
0001
,
1000
0000
0001
0100
0001
0010
0100
1000
0001
0010
0100
1000
0001
0100
1000
0100
,
0001
0000
0000
0100
0000
0000
0100
0000
0000
1000
0000
0000
0100
0000
0000
0100
0000
0000
0001
0000
0000
0100
0000
0000
1000
0000
0000
0100
0000
0000
0010
0000
0000
0000
0000
0000
0110
0000
0000
0000
0000
0000
0010
0000
1000
0000
0001
0000
,
1000
0000
0001
0010
0001
0100
0010
1000
0001
0100
0010
1000
0001
0100
0010
0001
,
1000
0100
0010
1000
0001
0010
0100
0001
1000
0010
0100
1000
0001
0100
1000
0100
,
0001
0000
1000
0100
1000
0010
0100
0001
1000
0100
0100
0001
0100
0100
1000
0100
,
0110
0000
0000
0011
0000
0000
0101
0000
0010
1010
0000
1001
1000
0001
1001
0000
,
0110
0000
0000
0000
0001
0000
0000
0000
1000
0000
0100
0010
0002
0000
0000
0000
1003
0000
0100
0010
0002
0000
0000
0000
1003
0000
0100
0010
0002
0000
0000
0000
,
1003
0000
0010
0100
0002
0000
0000
0000
1003
0000
0010
0100
0002
0000
0000
0000
1003
0000
0010
0100
0001
0000
1000
0000
0001
0000
0010
0000
0100
0000
1000
0000
,
0001
0000
0000
0000
0100
0000
0000
0000
0001
0000
0010
0100
2000
0000
0000
0000
3001
0000
0010
0100
2000
0000
0000
0000
3001
0000
0010
0100
2000
0000
0000
0000
,
3001
0100
0100
1000
0100
0100
0001
0100
0010
1000
0100
0000
0110
0000
1001
0000
,
0110
0000
0000
0000
0010
0000
0000
0000
1000
0000
0100
0010
0001
0000
1000
0000
0001
0000
0010
0100
1000
0000
0001
0000
1000
0000
0010
0100
0001
0000
1000
0000
,
0001
0000
0100
0010
1000
0000
0001
0000
1000
0000
0010
0100
0001
0000
1000
0000
0001
0000
0010
1000
0010
0000
0001
0000
0100
0000
1000
0000
0100
0000
0001
0000
,
1000
0000
0000
0000
0001
0000
0100
0010
0001
0000
1000
0000
0100
0000
0010
1000
0001
0000
0100
0000
0010
0000
0001
1000
0100
0000
0010
0000
1000
0000
0001
1000
,
0010
0000
0000
1000
0000
0000
0100
0000
0000
0001
0000
0000
1000
0000
0000
0100
0000
0000
0001
0000
0000
1000
0000
0000
0001
0000
0000
0000
0101
0000
0000
0000
0110
0000
0000
0000
1010
0000
0000
0000
1001
0000
0000
0000
0110
0000
0000
0000
,
1000
0100
0100
0001
0100
0000
0110
0000
0001
0100
0100
1000
0100
0000
0110
0000
,
0001
0010
1000
0001
0100
1000
0001
1000
0010
0100
0010
0000
2002
0000
3003
0000
,
1000
0000
0100
1000
0000
0010
1000
0001
0100
0000
0001
0010
0000
0001
0100
0010
,
1000
0000
0000
0000
0000
0000
0001
0000
0000
0010
0000
0000
0000
0000
0000
0001
0000
0000
0100
0000
0000
0010
0000
0000
1000
0000
0000
0000
0000
0000
0100
0000
0000
0010
0000
0000
0000
0000
0000
0100
0000
0000
1000
0000
0001
0000
1000
0000
,
0010
0000
1000
0100
0000
1000
0010
0001
0010
0000
0100
0001
0000
0100
0001
0010
,
1000
0000
0010
0100
0000
1000
0010
0100
0001
0000
0100
1000
0000
0100
0010
0000
,
0100
0000
0000
0000
;

//---------------dance-double - t7r----------------
#NOTES:
     dance-double:
     t7r:
     Easy:
     6:
     :
00000000
00000000
00000000
00000000
,
00000000
00000000
00000000
00000000
,
00000000
00000000
00000000
00000000
,
00000000
00000000
00000000
00000000
,
00000000
00000000
00000000
00000000
,
00000000
00000000
00000000
00000000
,
01000000
00000000
00000000
00000000
,
00000000
00000000
00000000
00000000
,
00010000
00000000
00000000
00000000
,
00001000
00000000
00000001
00000000
,
00000011
00000000
00000010
00000000
,
00001000
00000000
00010000
00000000
,
10000000
00000000
00100000
00000000
,
00010000
00000000
00001000
00000000
,
00000001
00000001
00000100
00000100
,
00000010
00000010
00010000
00010000
,
00001000
00001000
01000000
01000000
,
00010000
10000000
20020000
30030000
,
10000000
01000000
00000000
00100000
,
00000000
00010000
00001000
00000020
,
00000130
00000001
00000000
00000010
,
00000000
00001000
00010000
00011000
,
01000000
00100000
00000000
10000000
,
00000000
01000000
00010000
00002000
,
00013000
00000010
00000000
00000100
,
00000001
00001000
00002002
00003003
,
00000010
00000000
00000000
00010000
,
00001000
00010000
00000000
00001000
,
00100000
00010000
00000000
10000000
,
00100000
01000000
00000000
00001000
,
00020000
00000000
00030010
00000100
,
00000002
00000000
00000013
00000100
,
00020000
00000000
00031000
00100000
,
00020000
00000000
01030000
00100000
,
10000000
10010000
00000000
01000000
,
00010000
00002000
00000000
00003100
,
00001000
00020000
00000000
00130000
,
00010000
00002000
00000000
00003010
,
00000210
00000000
00000301
00000100
,
00002000
00000000
00000000
00103000
,
00020000
00000000
10030000
01000000
,
00020000
00000000
00031000
00000010
,
00000100
00000110
00000001
00000100
,
00001000
00001000
00010000
00010000
,
10000000
01000000
00100000
00010000
,
00001000
00000010
00000220
00000330
,
00000001
00000001
00000010
00000010
,
00000100
00000100
00001000
00001000
,
00010000
00010000
00100000
00100000
,
01000000
01000000
10000000
00010000
,
10000000
10100000
10000000
10000000
,
01000000
00010000
00001000
00000100
,
00000010
00000010
00000100
00000100
,
00000001
00000010
00001000
00010000
,
00001000
00001000
00010000
00010000
,
00001000
00010000
01000000
00010000
,
00001000
00001000
00000100
00000100
,
00000010
00000100
00000220
00000330
,
00000002
00000000
00000023
00000000
,
00002030
00000000
00023000
00000000
,
20030000
00000000
30200000
00000000
,
00310000
00001000
00000020
00000000
,
00000130
00000100
00000001
00000001
,
00000100
00001000
00010000
01000000
,
00100000
00100000
00010000
00010000
,
00001000
00000010
00000220
00000330
,
00000001
00000100
00001000
00010000
,
10000000
00100000
00010000
00001000
,
00011000
00000000
00001000
00000000
,
01000000
00000000
01000000
00000000
,
00010000
00000000
00010000
00000000
,
00000100
00000000
00000020
00000000
,
00000030
00000000
00000000
00000000
;

//---------------dance-double - t7r----------------
#NOTES:
     dance-double:
     t7r:
     Medium:
     9:
     :
00000000
00000000
00000000
00000000
,
00000000
00000000
00000000
00000000
,
00000000
00000000
00000000
00000000
,
00000000
00000000
00000000
00000000
,
00000000
00000000
00000000
00000000
,
00000000
00000000
00000000
00000000
,
00000010
00000000
00000000
00000000
,
00000000
00000000
00000000
00000000
00000000
00000000
00000000
00001000
,
00001000
00000000
00000000
00000000
,
01000000
00000000
01100000
00000000
,
10000000
20020000
00000000
30030000
,
10000000
00000000
00000000
02000000
00000000
00000000
00000000
00000000
00000000
00000000
00000000
00000000
03010000
00000000
00000000
00000000
,
00001000
00000000
00000000
00000020
00000000
00000000
00000000
00000000
00000000
00000000
00000000
00000000
00000130
00000000
00000000
00000000
,
00001000
00000000
00000000
00000002
00000000
00000000
00000000
00000000
00000000
00000000
00000000
00000000
00000003
00000000
00000000
00000000
,
00000000
00000100
00001000
00010000
00000000
01000000
00010000
00001000
,
00000000
00000010
00001000
00010000
00000000
00100000
00010000
00001000
,
00010000
00010000
00001000
01000000
,
00100000
00000000
00000000
10000000
00000000
00000000
01000000
00000000
00020000
00000000
00000000
00000000
00031000
00000000
00000000
00000000
,
00000010
00000000
00000110
00000000
00000001
00000100
00000010
00000000
,
00010000
00000000
00001000
00010000
00001000
00000000
00020000
00000000
,
00031000
00000000
00011000
00000000
00001000
01000000
00100000
00000000
,
10000000
00000000
01000000
00010000
00001000
00000000
00011000
00000000
,
00000010
00000000
00000100
00000000
00000001
00000010
00000100
00000000
,
00010000
00000000
00001000
00100000
00010000
00000000
02000000
00000000
,
03100000
00000000
00000000
00100000
00000000
00000000
10000000
00000000
01000000
00000000
00010000
00000000
00010000
00000000
00000000
00000000
,
00001000
00010000
00000010
00000000
00000100
00000010
00001000
00000000
,
00000002
00000000
00001003
00000000
00000000
00000000
00000001
00000010
,
00000100
00000000
00000000
00020000
00000000
00000000
00000000
00000000
00000000
00000000
00000000
00000000
00031000
00000000
01000000
00000000
,
00100000
00000000
00000000
20000000
00000000
00000000
00000000
00000000
00000000
00000000
00000000
00000000
31000000
00000000
00100000
00000000
,
00010000
00000000
00000000
00000200
00000000
00000000
00000000
00000000
00000000
00000000
00000000
00000000
00000310
00000000
00000100
00000000
,
00000002
00000000
00000000
00000000
00000000
00000000
00000000
00000000
00000013
00000000
00000000
00001000
00000000
00000000
00010000
00000000
,
00200000
00010000
01000000
10300000
,
02000000
00000000
00000000
00000000
03100000
00000000
00000000
00000000
00010000
00000000
00000000
00001000
00000000
00000000
00000010
00000000
,
00000200
00000001
00000010
00001300
,
00000020
00000000
00000130
00000000
00000001
00000100
00001000
00000000
,
01000000
00000000
00000000
00200000
00000000
00000000
00000000
00000000
10300000
00000000
00000000
00000000
01000000
00000000
00010000
00000000
,
00001000
00000000
00000000
00000200
00000000
00000000
00000000
00000000
00000310
00000000
00000000
00000000
00001000
00000000
00000100
00000000
,
00000010
00000000
00000000
00000200
00000000
00000000
00000000
00000000
00010300
00000000
00000000
00000000
00011000
00000000
00000000
00000000
,
02000000
00000000
00000000
00000000
03100000
00000000
00000000
00000000
10000000
00000000
00000000
01000000
00000000
00000000
00010000
00000000
,
00002000
00000010
00010000
00003100
,
00000002
00000000
00000000
00000000
00000013
00000000
00000000
00000000
00000001
00000000
00000000
00000100
00000000
00000000
00001000
00000000
,
00020000
01000000
00001000
00130000
,
10000000
00000000
10010000
00000000
01000000
00010000
00001000
00000000
,
00000100
00000001
00000010
00000000
00000100
00001000
00000001
00000000
,
00001000
00000000
00001100
00000000
00000100
00001000
00010000
00000000
,
01000000
00100000
10000000
00000000
20020000
00000000
30030000
00000000
,
10000000
00000000
10000000
00000000
00000000
01000000
00010000
00001000
,
00000000
00000100
00001000
00010000
00000000
01000000
00010000
00001000
,
00000100
00000000
00000001
00000000
00000000
00000100
00001000
00010000
,
00100000
00000000
00010000
00001000
00010000
00000000
00011000
00000000
,
01000000
00000000
01100000
00000000
10000000
01000000
00010000
00000000
,
10000000
00100000
00010000
00000000
00001000
00000000
00000010
00000000
,
00000100
00000000
00000110
00000000
00000001
00000010
00001000
00000000
,
00000001
00000100
00001000
00010000
01000000
00000000
01100000
00000000
,
10000000
00000000
10100000
00000000
10000000
00100000
01000000
00000000
,
10000000
01000000
00010000
00001000
00000100
00000000
00000110
00000000
,
00000001
00000000
00000011
00000000
00000001
00000100
00001000
00000000
,
00000100
00000000
00000000
00001000
00000000
00000000
01000000
00000000
00010000
00000000
00000000
00000000
10010000
00000000
00000000
00000000
,
10000000
00000000
00100000
00010000
00002000
00000000
00000000
00003010
,
00002000
00000000
00000000
00103000
00020000
00000000
00000000
00000000
,
10030000
00000000
01000000
00010000
00002000
00000000
00000000
00003100
,
00000010
00000000
00000100
00000001
00001000
00000000
00001001
00000000
,
00000001
00000000
00000100
00001000
00010000
00000000
01000000
00010000
,
00001000
00000000
00000100
00001000
00010000
00010000
00001000
01000000
,
00100000
00000000
10000000
01000000
00010000
00000000
00001000
00000100
,
00000001
00000000
00000100
00000010
00001000
00000000
00001001
00000000
,
00000001
00000010
00001000
00010000
00000000
00100000
00010000
00001000
,
00000001
00000100
00001000
00010000
01000000
00000000
01100000
00000000
,
10000000
00000000
00000000
01000000
00000000
00000000
00000000
00000000
00010000
00000000
00000000
00001000
00000000
00000000
00000000
00000000
,
00000001
00000000
00000000
00000100
00000000
00000000
00000000
00000000
00002000
00000000
00000000
00013000
00000000
00000000
00000000
00000000
,
10000000
00000000
00000000
00100000
00000000
00000000
00000000
00000000
00010000
00000000
00000000
00001000
00000000
00000000
00000000
00000000
,
00000001
00000000
00000000
00000010
00000000
00000000
00000000
00000000
00001000
00000000
00000000
00020000
00000000
00000000
00000000
00000000
,
00030000
00000000
00000000
00000000
;

//---------------dance-double - t7r----------------
#NOTES:
     dance-double:
     t7r:
     Hard:
     13:
     :
00000000
00000000
00000000
00000000
,
00000000
00000000
00000000
00000000
,
00000000
00000000
00000000
00000000
,
00000000
00000000
00000000
00000000
,
00000000
00000000
00000000
00000000
,
00000000
00000000
00000000
00000000
,
01000000
00000000
00000000
00000000
,
00000000
00000000
00000000
00000000
00000000
00000000
00000000
00001000
,
00001000
00000000
00000000
00000000
,
00010000
00000000
00011000
00000020
,
00000031
00000000
00000010
00001000
00000000
00000000
00000000
00000000
00010000
00000000
10000000
01000000
00000000
00000000
00000000
00000000
,
10000000
00000000
00100000
00010000
00000000
00000000
00000000
00000000
00001000
00000000
00000001
00000100
00000000
00000000
00000000
00000000
,
00000001
00000000
00000100
00001000
00000000
00000000
00000000
00000000
00010000
00000000
10000000
00100000
00000000
00000000
00000000
00000000
,
10000000
00000000
01000000
00010000
00000000
00000000
00000000
00000000
00001000
00000000
00000100
00000000
00000001
00000000
00000000
00000000
,
00000100
00000010
00010000
00011000
00000000
00001000
01000000
01100000
,
00000000
10000000
01000000
01010000
00000000
00010000
00001000
00011000
,
00000000
00001000
00010000
00010000
00000010
00000001
00000010
00000100
,
00000001
00000000
00000000
00000100
00000000
00000000
00001000
00000000
00010000
00000000
00000000
00000000
01200000
00000000
00000000
00000000
,
10300000
00000000
01000000
00010000
00000000
01000000
00000000
00000000
10000000
00000000
01000000
00010000
00000000
01000000
00000000
00000000
,
10000000
00000000
01000000
00010000
00000000
00001000
00000000
00000000
00000100
00000000
00000010
00000000
00000120
00000000
00000000
00000000
,
00001030
00000000
00000100
00000001
00000000
00000100
00000000
00000000
00001000
00000000
00000100
00000001
00000000
00000100
00000000
00000000
,
00000010
00000000
00000001
00000100
00000000
00001000
00000000
00000000
01000000
00000000
00010000
00000000
10010000
00000000
00000000
00000000
,
11000000
00000000
01000000
00010000
00000000
01000000
00000000
00000000
10000000
00000000
01000000
00010000
00000000
00001000
00000000
00000000
,
00000100
00000000
00000001
00000100
00000000
00001000
00000000
00000000
01000000
00000000
00100000
00000000
01200000
00000000
00000000
00000000
,
10300000
00000000
00100000
00010000
00000000
00100000
00000000
00000000
10000000
00000000
01000000
00000000
00010000
00000000
00000000
00000000
,
00001000
00000100
00000010
00001000
00000100
00000010
00000001
00001000
,
00000001
00000000
00000000
00000000
00001001
00000000
00000000
00000000
00000000
00000000
00000000
00000000
00000001
00000100
00000001
00000000
,
00001000
00000000
00000100
00020000
00000000
00000000
00000000
00000000
00000000
00000000
00000000
00000000
00031000
00100000
00001000
00000000
,
01000000
00000000
00100000
20000000
00000000
00000000
00000000
00000000
00000000
00000000
00000000
00000000
31000000
00100000
01000000
00000000
,
00100000
00000000
00001000
00020000
00000000
00000000
00000000
00000000
00000000
00000000
00000000
00000000
00030010
00000100
00000010
00000000
,
00000210
00000000
00000000
00000000
00000000
00000000
00000000
00000000
00000301
00000000
00000000
00000100
00000000
00000000
00001000
00000000
,
00020000
00000000
01030000
00010000
00001000
00000100
00001000
00010000
,
02000000
00000000
00000000
00000000
03100000
00000000
00000000
00000000
00010000
00000000
00000000
01000000
00000000
00000000
10000000
00000000
,
01000000
00010000
00001000
00000100
00000010
00000001
00001000
00000100
,
00000010
00000000
00000000
00000000
00000110
00000000
00000000
00000000
00000001
00000000
00000000
00000000
00000100
00001000
00010000
00000000
,
01000000
00000000
00100000
00020000
00000000
00000000
00000000
00000000
00000000
00000000
00000000
00000000
00030100
00000001
00001000
00000000
,
00000100
00000000
00010000
00002000
00000000
00000000
00000000
00000000
00000000
00000000
00000000
00000000
01003000
00010000
00001000
00000000
,
00000100
00000000
00000010
00000200
00000000
00000000
00000000
00000000
00000000
00000000
00000000
00000000
00010300
00001000
00010000
00000000
,
00012000
00000000
00000000
00000000
00000000
00000000
00000000
00000000
01003000
00000000
00000000
00010000
00000000
00000000
01000000
00000000
,
20000000
00000000
31000000
00010000
00001000
00000100
00001000
00010000
,
02000000
00000000
00000000
00000000
00000000
00000000
00000000
00000000
03100000
00000000
00000000
10000000
00000000
00000000
01000000
00010000
,
00001000
00000000
00000000
00001000
00000000
00000000
00010000
00000000
00000000
00010000
00000000
00000000
00001000
00000000
00010000
00000000
00001000
00000000
01000000
00000000
00010000
00000000
01000000
00000000
,
00100000
00000000
00000000
00100000
10000000
00000000
00000000
00000000
01000000
00000000
00010000
00000000
00001000
00000000
00001000
00000000
,
00000100
00000010
00000000
00000000
00000001
00000010
00000000
00000000
00001000
00010000
00000000
00000000
01000000
00010000
00000000
00000000
,
10000000
00000000
00000000
10000000
01000000
00000000
00000000
00000000
00100000
00000000
00010000
00000000
00001000
00000000
00001000
00000000
,
00000010
00000100
00000000
00000000
00001000
00010000
00000000
00000000
00022000
00000000
00000000
00000000
00033000
00000000
00000000
00000000
,
00011000
00000000
01000000
01000000
00010000
00010000
01000000
01000000
,
10000000
01000000
00010000
00001000
00000100
00000001
00000100
00000010
,
00000100
00000000
00001000
00001000
00000100
00000100
00000001
00000001
,
00000100
00000000
00000000
00010000
00000000
00000000
00001000
00000000
00010000
00000000
00000000
00000000
00011000
00000000
00000000
00000000
,
01100000
00000000
10010000
00000000
10000000
01000000
00100000
10000000
,
00100000
00100000
00010000
00010000
00001000
00001000
00000010
00000100
,
00001000
00000000
00000100
00000001
00000100
00000100
00001000
00001000
,
01000000
00010000
00100000
10000000
00100000
01000000
01100000
00000000
,
10010000
00000000
10000000
00100000
00010000
01000000
00010000
00001000
,
00000100
00000001
00000010
00001000
00000100
00001000
00010000
01000000
,
00100000
00000000
00010000
00010000
01000000
10000000
01000000
00100000
,
10000000
00000000
00000000
10100000
00000000
00000000
01000000
00000000
00001000
00010000
00000000
00011000
00000000
00000000
00000000
00000000
,
00000210
00000000
00000000
00000000
00000301
00000000
00000000
00000100
00002000
00000000
00000000
00000000
00013000
00000000
00000000
01000000
,
00020000
00000000
00000000
00000000
01030000
00000000
00000000
00100000
00020000
00000000
00000000
00000000
01030000
00000000
00000000
00000000
,
20010000
00000000
00000000
00000000
31000000
00000000
00000000
00010000
00002000
00000000
00000000
00000000
00003100
00000000
00000000
00000010
,
00000200
00000000
00000301
00000010
00001000
00000010
00000110
00000000
,
00001001
00000000
00000001
00000100
00000010
00000001
00000010
00001000
,
00010000
00100000
10000000
01000000
00010000
00100000
00010000
00001000
,
00000020
00000000
00000000
00000000
00000130
00000000
00000000
00000001
00000020
00000000
00000000
00000000
00001030
00000000
00000000
01000000
,
00020000
00000000
00000000
00000000
00000000
00000000
00000000
00000000
00000000
01030000
00000000
00000000
20000000
00000000
00000000
00000000
00000000
00000000
00000000
00000000
00000000
31000000
00000000
00000000
00100000
00000000
00000000
00000000
01000000
00000000
00000000
00000000
00100000
00000000
00000000
00000000
10000000
00000000
00000000
00000000
01000000
00000000
00000000
00000000
00100000
00000000
00000000
00000000
,
00001000
00010000
00001000
00011000
00000000
00000010
00000100
00000110
,
00000001
00000010
00000001
00000000
00001000
00000100
00001000
00000000
00000100
00010000
00000000
00000000
00011000
00000000
00000000
00000000
,
01000000
00000000
00000000
10000000
00000000
00000000
01000000
00000000
00010000
00000000
00000000
00001000
00000000
00000000
00000100
00000000
,
00000010
00000000
00000000
00000100
00000000
00000000
00000001
00000000
00000020
00000000
00000000
00000031
00000000
00000000
00000010
00000000
,
00001000
00000000
00000000
00000100
00000000
00000000
00001000
00000000
00010000
00000000
00000000
01000000
00000000
00000000
00100000
00000000
,
10000000
00000000
00000000
01000000
00000000
00000000
00010000
00000000
00000020
00000000
00000000
00000130
00000000
00000000
00000001
00000000
,
00001000
00000000
00000000
00000000
;

//---------------dance-double - t7r----------------
#NOTES:
     dance-double:
     t7r:
     Challenge:
     18:
     :
00000000
00000000
00000000
00000000
,
00000000
00000000
00000000
00000000
,
00000000
00000000
00000000
00000000
,
00000000
00000000
00000000
00000000
,
00000000
00000000
00000000
00000000
,
00000000
00000000
00000000
00000000
00000000
00000000
00000000
00000001
,
00000001
00000010
00000100
00001000
00000000
00000000
00000000
00000000
00010000
00100000
01000000
10000000
00000000
00000000
00000000
00000000
,
10000000
00000000
00000000
01000000
00000000
00000000
00100000
00000000
00000000
00010000
00000000
00000000
00000000
00000000
00000000
00000000
00000000
00000000
00000000
00000000
00000000
00000000
00000000
00000000
00001000
00000000
00000000
00000100
00000000
00000000
00000010
00000000
00000000
00000001
00000000
00000000
00000000
00000000
00000000
00000000
00000000
00000000
00000100
00000000
00000010
00000000
00001000
00000000
,
00000001
00000010
00000100
00001000
00000000
00000000
00000000
00000000
00010000
00100000
01000000
10000000
00000000
00000000
00000000
00000000
,
10000000
00100000
01000000
00010000
00000000
00000000
00000000
00000000
00011000
00000000
00000100
00000010
00000002
00000000
00000000
00000000
,
00000103
00001000
00000100
00000010
00001000
00000000
00000000
00000000
00000001
00000010
00001000
00010000
00000000
00000000
01000000
00000000
,
00100000
00000000
00000000
00000000
00010000
00000000
00000000
00000000
10000000
00000000
00000000
00000000
01000000
00000000
00000000
00000000
00000000
00000000
00000000
00000000
00000000
00000000
00000000
00000000
00000000
00000000
00000000
00000000
00000000
00000000
00000000
00000000
10000000
00000000
00000000
00000000
00100000
00000000
00000000
00000000
00010000
00000000
00000000
00000000
00001000
00000000
00000000
00000000
00000100
00000000
00000000
00000000
00000010
00000000
00000000
00000000
00001000
00000000
00000000
00000001
00000000
00000000
00000000
00000000
,
00000010
00000000
00000100
00001000
00000000
00000000
01000000
00000000
00100000
00000000
00010000
00000000
10000000
01000000
00010000
00001000
,
00000010
00000000
00000100
00000001
00000010
00000000
00000100
00000000
00010000
00000000
00000000
00001000
01000000
00000000
00000000
00000000
,
10000000
01000000
00100000
10000000
00100000
00010000
00001000
00000010
00001000
00000100
00000010
00001000
00000010
00000001
00000010
00000100
,
00000001
00000100
00001000
00000100
00010000
00001000
01000000
00100000
10000000
00100000
01000000
10000000
01000000
00010000
00001000
00000010
,
00001000
00000000
00000100
00000000
00001000
00000000
00000100
00000000
00001000
00000000
00000100
00000000
00000010
00000000
00000000
00000001
00000000
00000000
00000100
00000000
00000000
00001000
00000000
00000000
00010000
00000000
00000000
01000000
00000000
00000000
00100000
00000000
00000000
00000000
00000000
00000000
00010000
00000000
00000000
00000000
00000000
00000000
10000000
00000000
00000000
00000000
00000000
00000000
,
00100000
00000000
01000000
00010000
00000000
01000000
10000000
00000000
01000000
00000000
00001000
00000000
00022000
00000000
00033000
00000000
,
01100000
00000000
10000000
10000000
01000000
00100000
00000000
00000000
00001000
00000000
00010000
00010000
00000010
00000100
00000000
00000000
,
00000010
00000000
00000100
00000100
00000001
00001000
00000000
00000000
00000001
00000000
00000010
00000100
00020000
00000000
00000000
00000000
,
00031000
00000000
01000000
01000000
00100000
01000000
00000000
00000000
00100000
00000000
10000000
10000000
01000000
00100000
00000000
00000000
,
00001000
00000000
00010000
00010000
00000010
00000100
00000000
00000000
00000010
00001000
00000001
00000000
00001001
00000000
00000000
00000000
,
00000101
00000000
00000001
00000001
00000100
00001000
00000000
00000000
00010000
00000000
10000000
10000000
01000000
00010000
00000000
00000000
,
00001000
00000000
00000000
00000000
00000001
00000000
00000000
00000000
00000100
00000000
00000000
00000000
00001000
00000000
00000000
00000000
00010000
00000000
00000000
00000000
10000000
00000000
00000000
00000000
01000000
00000000
00000000
00000000
00000000
00000000
00100000
00000000
00000000
10000000
00000000
00000000
00020000
00000000
00000000
00000000
00000000
00000000
00000000
00000000
00000000
00000000
00000000
00000000
,
00130000
00000000
01000000
00010000
00000000
01000000
10000000
01000000
00100000
00000000
10000000
00010000
00001000
00000000
00000000
00000000
,
00000010
00000000
00000000
00000000
00000000
00000000
00000100
00000000
00000000
00001000
00000000
00000000
00000001
00000000
00000000
00000000
00000000
00000000
00000100
00000000
00001000
00000000
00010000
00000000
01000000
00000000
00000000
00000000
00000000
00000000
00100000
00000000
00000000
00000000
00000000
00000000
00010000
00000000
00000000
00000000
00000000
00000000
10000000
00000000
00000000
00000000
00000000
00000000
,
00010000
00000000
00000000
00000000
10020000
00000000
00000000
00000000
01030000
00000000
00000000
00100000
10000000
01000000
00010000
00001000
,
00000010
00000100
00000000
00000000
00000001
00000000
00002000
00000000
00000000
00000000
00000000
00000000
00000000
00000000
00000000
00000000
00000100
00000000
00000000
00000000
00000000
00000000
00000000
00000000
00003001
00000000
00000010
00000000
00001000
00000000
00010000
00000000
,
01000000
00100000
00000000
00000000
00010000
00000000
00200000
00000000
00000000
00000000
00000000
00000000
00000000
00000000
00000000
00000000
00010000
00000000
00000000
00000000
00000000
00000000
00000000
00000000
01300000
00000000
00100000
00000000
00010000
00000000
00001000
00000000
,
00000010
00000100
00000000
00000000
00000001
00000000
00000200
00000000
00000000
00000000
00000000
00000000
00000000
00000000
00000000
00000000
00001000
00000000
00000000
00000000
00000000
00000000
00000000
00000000
00000310
00000000
00000100
00000000
00000000
00000000
00000001
00001000
,
00000002
00000000
00000000
00000000
00000000
00000000
00000000
00000000
00000000
00000000
00000000
00000000
00000010
00000000
00000000
00000000
00000000
00000000
00000000
00000000
00000000
00000000
00000000
00000000
00001003
00000000
00000000
00000000
00000000
00000000
00000000
00000000
00000000
00000100
00000000
00000000
00000000
00000000
00000000
00000000
00000001
00000000
00000000
00000000
00000100
00000000
00001000
00000000
,
00020000
00000000
00000000
00000000
00000000
00000000
00000000
00000000
00000000
00000000
00000000
00000000
10030000
00000000
00000000
01000000
00000000
00000000
00100000
00000000
00000000
00010000
00000000
00000000
10000000
00000000
00000000
01000000
00000000
00000000
00100000
00000000
00001000
00000000
00010000
00000000
00001000
00000000
00000000
00000100
00000000
00000000
00000001
00000000
00000000
00000100
00000000
00000000
,
00000020
00000000
00000000
00000000
00000000
00000000
00000000
00000000
00000000
00000000
00000000
00000000
00000000
00000000
00000000
00000000
00000000
00000000
00000000
00000000
00000000
00000000
00000000
00000000
00001030
00000000
00000000
00000000
00000000
00000000
00000000
00000000
00000000
00000000
00000000
00000000
00000000
00000000
00000000
00000000
00000000
00000000
00000000
00000000
00000000
00000000
00000000
00000000
00000001
00000000
00000000
00000020
00000000
00000000
00000000
00000000
00000000
00000000
00000000
00000000
00000000
00000000
00000000
00000000
00000000
00000000
00001030
00000000
00000000
00020000
00000000
00000000
00000000
00000000
00000000
00000000
00000000
00000000
00000000
00000000
00000000
00000000
00000000
00000000
10030000
00000000
00000000
00000000
01000000
00000000
00000000
00000000
00100000
00000000
00000000
00000000
,
10000000
00000000
00000000
01000000
00000000
00000000
00010000
00000000
00000000
01000000
00000000
00000000
00010000
00000000
00000000
00001000
00000000
00000000
00000100
00000000
00000010
00000000
00001000
00000000
00000001
00000000
00000000
00000000
00000000
00000000
00000010
00000000
00000000
00000000
00000000
00000000
00001000
00000000
00000000
00000000
00000000
00000000
00000010
00000000
00000000
00000000
00000000
00000000
,
00000100
00000000
00000000
00000000
00000120
00000000
00000000
00000000
00000031
00000000
00000000
00000100
00001000
00000100
00000001
00000100
,
00000010
00010000
00000000
00000000
00001000
00000000
00010000
00000000
01000000
00000000
00100000
00000000
01000000
00000000
00100000
00000000
00010000
10000000
00000000
00000000
00000000
00000000
00000000
00000000
01000000
00000000
00010000
00000000
00001000
00000000
00010000
00000000
,
00000010
00000100
00000000
00000000
00000001
00000000
00001000
00000000
00000001
00000000
00000010
00000000
00001000
00000000
00000010
00000000
00000100
00010000
00000000
00000000
00000000
00000000
00000000
00000000
01000000
00000000
00100000
00000000
00010000
00000000
10000000
00000000
,
00010000
01000000
01000000
10000000
01000000
01000000
00001000
00010000
00001000
00000000
00010000
00000000
00011000
00000000
00011000
00000000
,
00000010
00000000
00000000
00000200
00000000
00000000
00000000
00000000
00000000
00000000
00000000
00000000
00000000
00000000
00000000
00000000
00000000
00000000
00000000
00000000
00000000
00000000
00000000
00000000
00000301
00000000
00000000
00000000
00000000
00000000
00000000
00000000
00000000
00000000
00000000
00000000
00000000
00000000
00000000
00000000
00000000
00000000
00000000
00000000
00000000
00000000
00000000
00000000
00000010
00000000
00000000
00000000
00000000
00000000
00000000
00000000
00000000
00000000
00000000
00000000
00000000
00000000
00000000
00000000
00000000
00000000
00001000
00000000
00000000
00000000
00000000
00000000
00000000
00000000
00000000
00000000
00000000
00000000
00000000
00000000
01000000
00000000
00000000
00000000
00000000
00000000
00000000
00000000
00100000
00000000
00000000
00000000
10000000
00000000
00000000
00000000
,
00020000
00000000
00000000
00000000
00000000
00000000
00000000
00000000
00000000
00000000
00000000
00000000
10030000
00000000
00000000
01000000
00000000
00000000
00010000
00000000
00000000
01000000
00000000
00000000
10000000
00000000
00000000
01000000
00000000
00000000
00010000
00000000
00001000
00000000
00000010
00000000
00000100
00000000
00000000
00000001
00000000
00000000
00000100
00000000
00000000
00001000
00000000
00000000
,
00000200
00000000
00000000
00000000
00000000
00000000
00000000
00000000
00000000
00000000
00000000
00000000
00000000
00000000
00000000
00000000
00000000
00000000
00000000
00000000
00000000
00000000
00000000
00000000
00000310
00000000
00000000
00000000
00000000
00000000
00000000
00000000
00000000
00000000
00000000
00000000
00000000
00000000
00000000
00000000
00000000
00000000
00000000
00000000
00000000
00000000
00000000
00000000
00000001
00000000
00000000
00000020
00000000
00000000
00000000
00000000
00000000
00000000
00000000
00000000
00000000
00000000
00000000
00000000
00000000
00000000
00001030
00000000
00000000
00020000
00000000
00000000
00000000
00000000
00000000
00000000
00000000
00000000
00000000
00000000
00000000
00000000
00000000
00000000
10030000
00000000
00000000
00000000
01000000
00000000
00000000
00000000
00100000
00000000
00000000
00000000
,
00010000
00000000
00000000
01000000
00000000
00000000
00100000
00000000
00000000
00010000
00000000
00000000
00001000
00000000
00000000
00000010
00000000
00000000
00000100
00000000
00000000
00001000
00000000
00000000
00010000
00000000
00000000
00000000
00001000
00000000
00000000
00000000
01000000
00000000
00000000
00000000
00001000
00000000
00000000
00000000
00010000
00000000
00000000
00000000
00000100
00000000
00000000
00000000
,
00010000
00000000
00000000
00010000
00001000
01000000
00000000
01100000
00000000
00000000
10000000
00000000
01000000
00000000
00010000
00000000
,
00001000
00000010
00000000
00000010
00000100
00001000
00000000
00001000
00000001
00000100
00000000
00000100
00001000
00000000
00010000
00000000
,
10000000
00000000
01000000
00010000
00000000
00100000
00001000
00000000
00010000
00000010
00000000
00000100
00000001
00000000
00001000
00000000
,
00000001
00000100
00001000
00010000
00100000
10000000
02200000
00000000
00000000
03300000
00000000
00000000
,
10000000
00000000
01000000
10000000
00100000
10000000
01000000
10000000
00010000
01000000
00010000
00100000
00001000
00010000
00001000
00010000
,
00001000
00000100
00000010
00001000
00000001
00000100
00000010
00000001
00001000
00000100
00010000
01000000
00001000
00000100
00010000
01000000
,
00100000
00000000
10000000
01000000
10000000
01000000
00010000
01000000
00010000
01000000
00100000
00001000
00010000
00000100
00001000
00000001
,
00001000
00000100
00000010
00001000
00010000
01000000
00100000
00010000
00011000
00000000
01000000
00000000
10100000
00000000
00000000
00000000
,
10010000
00000000
10000000
01000000
10000000
00100000
01000000
00010000
10000000
00100000
01000000
00010000
00001000
00000010
00000001
00000010
,
00001000
00000010
00000001
00000010
00001000
00000100
00000001
00000100
00001000
00000100
00010000
00001000
01000000
00010000
10000000
01000000
,
00100000
00000000
00010000
01000000
00100000
10000000
00010000
01000000
00100000
10000000
00010000
00100000
00001000
00010000
00001000
00010000
,
00001000
00000000
00000000
00000100
00000000
00000000
00000100
00000000
00000000
00000001
00000000
00000000
00000100
00000000
00000000
00000100
00000000
00000000
00001000
00000000
00000000
00000010
00000000
00000000
00000100
00000000
00000000
00000001
00000000
00000000
00001000
00000000
00000000
00000000
00000000
00000000
00000110
00000000
00000000
00000000
00000000
00000000
00000100
00000000
00001000
00000000
00010000
00000000
,
01000000
00000000
10000000
00100000
01000000
00010000
10000000
00100000
01000000
00010000
00001000
00000010
00000001
00000010
00001000
00000010
,
00001000
00000100
00000010
00001000
00000001
00000100
00000010
00000001
00000100
00001000
00010000
01000000
00010000
00001000
00000100
00001000
,
00010000
00000000
01000000
10000000
00000000
01000000
00010000
00001000
00000010
00000000
00000100
00000001
00001000
00000000
00000001
00001000
,
00001001
00000000
00000000
00000101
00000000
00000000
00011000
00000000
01000000
01000000
00000000
00000100
00000000
01000000
00000100
00000000
,
00011000
00000000
00000000
00000000
01000000
00000000
00000000
00000000
00100000
00000000
10000000
00010000
10000000
00000000
00000000
00000000
00100000
00000000
10000000
00010000
10000000
00000000
00000000
00000000
00100000
00000000
10000000
00010000
10000000
00000000
00000000
00000000
,
01000000
00000000
00010000
00000000
00001000
00000000
00000100
00000000
00001000
00000000
00010000
00000000
01000000
00000000
00010000
00000000
00001000
00000000
00000010
00000100
00000010
00000000
00000010
00000000
00000001
00000000
00001000
00000001
00001000
00000000
00000001
00000000
,
00000100
00000000
00000000
00000000
00000001
00000000
00000000
00000000
00000100
00000000
00000001
00001000
00000001
00000000
00000000
00000000
00000100
00000000
00000001
00001000
00000001
00000000
00000000
00000000
00000100
00000000
00000001
00001000
00000001
00000000
00000000
00000000
,
00000001
00000100
00001000
00001000
00010000
01000000
10000000
10000000
01000000
00100000
00001000
00000000
00011000
00000000
01001000
00000000
,
01100000
00000000
00000000
00000000
10000000
00000000
00000000
00000000
01000000
00000000
00100000
00010000
00001000
00000000
00000000
00000000
00000100
00000000
00000010
00001000
00010000
00000000
00000000
00000000
01000000
00000000
00100000
00010000
00001000
00000000
00000000
00000000
,
00000001
00000100
00000001
00000100
00001000
00010000
00001000
00010000
00010000
01000000
10000000
01000000
00010000
00001000
00010000
00001000
,
00001000
00000000
01000000
00000000
00100000
10000000
01000000
01000000
00100000
00010000
00001000
00001000
00000010
00001000
00010000
00010000
,
10000000
00000000
00000000
00000000
00000000
00000000
01000000
00000000
00000000
00100000
00000000
00000000
00010000
00000000
00000000
00000000
00000000
00000000
00000000
00000000
00000000
00000000
00000000
00000000
00001000
00000000
00000000
00000000
00000000
00000000
00000100
00000000
00000000
00000010
00000000
00000000
00000001
00000000
00000000
00000000
00000000
00000000
00000000
00000000
00000000
00000000
00000000
00000000
00000100
00000000
00000000
00000000
00000000
00000000
00000000
00000000
00000100
00000000
00000000
00000000
00000000
00000000
00000000
00000000
00001000
00000000
00000000
00000000
00000000
00000000
00000000
00000000
01000000
00000000
00000000
00000000
00000000
00000000
00000000
00000000
00000100
00000000
00000000
00000000
00000000
00000000
00000000
00000000
01000000
00000000
00000000
00000000
00000000
00000000
00000000
00000000
,
00001000
00010000
01000000
00010000
00001000
00000000
00011000
00000000
00010000
00001000
00000100
00001000
00010000
00000000
00011000
00000000
,
00010000
01000000
10000000
01000000
00100000
00010000
00001000
00000010
00001000
00000100
00000001
00000000
00000220
00000000
00000330
00000000
,
00000001
00000000
00000100
00001000
00000000
00010000
01000000
00100000
00010000
00000000
10000000
01000000
00000000
00010000
01000000
00100000
,
00010000
00000000
00000000
00000000
00000000
00000000
00001000
00000000
00000000
00000010
00000000
00000000
00000000
00000000
00000000
00000100
00000000
00000000
00000001
00000000
00000000
00001000
00000000
00000000
00000010
00000000
00000000
00000000
00000000
00000000
00001000
00000000
00000000
00000100
00000000
00000000
00000000
00000000
00000000
00000001
00000000
00000000
00000100
00000000
00001000
00000000
00010000
00000000
,
01000000
00000000
00100000
00010000
00000000
00100000
10000000
00000000
00100000
00000000
00010000
00001000
00000000
00000010
00000100
00000000
,
00000001
00000000
00000100
00001000
00000000
00010000
00100000
10000000
01000000
00000000
00010000
00001000
00000000
00010000
00000100
00000000
,
00010000
00000000
00000000
00000000
;
