#TITLE:overcome;
#SUBTITLE:;
#ARTIST:MEG feat. Keita;
#TITLETRANSLIT:;
#SUBTITLETRANSLIT:;
#ARTISTTRANSLIT:;
#GENRE:;
#CREDIT:;
#MENUCOLOR:;
#METERTYPE:DDR;
#BANNER:overcome.png;
#BACKGROUND:overcome-bg.png;
#LYRICSPATH:;
#CDTITLE:./CDTITLES/GITADORA.PNG;
#MUSIC:overcome.ogg;
#OFFSET:0.000;
#SAMPLESTART:53.939;
#SAMPLELENGTH:15.000;
#SELECTABLE:YES;
#LISTSORT:;
#BPMS:0.000=198.000;
#STOPS:;
#BGCHANGES:;
#ATTACKS:;

//---------------dance-single - ----------------
#NOTES:
     dance-single:
     :
     Beginner:
     3:
     0.155,0.200,0.000,0.000,0.000:
0000
0000
0000
0000
,
0000
0000
0000
0000
,
0000
0000
0000
0000
,
0000
0000
0000
0000
,
0000
0000
0000
0000
,
0000
0000
0010
0000
,
0010
0000
0010
0000
,
0000
0000
0100
0000
,
0100
0000
0100
0000
,
0000
0000
0001
0000
,
0001
0000
0001
0000
,
0000
0000
1000
0000
,
1000
0000
1000
0000
,
0000
0000
0001
0000
,
0001
0001
0001
0000
,
0000
0000
1000
0000
,
1000
1000
1000
0000
,
0000
0000
0010
0000
,
0010
0010
0010
0000
,
0000
0000
0100
0000
,
0100
0100
0100
0000
,
0000
0000
0010
0000
,
0000
0000
1000
0000
,
0000
0000
0001
0000
,
0000
0000
0100
0000
,
0000
0000
0010
0000
,
0000
0000
1000
0000
,
0000
0000
0001
0000
,
0000
0000
0100
0000
,
0100
0000
0000
0000
,
0010
0000
0000
0000
,
1000
0000
0000
0000
,
0001
0000
0000
0000
,
1000
0000
0000
0000
,
0100
0000
0000
0000
,
0010
0000
0000
0000
,
0001
0000
0000
0000
,
1000
0000
1000
0000
,
1000
0000
0000
0000
,
0001
0000
0001
0000
,
0001
0000
0000
0000
,
0100
0000
0100
0000
,
0100
0000
0000
0000
,
0010
0000
0010
0000
,
0010
0000
0000
0000
,
1000
0000
1000
0000
,
1000
1000
1000
0000
,
0000
0000
0001
0000
,
0001
0001
0001
0000
,
0000
0000
0010
0000
,
0010
0010
0010
0000
,
0000
0000
0100
0000
,
0100
0100
0100
0000
,
0000
0000
1000
0000
,
1000
0000
1000
0000
,
0000
0000
0001
0000
,
0001
0000
0001
0000
,
0000
0000
0100
0000
,
0000
0000
0010
0000
,
0000
0000
1000
0000
,
0000
0000
0001
0000
,
0001
0000
0001
0000
,
0001
0000
0001
0000
,
1000
0000
1000
0000
,
1000
0000
1000
0000
,
0010
0000
0000
0000
,
0100
0000
0010
0000
,
0100
0000
0000
0000
,
0100
0000
0000
0000
,
0010
0000
0000
0000
,
1000
0000
0000
0000
,
0001
0000
0001
0000
,
0001
0000
0000
0000
,
1000
0000
1000
0000
,
1000
0000
0000
0000
,
0010
0000
0000
0000
,
1000
0000
0000
0000
,
0001
0000
0000
0000
,
0001
0000
0000
0000
,
1000
0000
0000
0000
,
1000
0000
0000
0000
,
0100
0000
0000
0000
,
0100
0000
0000
0000
,
0010
0000
0100
0000
,
0010
0000
0000
0000
,
0001
0000
1000
0000
,
0001
0000
0000
0000
,
1000
0000
0000
0000
,
0100
0000
0000
0000
,
0010
0000
0000
0000
,
0001
0000
0000
0000
;

//---------------dance-single - ----------------
#NOTES:
     dance-single:
     :
     Easy:
     7:
     0.367,0.404,0.009,0.107,0.000:
0000
0000
0000
0000
,
0000
0000
0000
0000
,
0000
0000
0000
0000
,
0000
0000
0000
0000
,
0000
0000
0000
0000
,
0010
0000
0010
0010
,
0000
0010
1000
0001
,
1000
0000
1000
1000
,
0000
1000
0001
1000
,
0100
0000
0100
0100
,
0000
0100
0010
0001
,
0010
0000
0010
0010
,
0001
0010
0100
1000
,
0001
0000
1000
1000
,
1000
1000
1000
0000
,
0010
0000
0100
0100
,
0100
0100
0100
0000
,
0001
0000
1000
1000
,
1000
1000
1000
0000
,
0100
0000
0010
0010
,
0010
0010
0010
0000
,
0001
1000
0001
0000
,
0100
0001
0100
0000
,
0010
1000
0010
0000
,
1000
0100
1000
0000
,
0001
1000
0001
0000
,
0010
0001
0010
0000
,
0001
0000
1000
0000
,
0001
0000
1000
1000
,
1000
0000
0100
1000
,
0100
1000
0100
1000
,
0010
0000
0100
0001
,
0100
0001
0100
0001
,
0010
0000
0001
0010
,
0001
0010
0001
0010
,
0100
0000
1000
0000
,
0001
1000
0020
0000
,
1030
0000
0000
0000
0001
0000
0000
1000
,
0000
0000
0100
0000
0000
0010
0000
0100
,
0000
0000
0010
0000
0000
0001
0000
0000
,
1000
0010
0100
0001
,
1000
0000
0000
0000
0010
0000
0000
1000
,
0000
0000
0010
0000
0000
0100
0000
0001
,
0000
0000
1000
0000
0000
0001
0000
0000
,
2000
0000
0000
0000
3001
0000
0000
0010
,
0000
0010
0001
1000
,
0001
0000
0100
0000
0010
0000
0000
1000
,
0000
1000
0010
1000
,
0100
0000
0010
0000
0001
0000
0000
0100
,
0000
0100
0010
0100
,
0001
0000
1000
0000
0010
0000
0000
1000
,
0000
1000
0001
1000
,
0001
0000
0010
0000
0100
0000
0000
0010
,
0000
0010
0001
0100
,
0010
0000
1000
0000
0100
0000
0000
0010
,
0000
0010
0100
1000
,
0010
0000
0100
0000
0001
0000
0000
1000
,
0000
0000
1000
0000
0010
0000
0000
1000
,
0000
0000
1000
0000
0001
0000
0000
1000
,
0000
1000
0100
0000
,
0010
0001
1000
0001
,
0100
0000
0100
0000
0000
0100
0000
0000
,
0100
0000
0100
0000
,
0010
1000
0001
0100
,
0001
0010
0100
1000
,
0002
0000
2003
0000
,
3020
0000
0200
0330
,
0010
0010
1000
1000
,
0001
0001
0100
0100
,
0002
0000
2003
0000
,
3001
0010
0200
0000
,
1300
1000
0001
1000
,
1000
1000
0001
0000
,
0100
0000
0100
0000
0010
0000
0000
0100
,
0000
0000
0001
0000
0010
0000
0000
2002
,
0000
0000
3003
0000
,
0010
0000
0000
0010
0000
0000
0000
0001
,
0000
0010
0100
1000
,
1000
1000
0010
1000
,
0001
0100
0010
0100
,
0100
0100
0010
1000
,
0001
0100
0001
1000
,
0001
1000
0001
0000
2000
0000
3000
0000
,
0001
0010
0100
1000
,
0001
0010
0001
1000
,
0010
0100
0001
1000
,
0100
0000
0001
0000
0100
0000
1000
0100
,
0000
0000
1000
0000
0001
0000
0000
1000
,
0000
0000
0010
0000
0001
0000
0000
0010
,
0000
1000
0001
0100
,
0010
0000
1000
0000
0001
0000
0100
0100
;

//---------------dance-single - ----------------
#NOTES:
     dance-single:
     :
     Medium:
     10:
     0.587,0.726,0.186,0.355,0.009:
0000
0000
0000
0000
,
0000
0000
0000
0000
,
0000
0000
0000
0000
,
0000
0000
0000
0000
,
0000
0000
0000
0000
0000
0000
0000
0020
,
0000
1030
0010
0000
1000
0000
0001
0000
,
0100
0000
0001
0000
0010
0000
0001
2000
,
0000
3100
1000
0000
0100
0000
0010
0000
,
0001
0000
0100
0000
0001
0000
1000
0020
,
0000
1030
0001
0000
0010
0000
0001
0000
,
0100
0000
0010
0000
1000
0000
0001
0020
,
0000
0031
1000
0000
0001
0000
0100
0000
,
0010
0000
1000
0000
0100
0000
0010
0200
,
0000
1300
0100
0000
1000
0000
0100
0000
,
1000
0000
0001
0000
1000
0000
0001
0020
,
0000
0031
1000
0000
0001
0000
0100
0000
,
0001
0000
0010
0000
0001
0000
1000
0020
,
0000
0130
0010
0000
1000
0000
0001
0000
,
0100
0000
0001
0000
1000
0000
0001
2000
,
0000
3100
0010
0000
0100
0000
1000
0001
,
0000
0100
0001
0000
1000
0000
0010
0100
,
0000
0100
0001
0000
0100
0100
0000
0010
,
0000
0100
0001
0000
0010
0001
0000
1000
,
0000
0100
0010
0000
0100
0100
0000
1000
,
0000
0100
0010
0000
0001
1000
0000
0010
,
0000
0100
0001
0000
0100
0100
0000
0010
,
0000
0100
0001
0000
1000
0001
0000
0010
,
0000
0001
0000
1001
0000
1000
0000
1100
,
0000
1001
0000
0000
0001
0100
0000
0110
,
0000
0100
0001
0000
0010
0001
0000
1000
,
0000
0001
0010
0000
0100
1000
0000
0010
,
0000
1000
0001
0000
0010
0001
0000
1000
,
0000
0010
0100
0000
0010
1000
0000
0001
,
0000
1000
0100
0000
0001
0100
0000
1000
,
0000
0001
1000
0000
0001
0010
0000
1000
,
0000
0010
0000
0011
0000
1001
0000
0001
,
0000
0100
0010
0000
1000
0001
0000
0000
,
2002
0000
3003
0000
2200
0000
3300
0022
,
0000
0033
2002
0000
3003
0100
0000
0220
,
0000
0330
2020
0000
3030
0220
0000
0330
,
0010
1000
0000
0001
1000
0000
0001
0000
,
2200
0000
3300
0000
0220
0000
0330
0022
,
0000
0033
1002
0000
0103
0001
0000
0200
,
0000
0300
0110
0000
0000
1010
0000
0000
,
2002
0000
3003
0000
0001
1000
0000
0001
,
0000
0001
0010
0000
0001
0000
0100
0000
,
0010
0000
1000
0000
0100
0010
0000
0100
,
0000
0100
1000
0000
0100
0000
0010
0000
,
0001
0000
0100
0000
0010
0100
0000
0001
,
0000
0001
0010
0000
0001
0000
1000
0000
,
0010
0000
0100
0000
0010
1000
0000
0100
,
0000
0100
1000
0000
0100
0000
0010
0000
,
0100
1000
0001
1000
0000
0010
0000
1000
,
0000
1000
0001
0000
1000
0100
1000
0000
,
0001
0000
0010
0001
0000
0100
0000
0001
,
0000
0001
0010
0000
0001
0100
0001
0000
,
0100
0000
0010
1000
0000
1000
0001
0100
,
0000
0100
0010
0000
0100
0000
0001
1000
,
0000
1000
0010
0000
1000
0000
0100
0010
,
0000
0010
0100
0000
1000
0000
0001
0100
,
0000
0001
1000
0000
0001
0100
0001
0000
,
1000
0000
0100
0000
1000
0000
0000
0000
0001
0000
1000
0000
0000
0001
0000
0000
,
1000
0000
0100
0000
1000
0000
0000
0000
0001
0000
0000
0100
0000
0000
0001
0000
,
0010
0001
0000
0001
0010
0000
0010
1000
,
0000
1000
0010
0000
0010
0001
0000
0001
,
0200
0320
2030
3002
,
2003
0000
0002
3003
,
1000
0100
0000
0100
1000
0000
0001
0000
,
0100
0001
0000
0001
1000
0000
0001
0000
,
0010
0100
0000
0100
0010
0000
0001
0000
,
1000
0010
0000
0010
1000
0000
0001
0000
,
1000
0100
0000
0001
0100
0000
1000
0100
,
0000
1000
0001
0000
1000
0000
0010
0000
,
0001
0010
0000
1000
0010
0000
0100
0020
,
0000
1030
0001
0000
0010
0100
0000
0020
,
0000
0000
0000
0000
,
0031
0000
1000
0100
0000
1000
0000
1001
,
0000
1000
0010
0000
1000
0000
0100
0000
,
1000
0000
0001
0100
0000
0001
0000
0010
,
0000
0010
0001
0000
1000
0000
0010
0000
,
0100
0000
0010
1000
0000
0001
0000
0010
,
0000
0010
0100
0000
0010
0000
0001
0000
,
1000
0010
0100
0001
0000
1000
0000
0001
,
0000
0001
0100
0001
0010
0000
0001
0000
,
1000
0010
0100
0000
0010
1000
0001
0100
,
0000
0100
0001
0000
1000
0010
1000
0000
,
0001
0010
0100
1000
0000
1000
0010
1000
,
0000
1000
0100
0000
0001
0000
0100
1000
,
0000
1000
0010
0000
0100
0000
0001
0010
,
0000
0010
0001
0000
1000
0000
0001
0100
,
0000
0100
0010
0000
1000
0100
0010
0010
;

//---------------dance-single - ----------------
#NOTES:
     dance-single:
     :
     Hard:
     13:
     0.811,0.767,0.488,0.577,0.013: // measure 1
0000
0000
0000
0000
,  // measure 2
0000
0000
0000
0000
,  // measure 3
0000
0000
0000
0000
,  // measure 4
0000
0000
0000
0000
,  // measure 5
0000
0000
0000
0000
0000
0000
0000
0210
,  // measure 6
0000
0301
0100
0001
0010
0001
0100
0001
,  // measure 7
0010
0001
0100
0001
0010
0001
1000
0020
,  // measure 8
0000
1030
0100
1000
0010
1000
0100
1000
,  // measure 9
0010
1000
0100
1000
0010
0100
0001
0020
,  // measure 10
0000
0130
0010
0001
0010
0100
0010
0001
,  // measure 11
0010
0100
0010
0001
0100
0010
1000
0020
,  // measure 12
0000
0130
0001
0100
0010
1000
0010
0100
,  // measure 13
0010
1000
0100
0010
0100
1000
0001
0020
,  // measure 14
0000
0031
0100
0000
0101
0000
0011
0000
,  // measure 15
1001
0000
0101
0000
1001
0000
0001
2000
,  // measure 16
0000
3010
1000
0000
0110
0000
1010
0000
,  // measure 17
1100
0000
0110
0000
0011
0000
1000
0002
,  // measure 18
0000
0103
0010
0000
0110
0000
0101
0000
,  // measure 19
0011
0000
1001
0000
1010
0000
1000
0200
,  // measure 20
0000
0310
0100
0000
1100
0000
0110
0000
,  // measure 21
0001
0010
0100
1000
0001
0010
0001
1000
,  // measure 22
0010
0100
0001
0000
0100
0100
0000
0110
,  // measure 23
0000
0010
1000
0000
0010
1000
0100
1000
,  // measure 24
0000
1000
0001
0000
1000
1000
0000
0110
,  // measure 25
0000
0001
0100
0000
0001
0010
0100
0010
,  // measure 26
0000
0010
0001
0000
0100
0100
0000
0110
,  // measure 27
0000
1000
0001
0000
1000
0010
0100
0010
,  // measure 28
0000
0010
1000
0001
0000
0001
1000
0100
,  // measure 29
0000
0100
0010
0000
0100
1000
0000
1100
,  // measure 30
0000
0001
0010
0001
1000
0010
0000
1010
,  // measure 31
0000
1000
0100
1000
0001
0010
0000
0011
,  // measure 32
0000
0001
0100
0001
1000
0100
0000
1100
,  // measure 33
0000
1000
0001
0100
0010
0100
0000
0110
,  // measure 34
0000
0010
1000
0001
0100
0001
0000
0011
,  // measure 35
0000
0010
0001
1000
0100
1000
0000
1100
,  // measure 36
0000
1000
0010
0100
0000
0001
0010
0100
,  // measure 37
0000
1000
0100
0010
0001
0001
0000
0000
,  // measure 38
2002
0000
3003
0000
2200
0000
3300
0022
,  // measure 39
0000
0033
0202
0000
0303
0011
0000
2002
,  // measure 40
0000
3003
2200
0000
3300
0220
0000
0330
,  // measure 41
1000
0010
0000
0010
1000
0001
0100
0000
,  // measure 42
0202
0000
0303
0000
0022
0000
0033
2002
,  // measure 43
0000
3003
2100
0000
3100
0010
0000
2200
,  // measure 44
0000
3300
2020
0000
3030
0220
0000
0330
,  // measure 45
2001
0000
0000
0000
3001
1000
0001
0010
,  // measure 46
0000
0010
0001
0100
0001
0010
0001
1000
,  // measure 47
0001
0010
0100
1000
0100
0010
0000
0120
,  // measure 48
0000
0130
1000
0010
1000
0100
1000
0010
,  // measure 49
1000
0010
0100
0001
1000
0100
0000
2100
,  // measure 50
0000
3100
1000
0010
0100
0001
0010
0001
,  // measure 51
1000
0010
0100
0001
1000
0001
0000
1002
,  // measure 52
0000
1003
0001
0010
0001
0100
0001
1000
,  // measure 53
0001
0010
0100
1000
0001
0010
0001
2000
,  // measure 54
0000
3010
0100
0100
0001
1000
0100
0000
,  // measure 55
0010
0100
1000
0010
0100
0001
0000
2000
,  // measure 56
0000
3010
1000
1000
0001
0100
0001
1000
,  // measure 57
0100
1000
0010
0100
0001
0010
0100
2000
,  // measure 58
0000
3100
0010
0000
0100
1000
0010
0200
,  // measure 59
0000
0301
0010
0000
0001
0100
0001
0020
,  // measure 60
0000
0031
1000
0000
0010
0100
0001
1000
,  // measure 61
0000
0001
0100
0001
1000
0010
0100
0001
,  // measure 62
1000
0000
0100
0000
1000
0000
0000
0000
0100
0000
1000
0000
0000
0001
0000
0000
,  // measure 63
1000
0000
0100
0000
1000
0000
0000
0000
0001
0000
0000
0010
0000
0000
0001
0000
,  // measure 64
0100
0001
0100
0010
0100
1000
0100
0010
,  // measure 65
0100
0001
0100
0010
0100
0001
0100
1000
,  // measure 66
0200
0320
2030
3002
,  // measure 67
2003
0000
0002
3003
,  // measure 68
1100
0100
1000
0001
1000
0000
0001
0001
,  // measure 69
0100
0001
1000
0000
0001
0010
0001
1000
,  // measure 70
0001
0001
0010
0100
0010
0000
0001
0100
,  // measure 71
0010
0000
0000
1000
0000
0000
0001
0000
2000
0000
0000
0000
3001
0000
0000
0000
,  // measure 72
1100
0100
0000
0100
0100
0000
0100
0100
,  // measure 73
0010
0100
0000
0100
0010
0000
0011
0000
,  // measure 74
0101
0100
0000
0100
0100
0000
0100
0020
,  // measure 75
0000
1030
0001
1000
0001
0010
0100
2000
,  // measure 76
0000
0000
0000
0000
,  // measure 77
3001
0100
1000
0200
0000
0301
0000
0102
,  // measure 78
0000
0013
0001
1000
0001
0010
0001
0100
,  // measure 79
0001
0010
0100
1000
0010
0100
0000
0120
,  // measure 80
0000
1030
0010
0100
0010
1000
0100
1000
,  // measure 81
0100
0010
0100
1000
0010
0100
0000
0102
,  // measure 82
0000
0013
0001
1000
0001
0010
0100
1000
,  // measure 83
0001
0100
1000
0200
0000
0302
0000
2003
,  // measure 84
0000
3100
1000
0001
1000
0010
1000
0001
,  // measure 85
1000
0100
0001
0100
1000
0010
0001
0020
,  // measure 86
0000
0130
0001
0100
0001
1000
0001
0010
,  // measure 87
0001
0100
1000
0100
0001
0010
1000
0020
,  // measure 88
0000
0031
0100
0001
1000
0100
0010
0002
,  // measure 89
0000
1003
0010
0100
0010
1000
0001
0200
,  // measure 90
0000
0301
1000
0100
1000
0001
1000
0020
,  // measure 91
0000
0130
0001
0100
0010
0010
1000
1001
;

//---------------dance-single - ----------------
#NOTES:
     dance-single:
     :
     Challenge:
     17:
     1.000,1.000,0.631,0.453,0.719: // measure 1
0000
0000
0000
0000
,  // measure 2
0000
0000
0000
0000
,  // measure 3
0000
0000
0000
0000
,  // measure 4
0000
0000
0000
0000
,  // measure 5
0000
0000
0000
0000
0000
0000
0000
0210
,  // measure 6
0000
0301
0101
0000
1000
0100
0010
0000
,  // measure 7
1100
0000
0011
0000
1001
0000
0010
0120
,  // measure 8
0000
1030
1010
0000
1000
0001
0100
0000
,  // measure 9
0011
0000
0000
0000
1001
0000
0000
0000
0001
0100
0001
1000
0001
0000
0201
0000
,  // measure 10
0000
0301
0011
0000
1000
0001
0100
0000
,  // measure 11
0110
0000
1010
0000
0011
0000
1000
1200
,  // measure 12
0000
1300
0001
0000
0100
0010
1000
0000
,  // measure 13
0010
0000
0110
0000
0000
0000
0010
0000
1000
0001
1000
0001
1000
0001
0020
0000
,  // measure 14
0000
0031
0011
0000
1000
0010
0110
0000
,  // measure 15
1010
0000
0000
0000
1001
0000
0000
0000
0001
1000
0100
1000
0001
0000
2001
0000
,  // measure 16
0000
3001
0011
0000
1000
0100
0110
0000
,  // measure 17
0100
1000
0001
1000
0010
0000
1000
0100
1000
0001
1000
0001
0100
0000
0120
0000
,  // measure 18
0000
1030
1010
0000
0001
0100
0110
0000
,  // measure 19
1100
0000
0000
0000
0110
0000
0000
0000
1000
0100
0010
0000
0001
0000
0012
0000
,  // measure 20
0000
0000
1003
0000
1100
0000
0000
0000
1000
0001
1000
0001
1000
0000
0001
0000
,  // measure 21
0100
0001
0100
0001
0010
0000
0100
0010
0100
1000
0001
1000
0001
0000
2001
0000
,  // measure 22
0000
0000
3010
0000
1000
0000
0000
0010
0100
0000
0100
0000
0000
0000
0110
0000
,  // measure 23
0000
0000
1000
0000
0010
0000
0000
1000
0100
0000
0100
0000
1000
0000
2001
0000
,  // measure 24
0000
0000
3001
0000
0010
0000
0000
0001
0100
0000
0100
0000
0000
0000
0110
0000
,  // measure 25
0000
0000
0100
0000
0001
0000
1000
0001
0100
0000
0100
0000
0001
0000
1002
0000
,  // measure 26
0000
0000
1003
0000
0010
0000
0000
1000
0100
0000
0100
0000
0000
0000
0110
0000
,  // measure 27
0000
0000
0100
0000
1000
0000
0000
0001
1000
0000
1000
0000
0001
0000
1001
0000
,  // measure 28
0000
0100
0001
1100
0000
0100
1000
0011
,  // measure 29
0000
0000
0001
0010
0100
0000
0100
0000
1000
0000
0001
0000
1000
0000
2100
0000
,  // measure 30
0000
0000
3100
0000
1000
0000
0001
1000
0100
0000
0100
0000
0000
0000
1100
0000
,  // measure 31
0000
0000
1000
0001
0010
0000
0001
1000
0010
0000
0010
0000
0000
0000
1010
0000
,  // measure 32
0000
0000
0010
0100
0001
0000
0100
0010
1000
0000
1000
0000
0000
0000
1100
0000
,  // measure 33
0000
0000
0010
0001
0100
0000
0010
1000
0100
0000
0100
0000
0000
0000
0110
0000
,  // measure 34
0000
0000
0001
0010
0100
0000
1000
0010
0100
0000
0100
0000
0000
0000
0110
0000
,  // measure 35
0000
0000
0010
1000
0001
0000
0010
0001
1000
0000
1000
0000
0001
0000
0011
0000
,  // measure 36
0000
1000
0100
1100
0000
0001
1000
0001
,  // measure 37
0010
0000
0001
0100
0001
1000
0001
1000
0010
0000
0100
0010
0100
0000
0000
0000
,  // measure 38
1010
2000
0000
3000
0220
0000
0330
0100
,  // measure 39
0110
0000
0101
0000
0011
0002
0000
2003
,  // measure 40
0000
3000
2200
0000
3300
0202
0000
0303
,  // measure 41
1000
0000
1000
0000
0001
0000
0100
0001
1000
0000
0001
0000
0010
0000
0100
0000
,  // measure 42
0110
0020
0000
0030
0022
0000
0033
1000
,  // measure 43
1001
0000
1100
0000
0101
0200
0000
0320
,  // measure 44
0000
0000
0130
0000
0000
0110
0000
0000
,  // measure 45
0102
0000
0000
0000
0000
0000
0000
0000
1003
0001
1000
0001
1000
0001
0020
0000
,  // measure 46
0000
0000
0031
0000
0100
0000
0001
0010
0001
0000
1000
0000
0100
0000
1000
0000
,  // measure 47
0001
1000
0100
0001
0100
1000
0010
0200
,  // measure 48
0000
0000
0310
0000
1000
0000
0100
1000
0100
0000
1000
0000
0010
0000
0100
0000
,  // measure 49
0001
0000
1000
0000
0100
0000
1000
0010
1000
0000
0001
0000
0010
0000
0200
0000
,  // measure 50
0000
0000
0310
0000
0001
0000
0100
0001
0100
0000
0001
0000
1000
0000
0001
0000
,  // measure 51
0010
0001
0100
1000
0100
0001
0010
0002
,  // measure 52
0000
0000
1003
0000
0010
0000
0100
0010
0100
0000
0001
1000
0001
0000
1000
0100
,  // measure 53
0010
0000
0001
0010
0001
0000
1000
0000
0010
0000
0100
0001
1000
0001
2000
0000
,  // measure 54
0000
0000
3001
0000
0010
0000
0001
0100
0010
0000
0100
0000
0001
0000
1000
0000
,  // measure 55
0100
0001
0100
1000
0010
0100
0010
2000
,  // measure 56
0000
0000
3010
0000
0100
0000
0001
1000
0010
0000
1000
0000
0100
0000
0010
0000
,  // measure 57
0100
0000
0100
0000
1000
0000
0010
0000
0001
0000
0010
1000
0001
1000
0020
0000
,  // measure 58
0000
0000
0130
0000
0001
0000
1000
0100
0010
0000
0100
0000
1000
0000
0002
0000
,  // measure 59
0000
0000
0103
0000
0001
0000
0010
0001
1000
0001
1000
0001
0100
0000
0020
0000
,  // measure 60
0000
0000
0130
0000
0001
0000
1000
0100
0010
0000
0001
0100
0010
0000
0200
0000
,  // measure 61
0000
0000
0310
0000
1000
0000
0001
1000
0100
0000
1000
0001
0010
0001
1000
0001
,  // measure 62
1000
0100
1000
0100
1000
0000
0000
0000
0001
0000
1000
0100
0000
1000
0001
0000
,  // measure 63
1000
0100
1000
0100
1000
0000
0000
0000
0001
1000
0000
0010
1000
0000
0001
1000
,  // measure 64
0001
0010
0001
0010
0001
0000
1000
0100
1000
0100
1000
0000
0001
0100
0001
0100
,  // measure 65
0001
0000
1000
0010
1000
0010
1000
0000
0001
0010
0100
0000
1000
0010
0100
0000
,  // measure 66
0010
1000
0010
0100
0001
0100
0001
0010
0100
1000
0010
0100
,  // measure 67
0002
0000
0000
0000
0000
0000
1003
0100
0020
0000
0000
0000
0000
0000
0000
0000
,  // measure 68
0130
1000
0100
1000
0100
0000
1000
0010
1000
0010
1000
0000
0001
0010
0001
0010
,  // measure 69
0001
0000
1000
0100
1000
0100
1000
0000
0001
1000
0001
1000
0001
0100
0001
0100
,  // measure 70
0001
0010
0001
1000
0001
0000
1000
0010
1000
0001
1000
0000
0001
0100
0001
1000
,  // measure 71
0001
0000
1000
0100
1000
0001
1000
0000
0010
0100
0010
0000
1000
0001
1000
0000
,  // measure 72
0001
0100
0010
0100
0001
0000
1000
0100
0010
0100
1000
0000
0001
0010
0100
0010
,  // measure 73
0001
0000
1000
0010
0100
0010
1000
0000
0010
1000
0001
0000
0010
0001
1000
0000
,  // measure 74
0001
0010
0100
1000
0001
0000
1000
0010
0100
0001
1000
0000
0010
1000
0002
0000
,  // measure 75
0000
1003
0100
0100
0100
0100
0100
0020
,  // measure 76
0000
0000
0000
0000
0000
0000
0000
0030
,  // measure 77
0011
0000
0001
0100
0001
0000
2100
0000
0000
0000
3100
0000
0000
0000
1020
0000
,  // measure 78
0000
0000
1030
0000
0010
0000
1000
0001
1000
0000
0001
0000
0100
0000
0010
0000
,  // measure 79
1000
0000
0100
0000
1000
0000
0001
0010
0001
0000
1000
0000
0010
0000
0200
0000
,  // measure 80
0000
0000
0310
0000
1000
0000
0001
0100
0001
0000
1000
0000
0100
0000
0001
0000
,  // measure 81
0100
1000
0010
0100
0010
1000
0001
1002
,  // measure 82
0000
0000
1003
0000
0100
0000
1000
0001
0010
0100
0010
0100
0010
0000
0001
0100
,  // measure 83
0001
1000
0001
1000
0010
0000
1010
0000
0000
0000
0011
0000
0000
0000
1200
0000
,  // measure 84
0000
0000
1300
0000
0100
0000
1000
0100
0010
0000
0100
0000
1000
0000
0100
0000
,  // measure 85
0001
0000
0100
0000
1000
0000
0100
0010
0001
0000
0100
0000
0010
0000
0210
0000
,  // measure 86
0000
0000
0301
0000
0100
0000
0001
0100
0010
0000
0100
0000
0001
0000
0100
0001
,  // measure 87
1000
0001
1000
0001
0010
0000
0001
1000
0100
1000
0001
1000
0001
0000
2001
0000
,  // measure 88
0000
0000
3001
0000
0010
0000
0001
0100
0010
0000
0100
0000
0001
1000
0002
0000
,  // measure 89
0000
0000
1003
0000
0010
0000
1000
0100
0010
0000
0100
1000
0001
1000
0020
0000
,  // measure 90
0000
0000
0130
0000
0001
0000
1000
0010
0100
0010
1000
0000
0010
0100
0002
0000
,  // measure 91
0000
1003
1000
1000
0001
0001
0010
1100
;
