#TITLE:Zenius -I- vanisher;
#SUBTITLE:;
#ARTIST:Tatsh;
#TITLETRANSLIT:;
#SUBTITLETRANSLIT:;
#ARTISTTRANSLIT:;
#GENRE:;
#CREDIT:;
#MENUCOLOR:;
#METERTYPE:DDR;
#BANNER:Zenius -I- vanisher.png;
#BACKGROUND:Zenius -I- vanisher-bg.png;
#LYRICSPATH:;
#CDTITLE:./CDTITLES/BEATMANIA IIDX.PNG;
#MUSIC:Zenius -I- vanisher.ogg;
#OFFSET:0.000;
#SAMPLESTART:87.000;
#SAMPLELENGTH:15.000;
#SELECTABLE:YES;
#LISTSORT:;
#BPMS:0.000=80.000,30.000=160.000;
#STOPS:200.000=0.375
;
#BGCHANGES:4.000=Zenius -I- vanisher.avi=1.000=0=0=0,
99999=-nosongbg-=1.000=0=0=0 // don't automatically add -songbackground-
;
#ATTACKS:;

//---------------dance-single - ----------------
#NOTES:
     dance-single:
     :
     Beginner:
     3:
     0.122,0.136,0.007,0.000,0.000:
0000
0000
0000
0000
,
0000
0000
0000
0000
,
0000
0000
0000
0000
,
0000
0000
0000
0000
,
0000
0000
0000
0000
,
0001
0000
0000
0000
,
0010
0000
0100
0000
,
1000
0000
0000
0000
,
0001
0000
0000
0000
,
0001
0000
0000
0000
,
1000
0000
0000
0000
,
1000
0000
0000
0000
,
0000
0010
0000
0010
,
0000
0010
0000
0000
,
0000
0100
0000
0100
,
0000
0100
0000
0000
,
0000
0001
0000
1000
,
0000
0001
0000
0001
,
0000
1000
0000
0001
,
0000
1000
0000
1000
,
0000
0010
0000
0100
,
0000
0010
0000
0010
,
0000
0100
0000
0010
,
0010
0000
0000
0000
,
1000
0000
0000
0001
,
0001
0000
0001
0000
,
0000
0010
0000
0010
,
0010
0000
0010
0000
,
0000
0100
0000
0100
,
0100
0000
0100
0000
,
0000
1000
0000
1000
,
1000
0000
0000
0000
,
0001
0000
0000
1000
,
1000
0000
0000
0010
,
0010
0000
0000
0100
,
0100
0000
0000
0001
,
0001
0000
0000
1000
,
1000
0000
0000
0100
,
0100
0000
0000
0000
,
0010
0000
0001
0000
,
1000
0000
1000
0000
,
1000
0000
1000
0000
,
0001
0000
0001
0000
,
0001
0000
0001
0000
,
0100
0000
0010
0000
,
0100
0000
0010
0000
,
1000
0000
0001
0000
,
1000
0000
1000
0000
,
0001
0000
1000
0000
,
0001
0000
0001
0000
,
0000
1000
0000
0000
,
0000
0001
0000
0000
,
0000
0010
0000
0000
,
0000
0100
0000
0000
,
0000
0010
0000
0000
,
0000
0001
0000
0000
,
0000
1000
0000
0000
,
0000
0010
0000
0000
,
0000
0100
0100
0100
,
0000
0100
0000
0100
,
0000
0001
0001
0001
,
0000
0001
0000
0001
,
0000
1000
0000
0000
,
0000
0010
0000
0000
,
0000
0100
0000
0000
,
0000
0001
0000
0000
,
0000
1000
0000
1000
,
0000
1000
0000
0000
,
0000
0001
0000
0001
,
0000
0001
0000
0000
,
0000
0010
0000
0010
,
0000
0010
0000
0000
,
0000
0100
0000
0100
,
0000
0100
0000
0000
,
0000
0010
0010
0010
,
0010
0010
0000
0000
,
0000
1001
0000
0000
;

//---------------dance-single - ----------------
#NOTES:
     dance-single:
     :
     Easy:
     6:
     0.293,0.307,0.064,0.228,0.007:
0000
0000
0000
0000
,
0000
0000
0000
0000
,
0000
0000
0000
0000
,
0000
0000
0000
0000
,
0000
0000
0000
0000
,
0001
0000
1000
0000
,
0010
0000
0100
0100
,
0020
0000
0000
0000
,
1030
0100
0010
0010
,
0001
0100
0010
0010
,
1000
0010
0100
0100
,
0001
0010
0100
0100
,
1000
0010
0001
0010
,
1000
0010
0001
0010
,
1000
0100
0001
0100
,
1000
0100
0001
0100
,
1000
1100
1000
0001
,
1000
1010
1000
0001
,
0010
0110
0010
0001
,
0100
0110
0100
0001
,
1000
1100
1000
0010
,
0100
0101
0001
0010
,
0001
1001
0001
0100
,
0010
0010
2000
0000
,
3001
0010
1000
0010
,
0001
0010
1000
0010
,
0001
0100
1000
0100
,
0001
0100
1000
0100
,
0001
0010
0100
1000
,
0002
0000
1003
0010
,
1000
0100
0010
0001
,
2000
0000
3001
0100
,
0201
0000
0001
0310
,
2000
0000
0100
3010
,
0002
0000
0010
1003
,
0020
0000
0100
0130
,
0002
0000
0100
1003
,
0200
0000
0010
1300
,
0020
0000
0100
0031
,
2000
0000
0002
3003
,
1000
0010
1000
0100
,
1000
0010
0100
0001
,
1000
0100
0010
0100
,
1000
0010
0100
0001
,
1000
0010
0001
0010
,
1000
0010
0001
0010
,
1000
1000
0100
0100
,
0010
0000
0000
0000
0010
0000
0000
0000
0001
0000
0000
0001
0000
0000
0001
0000
,
0100
0100
0010
0010
,
1000
0000
0000
0000
1000
0000
0000
0000
0010
0000
0000
0010
0000
0000
0010
0000
,
0100
0020
1000
0000
,
0130
0002
0010
0000
,
1003
0200
0010
0000
,
1300
0020
0100
0000
,
0031
1000
0100
0010
,
0001
2000
0000
0010
,
3001
0100
0010
1000
,
0001
0020
0000
0100
,
0030
0010
0001
2000
,
3000
0010
0100
0001
,
0010
0100
1000
0002
,
0003
0100
0010
1000
,
0010
0200
0310
1000
,
0100
0020
0030
0001
,
0100
0010
1000
0001
,
0010
0200
0300
0020
,
0030
0002
1000
0000
,
1000
0000
0100
0000
,
0103
2000
0001
0000
,
0001
0000
0010
0000
,
3010
0200
0010
0000
,
0010
0000
1000
0000
,
1300
0002
0010
0000
,
0010
1003
0000
0010
,
0000
0200
0010
0010
,
0010
0310
0010
0100
,
0100
2002
0000
0000
,
0000
0000
0000
0000
,
0000
3003
0000
0000
;

//---------------dance-single - ----------------
#NOTES:
     dance-single:
     :
     Medium:
     11:
     0.489,0.475,0.014,0.307,0.182:
0000
0000
0000
0000
,
0000
0000
0000
0000
,
0000
0000
0000
0000
,
0000
0000
0000
0000
,
0000
0000
0000
0000
,
0002
0023
0230
2300
,
3002
0000
0203
0000
0310
1000
0002
0000
,
2000
0000
0000
3003
,
1000
0010
0000
0000
1000
0000
0100
0000
1000
0000
0000
0000
0001
0000
1000
0000
,
0001
0010
0000
0000
0001
0000
0100
0000
0001
0000
0000
0000
1000
0000
0010
0000
,
0100
0010
0000
0000
1000
0000
0010
0000
0100
0000
0000
0000
0001
0000
0010
0000
,
0100
0010
0000
0000
0001
0000
0010
0000
0100
0000
0000
0000
0010
0000
0001
0000
,
1000
0000
0100
0000
0010
0000
0000
0100
0000
0000
1000
0000
0010
0000
0000
0100
,
0000
0000
0010
0000
1000
0000
0000
0100
0000
0000
1000
0000
0010
0000
0100
0000
,
0001
0000
0010
0000
0100
0000
0000
0010
0000
0000
0001
0000
0100
0000
0000
0010
,
0000
0000
0100
0000
0001
0000
0000
0010
0000
0000
0100
0000
0010
0000
0001
0000
,
1000
0000
0100
0000
0001
0000
0000
0100
0000
0000
1000
0000
0010
0000
0000
0001
,
0000
0000
0010
0000
1000
0000
0000
0100
0000
0000
0001
0000
0100
0000
1000
0000
,
0001
0000
0010
0000
1000
0000
0000
0010
0000
0000
0001
0000
0100
0000
0000
1000
,
0000
0000
0100
0000
0001
0000
0000
0010
0000
0000
1000
0000
0010
0000
0001
0000
,
0100
0000
0010
0000
1000
0001
0000
1000
0000
0000
0001
0000
0100
0010
0000
0100
,
0000
0000
0010
0000
1000
0001
0000
1000
0000
0000
0001
0000
0010
0000
0100
0000
,
0010
0000
0001
0000
0000
0100
0000
0000
0010
0000
0000
1000
0000
0000
0001
0000
,
1000
0000
0000
1000
0000
0000
0001
0000
1000
0000
0100
0000
0010
0000
0001
0000
,
1000
0100
1000
0010
1000
0002
0000
0103
,
0020
0000
1030
0002
0000
1003
0100
1000
,
0001
0100
0001
0010
0001
2000
0000
3010
,
0200
0000
0310
2000
0000
3001
0010
0001
,
1000
0100
0010
0100
1000
0020
0000
0130
,
0002
0000
0000
0000
0103
0000
0001
0000
1000
0000
0000
0001
0000
0000
0010
0000
,
0100
0010
0001
0000
0100
0010
1000
0000
,
0001
0010
0100
1000
0001
0100
0001
1000
,
0020
0000
1030
0100
0010
0100
1000
0010
,
0200
0000
0301
0010
0100
0010
0001
1000
,
0002
0000
1003
0010
0100
0010
1000
0001
,
2000
0000
0000
0000
3010
0000
1000
0000
0100
0000
0000
0001
0000
0000
0100
0000
,
0020
0000
0031
0100
0001
1000
0001
0010
,
0200
0000
0000
0000
1300
0000
0100
0000
1000
0000
0000
0010
0000
0000
0100
0000
,
0002
0000
1003
0010
0100
0010
1000
0001
,
2000
0000
0002
3003
,
1000
0000
0100
0000
0010
0000
0000
0100
0000
0000
1000
0000
0010
0000
0000
0100
,
0000
0000
0010
0000
1000
0000
0000
0100
0000
0000
1000
0000
0010
0000
0100
0000
,
0001
0000
0010
0000
0100
0000
0000
0010
0000
0000
0001
0000
0100
0000
0000
0010
,
0000
0000
0100
0000
0001
0000
0000
0010
0000
0000
0100
0000
0010
0000
0001
0000
,
1000
0000
0100
0000
0001
0000
0000
0100
0000
0000
1000
0000
0010
0000
0000
0001
,
0000
0000
0010
0000
1000
0000
0000
0100
0000
0000
0001
0000
0100
0000
1000
0000
,
0010
0100
0010
0100
0010
0100
0010
1000
,
0001
0000
0010
0000
0001
0000
0010
0000
0001
0000
0000
1000
0000
0000
0001
0000
,
1000
0100
1000
0100
1000
0100
0010
0100
,
1000
0000
0001
0000
1000
0000
0001
0000
1000
0000
0000
0010
0000
0000
0100
0000
,
0002
0000
2003
0000
0010
0000
3100
1000
,
0001
0000
0010
0000
0200
0000
0000
0000
0310
0000
0001
0000
0100
0000
0000
0001
,
0000
1000
0020
0000
1030
0100
2000
0000
,
3001
0000
0200
0000
0000
0000
0310
0000
0100
0000
0001
0000
0010
0000
0000
0001
,
0000
1000
0020
0000
1030
0001
0100
0001
,
1000
0000
0001
0000
0020
0000
0000
0000
0031
0000
1000
0000
0100
0000
0000
1000
,
0000
0001
0200
0000
0310
0100
0001
0010
,
0001
1000
0001
0001
0001
0001
1000
1000
,
1000
1000
0010
0100
0001
0020
0001
0000
,
0130
0000
0001
0010
0100
1000
0010
0100
,
0010
1000
0100
1000
0010
0200
1000
0000
,
0310
0000
1000
0100
0010
0001
1000
0010
,
0001
0010
2000
0000
3100
0010
0100
1000
,
0010
0000
0100
0000
0002
0000
0000
0000
1003
0000
0010
0000
0100
0000
0000
0010
,
0000
1000
0001
0010
0001
0010
0001
1000
,
0001
1000
0010
0100
0010
0100
0010
1000
,
0001
1000
0002
0000
0000
0000
0010
0000
,
0000
1000
0000
0103
,
0000
2000
0000
0010
,
0000
0001
0001
3100
,
0000
0020
0000
0100
,
0000
0001
0000
1030
,
0000
0200
0000
0010
,
0000
0000
0301
0000
0000
1000
1001
0000
,
0000
0000
0000
0000
0101
0000
0000
0001
0100
0000
0000
0100
0010
0000
0000
0010
,
1000
0000
0000
1000
0001
0000
0000
0001
0010
0000
0000
0010
0100
0000
0000
0100
,
1000
0000
0000
1000
0020
0000
0000
0000
0000
0000
0000
0000
0000
0000
0000
0000
,
0000
0000
0000
0000
,
0000
0030
0000
0000
;

//---------------dance-single - ----------------
#NOTES:
     dance-single:
     :
     Hard:
     14:
     0.618,0.642,0.064,0.257,0.442: // measure 1
0000
0000
0000
0000
,  // measure 2
0000
0000
0000
0000
,  // measure 3
0000
0000
0000
0000
,  // measure 4
0000
0000
0000
0000
,  // measure 5
0000
0000
0000
0000
,  // measure 6
0001
1000
0000
0000
1000
0001
0000
0000
0001
0100
0000
0000
0100
0010
0000
0000
,  // measure 7
0010
1000
0000
0000
1000
0100
0000
0000
0010
0000
0100
0000
2001
0000
0000
0000
,  // measure 8
0020
0000
0000
3030
,  // measure 9
0100
0001
0000
0001
0100
0000
0001
0010
0000
0000
0001
0000
1000
0000
0100
0000
,  // measure 10
1000
0010
0000
0010
1000
0000
0100
1000
0000
0000
0001
0000
1000
0000
0100
0000
,  // measure 11
0010
0100
0000
0100
0010
0000
0001
0010
0000
0000
0001
0000
0100
0000
0010
0000
,  // measure 12
1000
0001
0000
0001
0100
0000
0001
1000
0000
0000
0100
0000
0010
0000
0100
0000
,  // measure 13
1000
0000
0010
0000
1000
0100
0000
0100
1000
0000
0001
0000
1000
0010
0000
0010
,  // measure 14
1000
0000
0001
0000
0010
0100
0000
0100
0010
0000
0001
0000
0100
0010
0000
0010
,  // measure 15
0100
0000
0001
0000
0010
0001
0000
0001
1000
0000
0001
0000
1000
0010
0000
0010
,  // measure 16
1000
0000
0001
0000
1000
0100
0000
0100
0010
0000
0001
0000
0100
0010
0000
0010
,  // measure 17
1000
0000
0001
0000
0100
0001
0000
0010
0001
0000
1000
0000
0001
0010
0000
0001
,  // measure 18
1000
0000
0001
0000
0100
0001
0000
0100
0010
0000
1000
0000
0001
0010
0000
0100
,  // measure 19
1000
0000
0100
0000
1000
0010
0000
1000
0100
0000
1000
0000
0001
0100
0000
0001
,  // measure 20
1000
0000
0010
0000
0100
0010
0000
1000
0010
0000
1000
0000
0100
0010
0000
0100
,  // measure 21
1000
0000
0001
0000
0100
0001
0000
0001
0010
0000
0001
0000
1000
0010
0000
0100
,  // measure 22
0010
0000
1000
0000
0100
1000
0000
1000
0001
0000
0100
0000
0010
1000
0000
0001
,  // measure 23
1000
0000
0001
0000
0100
0010
0000
0010
1000
0000
0010
0100
0000
0100
0001
1000
,  // measure 24
0001
0000
0000
1000
0000
0000
1000
0000
0001
0000
0100
0000
0010
0000
1000
0000
,  // measure 25
0001
0000
0010
0001
0010
0000
0001
0000
1000
0000
0001
0000
0010
0000
0100
0000
,  // measure 26
1000
0001
0010
1000
0010
0100
1000
0001
,  // measure 27
1000
0000
0010
1000
0010
0000
1000
0000
0001
0000
1000
0000
0010
0000
0100
0000
,  // measure 28
0001
0100
1000
0100
0010
1000
0001
0010
,  // measure 29
0001
0000
0100
0010
0100
0000
0001
0000
1000
0000
0010
0000
0100
0000
0001
0000
,  // measure 30
1000
0000
0100
0000
0001
0000
0100
0000
0010
0000
0001
0100
0000
0100
0010
0000
,  // measure 31
1000
0010
1000
0000
0001
0000
0100
0000
0001
0010
0001
0000
1000
0000
0100
0000
,  // measure 32
2000
0000
0000
0000
0000
0000
0000
0000
3001
1000
0001
0000
1000
0000
0001
0000
,  // measure 33
2001
0000
0000
0000
3010
0000
0000
1000
0100
0000
0010
0000
0100
0000
1000
0000
,  // measure 34
0020
0000
0000
0000
0130
0000
0000
0001
0100
0000
0001
0000
0010
0000
0001
0000
,  // measure 35
2000
0000
0000
0000
3010
0000
0000
1000
0100
0000
1000
0000
0001
0000
0010
0000
,  // measure 36
0002
0000
0000
0000
0103
0000
0001
0100
0001
0000
0000
1000
0100
0000
1000
0000
,  // measure 37
0020
0000
0000
0000
0130
0000
0000
0010
1000
0000
0001
0000
1000
0000
0100
0000
,  // measure 38
0020
0000
0000
0000
0130
0000
1000
0000
0001
0000
0000
0001
0100
0000
0001
0000
,  // measure 39
1000
0100
0001
0100
1000
0010
0001
0010
,  // measure 40
2000
0000
0000
0000
0000
0000
0000
0000
3001
1000
0001
0000
1000
0000
0001
1000
,  // measure 41
0001
0010
0001
0000
1000
0000
0100
0010
0000
0000
0100
0000
1000
0000
0001
0000
,  // measure 42
0100
0010
0100
0000
0010
0000
1000
0010
0000
0000
0100
0000
0001
0000
1000
0000
,  // measure 43
0001
0100
0001
0000
1000
0000
0100
0010
0000
0000
0100
0000
1000
0000
0001
0000
,  // measure 44
0010
0100
0010
0000
0001
0000
0100
0010
0000
0000
0100
0000
0001
0000
1000
0001
,  // measure 45
1000
0100
1000
0000
0001
0000
1000
0100
0000
0100
1000
0000
0001
0000
1000
0000
,  // measure 46
0001
0100
0001
0000
1000
0000
0001
0100
0000
0100
0001
0000
1000
0000
0010
0000
,  // measure 47
1000
0100
0001
0100
0010
0001
1000
0001
,  // measure 48
0100
0000
0001
0000
0100
0010
0100
0000
0010
0000
1000
0010
0000
0010
1000
0000
,  // measure 49
0001
0010
1000
0010
0100
1000
0001
0100
,  // measure 50
0010
0000
1000
0000
0001
0010
0001
0000
1000
0000
0001
0100
0000
0100
0001
0000
,  // measure 51
2000
3001
1002
0000
1003
0010
0100
0010
,  // measure 52
1000
0000
0002
0000
0000
0000
0013
0000
0001
0000
0100
0000
0001
0000
0010
0100
,  // measure 53
0000
0100
1000
0000
0002
0000
0000
0000
0103
0000
0001
0000
2000
0000
0000
0000
,  // measure 54
3010
0000
0200
0000
0000
0000
0301
0000
0100
0000
0001
0000
1000
0000
0100
0010
,  // measure 55
0000
0010
0001
0000
2000
0000
0000
0000
3010
0000
1000
0000
0001
0000
0100
0000
,  // measure 56
1000
0000
0100
0000
0002
0000
0000
0000
0013
0000
0001
0000
1000
0000
0010
1000
,  // measure 57
0000
1000
0001
0000
0020
0000
0000
0000
0031
0000
0100
0000
0001
0000
2000
0000
,  // measure 58
0010
3002
1000
1003
1000
1000
0001
0001
,  // measure 59
0001
0001
0011
0100
1000
0020
0100
0000
,  // measure 60
0031
0000
0000
0000
1000
0000
0100
0000
0010
0000
0100
1000
0100
0000
1000
0000
,  // measure 61
0010
0100
0001
0010
0001
0200
0010
0000
,  // measure 62
1300
0000
0000
0000
0001
0000
0010
0000
0100
0000
0010
0001
0010
0000
0001
0000
,  // measure 63
0100
0010
2000
0000
3001
0100
0001
1000
,  // measure 64
0100
0000
0010
0000
0002
0000
0000
0000
0103
0000
1000
0000
0100
0000
0010
0100
,  // measure 65
0000
0100
0001
0000
1000
0100
1000
0000
0001
0000
0100
0000
0001
0010
0001
0000
,  // measure 66
1000
0000
0001
0000
1000
0010
1000
0010
1000
0001
1000
0001
0200
0000
0000
0000
,  // measure 67
0320
2030
0000
0100
,  // measure 68
0000
0001
0000
0100
,  // measure 69
3100
0002
0000
0100
,  // measure 70
0000
1000
0010
1000
,  // measure 71
0103
0020
0000
0100
,  // measure 72
1000
0000
0031
1000
0100
0000
2002
0000
,  // measure 73
3003
0000
0220
0000
0330
0000
0001
0100
,  // measure 74
0010
0000
2010
0000
0000
3001
1001
0000
,  // measure 75
0000
0000
0000
0000
1100
0000
1000
0001
1000
0000
0001
0100
0001
0000
0010
0001
,  // measure 76
0010
0000
0001
1000
0001
0000
0000
0001
1000
0000
0000
1000
0001
0000
0100
0000
,  // measure 77
0010
1000
0200
0000
0000
0000
0000
0000
,  // measure 78
0000
0000
0000
0000
,  // measure 79
0000
0300
0000
0000
;

//---------------dance-single - ----------------
#NOTES:
     dance-single:
     :
     Challenge:
     17:
     0.808,0.893,0.136,0.207,0.956: // measure 1
0000
0000
0000
0000
,  // measure 2
0000
0000
0000
0000
,  // measure 3
0000
0000
0000
0000
,  // measure 4
0000
0000
0000
0000
,  // measure 5
0000
0000
0000
0000
,  // measure 6
1010
0010
0100
0000
0011
0010
0100
0000
1010
0010
1000
0000
0011
0010
0001
0000
,  // measure 7
1100
0100
1000
0000
0101
0100
0001
0000
0110
0000
1010
0000
2001
0000
0000
0000
,  // measure 8
0020
0000
0000
3030
,  // measure 9
1000
0100
0000
0010
0100
0000
1000
0010
0000
1000
0001
0000
0100
0000
0001
0100
,  // measure 10
0001
0010
0000
0100
0010
0000
0001
1000
0000
0010
0100
0000
0010
0000
1000
0010
,  // measure 11
1000
0100
0000
1000
0001
0000
0100
0010
0000
1000
0010
0000
1000
0000
0001
0010
,  // measure 12
0001
0100
0000
0001
1000
0000
0010
0100
0000
0010
1000
0000
0001
0000
1000
0100
,  // measure 13
0010
0100
1000
0000
0001
0010
0000
0010
0100
1000
0001
0000
1000
0010
0000
0010
,  // measure 14
0100
0001
1000
0000
0001
0010
0000
0010
0100
1000
0001
0000
1000
0010
0000
0010
,  // measure 15
0100
0010
1000
0000
0001
0010
0000
0010
0100
0010
0001
0000
1000
0010
0000
0010
,  // measure 16
1000
0100
1000
0000
0001
0010
0000
0010
0001
0100
0001
0000
1000
0100
0000
1000
,  // measure 17
0001
0010
0001
0000
0100
0001
0000
0100
0010
0100
0001
0000
0010
0001
0000
1000
,  // measure 18
0010
1000
0001
0000
0010
0100
0000
0010
0001
1000
0001
0000
0100
0010
0000
0100
,  // measure 19
0001
0100
0010
0000
1000
0010
0000
1000
0100
1000
0001
0000
1000
0010
0000
0100
,  // measure 20
0010
1000
0001
0000
0010
0100
0000
0010
0001
1000
0001
0000
0010
0001
0000
1000
,  // measure 21
0010
1000
0010
1000
0100
0010
0000
0010
0001
0100
0001
0100
0010
1000
0000
1000
,  // measure 22
0010
0100
0010
0100
0001
0010
0000
0010
0100
1000
0100
1000
0001
0100
0000
0100
,  // measure 23
0010
1000
0010
1000
0001
0100
0001
0100
0010
1000
0010
1000
0001
1000
0001
1000
,  // measure 24
0100
0000
0000
0110
0000
0000
0011
0000
1000
0000
1000
0000
0001
0000
1000
0000
,  // measure 25
0001
0000
0010
0000
0100
0000
1000
0000
0001
0010
0100
0010
0001
0010
0100
0000
,  // measure 26
1000
0001
0010
0001
1000
0001
0010
0001
0100
0001
0100
0000
0001
1000
0100
1000
,  // measure 27
0010
0100
0001
0100
0010
0100
0001
0000
1000
0010
0100
0010
1000
0010
0100
0010
,  // measure 28
1000
0100
1000
0100
1000
0001
1000
0000
0001
0100
0001
0100
0001
1000
0001
0000
,  // measure 29
0010
0001
1000
0001
0010
0000
0001
0000
0100
0000
1000
0000
0100
0000
0010
0000
,  // measure 30
2000
0000
0000
0000
3100
0000
0010
0000
0001
0000
0100
1000
0000
0100
0001
0000
,  // measure 31
0010
0001
0010
0000
0001
0100
0001
0000
1000
0010
1000
0000
0001
0100
0001
0000
,  // measure 32
0020
0000
0000
0000
0130
0000
0000
1000
0001
0100
0001
0000
1001
0000
0001
1000
,  // measure 33
0020
0000
0000
0000
0000
0000
0130
0001
0100
0010
0000
0010
1000
0000
0001
0010
,  // measure 34
0200
0000
0000
0000
0000
0000
1300
0100
0010
0000
0100
0000
1000
0000
0100
0000
,  // measure 35
0002
0000
0000
0000
0000
0000
0103
1000
0100
0001
0100
0000
0010
0000
0001
1000
,  // measure 36
0002
0000
0000
0000
0000
0000
1003
0000
0010
0000
0000
0100
0010
0000
1000
0000
,  // measure 37
1010
0000
0010
0000
1000
0000
0010
0001
0010
1000
0010
0000
1000
0000
0001
0010
,  // measure 38
0100
0000
0010
0000
0001
0000
0100
1000
0100
0000
0010
1000
0000
0001
1000
0001
,  // measure 39
0010
1000
0010
0100
0010
0001
0010
0100
,  // measure 40
0010
0000
0000
0000
0010
0000
0000
0000
0001
1000
0001
0000
1001
0000
1000
0010
,  // measure 41
1000
0100
1000
0100
0010
0100
1000
0100
1000
0010
1000
0010
0100
0010
1000
0010
,  // measure 42
1000
0100
1000
0100
0010
0100
1000
0100
1000
0001
0100
0001
1000
0001
0010
0000
,  // measure 43
0001
0010
0001
0010
0100
0010
0001
0010
0001
0100
0001
0100
0010
0100
0001
0100
,  // measure 44
0001
0010
0001
0010
0100
0010
0001
0010
0001
1000
0010
1000
0001
1000
0100
0000
,  // measure 45
1000
0010
0100
0000
0001
0010
0000
0001
1000
0100
0010
0000
0001
0100
0000
0001
,  // measure 46
1000
0010
0100
0000
0010
1000
0000
0001
0010
0100
1000
0100
0010
0001
1000
0001
,  // measure 47
1000
1000
0100
0100
0010
0010
0001
0001
,  // measure 48
1000
0010
1000
0010
0001
0010
0001
0010
1000
0000
0001
0100
0000
0001
0010
0100
,  // measure 49
1000
1000
0010
0010
0100
0100
0001
0001
,  // measure 50
1000
0100
1000
0100
1000
0100
1000
0100
0001
0100
0001
0100
0001
0100
0001
0100
,  // measure 51
1000
0010
0000
0000
1000
0000
0000
0000
0001
0000
0000
0000
0100
0000
0000
0000
0002
0000
0000
0000
0000
0000
0000
0000
0000
0000
0000
0000
0000
0000
0000
0000
0013
0000
0000
0000
0000
0000
0000
0000
0001
0000
0000
0000
0000
0000
0000
0000
0100
0000
0000
0000
0000
0000
0000
0000
0010
0000
0000
0000
1000
0000
0000
0000
,  // measure 52
0001
0000
1000
0000
0100
0000
0010
0000
0100
0000
1000
0010
0100
0000
0010
1000
,  // measure 53
0000
0001
1000
0000
0001
0000
0100
0000
1000
0000
0100
0000
0020
0000
0000
0000
,  // measure 54
1030
0000
0200
0000
0000
0000
1300
0000
0010
0000
0100
0000
0001
0000
0010
0100
,  // measure 55
0000
1000
0100
0000
0001
0000
0100
0000
1000
0000
0100
0000
0010
0000
0001
0000
,  // measure 56
0100
0000
1000
0000
0200
0000
0000
0000
0310
0000
1000
0000
0001
0000
0010
0100
,  // measure 57
0000
0100
1000
0000
0001
0100
0001
0100
0001
0100
0001
0100
0010
1000
0010
1000
,  // measure 58
0010
1000
0010
1000
0001
0010
0001
0010
0001
0010
0001
0010
0100
0000
1100
0000
,  // measure 59
0101
0000
1100
0000
2000
0000
0010
0000
0100
0000
3001
0000
1000
0100
0001
0100
,  // measure 60
1000
0100
0001
0100
1000
0100
0002
0000
0000
0000
1003
0000
0010
0000
0100
0000
,  // measure 61
1000
0000
0001
0000
0200
0000
1000
0000
0001
0000
0310
0000
0001
0010
1000
0010
,  // measure 62
0001
0010
1000
0010
0001
0010
2000
0000
0000
0000
3001
0000
0100
0010
0001
0000
,  // measure 63
1000
0010
0100
0000
0010
0000
1000
0000
0100
0000
1000
0000
0010
0000
0100
0000
,  // measure 64
0001
0000
0010
0000
0001
0000
0100
0000
0010
0000
1000
0000
0001
0000
0010
1000
,  // measure 65
0000
1000
0010
0000
0001
0100
0001
0100
0001
0100
0001
0100
0010
1000
0010
1000
,  // measure 66
0010
1000
0010
1000
0100
1000
0100
1000
0100
1000
0100
1000
0100
0010
0100
0010
,  // measure 67
0001
1000
0001
1000
0010
0000
1000
0000
0100
0000
0010
0000
0001
0000
0100
0000
,  // measure 68
0010
2000
0000
3002
0000
0013
0001
1000
,  // measure 69
0100
1000
0010
0100
0001
0010
1000
0010
,  // measure 70
0100
0010
0002
0000
0203
0000
2300
0000
,  // measure 71
3020
0000
1030
0100
0001
0100
1000
0010
,  // measure 72
0100
0001
1000
0010
0002
0000
0023
0000
,  // measure 73
0000
0000
0230
0000
0000
1300
0001
0200
,  // measure 74
0000
0000
0320
0000
0000
1030
1100
0000
,  // measure 75
0000
0000
0000
0000
0000
0000
0000
0000
1000
0010
0000
0000
0000
0000
0000
0000
1000
0010
0000
0000
0000
0000
0000
0000
1000
0010
0000
0000
0000
0000
0000
0000
,  // measure 76
1000
0010
0000
0000
0000
0000
0000
0000
0100
0001
0000
0000
0000
0000
0000
0000
0100
1000
0000
0000
0000
0000
0000
0000
0100
0000
0000
0000
0100
0000
0000
0000
,  // measure 77
0010
0010
2002
0000
0000
0000
0000
0000
,  // measure 78
0000
0000
0000
0000
,  // measure 79
0000
3003
0000
0000
;
