#TITLE:Your Body;
#SUBTITLE:;
#ARTIST:good-cool feat. Andrēa L. Hopkins;
#TITLETRANSLIT:;
#SUBTITLETRANSLIT:;
#ARTISTTRANSLIT:good-cool feat. Andrea L. Hopkins;
#GENRE:;
#CREDIT:;
#MENUCOLOR:;
#METERTYPE:DDR;
#BANNER:Your Body.png;
#BACKGROUND:Your Body-bg.png;
#LYRICSPATH:;
#CDTITLE:./CDTITLES/BEATMANIA IIDX.PNG;
#MUSIC:Your Body.ogg;
#OFFSET:0.000;
#SAMPLESTART:55.680;
#SAMPLELENGTH:15.000;
#SELECTABLE:YES;
#LISTSORT:;
#BPMS:0.000=125.000;
#STOPS:;
#BGCHANGES:3.000=Your Body.avi=1.000=0=0=0,
99999=-nosongbg-=1.000=0=0=0 // don't automatically add -songbackground-
;
#ATTACKS:;

//---------------dance-single - ----------------
#NOTES:
     dance-single:
     :
     Beginner:
     1:
     0.079,0.100,0.000,0.000,0.000:
0000
0000
0000
0000
,
0000
0000
0000
0000
,
0000
0000
0000
0000
,
0000
0000
0000
0000
,
0000
0000
0000
0000
,
1000
0000
0000
0000
,
0001
0000
0000
0000
,
1000
0000
0000
0000
,
0001
0000
0000
0000
,
0100
0000
0000
0000
,
0010
0000
0000
0000
,
1000
0000
0000
0000
,
0001
0000
0000
0000
,
0000
1000
0000
0000
,
0000
0001
0000
0000
,
0000
0100
0000
0000
,
0000
0010
0000
0000
,
0000
0100
0000
0000
,
0000
0010
0000
0000
,
0000
1000
0000
0000
,
0001
0000
0000
0000
,
0000
1000
0000
0001
,
0000
1000
0000
0000
,
0000
0001
0000
1000
,
0000
0001
0000
0000
,
0100
0000
0000
0000
,
0010
0000
0000
0000
,
1000
0000
0100
0000
,
0010
0000
0001
0000
,
0010
0000
0000
0000
,
0001
0000
0000
0000
,
0100
0000
0000
0000
,
0010
0000
1000
0000
,
0001
0000
0000
0000
,
1000
0000
0000
0000
,
0001
0000
0000
0000
,
0010
0000
0000
0000
,
0100
0000
0000
0000
,
0010
0000
0000
0000
,
0001
0000
0000
0000
,
1000
0000
0000
0000
,
0010
0000
0000
0000
,
0100
0000
0000
0000
,
0001
0000
1000
0000
,
0001
0000
0100
0000
,
0010
0000
0000
0000
,
0100
0000
0000
0000
,
0010
0000
0000
0000
,
1000
0000
0000
0000
,
0100
0000
0000
0000
,
0001
0000
0000
0000
,
0100
0000
0000
0000
,
1000
0000
0010
0000
,
0100
0000
0000
0000
,
0010
0000
0000
0000
,
1000
0000
0000
0000
,
0001
0000
0100
0000
,
0001
0000
0000
0000
,
1000
0000
0000
0000
,
0100
0000
1000
0000
,
0010
0000
0100
0000
;

//---------------dance-single - ----------------
#NOTES:
     dance-single:
     :
     Easy:
     3:
     0.118,0.152,0.025,0.082,0.000:
0000
0000
0000
0000
,
0000
0000
0000
0000
,
0000
0000
0000
0000
,
0000
0000
0000
0000
,
0000
0000
0000
0000
,
0010
0000
0000
0000
,
0100
0000
0000
0000
,
0010
0000
1000
0000
,
0001
0000
0100
0000
,
1001
0000
0000
0000
,
0010
0000
0000
0000
,
0100
0000
0001
0000
,
1000
0000
0000
0000
,
0002
0000
0000
0003
,
2000
0000
0000
3000
,
0020
0000
0000
0030
,
0200
0000
0000
0300
,
0000
0010
0000
1000
,
0000
0001
0000
0100
,
0000
0001
0000
1000
,
0000
0100
0000
0010
,
0002
0000
0000
0003
,
0020
0000
0000
0030
,
0100
0000
1000
0000
,
0010
0000
0100
0000
,
0002
0000
0000
0003
,
2000
0000
0000
3000
,
0010
0000
0100
0000
,
0001
1000
0100
0000
,
0010
0000
0000
0000
,
0001
0000
0000
0000
,
1000
0000
0000
0000
,
0100
0000
0000
1000
,
1000
0000
0000
0000
,
0001
0000
0000
0000
,
0100
0000
0000
0000
,
0010
0000
1000
0000
,
0001
0000
0100
0000
,
0001
0000
0000
0000
,
1000
0000
0100
0000
,
1000
0000
0000
0010
,
0100
0000
0000
0001
,
1000
0000
0000
0001
,
0100
0000
0001
0000
,
1000
0000
0000
0000
,
0100
0000
0000
0000
,
0010
0000
0000
0000
,
0001
0000
0000
0000
,
0010
0000
0001
0000
,
0100
0000
1000
0000
,
0100
0000
0001
0000
,
0010
0000
1000
0000
,
0010
0000
0001
0000
,
0110
0000
1000
0000
,
0001
0000
0000
0000
,
0100
0000
0010
0000
,
1000
0000
1000
0000
,
0001
0000
0000
0000
,
0100
0000
0000
0000
,
0001
0000
1000
0000
,
0100
0000
0000
0000
0010
0000
0000
2002
,
0000
0000
0000
3003
;

//---------------dance-single - ----------------
#NOTES:
     dance-single:
     :
     Medium:
     7:
     0.328,0.381,0.107,0.173,0.016:
0000
0000
0000
0000
,
0000
0000
0000
0000
,
0000
0000
0000
0000
,
0000
0000
0000
0000
,
0000
0000
0000
0000
,
1001
0000
0000
0000
0000
0000
0010
0000
0100
0000
0000
0000
0001
0000
0000
2000
,
0000
0000
0000
3000
,
0001
0100
0001
0000
1000
0100
1000
0000
,
0010
0100
0010
1000
,
1001
0000
0000
0000
0000
0000
0001
0000
1000
0000
0000
0000
0010
0000
0000
0200
,
0000
0000
0000
0300
,
0010
1000
0001
0000
1000
0001
0100
0000
,
0001
0100
0010
1000
,
1001
0000
0001
0000
0100
0000
0010
1000
,
0100
0010
0001
0010
,
0100
0000
0010
0000
0001
0000
0100
0010
,
1000
0000
0010
0000
1000
0001
0100
0000
,
1001
0000
0001
0000
0010
0000
0100
0010
,
0001
0010
0100
1000
,
0100
0000
1000
0000
0010
0000
0100
0001
,
2000
0000
0000
3000
,
0001
0010
0100
0010
,
0001
0100
1000
0100
,
0001
0010
1000
0010
,
0001
0100
1000
0100
,
0220
0000
0000
0330
,
2002
0000
0000
3003
,
1000
0100
0010
0001
,
1000
0100
0010
0000
2002
0000
3003
0000
,
0001
0100
0000
0001
1000
0000
0001
0000
,
0100
0010
1000
0100
,
0010
0001
0000
0001
0010
0000
0100
0000
,
0010
0001
0100
0010
,
1000
0010
0000
0100
0001
0000
1000
0000
,
0001
0100
0001
1000
,
0001
0010
0000
0100
0010
0000
0001
0000
,
0100
0010
1000
0001
,
1000
1000
0000
0001
0001
0000
1000
0000
,
0001
0100
0001
1000
,
0010
0010
0000
0100
0100
0000
0010
0000
,
0100
0001
1000
0100
,
0010
0010
0000
0001
0001
0000
1000
0000
,
0001
0000
0100
0000
0010
1000
0100
0000
,
1000
1000
0000
0100
0100
0000
1000
0000
,
0010
0000
0100
0000
0001
1000
0001
0000
,
1000
0001
0100
0000
0001
0100
0001
0000
,
1000
0010
1000
0000
0001
1000
0001
0000
,
1000
0100
0010
0000
0001
0010
0100
0000
,
1000
0010
0220
0330
,
0002
0023
0230
2300
,
3200
0320
0032
0203
,
0310
1000
0001
0000
1000
0001
0100
0000
,
0001
0000
0000
0000
0101
0000
0000
0000
0010
0000
1000
0000
0000
1001
0000
0000
,
0101
0001
0100
0000
0010
1000
0001
0000
,
1000
0000
0100
0000
0010
0001
0100
0000
,
0001
0000
0100
0000
0010
1000
0001
0000
,
1000
0000
0001
0000
1000
0001
0100
0000
,
1001
0000
0010
0000
0100
0010
1000
0000
,
0010
0000
0100
0000
0001
0100
0001
0000
,
1000
0100
0010
0001
,
1000
0000
0100
0000
0010
0000
0000
0000
0001
0000
0000
0100
0000
0000
2002
0000
,
0000
0000
0000
3003
;

//---------------dance-single - ----------------
#NOTES:
     dance-single:
     :
     Hard:
     11:
     0.462,0.533,0.140,0.313,0.387: // measure 1
0000
0000
0000
0000
,  // measure 2
0000
0000
0000
0000
,  // measure 3
0000
0000
0000
0000
,  // measure 4
0000
0000
0000
0000
,  // measure 5
0000
0000
0000
0000
,  // measure 6
1001
0000
0000
0000
0000
0001
0100
0000
0001
0000
1000
0000
0100
0010
0000
2002
,  // measure 7
0000
0000
0000
3003
,  // measure 8
0010
0100
0000
0010
0000
1000
0000
0001
0000
1000
0100
0000
0010
0000
0001
0010
,  // measure 9
0000
0100
0010
0001
0000
0010
0100
1000
,  // measure 10
1001
0000
0000
0000
0000
1000
0100
0000
1000
0000
0010
0000
0100
0001
0000
0202
,  // measure 11
0000
0000
0000
0303
,  // measure 12
0010
0000
1000
0001
0000
0100
0001
0000
1000
0000
0001
0000
0010
0000
0100
1000
,  // measure 13
0000
2000
0000
3000
,  // measure 14
1001
0000
0010
0000
0100
0000
0000
0001
0000
0100
0001
0000
1000
0000
0100
0000
,  // measure 15
0010
0000
0001
0000
1000
0100
0000
1000
0000
0010
0100
0000
0001
0000
1000
0000
,  // measure 16
0001
0010
0100
0000
1000
0100
0010
0002
,  // measure 17
0000
1000
0100
1003
,  // measure 18
1001
0000
0100
0000
0010
0000
0000
0001
0000
1000
0001
0000
0100
0000
0010
0000
,  // measure 19
1000
0000
0010
0000
0100
0010
0000
1000
0000
0100
1000
0000
0001
0000
0100
0000
,  // measure 20
0001
0010
0100
1000
0001
0000
1000
0200
,  // measure 21
0000
0000
0000
0300
,  // measure 22
0010
0000
0001
0000
0010
0000
0000
0100
0010
0000
0001
0000
0100
0000
0000
0000
,  // measure 23
0010
0000
1000
0000
0010
0000
0000
0100
0001
0000
1000
0000
0001
0000
0000
0000
,  // measure 24
1000
0100
0020
0000
0001
0000
0130
0000
,  // measure 25
0001
0010
0200
0000
1000
0000
0301
0000
,  // measure 26
1001
0000
0001
0000
0100
0000
0000
0010
1000
0000
0001
0000
0100
0000
0000
0000
,  // measure 27
0001
0000
0010
0000
0100
0000
0000
1000
0100
0000
0001
0000
0100
0000
0000
0000
,  // measure 28
0020
2030
3002
0203
,  // measure 29
0301
0000
0010
0000
0100
0000
1000
0200
0000
0000
0000
0000
0300
0000
0000
0000
,  // measure 30
0010
0001
0000
1000
0000
0000
0001
0100
0000
0001
0000
0000
1000
0000
0010
0000
,  // measure 31
0100
0001
0000
0200
0000
0000
0000
0000
0000
0000
0000
0000
0300
0000
0000
0000
,  // measure 32
0010
1000
0000
0100
0000
0000
0010
0001
0000
0010
0000
0000
0001
0000
0100
0000
,  // measure 33
0020
1000
0100
0031
,  // measure 34
1000
0100
0000
1000
0000
0000
0001
0100
0000
0001
0000
0000
1000
0000
0010
0000
,  // measure 35
0100
0001
0000
2000
0000
0000
0000
0000
0000
0000
0000
0000
3000
0000
0000
0000
,  // measure 36
0001
0010
0000
0001
0000
0000
1000
0001
0000
0100
0000
0000
0010
0000
0100
0000
,  // measure 37
0002
0010
0100
1003
,  // measure 38
0001
1000
0000
0100
0000
0000
0010
0100
0000
1000
0000
0000
0100
0000
0010
0000
,  // measure 39
0001
0100
0000
0220
0000
0000
0000
0000
0000
0000
0000
0000
0330
0000
0000
0000
,  // measure 40
1000
0001
0000
0100
0000
0000
0001
1000
0000
0010
0000
0000
0100
0000
0001
0000
,  // measure 41
2000
0010
0100
3001
,  // measure 42
0010
0001
0000
0100
0000
0000
0010
1000
0000
0001
0000
0000
0100
0000
0001
0000
,  // measure 43
1000
0100
0000
2200
0000
0000
0000
0000
0000
0000
0000
0000
3300
0000
0000
0000
,  // measure 44
0010
0100
0000
1000
0000
0000
0100
0010
0000
0001
0000
0000
0100
0000
0001
0000
,  // measure 45
2000
0001
0100
3001
,  // measure 46
1001
0000
0001
0000
0100
0000
0001
0000
1000
0000
0001
0200
0000
0000
0000
0000
,  // measure 47
0300
0010
2000
0000
3002
0000
1003
0200
,  // measure 48
0000
0000
0310
0000
0001
0000
0010
0000
0100
0000
1000
0100
0000
0000
0000
0000
,  // measure 49
1000
0000
0001
0000
0100
0001
0000
2000
0000
0000
0000
0000
3000
0000
0001
0000
,  // measure 50
0010
0010
0001
0001
0100
0100
1000
1000
,  // measure 51
0100
0100
0001
0001
0010
0010
1000
1000
,  // measure 52
0010
0001
0200
0000
0310
1000
0200
0000
,  // measure 53
1300
0000
0100
0000
0010
0000
0001
0000
1000
0000
1001
0000
0000
1001
0000
0000
,  // measure 54
0101
0000
0001
0000
0100
0001
1000
0000
0001
0000
0100
0000
0001
0010
0000
0220
,  // measure 55
0000
0000
0000
0330
,  // measure 56
0010
0001
0000
1000
0000
0001
0000
0100
0000
0001
0010
0000
0100
0000
1000
0200
,  // measure 57
0000
0000
1300
0000
0001
0100
0010
0000
,  // measure 58
1001
0000
0001
0000
1000
0100
0010
0000
0001
0000
0100
0000
0001
0010
0000
0022
,  // measure 59
0000
0000
0000
0033
,  // measure 60
0001
0010
0001
0010
0000
0100
1000
0100
0000
1000
0001
0000
0100
0000
0001
1000
,  // measure 61
0001
0000
0001
0000
0100
0000
0000
0000
0010
0000
0000
1000
0000
0000
2002
0000
,  // measure 62
0000
0000
0000
3003
;

//---------------dance-single - ----------------
#NOTES:
     dance-single:
     :
     Challenge:
     15:
     0.708,0.711,0.197,0.247,0.671: // measure 1
0000
0000
0000
0000
,  // measure 2
0000
0000
0000
0000
,  // measure 3
0000
0000
0000
0000
,  // measure 4
0000
0000
0000
0000
,  // measure 5
0000
0000
0000
0000
,  // measure 6
1010
0000
0000
0000
0000
0001
0100
0000
0001
0000
0010
0000
0001
1000
0000
0100
,  // measure 7
2000
0000
0000
3010
1000
0000
0010
0000
0100
0000
0100
0000
0001
0000
0100
0000
,  // measure 8
0001
0010
0000
0010
0000
0001
0000
0001
0000
0100
0001
0100
0001
1000
0001
1000
,  // measure 9
0010
0100
0000
0010
1000
0000
0010
0000
1000
0000
0100
0000
1000
0001
1000
0000
,  // measure 10
0110
0000
0000
0000
0000
1000
0010
0000
1000
0000
0100
0000
0010
0100
0000
1000
,  // measure 11
0020
0000
0000
1030
0010
0000
0010
0000
0100
0000
0100
0000
0001
0000
0010
0000
,  // measure 12
0001
1000
0001
1000
0000
0010
0100
0010
0000
1000
0010
1000
0001
1000
0001
1000
,  // measure 13
0100
0000
0010
0000
0110
0000
0110
0000
0100
1000
0100
0000
1000
0000
0001
0000
,  // measure 14
1001
0000
0010
0000
0100
0000
0010
1000
0000
0010
0100
0000
0010
0000
1000
0000
,  // measure 15
0100
0000
0010
0000
0100
1000
0000
0100
0010
0000
0110
0000
1000
0000
0011
0000
,  // measure 16
1000
0000
0010
0000
0100
0000
0010
1000
0000
0001
1000
0000
0001
0000
0100
0000
,  // measure 17
0001
0000
0010
0000
0100
0010
0000
0001
1000
0000
0011
0000
0100
0000
1010
0000
,  // measure 18
0001
0000
1000
0000
0010
0000
0100
0010
0000
1000
0010
0000
1000
0000
0001
0000
,  // measure 19
1000
0000
0100
0000
0010
0100
0000
1000
0001
0000
1100
0000
0001
0000
0110
0000
,  // measure 20
0001
0000
0100
0000
0010
0000
1000
0001
0000
0010
0001
0000
0100
0000
0010
0000
,  // measure 21
1000
0000
0010
0000
0100
0000
0001
1000
0000
0100
1000
0000
0001
0100
0001
1000
,  // measure 22
0001
0000
0010
0000
0010
0000
0001
0100
0002
0000
1003
0000
0002
0000
0013
0000
,  // measure 23
0100
0000
1000
0000
1000
0000
0010
0100
0020
0000
1030
0000
0002
0000
1003
0000
,  // measure 24
0100
0020
0230
2300
3000
0020
0230
0302
,  // measure 25
0003
0000
2000
0000
3020
0000
0230
0000
0300
0000
0001
0000
0010
0001
0010
0001
,  // measure 26
1000
0000
0010
0000
0100
0000
0010
0000
1000
0000
0001
0010
0000
0001
1000
0000
,  // measure 27
0001
0000
0010
0000
0100
0000
0010
0000
0001
0000
1000
0010
0000
1000
0001
0000
,  // measure 28
1000
0100
1100
0101
0001
0100
0101
1100
,  // measure 29
0001
0000
0010
0000
0100
0010
0000
0001
1000
0001
0000
0100
0010
0000
1000
0001
,  // measure 30
1000
0000
0010
0000
0100
0000
0010
1000
0000
1000
0001
0000
1000
0000
0100
0000
,  // measure 31
0010
0000
0001
0000
0100
0000
0001
0010
0000
0100
0010
0000
0001
0000
1000
0000
,  // measure 32
0010
0000
0100
0000
0001
0000
0100
0010
0000
1000
0001
0000
1000
0000
0100
0000
,  // measure 33
1000
0010
0000
0100
0000
0010
0000
1000
0001
1000
0001
1000
0001
0000
0100
0000
,  // measure 34
0010
0000
1000
0000
0100
0000
0010
0100
0000
0100
1000
0000
0010
0000
0100
0000
,  // measure 35
0001
0000
0010
0000
0100
0000
0010
0001
1000
0000
0001
0100
0001
0010
0001
0010
,  // measure 36
0001
0000
0100
0000
0010
0000
0100
0001
0000
0001
1000
0000
0001
0000
0010
0000
,  // measure 37
0100
1000
0001
1000
0010
0000
1000
0001
0100
0001
1000
0000
0001
1000
0100
1000
,  // measure 38
0001
0000
0010
0000
0100
0000
0010
0001
0000
0001
0100
0000
0001
0000
0010
0000
,  // measure 39
0100
0000
0010
0000
0001
0000
0100
0010
1000
0000
0010
0100
0000
0100
0001
0000
,  // measure 40
1000
0000
0010
0000
0100
0000
0010
1000
0000
0100
1000
0000
0001
0000
1000
0000
,  // measure 41
0001
0100
0001
0100
0001
0010
0001
0010
0001
0100
0001
0010
0001
0100
0001
1000
,  // measure 42
0001
0000
0010
0000
0100
0000
0010
0001
0000
0001
1000
0000
0001
0000
1000
0000
,  // measure 43
0100
0000
1000
0000
0010
0000
0100
0001
1000
0000
0001
0000
0010
0000
0110
0000
,  // measure 44
0010
0000
0001
0000
1000
0000
0001
0100
0000
0001
1000
0000
0001
0000
0010
0000
,  // measure 45
0100
0010
0100
0010
0001
0010
0001
0010
0001
1000
0001
1000
0010
0100
0010
0100
,  // measure 46
0010
0000
1000
0000
0100
0000
1000
0000
0001
0000
1000
0020
0000
1030
0100
0000
,  // measure 47
1000
0000
0100
0000
0010
0000
0100
1000
0010
0000
0100
0001
0010
0000
0001
0000
,  // measure 48
1000
0010
0100
0000
0010
0000
1000
0000
0001
0000
0010
0002
0000
1003
0001
0000
,  // measure 49
0100
0010
1000
0000
0010
0100
0000
0100
0002
0000
0010
0000
1000
0000
0103
0000
,  // measure 50
1001
0000
0010
1000
0200
0000
0310
0001
0200
0000
0310
1000
0002
0000
0013
0001
,  // measure 51
2000
0000
3001
1000
0200
0000
1300
0001
0200
0000
0301
1000
0020
0000
1030
0000
,  // measure 52
0100
0000
0010
0001
1000
0020
0000
1030
0100
0000
1000
0000
0010
0000
0100
0000
,  // measure 53
0001
0000
0010
0000
0110
0000
0000
0000
0011
0000
0011
0000
0000
1001
0000
0000
,  // measure 54
0110
0000
1000
0000
0010
1000
0100
0000
0010
0000
0100
0000
1000
0100
0000
1000
,  // measure 55
0020
0000
0000
1030
0001
0000
0001
0000
0100
0000
0001
0000
0010
0000
0100
0000
,  // measure 56
0010
0001
0000
1000
0000
1000
0000
0001
0000
1000
0100
1000
0010
1000
0001
1000
,  // measure 57
0010
0100
0000
0001
0100
0000
0010
0000
1000
0100
0000
0001
0100
0000
1000
0000
,  // measure 58
1001
0000
0010
0000
0100
0001
0010
0000
0100
0000
0010
0000
0001
0010
0000
0001
,  // measure 59
2000
0000
0000
3010
0100
0000
0100
0000
0010
0000
1000
0000
0100
0000
1000
0000
,  // measure 60
0001
0010
0001
0010
0000
1000
0100
1000
0000
0001
0100
0001
1000
0010
0100
0001
,  // measure 61
1000
0000
0010
0000
0010
0000
0100
0000
0010
0000
1000
0001
0000
0000
0220
0000
,  // measure 62
0000
0000
0000
0330
;
