#TITLE:わすれもの;
#SUBTITLE:;
#ARTIST:Handsome JET Project feat.mizushina;
#TITLETRANSLIT:WASUREMONO;
#SUBTITLETRANSLIT:;
#ARTISTTRANSLIT:;
#GENRE:;
#CREDIT:;
#MENUCOLOR:;
#METERTYPE:DDR;
#BANNER:WASUREMONO.png;
#BACKGROUND:WASUREMONO-bg.png;
#LYRICSPATH:;
#CDTITLE:./CDTITLES/GUITAR FREAKS & DRUMMANIA.PNG;
#MUSIC:WASUREMONO.ogg;
#OFFSET:0.000;
#SAMPLESTART:2.846;
#SAMPLELENGTH:15.000;
#SELECTABLE:YES;
#LISTSORT:;
#BPMS:0.000=253.000;
#STOPS:;
#BGCHANGES:0.000=WASUREMONO.avi=1.000=0=0=0,
99999=-nosongbg-=1.000=0=0=0 // don't automatically add -songbackground-
;
#ATTACKS:;

//---------------dance-single - ----------------
#NOTES:
     dance-single:
     :
     Beginner:
     4:
     0.153,0.243,0.012,0.000,0.000:
0000
0000
0000
0000
,
0000
0000
0000
0000
,
0000
0000
0000
0000
,
1000
0000
0000
0000
,
0000
0000
0000
0000
,
0001
0000
0000
0000
,
0001
0000
0000
0000
,
0100
0000
0000
0000
,
0000
0000
0000
0000
,
0010
0000
0000
0000
,
0010
0000
0000
0000
,
1000
0000
0000
0000
,
0000
0000
0000
0000
,
0100
0000
0000
0000
,
0100
0000
0000
0000
,
0010
0000
0000
0000
,
0000
0000
0000
0000
,
0001
0000
0000
0000
,
0001
0000
0000
0000
,
1000
0000
1000
0000
,
1000
0000
0000
0000
,
0001
0000
0001
0000
,
0001
0000
0000
0000
,
0100
0000
0100
0000
,
0100
0000
0000
0000
,
0010
0000
0010
0000
,
0010
0000
0000
0000
,
0000
1000
0000
1000
,
0000
1000
0000
0000
,
0000
0001
0000
0001
,
0000
0001
0000
0000
,
0000
0100
0000
0100
,
0000
0100
0000
0000
,
0000
0010
0000
0010
,
0010
0000
0000
0000
,
0000
0010
0000
0010
,
0000
0010
0000
0000
,
0000
0100
0000
0100
,
0000
0100
0000
0000
,
0000
0001
0000
0001
,
0000
0001
0000
0000
,
0000
1000
0000
1000
,
1000
0000
0000
0000
,
0001
0000
0000
0000
,
0001
0000
0000
0000
,
0000
1000
0000
0000
,
0000
0100
0100
0000
,
1000
0000
0000
0000
,
0001
0000
0000
0000
,
0000
0100
0000
0000
,
0000
0010
0010
0000
,
0100
0000
0000
0000
,
0010
0000
0000
0000
,
0000
1000
0000
0000
,
0000
0001
0001
0000
,
0010
0000
0000
0000
,
0100
0000
0000
0000
,
0010
0000
0010
0000
,
0010
0000
0000
0000
,
0001
0000
0000
0000
,
0000
0000
0000
0000
,
1000
0000
0000
0000
,
1000
0000
0000
0000
,
0010
0000
0000
0000
,
0000
0000
0000
0000
,
0100
0000
0000
0000
,
0100
0000
0000
0000
,
0010
0000
0000
0000
,
0000
0000
0000
0000
,
0100
0000
0000
0000
,
0100
0000
0000
0000
,
0001
0000
0000
0000
,
0000
0000
0000
0000
,
1000
0000
0000
0000
,
0000
0000
0000
0000
,
0000
0001
0000
0001
,
0000
1000
0000
1000
,
1000
0000
0000
0000
,
1001
0000
0000
0000
;

//---------------dance-single - ----------------
#NOTES:
     dance-single:
     :
     Easy:
     7:
     0.389,0.442,0.012,0.050,0.000:
0000
0000
0000
0000
,
0000
0000
0000
0000
,
0000
0000
0000
0000
,
0001
1000
0001
0000
,
1000
0000
0100
0000
,
1000
0001
1000
0000
,
0001
0000
0010
0000
,
0001
0100
0001
0000
,
1000
0000
0100
0000
,
1000
0010
1000
0000
,
0001
0000
0010
0000
,
0001
0100
0001
0100
,
0001
0000
1000
0000
,
0100
1000
0100
1000
,
0100
0000
0010
0000
,
0100
1000
0001
1000
,
0010
0000
1000
0000
,
0010
1000
0001
1000
,
0100
0000
0010
0000
,
0100
0000
0100
0000
,
0100
0000
0010
0010
,
0010
0000
0001
0000
,
0001
0000
0100
0100
,
0100
0000
0010
0000
,
0010
0000
1000
1000
,
1000
0000
0001
0000
,
1000
1000
1000
0000
,
0001
0010
0000
0010
,
0001
0010
0000
0001
,
0100
0001
0000
1000
,
0010
1000
0010
0000
,
1000
0100
0000
0100
,
1000
0100
0000
1000
,
0010
0100
0000
0010
,
1000
0001
1000
0000
,
0001
0010
0000
0001
,
1000
0100
0000
1000
,
0001
0010
0000
0001
,
1000
1000
1000
0000
,
0010
0100
0000
0010
,
1000
0010
0000
0100
,
0001
0100
0000
0001
,
0010
0100
1000
0000
,
0001
0010
0010
0000
,
0001
0010
0010
0000
,
0000
0001
0000
1000
,
0100
0010
0100
0100
,
1000
0010
0010
0000
,
1000
0010
0010
0000
,
0000
1000
0000
0100
,
1000
0001
0100
0010
,
0100
0001
0001
0000
,
0100
0001
0001
0000
,
0000
0100
0000
0001
,
0000
1000
1000
1000
,
0001
0010
0000
0001
,
1000
0010
0000
1000
,
0010
0010
0010
0000
,
1000
1000
1000
0000
,
0001
1000
0100
0000
,
1000
0000
0001
0000
,
1000
0001
0010
0000
,
0001
0000
1000
0000
,
0010
1000
0100
0000
,
0010
0000
0100
0000
,
1000
0010
0100
0000
,
0010
0000
1000
0000
,
0001
0010
0001
0010
,
0100
1000
0100
0000
,
1000
0010
1000
0000
,
0001
0000
1000
0000
,
0100
1000
0100
1000
,
0010
0100
0010
0000
,
0100
0001
1000
0000
,
0010
1000
0001
0000
,
2000
0100
0000
3100
,
0002
0100
0000
0103
,
1000
0000
0000
0010
0000
0000
0100
0000
,
0220
0000
0000
0000
,
0330
0000
0000
0000
;

//---------------dance-single - ----------------
#NOTES:
     dance-single:
     :
     Medium:
     11:
     0.565,0.688,0.336,0.050,0.000:
0000
0000
0000
0000
,
0000
0000
0000
0000
,
0000
0000
0000
0000
,
0010
0000
1000
0000
0100
0000
0000
1000
,
0000
0001
0000
0010
0001
0000
0000
0000
,
1000
0010
0100
0000
,
0010
0000
0000
1001
0000
0000
0000
0000
,
0001
0000
0010
0000
0100
0000
0000
0010
,
0000
0001
0000
1000
0001
0000
0000
0000
,
0100
0010
1000
0000
,
0010
0000
0000
0110
0000
0000
0000
0000
,
0010
0000
1000
0000
0001
0000
0000
0100
,
0000
0001
0000
1000
0100
0000
0000
0000
,
0010
0100
1000
0000
,
0001
0000
0000
0011
0000
0000
0000
0000
,
0001
0000
0100
0000
0010
0000
0000
0100
,
0000
0001
0000
1000
0001
0000
0000
0000
,
1000
0010
0100
0000
,
0010
0000
0000
1001
0000
0000
0000
0000
,
0100
0000
0100
0000
,
0100
0000
0010
1000
,
1100
0000
1000
0000
,
1000
0000
0100
0010
,
0011
0000
0001
0000
,
0001
0000
0100
0001
,
1001
0000
0010
0000
,
0100
0100
0100
0000
,
0010
1000
0010
1000
,
0001
0100
0001
0100
,
0001
0010
0001
0010
,
0100
0000
1000
0100
0000
0100
1000
0000
,
0010
0100
0010
0100
,
0001
0100
0001
0100
,
0001
0010
0100
1000
,
0001
0010
0000
0100
0000
0010
0001
0000
,
1000
0100
1000
0100
,
0001
0100
0001
0100
,
1000
0100
0010
0001
,
1000
0010
0000
0110
0000
0000
0000
0000
,
0001
0010
0001
0010
,
1000
0010
1000
0010
,
0001
0010
0100
1000
,
0010
0100
0110
0000
,
0010
0000
1000
0010
1000
0000
0010
0000
,
1000
0000
0010
1000
0010
0000
1000
0000
,
0000
1001
0000
0010
,
0100
0001
0010
0011
,
0001
0000
0010
0001
0010
0000
0001
0000
,
0010
0000
0001
0010
0001
0000
0010
0000
,
0001
0000
0100
0001
1000
0000
0100
1000
,
0001
1000
0001
1001
,
1000
0000
0010
0100
0010
0000
1000
0000
,
0010
0000
0100
0010
0100
0000
0010
0000
,
1000
0100
0010
0000
0001
0010
0100
0000
,
1000
0001
0100
0000
0001
0000
1001
0000
,
0001
0000
0100
0001
0100
0000
0001
0000
,
0100
0000
0001
0100
0001
0000
1000
0000
,
0001
0011
0001
1001
,
0001
0100
0010
0110
,
0010
0000
1000
0100
1000
0001
0000
0100
,
0000
0001
0000
1000
0001
0000
0000
0000
,
0010
0000
0100
1000
0000
0100
0000
0000
,
1100
0000
0000
0011
0000
0000
0000
0000
,
0001
0000
0100
0001
1000
0010
0000
1000
,
0000
0001
0000
0010
0001
0000
0000
0000
,
1000
0000
0100
0000
0010
0100
0000
0000
,
1100
0000
0000
1001
0000
0000
0000
0000
,
0001
0000
0100
0001
1000
0010
0000
0100
,
0000
0010
0000
1000
0001
0000
0000
0000
,
0010
0000
0001
0100
0001
0000
1000
0000
,
1001
0000
0000
0110
0000
0000
0000
0000
,
0010
0000
1000
0001
0100
0001
0000
1000
,
0000
0100
0000
0001
0100
0000
0000
0000
,
1000
0010
0100
0010
0000
1000
0000
0100
,
0000
0001
0000
0100
1000
0001
1000
0000
,
2001
0000
3010
0000
0100
0001
0100
0000
,
0002
0000
0013
0000
0100
1000
0100
0000
,
0011
0000
0000
0101
0000
0000
1010
0000
,
2002
0000
0000
0000
,
3003
0000
0000
0000
;

//---------------dance-single - ----------------
#NOTES:
     dance-single:
     :
     Hard:
     13:
     0.745,0.786,0.498,0.050,0.000: // measure 1
0000
0000
0000
0000
,  // measure 2
0000
0000
0000
0000
,  // measure 3
0000
0000
0000
0000
,  // measure 4
0010
0000
1000
0001
0100
0001
0000
1000
,  // measure 5
0000
0100
0000
1000
0001
0000
0010
0000
,  // measure 6
0001
0000
0100
0001
0100
0000
0001
0000
,  // measure 7
1001
0000
0000
1100
0000
0000
0000
0000
,  // measure 8
1000
0000
0001
0010
0100
0010
0000
0001
,  // measure 9
0000
0100
0000
0001
0010
0000
0001
0000
,  // measure 10
1000
0000
0001
0100
0010
0000
0100
0000
,  // measure 11
0101
0000
0000
1010
0000
0000
0000
0000
,  // measure 12
0010
0000
1000
0100
0001
0100
0000
1000
,  // measure 13
0000
0001
0000
1000
0010
0000
1000
0000
,  // measure 14
0001
0000
0010
0100
1000
0000
0001
0000
,  // measure 15
0101
0000
0000
0011
0000
0000
0000
0000
,  // measure 16
0100
0000
0001
0010
1000
0010
0000
0001
,  // measure 17
0000
1000
0000
0010
1000
0000
0010
0000
,  // measure 18
0100
0000
0001
1000
0100
0000
1000
0000
,  // measure 19
1001
0000
0000
1100
0000
0000
0001
0000
,  // measure 20
1000
0000
0100
1000
0100
0000
1000
0010
,  // measure 21
1000
0001
1000
0100
,  // measure 22
0110
0000
0010
0001
0010
0000
0001
0100
,  // measure 23
0001
0100
0001
0010
,  // measure 24
0110
0000
0010
0001
1000
0000
0010
1000
,  // measure 25
0001
0000
0010
0001
1000
0000
0001
0000
,  // measure 26
1001
0000
0001
0100
0010
0000
1000
0000
,  // measure 27
0010
0100
0100
0100
,  // measure 28
0010
0000
1000
0000
0100
1000
0100
0000
,  // measure 29
1000
0000
0010
0000
0100
0001
0100
0000
,  // measure 30
0001
0000
0010
0000
0100
1000
0100
0000
,  // measure 31
1000
0000
0010
0100
0000
0100
0001
0000
,  // measure 32
1000
0000
0010
0000
1000
0001
1000
0000
,  // measure 33
0001
0000
0010
0000
0001
1000
0001
0000
,  // measure 34
1000
0000
0010
0000
1000
0001
0100
0000
,  // measure 35
0001
0010
0000
0100
0000
0100
1000
0000
,  // measure 36
0001
0000
0010
0001
1000
0001
0010
0000
,  // measure 37
0001
0000
1000
0010
1000
0001
1000
0000
,  // measure 38
0100
0000
1000
0001
0010
0001
1000
0000
,  // measure 39
0001
1000
0000
1001
0000
0010
0100
0000
,  // measure 40
0010
0000
1000
0010
0100
0010
1000
0000
,  // measure 41
0001
0000
0010
0001
0100
0001
0010
0000
,  // measure 42
0100
0000
0010
0001
1000
0001
0010
0000
,  // measure 43
0100
1000
1100
1001
,  // measure 44
0010
0000
1000
0010
1000
0000
0001
0000
,  // measure 45
1000
0000
0010
1000
0010
0000
1000
0000
,  // measure 46
0001
0000
0010
0100
1000
0000
0100
0010
,  // measure 47
0001
0100
0110
1001
,  // measure 48
0010
0000
0100
0010
1000
0000
0010
0000
,  // measure 49
0100
0000
0001
1000
0010
0000
1000
0000
,  // measure 50
0001
0010
0100
0000
1000
0100
0010
0000
,  // measure 51
0001
0100
0110
1001
,  // measure 52
0001
0000
0010
0001
0100
0001
0010
0001
,  // measure 53
1000
0000
0010
1000
0100
1000
0010
1000
,  // measure 54
0001
0000
0100
0001
1000
0000
0100
1000
,  // measure 55
0001
1000
1100
1001
,  // measure 56
0100
0000
0001
0010
0100
0010
0001
1000
,  // measure 57
0001
0000
1000
0010
0100
0010
1000
0001
,  // measure 58
1000
1100
1001
1100
,  // measure 59
1001
0101
1001
0101
,  // measure 60
0110
0000
0010
1000
0010
0100
0000
0001
,  // measure 61
0000
0010
0000
0001
1000
0000
0001
0000
,  // measure 62
1000
0000
0100
1000
0100
0000
0010
0000
,  // measure 63
0110
0000
0000
1100
0000
0000
0000
0000
,  // measure 64
0010
0000
0100
0001
1000
0001
0000
0010
,  // measure 65
0000
0001
0000
1000
0001
0000
0100
0000
,  // measure 66
0010
1000
0001
1000
0010
0000
1000
0000
,  // measure 67
1001
0000
0000
0110
0000
0000
0000
0000
,  // measure 68
0001
0100
0010
0100
0001
0100
0010
0100
,  // measure 69
0001
0010
1000
0010
0001
0000
1000
0000
,  // measure 70
0001
0000
0100
0001
1000
0000
0001
0000
,  // measure 71
1001
0000
0000
1100
0000
0000
0000
0000
,  // measure 72
1000
0100
0010
0100
1000
0100
0010
0100
,  // measure 73
1000
0010
0001
0010
1000
0000
0001
0000
,  // measure 74
1000
0100
0001
0100
0000
1000
0000
0001
,  // measure 75
0000
0100
0000
0010
1000
0001
0100
0000
,  // measure 76
0102
0000
0013
0000
0001
1000
0100
0000
,  // measure 77
2100
0000
3001
0000
0010
0100
0001
0000
,  // measure 78
0110
0000
0000
0101
0000
0000
1010
0000
,  // measure 79
2002
0000
0000
0000
,  // measure 80
3003
0000
0000
0000
;

//---------------dance-single - ----------------
#NOTES:
     dance-single:
     :
     Challenge:
     15:
     0.936,0.835,0.746,0.100,0.012: // measure 1
0000
0000
0000
0000
,  // measure 2
0000
0000
0000
0000
,  // measure 3
0000
0000
0000
0000
,  // measure 4
0010
0000
1000
0100
1000
0001
0000
0101
,  // measure 5
0000
1100
0000
0001
0010
0100
1000
0010
,  // measure 6
0100
0000
0001
0100
0000
1000
0100
0000
,  // measure 7
0011
0000
0000
1001
0000
1000
0000
1000
,  // measure 8
0100
0000
1000
0010
1000
0001
0000
1001
,  // measure 9
0000
1010
0000
0001
0100
0010
1000
0001
,  // measure 10
0010
0001
0010
1000
0010
0001
1000
0000
,  // measure 11
0110
0000
0000
0001
0100
0001
1000
0001
,  // measure 12
1000
0100
0010
0100
0000
1100
0000
0101
,  // measure 13
0000
1000
0010
0100
0001
1000
0001
0010
,  // measure 14
0100
1000
0100
0001
0100
1000
0100
0000
,  // measure 15
0110
0000
0000
1001
0000
1000
0010
1000
,  // measure 16
0001
0010
0100
0010
0000
0011
0000
1001
,  // measure 17
0000
0001
0100
0010
1000
0100
0010
0001
,  // measure 18
1000
0010
0100
0001
0100
0010
0001
0000
,  // measure 19
0010
0100
0001
1000
0001
0010
0100
1000
,  // measure 20
2100
0100
0000
0000
0100
0000
0000
0000
,  // measure 21
0010
0000
3001
1001
,  // measure 22
0102
0100
0000
0000
0100
0000
0000
0000
,  // measure 23
0010
0000
1003
1001
,  // measure 24
0001
0100
0010
0000
1000
0100
0010
0000
,  // measure 25
0001
0100
0010
1000
0100
0000
1100
0000
,  // measure 26
1000
0010
0100
0000
0001
0010
0100
0000
,  // measure 27
0010
0110
2001
3010
,  // measure 28
0001
0000
0100
0001
1000
0001
0100
0000
,  // measure 29
0010
0000
1000
0001
0100
0001
1000
0000
,  // measure 30
0100
0000
0010
0100
1000
0100
0010
0000
,  // measure 31
0001
0100
0010
1000
0010
0100
1000
0000
,  // measure 32
0100
0000
0010
1000
0100
1000
0010
0000
,  // measure 33
0100
0000
0001
0010
0100
0010
0001
0000
,  // measure 34
1000
0000
0100
0010
0001
0010
0100
0000
,  // measure 35
0010
0001
0000
1001
0000
0001
0100
0001
,  // measure 36
1000
0100
1000
0100
0010
0100
1000
0100
,  // measure 37
1000
0010
1000
0010
0100
0010
1000
0010
,  // measure 38
1000
0001
1000
0001
0100
0010
1000
0001
,  // measure 39
0100
0001
0000
0101
0000
0001
1000
0000
,  // measure 40
0001
0010
0001
0010
0100
0010
0100
0010
,  // measure 41
0001
0010
0100
0010
0001
0100
0010
0100
,  // measure 42
0001
0010
0001
0010
0100
1000
0100
1000
,  // measure 43
0010
0110
1002
0013
,  // measure 44
1100
0000
1000
0001
0010
0000
0001
0000
,  // measure 45
1100
0000
1000
0001
0010
0000
0001
0000
,  // measure 46
1000
0100
0001
0100
0010
0001
0010
0100
,  // measure 47
1000
0011
1001
0101
,  // measure 48
1010
0000
0001
1000
0010
0000
1000
0000
,  // measure 49
1010
0000
0001
1000
0010
0000
1000
0001
,  // measure 50
1000
0100
0001
0100
0010
0100
0001
0100
,  // measure 51
1000
0010
0001
0000
1010
0000
1001
0000
,  // measure 52
0011
0000
0001
1000
0010
0000
1000
0001
,  // measure 53
0010
0000
0001
1000
0010
0000
1001
0000
,  // measure 54
0001
0010
1000
0010
0100
0010
1000
0010
,  // measure 55
0100
0010
0001
0000
0110
0000
1001
0000
,  // measure 56
1010
0000
0010
1000
0100
1000
0010
1000
,  // measure 57
0001
0000
0010
0001
0100
0001
0010
0001
,  // measure 58
1001
0101
1001
1100
,  // measure 59
1001
0000
0000
0000
0011
0000
0000
0000
1001
0000
0000
0000
0001
1000
0001
1000
,  // measure 60
0001
0000
1000
0010
1000
0001
0000
0011
,  // measure 61
0000
1001
0000
0001
0100
0000
0101
0000
,  // measure 62
0100
0010
1000
0100
0001
0100
0010
0000
,  // measure 63
0011
0000
1000
0100
0000
0001
0100
1000
,  // measure 64
0010
0000
0100
0001
0100
0010
0000
0110
,  // measure 65
0000
1010
0000
0001
1000
0000
0001
0100
,  // measure 66
1000
0100
0010
0100
0001
1000
0001
0000
,  // measure 67
0010
0001
1000
0100
1000
0100
1000
0001
,  // measure 68
1000
0010
1000
0010
0001
0010
0001
0010
,  // measure 69
0100
0010
0001
1000
0001
1000
0100
0010
,  // measure 70
1000
0001
0010
0100
1000
0100
0010
0001
,  // measure 71
1000
0001
0010
0001
1000
0010
1000
0001
,  // measure 72
1000
0100
1000
0100
0001
0100
0001
0100
,  // measure 73
0010
0100
0001
1000
0001
0010
0100
0010
,  // measure 74
1000
0001
0100
1000
0100
0101
0000
1100
,  // measure 75
0000
0011
0000
1000
0001
0010
0001
0000
,  // measure 76
2001
0000
3100
0000
1000
0010
0100
0001
,  // measure 77
0012
0000
1003
0000
0001
0100
0010
1000
,  // measure 78
1010
0000
0000
0110
0000
0000
0101
0000
,  // measure 79
2002
0000
0000
0000
,  // measure 80
3003
0000
0000
0000
;
